osu file format v14

[General]
AudioFilename: audio.mp3
AudioLeadIn: 0
PreviewTime: 56715
Countdown: 0
SampleSet: Drum
StackLeniency: 0.7
Mode: 2
LetterboxInBreaks: 0
EpilepsyWarning: 1
WidescreenStoryboard: 1

[Editor]
Bookmarks: 1727,20459,39191,48556,57922,76654,78996,95386,114117
DistanceSpacing: 1
BeatDivisor: 4
GridSize: 4
TimelineZoom: 2.899999

[Metadata]
Title:Absolute Gate
TitleUnicode:Absolute Gate
Artist:E0ri4
ArtistUnicode:E0ri4
Creator:autofanboy
Version:Overdose
Source:BOFU2017 - LEGENDA EST A MYTH -
Tags:alienflybot AFB osu!catch Academy Tournament CAT Grand Finals GF NoMod NM2 featured artist FA mappers’ guild MG MPG BOF BMS of Fighters Ultimate まさいたちの夜 Starry Gate GAMEBAKA2000 げ〜むばか Kengo Nakao Trance Core Artcore eori4 e0ria eoria Electronic Instrumental
BeatmapID:4198360
BeatmapSetID:1897932

[Difficulty]
HPDrainRate:6
CircleSize:4.5
OverallDifficulty:9.4
ApproachRate:9.4
SliderMultiplier:1.92
SliderTickRate:2

[Events]
//Background and Video events
0,0,"Celestial Loom_Julian-Faylona.jpg",0,0
Video,-200,"Absolute Gate Video.mp4"
//Break Periods
//Storyboard Layer 0 (Background)
//Storyboard Layer 1 (Fail)
//Storyboard Layer 2 (Pass)
//Storyboard Layer 3 (Foreground)
//Storyboard Layer 4 (Overlay)
//Storyboard Sound Samples

[TimingPoints]
562,292.682926829268,4,3,1,55,1,0
1732,-100,4,3,1,60,0,0
11098,-100,4,3,1,65,0,0
11391,-100,4,3,2,65,0,0
11537,-100,4,3,1,65,0,0
11976,-100,4,3,2,65,0,0
12122,-100,4,3,1,65,0,0
12561,-100,4,3,2,65,0,0
12708,-100,4,3,1,65,0,0
13147,-100,4,3,2,65,0,0
13293,-100,4,3,1,65,0,0
13732,-100,4,3,2,65,0,0
13879,-100,4,3,1,65,0,0
14318,-100,4,3,2,65,0,0
14464,-100,4,3,1,65,0,0
14903,-100,4,3,2,65,0,0
15049,-100,4,3,1,65,0,0
15488,-100,4,3,2,65,0,0
15635,-100,4,3,1,65,0,0
15781,-100,4,3,1,70,0,0
16074,-100,4,3,2,70,0,0
16220,-100,4,3,1,70,0,0
16659,-100,4,3,2,70,0,0
16805,-100,4,3,1,70,0,0
17244,-100,4,3,2,70,0,0
17391,-100,4,3,1,70,0,0
17830,-100,4,3,2,70,0,0
17976,-100,4,3,1,70,0,0
18122,-100,4,3,1,75,0,0
19293,-100,4,3,1,60,0,0
20464,-100,4,3,1,45,0,0
24415,-100,4,3,2,45,0,0
24561,-100,4,3,1,45,0,0
25147,-100,4,3,1,50,0,0
27488,-100,4,3,1,55,0,0
29098,-100,4,3,2,55,0,0
29244,-100,4,3,1,55,0,0
29830,-100,4,3,1,60,0,0
30269,-100,4,3,2,60,0,0
30415,-100,4,3,1,60,0,0
30708,-100,4,3,3,60,0,1
30854,-100,4,3,1,60,0,0
32025,-100,4,3,2,60,0,0
32171,-100,4,3,1,60,0,0
33049,-100,4,3,3,60,0,1
33196,-100,4,3,1,60,0,0
33781,-100,4,3,2,60,0,0
33927,-100,4,3,1,60,0,0
35391,-100,4,3,3,60,0,1
35537,-100,4,3,1,60,0,0
38318,-100,4,3,1,60,0,0
38464,-100,4,3,1,60,0,0
39196,-100,4,3,3,55,0,0
39342,-100,4,3,1,55,0,0
43293,-100,4,3,1,65,0,0
43440,-100,4,3,1,55,0,0
43586,-100,4,3,1,65,0,0
43732,-100,4,3,1,55,0,0
48561,-100,4,3,1,60,0,0
53244,-100,4,3,1,65,0,0
55586,-100,4,3,1,70,0,0
56171,-100,4,3,1,75,0,0
56757,-100,4,3,1,60,0,0
57635,-100,4,3,1,70,0,0
57927,-100,4,3,1,80,0,1
58952,-100,4,3,2,80,0,1
59098,-100,4,3,1,80,0,1
61293,-100,4,3,2,80,0,1
61440,-100,4,3,1,80,0,1
63635,-100,4,3,2,80,0,1
63781,-100,4,3,1,80,0,1
64805,-100,4,3,2,80,0,1
64952,-100,4,3,1,80,0,1
65976,-100,4,3,2,80,0,1
66122,-100,4,3,1,80,0,1
68318,-100,4,3,2,80,0,1
68464,-100,4,3,1,80,0,1
70659,-100,4,3,2,80,0,1
70805,-100,4,3,1,80,0,1
73001,-100,4,3,2,80,0,1
73147,-100,4,3,1,80,0,1
74171,-100,4,3,2,80,0,1
74318,-100,4,3,1,80,0,1
75342,-100,4,3,2,80,0,1
75488,-100,4,3,1,80,0,1
76659,-100,4,3,1,60,0,0
78708,-100,4,3,1,70,0,0
79001,-100,4,3,1,80,0,1
79440,-100,4,3,2,80,0,1
79586,-100,4,3,1,80,0,1
80025,-100,4,3,2,80,0,1
80171,-100,4,3,1,80,0,1
80610,-100,4,3,2,80,0,1
80757,-100,4,3,1,80,0,1
81196,-100,4,3,2,80,0,1
81342,-100,4,3,1,80,0,1
82074,-100,4,3,2,80,0,1
82220,-100,4,3,1,80,0,1
82366,-100,4,3,2,80,0,1
82513,-100,4,3,1,80,0,1
82952,-100,4,3,2,80,0,1
83098,-100,4,3,1,80,0,1
83537,-100,4,3,2,80,0,1
83683,-100,4,3,1,80,0,1
84122,-100,4,3,2,80,0,1
84269,-100,4,3,1,80,0,1
84415,-100,4,3,2,80,0,1
84561,-100,4,3,1,80,0,1
84708,-100,4,3,2,80,0,1
84854,-100,4,3,1,80,0,1
85147,-100,4,3,1,80,0,1
85293,-100,4,3,1,80,0,1
86757,-100,4,3,1,80,0,0
86903,-100,4,3,3,80,0,1
87049,-100,4,3,1,80,0,1
89098,-100,4,3,1,80,0,0
89244,-100,4,3,3,80,0,1
89391,-100,4,3,1,80,0,1
91440,-100,4,3,1,80,0,0
91586,-100,4,3,3,80,0,1
91732,-100,4,3,1,80,0,1
95244,-100,4,3,1,80,0,0
95391,-100,4,3,3,60,0,1
95537,-100,4,3,1,60,0,0
99488,-100,4,3,1,70,0,0
99635,-100,4,3,1,60,0,0
99781,-100,4,3,1,70,0,0
99927,-100,4,3,1,60,0,0
104757,-100,4,3,1,55,0,0
108854,-100,4,3,1,65,0,0
109001,-100,4,3,1,55,0,0
109147,-100,4,3,1,65,0,0
109293,-100,4,3,1,55,0,0
114122,-100,4,1,3,50,0,0
116025,-100,4,1,3,25,0,0
116464,-100,4,1,3,12,0,0
116903,-100,4,1,3,5,0,0

[Colours]
Combo1 : 79,239,255
Combo2 : 190,202,233
Combo3 : 19,72,188
Combo4 : 42,78,78

[HitObjects]
256,108,1586,6,0,L|208:106,1,48,0|0,2:3|2:3,0:0:0:0:
368,56,1732,6,0,L|464:52,2,96,4|0|0,2:2|2:3|2:3,0:0:0:0:
144,248,2171,2,0,P|84:212|144:136,1,192,0|0,2:3|2:3,0:0:0:0:
240,140,2610,1,0,0:0:0:0:
144,136,2757,1,0,2:3:0:0:
368,232,2903,5,4,3:2:0:0:
144,328,3049,2,0,L|48:332,2,96,0|0|0,2:3|2:3|0:0,0:0:0:0:
368,136,3488,2,0,L|372:40,1,96,2|0,2:2|0:0,0:0:0:0:
148,232,3781,2,0,L|144:136,1,96,2|0,2:2|0:0,0:0:0:0:
368,328,4074,5,4,2:2:0:0:
332,240,4220,1,0,2:3:0:0:
244,204,4366,1,0,2:3:0:0:
456,300,4513,2,0,L|264:292,1,192,0|0,2:3|2:3,0:0:0:0:
300,204,4952,1,0,0:0:0:0:
388,168,5098,1,0,2:3:0:0:
176,72,5244,5,4,3:2:0:0:
400,168,5391,2,0,L|404:264,1,96,0|0,2:3|2:3,0:0:0:0:
280,360,5683,2,0,L|232:358,1,48,2|2,3:3|3:3,0:0:0:0:
392,308,5830,2,0,L|296:304,1,96,2|0,2:2|0:0,0:0:0:0:
136,256,6049,2,0,L|280:250,1,144,2|2,3:2|3:2,0:0:0:0:
56,344,6415,6,0,L|52:248,1,96,4|0,2:2|0:0,0:0:0:0:
148,244,6708,1,0,0:0:0:0:
372,148,6854,2,0,P|460:108|496:24,1,192,0|0,2:3|0:0,0:0:0:0:
400,20,7293,1,0,2:3:0:0:
496,24,7440,1,0,2:3:0:0:
272,120,7586,6,0,L|176:116,1,96,4|0,3:2|0:0,0:0:0:0:
300,308,7879,2,0,L|304:212,1,96,0|0,2:3|0:0,0:0:0:0:
80,308,8171,2,0,L|76:212,1,96,2|0,2:2|0:0,0:0:0:0:
236,164,8391,2,0,L|380:158,1,144,2|2,3:2|3:2,0:0:0:0:
156,60,8757,6,0,L|60:56,2,96,4|0|0,2:2|0:0|0:0,0:0:0:0:
380,252,9196,1,0,2:3:0:0:
156,348,9342,2,0,L|152:252,1,96,4|0,3:2|0:0,0:0:0:0:
276,156,9635,2,0,L|132:150,1,144,0|0,2:3|0:0,0:0:0:0:
292,100,9927,6,0,L|388:96,1,96,2|0,2:2|0:0,0:0:0:0:
164,288,10220,2,0,L|160:192,1,96,2|0,3:2|2:3,0:0:0:0:
384,384,10513,2,0,L|388:288,1,96,2|0,3:2|0:0,0:0:0:0:
228,336,10732,2,0,L|180:334,1,48,2|0,3:2|2:3,0:0:0:0:
404,236,10952,2,0,L|452:234,1,48,2|0,2:2|0:0,0:0:0:0:
292,184,11098,6,0,L|196:180,2,96,6|0|8,2:3|2:3|2:3,0:0:0:0:
294,136,11464,1,0,0:0:0:0:
136,88,11537,2,0,L|40:84,1,96,0|2,2:3|3:3,0:0:0:0:
264,276,11830,2,0,L|268:180,1,96,0|8,2:3|3:3,0:0:0:0:
144,372,12122,2,0,L|140:276,1,96,0|2,2:3|3:3,0:0:0:0:
364,180,12415,5,0,2:3:0:0:
140,84,12561,2,0,L|136:180,1,96,8|0,2:3|0:0,0:0:0:0:
360,276,12854,2,0,L|408:278,2,48,2|0|0,2:3|0:0|0:0,0:0:0:0:
236,372,13147,2,0,L|234:324,1,48,8|0,2:3|0:0,0:0:0:0:
292,276,13293,2,0,L|294:228,1,48,0|0,0:0|0:0,0:0:0:0:
132,180,13440,6,0,L|36:176,2,96,2|0|8,2:3|2:3|2:3,0:0:0:0:
180,178,13805,1,0,0:0:0:0:
340,128,13879,2,0,L|436:124,1,96,0|2,2:3|3:3,0:0:0:0:
212,316,14171,2,0,L|208:220,1,96,0|8,2:3|3:3,0:0:0:0:
432,28,14464,6,0,L|336:24,1,96,0|2,2:3|3:3,0:0:0:0:
112,120,14757,1,0,2:3:0:0:
336,216,14903,2,0,L|340:120,1,96,8|0,2:3|0:0,0:0:0:0:
116,312,15196,1,2,2:3:0:0:
96,272,15269,1,0,0:0:0:0:
116,232,15342,1,0,0:0:0:0:
160,216,15415,1,0,0:0:0:0:
320,168,15488,2,0,L|368:166,1,48,8|0,2:3|0:0,0:0:0:0:
208,116,15635,2,0,L|160:114,1,48,0|0,0:0|0:0,0:0:0:0:
320,64,15781,6,0,L|416:60,1,96,4|0,2:2|0:0,0:0:0:0:
368,58,16001,1,0,0:0:0:0:
208,104,16074,2,0,L|204:8,1,96,8|0,2:3|2:3,0:0:0:0:
428,296,16366,6,0,L|432:200,1,96,4|0,3:2|2:3,0:0:0:0:
384,198,16586,1,0,0:0:0:0:
224,148,16659,2,0,L|176:146,1,48,8|0,3:3|0:0,0:0:0:0:
336,96,16805,2,0,L|384:94,1,48,0|0,2:3|0:0,0:0:0:0:
224,44,16952,6,0,L|128:40,1,96,4|0,3:2|2:3,0:0:0:0:
176,38,17171,1,0,0:0:0:0:
336,84,17244,2,0,L|384:82,2,48,8|0|0,2:3|0:0|0:0,0:0:0:0:
112,372,17537,6,0,L|108:276,1,96,4|0,2:2|2:3,0:0:0:0:
156,274,17757,1,0,0:0:0:0:
316,224,17830,2,0,L|268:222,1,48,8|0,2:3|0:0,0:0:0:0:
108,172,17976,2,0,L|60:170,1,48,0|0,2:3|0:0,0:0:0:0:
220,120,18122,5,4,2:2:0:0:
264,104,18196,1,0,0:0:0:0:
284,64,18269,1,0,0:0:0:0:
264,24,18342,1,0,0:0:0:0:
104,72,18415,1,4,3:2:0:0:
84,112,18488,1,0,0:0:0:0:
104,152,18561,1,0,0:0:0:0:
148,168,18635,1,0,0:0:0:0:
308,216,18708,6,0,L|356:218,1,48,4|0,3:2|0:0,0:0:0:0:
300,268,18854,2,0,L|252:270,1,48,0|0,0:0|0:0,0:0:0:0:
412,320,19001,1,4,3:2:0:0:
432,280,19074,1,0,0:0:0:0:
412,240,19147,1,0,0:0:0:0:
368,224,19220,1,0,0:0:0:0:
208,176,19293,5,2,2:2:0:0:
164,160,19366,1,0,0:0:0:0:
144,120,19440,1,0,0:0:0:0:
304,168,19513,2,0,L|308:72,1,96,2|0,3:2|0:0,0:0:0:0:
252,120,19732,2,0,L|250:72,1,48,2|0,3:2|0:0,0:0:0:0:
412,120,19879,6,0,L|460:118,2,48,2|0|0,3:2|0:0|0:0,0:0:0:0:
252,168,20098,2,0,L|248:264,1,96,2|0,3:2|0:0,0:0:0:0:
296,262,20318,1,2,3:2:0:0:
248,264,20391,1,0,0:0:0:0:
88,312,20464,5,6,3:3:0:0:
44,296,20537,1,0,0:0:0:0:
24,256,20610,1,0,1:3:0:0:
120,252,20757,1,2,3:3:0:0:
244,348,20903,1,0,1:3:0:0:
246,300,20976,1,0,0:0:0:0:
248,252,21049,1,2,3:3:0:0:
152,248,21196,1,0,1:3:0:0:
276,152,21342,1,2,3:3:0:0:
320,136,21415,1,0,0:0:0:0:
340,96,21488,1,0,1:3:0:0:
216,0,21635,5,2,3:3:0:0:
236,40,21708,1,0,0:0:0:0:
280,56,21781,1,0,1:3:0:0:
376,60,21927,1,2,3:3:0:0:
252,156,22074,1,0,1:3:0:0:
250,204,22147,1,0,0:0:0:0:
248,252,22220,1,2,3:3:0:0:
344,256,22366,1,0,1:3:0:0:
468,352,22513,1,2,3:3:0:0:
470,304,22586,1,0,0:0:0:0:
472,256,22659,1,0,1:3:0:0:
348,160,22805,6,0,L|300:158,2,48,2|0|0,3:3|0:0|1:3,0:0:0:0:
348,160,23098,1,2,3:3:0:0:
224,256,23244,2,0,L|176:254,2,48,0|0|2,1:3|0:0|3:3,0:0:0:0:
224,256,23537,1,0,1:3:0:0:
100,352,23683,1,2,3:3:0:0:
98,304,23757,1,0,0:0:0:0:
96,256,23830,1,0,1:3:0:0:
220,160,23976,6,0,L|268:158,2,48,2|0|0,2:3|0:0|1:3,0:0:0:0:
124,156,24269,1,2,3:3:0:0:
348,252,24415,1,0,1:3:0:0:
444,248,24561,1,2,3:3:0:0:
424,208,24635,1,0,0:0:0:0:
380,192,24708,1,0,1:3:0:0:
156,384,24854,1,2,2:3:0:0:
176,344,24927,1,0,0:0:0:0:
220,328,25001,1,0,1:3:0:0:
344,232,25147,5,2,3:3:0:0:
346,184,25220,1,0,0:0:0:0:
348,136,25293,1,0,1:3:0:0:
124,40,25440,2,0,L|28:44,1,96,10|0,3:3|1:3,0:0:0:0:
152,140,25732,2,0,L|200:142,2,48,2|0|0,3:3|0:0|1:3,0:0:0:0:
376,236,26025,2,0,L|380:140,1,96,10|0,3:3|1:3,0:0:0:0:
256,332,26318,5,2,3:3:0:0:
254,284,26391,1,0,0:0:0:0:
252,236,26464,1,0,1:3:0:0:
476,332,26610,2,0,L|380:328,1,96,10|0,3:3|1:3,0:0:0:0:
256,232,26903,1,2,3:3:0:0:
276,192,26976,1,0,0:0:0:0:
320,176,27049,1,0,1:3:0:0:
96,80,27196,2,0,L|0:76,1,96,10|0,3:3|1:3,0:0:0:0:
224,172,27488,5,2,3:3:0:0:
268,156,27561,1,0,0:0:0:0:
288,116,27635,1,0,1:3:0:0:
64,308,27781,2,0,L|60:212,1,96,10|0,3:3|1:3,0:0:0:0:
184,116,28074,1,2,3:3:0:0:
136,114,28147,1,0,0:0:0:0:
88,112,28220,1,0,1:3:0:0:
312,208,28366,2,0,L|408:204,1,96,10|0,3:3|1:3,0:0:0:0:
184,300,28659,6,0,L|182:252,1,48,2|0,2:3|0:0,0:0:0:0:
344,204,28805,1,2,1:2:0:0:
364,164,28879,1,0,0:0:0:0:
344,124,28952,1,10,3:3:0:0:
300,108,29025,1,0,0:0:0:0:
140,156,29098,5,2,1:2:0:0:
120,116,29171,1,0,0:0:0:0:
140,76,29244,1,2,3:3:0:0:
184,60,29318,1,0,0:0:0:0:
344,12,29391,2,0,L|392:10,1,48,8|0,1:3|0:0,0:0:0:0:
232,152,29537,2,0,L|184:150,1,48,8|0,2:3|0:0,0:0:0:0:
240,100,29683,2,0,L|288:98,1,48,0|0,1:3|0:0,0:0:0:0:
124,240,29830,6,0,L|28:236,1,96,6|0,2:1|1:3,0:0:0:0:
252,140,30122,2,0,L|256:44,1,96,2|0,2:1|1:3,0:0:0:0:
132,332,30415,2,0,L|128:236,1,96,2|0,3:1|1:3,0:0:0:0:
356,140,30708,2,0,L|260:136,1,96,10|0,3:3|1:3,0:0:0:0:
308,134,30927,1,0,0:0:0:0:
472,84,31001,5,2,3:1:0:0:
248,276,31147,2,0,L|152:272,1,96,2|8,1:1|3:3,0:0:0:0:
276,176,31440,2,0,L|372:172,1,96,2|2,1:1|3:1,0:0:0:0:
148,76,31732,1,0,1:3:0:0:
104,92,31805,1,0,0:0:0:0:
84,132,31879,1,8,3:3:0:0:
308,228,32025,1,0,1:3:0:0:
84,324,32171,6,0,L|80:228,1,96,2|0,2:1|1:3,0:0:0:0:
304,132,32464,2,0,L|400:128,1,96,2|0,3:1|1:3,0:0:0:0:
276,32,32757,2,0,L|180:28,1,96,2|0,3:1|1:3,0:0:0:0:
404,316,33049,2,0,L|408:220,1,96,10|0,3:3|1:3,0:0:0:0:
356,218,33269,1,0,0:0:0:0:
196,264,33342,5,2,2:1:0:0:
420,360,33488,2,0,L|424:264,1,96,2|8,1:1|3:3,0:0:0:0:
300,168,33781,2,0,L|204:164,1,96,2|2,1:1|3:1,0:0:0:0:
428,68,34074,2,0,L|476:66,2,48,0|0|8,1:3|0:0|2:3,0:0:0:0:
204,164,34366,1,0,1:3:0:0:
428,260,34513,6,0,L|432:164,1,96,6|0,2:1|1:3,0:0:0:0:
384,162,34732,1,0,0:0:0:0:
224,208,34805,2,0,L|128:204,1,96,2|0,3:1|1:3,0:0:0:0:
176,202,35025,1,0,0:0:0:0:
264,152,35098,2,0,L|360:148,1,96,2|0,3:1|1:3,0:0:0:0:
312,146,35318,1,0,0:0:0:0:
152,96,35391,2,0,L|248:92,1,96,10|0,3:3|1:3,0:0:0:0:
200,90,35610,1,0,0:0:0:0:
40,40,35683,5,6,3:1:0:0:
264,328,35830,2,0,L|360:324,1,96,2|8,1:1|3:3,0:0:0:0:
236,228,36122,2,0,L|140:224,1,96,2|2,1:1|3:1,0:0:0:0:
364,128,36415,1,0,1:3:0:0:
408,144,36488,1,0,0:0:0:0:
428,184,36561,1,8,3:3:0:0:
204,280,36708,1,0,1:3:0:0:
428,376,36854,5,6,3:1:0:0:
448,336,36927,1,0,0:0:0:0:
428,296,37001,1,0,1:3:0:0:
384,280,37074,1,0,0:0:0:0:
224,232,37147,2,0,L|222:184,1,48,6|0,3:1|0:0,0:0:0:0:
280,136,37293,2,0,L|282:88,1,48,0|0,1:3|0:0,0:0:0:0:
120,136,37440,6,0,L|72:134,2,48,6|0|0,3:1|0:0|1:3,0:0:0:0:
280,280,37659,2,0,L|328:278,2,48,6|0|0,3:1|0:0|0:0,0:0:0:0:
232,232,37879,2,0,L|280:230,1,48,2|0,1:1|0:0,0:0:0:0:
440,372,38025,5,4,3:1:0:0:
216,88,38171,2,0,P|156:124|216:200,1,192,0|0,1:3|1:3,0:0:0:0:
340,296,38610,2,0,L|244:292,1,96,4|0,3:1|1:3,0:0:0:0:
20,196,38903,2,0,L|116:192,1,96,4|0,3:1|1:3,0:0:0:0:
340,96,39196,5,4,2:3:0:0:
428,132,39342,1,0,0:0:0:0:
464,220,39488,1,0,0:0:0:0:
340,124,39635,2,0,P|280:160|340:236,1,192,0|0,2:3|0:0,0:0:0:0:
340,236,40074,1,0,2:3:0:0:
216,140,40220,6,0,P|128:180|92:264,1,192,0|0,2:3|2:3,0:0:0:0:
232,360,40659,1,0,2:3:0:0:
92,264,40805,2,0,P|128:180|216:140,1,192,0|0,2:3|2:3,0:0:0:0:
340,44,41244,2,0,L|244:40,1,96,0|0,2:3|2:3,0:0:0:0:
120,136,41537,6,0,L|24:132,2,96,0|0|0,2:3|2:3|2:3,0:0:0:0:
244,232,41976,2,0,P|332:192|368:108,2,192,0|0|0,2:3|2:3|2:3,0:0:0:0:
148,228,42708,5,8,3:1:0:0:
244,232,42854,1,0,0:0:0:0:
368,328,43001,2,0,L|372:232,1,96,0|0,2:3|0:0,0:0:0:0:
248,136,43293,2,0,L|152:132,1,96,0|0,2:3|0:0,0:0:0:0:
276,36,43586,2,0,L|372:32,1,96,0|0,2:3|0:0,0:0:0:0:
248,320,43879,5,0,2:3:0:0:
160,284,44025,1,0,2:3:0:0:
124,196,44171,1,0,2:3:0:0:
248,292,44318,2,0,P|308:256|248:180,1,192,0|0,2:3|2:3,0:0:0:0:
152,276,44757,2,0,L|148:180,1,96,0|0,2:3|2:3,0:0:0:0:
272,84,45049,5,0,2:3:0:0:
360,120,45196,1,0,2:3:0:0:
396,208,45342,1,0,2:3:0:0:
272,304,45488,2,0,P|184:264|148:180,1,192,0|0,2:3|2:3,0:0:0:0:
244,176,45927,1,0,2:3:0:0:
384,80,46074,1,0,2:3:0:0:
244,176,46220,6,0,L|52:168,1,192,0|0,2:3|2:3,0:0:0:0:
176,360,46659,2,0,L|180:264,1,96,0|0,2:3|0:0,0:0:0:0:
304,168,46952,2,0,L|400:164,1,96,0|0,2:3|0:0,0:0:0:0:
276,68,47244,2,0,L|180:64,1,96,0|0,2:3|0:0,0:0:0:0:
404,352,47537,6,0,L|452:350,2,48,0|0|0,2:3|2:3|2:3,0:0:0:0:
280,256,47830,2,0,L|278:208,2,48,0|0|0,2:3|2:3|2:3,0:0:0:0:
156,160,48122,2,0,L|108:158,2,48,0|0|0,2:3|2:3|2:3,0:0:0:0:
280,64,48415,2,0,L|282:16,1,48,0|0,2:3|2:3,0:0:0:0:
120,64,48561,6,0,L|24:60,1,96,4|0,2:3|1:3,0:0:0:0:
248,252,48854,2,0,L|344:248,1,96,8|0,3:3|2:3,0:0:0:0:
220,152,49147,2,0,L|216:56,1,96,2|0,3:3|1:3,0:0:0:0:
440,344,49440,1,8,2:3:0:0:
460,304,49513,1,0,0:0:0:0:
440,264,49586,1,0,1:3:0:0:
396,248,49659,1,0,0:0:0:0:
236,200,49732,6,0,L|140:196,1,96,2|0,2:3|1:3,0:0:0:0:
138,148,49952,1,0,0:0:0:0:
300,100,50025,2,0,L|396:96,1,96,8|0,2:3|1:3,0:0:0:0:
272,384,50318,2,0,L|268:288,1,96,2|0,2:3|1:3,0:0:0:0:
316,286,50537,1,0,0:0:0:0:
476,236,50610,2,0,L|480:140,1,96,8|0,2:3|1:3,0:0:0:0:
256,44,50903,6,0,L|160:48,1,96,2|0,2:3|1:3,0:0:0:0:
384,144,51196,2,0,L|388:240,1,96,8|0,2:3|1:3,0:0:0:0:
264,336,51488,2,0,L|360:332,1,96,2|0,2:3|1:3,0:0:0:0:
312,330,51708,1,0,2:3:0:0:
152,280,51781,2,0,L|56:276,1,96,8|0,3:3|2:3,0:0:0:0:
280,180,52074,6,0,L|276:84,1,96,2|0,2:3|1:3,0:0:0:0:
228,82,52293,1,0,0:0:0:0:
68,128,52366,2,0,L|64:32,1,96,8|0,2:3|1:3,0:0:0:0:
188,320,52659,2,0,L|192:224,1,96,2|0,2:3|1:3,0:0:0:0:
240,222,52879,1,0,0:0:0:0:
400,268,52952,2,0,L|404:172,1,96,8|0,2:3|1:3,0:0:0:0:
356,170,53171,1,0,0:0:0:0:
196,120,53244,6,0,L|100:116,1,96,6|0,2:3|1:3,0:0:0:0:
324,308,53537,2,0,L|328:212,1,96,8|0,2:3|1:3,0:0:0:0:
104,308,53830,2,0,L|100:212,1,96,6|0,2:3|1:3,0:0:0:0:
224,116,54122,1,8,2:3:0:0:
100,20,54269,1,0,1:3:0:0:
324,116,54415,6,0,L|420:112,1,96,6|0,2:3|1:3,0:0:0:0:
196,304,54708,2,0,L|192:208,1,96,8|0,2:3|1:3,0:0:0:0:
416,304,55001,2,0,L|420:208,1,96,6|0,2:3|1:3,0:0:0:0:
296,112,55293,1,8,2:3:0:0:
172,16,55440,1,0,1:3:0:0:
396,112,55586,5,6,2:3:0:0:
416,152,55659,1,0,0:0:0:0:
396,192,55732,1,0,1:3:0:0:
376,204,55769,1,0,0:0:0:0:
352,208,55805,1,0,0:0:0:0:
192,256,55879,2,0,L|190:208,1,48,12|0,2:3|0:0,0:0:0:0:
248,160,56025,1,0,1:3:0:0:
249,136,56061,1,0,0:0:0:0:
250,112,56098,1,0,0:0:0:0:
92,64,56171,6,0,L|44:66,1,48,6|0,2:3|0:0,0:0:0:0:
92,116,56318,1,0,2:3:0:0:
116,117,56354,1,0,0:0:0:0:
140,118,56391,1,0,0:0:0:0:
300,168,56464,2,0,L|348:170,1,48,12|0,2:3|2:3,0:0:0:0:
188,220,56610,2,0,L|140:222,1,48,0|0,2:3|2:3,0:0:0:0:
300,272,56757,6,0,L|396:276,1,96,0|0,2:3|0:0,0:0:0:0:
308,324,56976,2,0,L|304:228,1,96,0|0,2:3|0:0,0:0:0:0:
216,276,57196,2,0,L|212:180,1,96,0|0,2:3|0:0,0:0:0:0:
124,132,57415,2,0,L|28:128,1,96,0|0,2:3|0:0,0:0:0:0:
188,80,57635,2,0,L|284:76,1,96,4|0,2:3|2:3,0:0:0:0:
60,364,57927,6,0,L|56:268,1,96,6|0,2:3|1:0,0:0:0:0:
180,172,58220,2,0,L|84:168,1,96,8|0,0:3|1:0,0:0:0:0:
308,264,58513,2,0,L|356:262,2,48,2|0|0,2:3|0:0|1:0,0:0:0:0:
148,216,58732,2,0,L|148:120,1,96,0|0,2:3|0:0,0:0:0:0:
168,80,58952,1,0,1:3:0:0:
212,64,59025,1,0,0:0:0:0:
372,16,59098,6,0,L|468:20,1,96,2|0,2:3|1:0,0:0:0:0:
344,116,59391,2,0,L|248:120,1,96,8|0,2:3|1:0,0:0:0:0:
472,216,59683,1,2,2:3:0:0:
492,256,59757,1,0,0:0:0:0:
472,296,59830,1,0,1:0:0:0:
428,312,59903,1,0,0:0:0:0:
268,264,59976,2,0,L|172:260,1,96,8|0,2:3|1:0,0:0:0:0:
396,356,60269,6,0,L|400:260,1,96,2|0,2:3|1:0,0:0:0:0:
276,164,60561,2,0,L|372:160,1,96,8|0,2:3|1:0,0:0:0:0:
148,64,60854,1,2,2:3:0:0:
104,80,60927,1,0,0:0:0:0:
84,120,61001,1,0,1:0:0:0:
244,168,61074,2,0,L|340:172,1,96,0|0,2:3|0:0,0:0:0:0:
292,174,61293,1,0,1:3:0:0:
244,176,61366,1,0,0:0:0:0:
404,224,61440,6,0,L|500:228,1,96,2|0,2:3|1:0,0:0:0:0:
376,324,61732,2,0,L|280:328,1,96,8|0,2:3|1:0,0:0:0:0:
56,232,62025,1,2,2:3:0:0:
36,192,62098,1,0,0:0:0:0:
56,152,62171,1,0,1:0:0:0:
100,136,62244,1,0,0:0:0:0:
260,184,62318,2,0,L|264:88,1,96,8|0,2:3|1:0,0:0:0:0:
40,280,62610,6,0,L|36:184,1,96,6|0,2:3|1:0,0:0:0:0:
160,88,62903,2,0,L|64:84,1,96,8|0,2:3|1:0,0:0:0:0:
288,372,63196,2,0,L|336:370,2,48,2|0|0,2:3|0:0|1:0,0:0:0:0:
128,324,63415,2,0,L|32:320,1,96,0|0,2:3|0:0,0:0:0:0:
52,280,63635,1,0,1:3:0:0:
96,264,63708,1,0,0:0:0:0:
256,216,63781,6,0,L|352:212,1,96,6|0,2:3|1:0,0:0:0:0:
228,116,64074,2,0,L|224:20,1,96,8|0,2:3|1:0,0:0:0:0:
448,308,64366,1,2,2:3:0:0:
428,268,64440,1,0,0:0:0:0:
384,252,64513,1,0,1:0:0:0:
224,300,64586,2,0,L|220:204,1,96,0|0,2:3|0:0,0:0:0:0:
276,156,64805,2,0,L|278:108,1,48,0|0,1:3|0:0,0:0:0:0:
116,60,64952,6,0,L|20:64,1,96,6|0,2:3|1:0,0:0:0:0:
144,160,65244,2,0,L|240:164,1,96,8|0,2:3|1:0,0:0:0:0:
464,260,65537,1,6,2:3:0:0:
444,300,65610,1,0,0:0:0:0:
400,316,65683,1,0,1:0:0:0:
240,268,65757,2,0,L|144:272,1,96,0|0,2:3|0:0,0:0:0:0:
192,274,65976,1,0,1:3:0:0:
240,276,66049,1,0,0:0:0:0:
80,324,66122,5,2,0:3:0:0:
60,284,66196,1,0,0:0:0:0:
80,244,66269,1,0,1:0:0:0:
124,228,66342,1,0,0:0:0:0:
284,180,66415,2,0,L|286:132,1,48,12|0,0:3|0:0,0:0:0:0:
228,84,66561,2,0,L|226:36,1,48,0|0,1:0|0:0,0:0:0:0:
388,228,66708,5,6,0:3:0:0:
432,212,66781,1,0,0:0:0:0:
452,172,66854,1,0,1:0:0:0:
292,364,66927,2,0,L|244:362,2,48,4|8|0,0:3|0:3|0:0,0:0:0:0:
340,316,67147,2,0,L|292:314,1,48,0|0,1:0|0:0,0:0:0:0:
132,264,67293,6,0,L|128:168,1,96,6|0,2:3|1:0,0:0:0:0:
252,72,67586,2,0,L|348:68,1,96,8|0,2:3|1:0,0:0:0:0:
124,356,67879,1,2,2:3:0:0:
80,340,67952,1,0,0:0:0:0:
60,300,68025,1,0,1:0:0:0:
220,252,68098,2,0,L|220:156,1,96,0|0,2:3|0:0,0:0:0:0:
172,158,68318,2,0,L|220:156,1,48,0|0,1:3|0:0,0:0:0:0:
380,108,68464,6,0,L|476:104,1,96,2|0,2:3|1:0,0:0:0:0:
352,8,68757,2,0,L|256:4,1,96,8|0,2:3|1:0,0:0:0:0:
480,292,69049,1,2,2:3:0:0:
500,252,69122,1,0,0:0:0:0:
480,212,69196,1,0,1:0:0:0:
436,196,69269,1,0,0:0:0:0:
276,148,69342,2,0,L|372:144,1,96,8|0,2:3|1:0,0:0:0:0:
148,336,69635,6,0,L|244:332,1,96,6|0,2:3|1:0,0:0:0:0:
368,236,69927,2,0,L|272:232,1,96,8|0,2:3|1:0,0:0:0:0:
48,136,70220,1,2,2:3:0:0:
68,96,70293,1,0,0:0:0:0:
112,80,70366,1,0,1:0:0:0:
272,128,70440,2,0,L|368:124,1,96,0|0,2:3|0:0,0:0:0:0:
320,122,70659,1,0,1:3:0:0:
272,120,70732,1,0,0:0:0:0:
432,168,70805,6,0,L|436:72,1,96,6|0,2:3|1:0,0:0:0:0:
312,264,71098,2,0,L|408:260,1,96,8|0,2:3|1:0,0:0:0:0:
184,356,71391,2,0,L|136:354,2,48,2|4|0,2:3|2:2|1:0,0:0:0:0:
344,308,71610,2,0,L|344:260,1,48,0|12,0:0|2:2,0:0:0:0:
296,212,71757,2,0,L|248:210,2,48,0|0|0,0:0|1:0|0:0,0:0:0:0:
456,260,71976,6,0,L|460:164,1,96,6|0,2:3|1:0,0:0:0:0:
336,68,72269,2,0,L|432:64,1,96,8|0,2:3|1:0,0:0:0:0:
208,160,72561,1,2,2:3:0:0:
164,144,72635,1,0,0:0:0:0:
144,104,72708,1,0,1:0:0:0:
304,56,72781,2,0,L|304:152,1,96,0|0,2:3|0:0,0:0:0:0:
284,192,73001,1,0,1:3:0:0:
240,208,73074,1,0,0:0:0:0:
80,256,73147,6,0,L|76:352,1,96,6|0,2:3|1:0,0:0:0:0:
200,160,73440,2,0,L|104:156,1,96,8|0,2:3|1:0,0:0:0:0:
328,252,73732,2,0,L|376:250,2,48,2|0|0,2:3|0:0|1:0,0:0:0:0:
168,300,73952,2,0,L|72:296,1,96,0|0,2:3|0:0,0:0:0:0:
92,256,74171,1,0,1:3:0:0:
136,240,74244,1,0,0:0:0:0:
296,192,74318,6,0,L|392:188,1,96,6|0,2:3|1:0,0:0:0:0:
268,92,74610,2,0,L|172:88,1,96,8|0,2:3|1:0,0:0:0:0:
396,280,74903,1,6,2:3:0:0:
440,264,74976,1,0,0:0:0:0:
460,224,75049,1,0,1:0:0:0:
300,176,75122,2,0,L|300:80,1,96,0|0,2:3|0:0,0:0:0:0:
348,82,75342,2,0,L|300:80,1,48,0|0,1:3|0:0,0:0:0:0:
140,32,75488,5,2,0:3:0:0:
120,72,75561,1,0,0:0:0:0:
140,112,75635,1,0,1:0:0:0:
184,128,75708,1,0,0:0:0:0:
344,176,75781,1,12,0:3:0:0:
364,216,75854,1,0,0:0:0:0:
344,256,75927,1,0,1:0:0:0:
300,272,76001,1,0,0:0:0:0:
140,320,76074,6,0,L|92:318,2,48,6|0|0,0:3|0:0|1:0,0:0:0:0:
300,272,76293,2,0,L|348:270,2,48,4|8|0,0:3|0:3|0:0,0:0:0:0:
252,224,76513,2,0,L|300:222,1,48,0|0,2:0|2:0,0:0:0:0:
460,172,76659,6,0,L|464:76,1,96,4|0,2:2|2:3,0:0:0:0:
340,364,76952,2,0,L|436:360,1,96,0|0,2:3|2:3,0:0:0:0:
312,264,77244,2,0,L|308:168,1,96,0|0,2:3|0:0,0:0:0:0:
364,120,77464,2,0,L|366:72,1,48,0|0,2:3|0:0,0:0:0:0:
244,168,77683,2,0,L|148:164,1,96,0|0,2:3|2:3,0:0:0:0:
372,68,77976,6,0,L|468:64,1,96,8|0,2:3|2:3,0:0:0:0:
244,160,78269,2,0,L|148:156,2,96,8|8|0,3:3|2:3|0:0,0:0:0:0:
246,112,78635,1,0,2:3:0:0:
88,304,78708,1,4,2:2:0:0:
68,264,78781,1,0,0:0:0:0:
88,224,78854,1,0,2:3:0:0:
132,208,78927,1,0,0:0:0:0:
292,256,79001,6,0,L|388:252,1,96,6|0,2:3|1:0,0:0:0:0:
228,204,79220,2,0,L|180:202,1,48,0|8,2:3|0:3,0:0:0:0:
304,296,79440,2,0,L|308:200,1,96,0|2,1:3|0:3,0:0:0:0:
148,152,79659,2,0,L|100:150,1,48,0|0,2:3|1:0,0:0:0:0:
224,52,79879,1,8,2:3:0:0:
100,244,80025,1,0,1:3:0:0:
324,340,80171,6,0,L|420:336,1,96,6|0,2:3|1:0,0:0:0:0:
256,288,80391,2,0,L|208:286,1,48,0|8,2:3|0:3,0:0:0:0:
332,188,80610,1,0,1:3:0:0:
108,92,80757,1,2,0:3:0:0:
88,132,80830,1,4,2:2:0:0:
108,172,80903,1,0,1:0:0:0:
152,188,80976,1,0,0:0:0:0:
312,236,81049,2,0,L|264:238,1,48,12|0,2:2|0:0,0:0:0:0:
104,288,81196,2,0,L|56:290,1,48,0|0,1:3|0:0,0:0:0:0:
216,340,81342,6,0,L|312:336,1,96,6|0,2:3|1:0,0:0:0:0:
188,240,81635,2,0,L|184:144,1,96,8|0,2:3|1:0,0:0:0:0:
408,48,81927,1,2,2:3:0:0:
428,88,82001,1,0,0:0:0:0:
408,128,82074,1,0,1:3:0:0:
364,144,82147,1,0,0:0:0:0:
204,192,82220,2,0,L|202:240,1,48,8|0,2:3|0:0,0:0:0:0:
260,288,82366,2,0,L|262:336,1,48,0|0,1:3|0:0,0:0:0:0:
100,288,82513,6,0,L|4:284,1,96,6|0,2:3|1:0,0:0:0:0:
128,188,82805,2,0,L|224:184,1,96,8|0,0:3|1:3,0:0:0:0:
448,376,83098,2,0,L|450:328,3,48,2|0|0|0,0:3|2:3|1:0|0:0,0:0:0:0:
288,280,83391,2,0,L|240:278,1,48,8|0,2:3|0:0,0:0:0:0:
296,228,83537,2,0,L|344:226,1,48,0|0,1:3|0:0,0:0:0:0:
184,176,83683,6,0,L|88:172,1,96,6|0,2:3|1:0,0:0:0:0:
252,124,83903,2,0,L|300:122,1,48,0|8,2:3|0:3,0:0:0:0:
76,312,84122,2,0,L|72:216,1,96,0|6,1:3|0:3,0:0:0:0:
232,168,84342,2,0,L|280:166,1,48,0|0,0:0|1:3,0:0:0:0:
56,68,84561,2,0,L|152:64,1,96,8|0,2:3|1:3,0:0:0:0:
376,256,84854,6,0,L|378:208,1,48,2|0,0:3|0:0,0:0:0:0:
216,160,85001,1,0,1:0:0:0:
196,200,85074,1,0,0:0:0:0:
216,240,85147,1,12,0:3:0:0:
260,256,85220,1,0,0:0:0:0:
420,304,85293,2,0,L|468:306,1,48,0|0,1:0|0:0,0:0:0:0:
308,356,85440,6,0,L|260:354,1,48,6|0,0:3|0:0,0:0:0:0:
316,304,85586,2,0,L|364:302,1,48,0|0,1:0|0:0,0:0:0:0:
204,252,85732,2,0,L|156:250,1,48,12|0,0:3|0:0,0:0:0:0:
212,200,85879,2,0,L|260:198,1,48,0|0,1:0|0:0,0:0:0:0:
100,148,86025,6,0,L|4:144,1,96,6|0,3:1|1:0,0:0:0:0:
228,336,86318,2,0,L|324:332,1,96,2|0,2:1|1:0,0:0:0:0:
200,236,86610,2,0,L|196:140,1,96,2|0,2:1|2:3,0:0:0:0:
420,44,86903,2,0,L|424:140,1,96,10|0,2:3|2:3,0:0:0:0:
376,142,87122,1,0,0:0:0:0:
216,192,87196,5,2,2:1:0:0:
440,288,87342,2,0,L|344:292,1,96,2|8,2:1|3:3,0:0:0:0:
220,196,87635,2,0,L|124:200,1,96,2|2,2:1|2:1,0:0:0:0:
348,104,87927,1,4,1:1:0:0:
392,120,88001,1,0,0:0:0:0:
412,160,88074,1,8,3:3:0:0:
188,256,88220,1,4,1:1:0:0:
412,352,88366,6,0,L|416:256,1,96,2|0,2:1|1:0,0:0:0:0:
192,160,88659,2,0,L|188:64,1,96,2|0,3:1|2:3,0:0:0:0:
312,160,88952,2,0,L|408:164,1,96,2|0,3:1|1:0,0:0:0:0:
184,260,89244,2,0,L|280:264,1,96,10|0,2:3|2:3,0:0:0:0:
232,266,89464,1,0,0:0:0:0:
72,316,89537,5,6,2:1:0:0:
296,124,89683,2,0,L|300:28,1,96,2|8,1:1|3:3,0:0:0:0:
176,220,89976,2,0,L|172:124,1,96,2|2,2:1|3:1,0:0:0:0:
396,316,90269,1,0,1:0:0:0:
444,314,90342,1,0,0:0:0:0:
492,312,90415,1,8,2:3:0:0:
268,216,90561,1,0,2:3:0:0:
44,120,90708,5,6,3:1:0:0:
24,80,90781,1,0,0:0:0:0:
44,40,90854,1,0,1:0:0:0:
88,24,90927,1,0,0:0:0:0:
252,72,91001,2,0,L|254:120,1,48,2|0,2:1|0:0,0:0:0:0:
196,168,91147,2,0,L|194:216,1,48,0|0,1:0|0:0,0:0:0:0:
352,264,91293,5,2,2:1:0:0:
372,304,91366,1,0,0:0:0:0:
352,344,91440,1,0,1:0:0:0:
308,360,91513,1,0,0:0:0:0:
148,312,91586,2,0,L|52:308,1,96,10|0,2:3|1:0,0:0:0:0:
276,212,91879,6,0,L|324:210,1,48,6|0,2:1|0:0,0:0:0:0:
164,160,92025,1,2,1:1:0:0:
144,120,92098,1,0,2:3:0:0:
164,80,92171,1,8,3:3:0:0:
208,64,92244,1,0,0:0:0:0:
368,16,92318,5,2,2:1:0:0:
412,32,92391,1,0,0:0:0:0:
432,72,92464,1,2,2:1:0:0:
412,112,92537,1,0,0:0:0:0:
252,160,92610,2,0,L|204:162,1,48,0|0,1:0|0:0,0:0:0:0:
364,212,92757,2,0,L|460:216,1,96,8|0,2:3|1:0,0:0:0:0:
236,312,93049,5,2,3:1:0:0:
192,296,93122,1,0,0:0:0:0:
172,256,93196,1,0,2:3:0:0:
192,216,93269,1,0,2:3:0:0:
352,168,93342,1,2,3:1:0:0:
396,152,93415,1,0,0:0:0:0:
416,112,93488,1,0,2:3:0:0:
396,72,93561,1,0,2:3:0:0:
232,24,93635,5,6,3:1:0:0:
252,64,93708,1,0,0:0:0:0:
296,80,93781,1,0,2:3:0:0:
136,128,93854,1,2,2:1:0:0:
92,144,93927,1,0,0:0:0:0:
72,184,94001,1,0,0:0:0:0:
92,224,94074,1,2,1:1:0:0:
136,240,94147,1,0,2:3:0:0:
296,288,94220,6,0,L|344:290,1,48,2|0,3:1|0:0,0:0:0:0:
288,340,94366,2,0,L|240:342,1,48,2|0,2:1|2:3,0:0:0:0:
76,200,94513,2,0,L|124:202,1,48,6|0,3:1|0:0,0:0:0:0:
284,252,94659,2,0,L|332:254,1,48,2|0,2:1|2:3,0:0:0:0:
172,112,94805,6,0,L|124:114,1,48,6|0,3:1|0:0,0:0:0:0:
180,164,94952,2,0,L|228:166,1,48,2|0,2:1|2:3,0:0:0:0:
388,216,95098,1,2,2:1:0:0:
412,217,95135,1,0,2:3:0:0:
436,218,95171,1,0,2:3:0:0:
276,268,95244,2,0,L|324:270,1,48,2|0,2:1|2:3,0:0:0:0:
484,320,95391,5,4,2:3:0:0:
448,232,95537,1,0,0:0:0:0:
360,196,95683,1,0,0:0:0:0:
236,292,95830,2,0,L|428:284,1,192,0|0,2:3|0:0,0:0:0:0:
332,280,96269,1,0,2:3:0:0:
428,284,96415,1,0,2:3:0:0:
304,188,96561,6,0,P|216:148|180:64,1,192,8|0,3:1|0:0,0:0:0:0:
176,160,97001,1,0,0:0:0:0:
316,352,97147,2,0,L|320:256,1,96,0|0,2:3|0:0,0:0:0:0:
180,352,97440,2,0,L|84:348,1,96,0|0,2:3|0:0,0:0:0:0:
208,252,97732,6,0,L|304:248,2,96,0|0|0,2:3|0:0|0:0,0:0:0:0:
84,156,98171,2,0,P|24:120|84:44,1,192,0|0,2:3|0:0,0:0:0:0:
180,40,98610,1,0,2:3:0:0:
84,44,98757,1,0,2:3:0:0:
208,140,98903,6,0,P|296:180|332:264,1,192,8|0,3:1|0:0,0:0:0:0:
236,268,99342,1,0,0:0:0:0:
112,364,99488,2,0,L|108:268,1,96,0|0,2:3|0:0,0:0:0:0:
248,172,99781,2,0,L|252:76,1,96,0|0,2:3|0:0,0:0:0:0:
392,268,100074,6,0,L|396:172,1,96,0|0,2:3|0:0,0:0:0:0:
300,168,100366,1,0,0:0:0:0:
176,72,100513,2,0,P|212:156|300:196,1,192,0|0,2:3|0:0,0:0:0:0:
204,192,100952,2,0,L|200:288,1,96,0|0,2:3|0:0,0:0:0:0:
324,384,101244,6,0,L|420:380,1,96,0|0,2:3|0:0,0:0:0:0:
280,284,101537,2,0,L|276:188,1,96,0|0,2:3|0:0,0:0:0:0:
416,92,101830,2,0,L|320:88,1,96,0|0,2:3|0:0,0:0:0:0:
180,184,102122,2,0,L|84:180,1,96,0|0,2:3|0:0,0:0:0:0:
208,276,102415,6,0,L|304:272,2,96,0|0|0,2:3|0:0|0:0,0:0:0:0:
332,372,102854,2,0,P|420:332|456:248,1,192,0|0,2:3|0:0,0:0:0:0:
360,244,103293,1,0,2:3:0:0:
484,148,103440,1,0,2:3:0:0:
360,52,103586,6,0,L|168:60,1,192,8|0,3:1|0:0,0:0:0:0:
164,156,104025,1,0,0:0:0:0:
288,252,104171,2,0,L|384:256,2,96,0|0|0,2:3|0:0|2:3,0:0:0:0:
164,348,104610,2,0,L|116:346,1,48,0|0,2:3|2:3,0:0:0:0:
276,296,104757,5,0,2:3:0:0:
364,260,104903,1,0,0:0:0:0:
400,172,105049,1,0,0:0:0:0:
276,76,105196,2,0,P|216:112|276:188,1,192,0|0,2:3|0:0,0:0:0:0:
372,192,105635,2,0,L|376:288,1,96,0|0,2:3|2:3,0:0:0:0:
252,384,105927,6,0,P|164:344|128:260,1,192,8|0,3:1|0:0,0:0:0:0:
224,256,106366,1,0,0:0:0:0:
364,160,106513,2,0,L|268:156,1,96,0|0,2:3|0:0,0:0:0:0:
128,60,106805,2,0,L|124:156,1,96,0|0,2:3|0:0,0:0:0:0:
248,252,107098,6,0,L|152:248,2,96,0|0|0,2:3|0:0|0:0,0:0:0:0:
372,348,107537,2,0,P|460:308|496:224,1,192,0|0,2:3|0:0,0:0:0:0:
400,220,107976,1,0,2:3:0:0:
304,216,108122,1,0,2:3:0:0:
180,312,108269,6,0,P|216:228|304:188,1,192,8|0,3:1|0:0,0:0:0:0:
308,92,108708,1,0,0:0:0:0:
168,284,108854,2,0,L|72:280,1,96,0|0,2:3|0:0,0:0:0:0:
212,184,109147,2,0,L|308:180,1,96,0|0,2:3|0:0,0:0:0:0:
184,84,109440,6,0,L|88:80,2,96,0|0|0,2:3|0:0|0:0,0:0:0:0:
308,180,109879,2,0,P|368:216|308:292,1,192,0|0,2:3|0:0,0:0:0:0:
212,288,110318,2,0,L|208:192,1,96,0|0,2:3|0:0,0:0:0:0:
332,384,110610,6,0,L|428:380,1,96,0|0,2:3|0:0,0:0:0:0:
288,284,110903,2,0,L|284:188,1,96,0|0,2:3|0:0,0:0:0:0:
144,284,111196,2,0,L|140:188,1,96,0|0,2:3|0:0,0:0:0:0:
236,184,111488,1,0,2:3:0:0:
96,88,111635,1,0,2:3:0:0:
236,184,111781,6,0,L|428:176,1,192,8|0,3:1|0:0,0:0:0:0:
304,368,112220,2,0,P|244:332|304:256,1,192,0|0,2:3|0:0,0:0:0:0:
400,252,112659,2,0,L|404:156,1,96,0|0,2:3|0:0,0:0:0:0:
280,60,112952,6,0,L|184:64,1,96,0|0,2:3|0:0,0:0:0:0:
324,160,113244,2,0,L|228:164,1,96,0|0,0:0|2:3,0:0:0:0:
104,260,113537,2,0,L|100:164,1,96,0|0,0:0|0:0,0:0:0:0:
240,356,113830,2,0,L|244:260,1,96,0|0,2:3|0:0,0:0:0:0:
20,68,114122,5,4,3:2:0:0:
256,192,114269,12,0,117342,0:0:0:0:
