osu file format v14

[General]
AudioFilename: audio.mp3
AudioLeadIn: 0
PreviewTime: 56732
Countdown: 0
SampleSet: Normal
StackLeniency: 0.7
Mode: 1
LetterboxInBreaks: 0
WidescreenStoryboard: 1

[Editor]
DistanceSpacing: 1
BeatDivisor: 4
GridSize: 32
TimelineZoom: 1.699999

[Metadata]
Title:Absolute Gate
TitleUnicode:Absolute Gate
Artist:E0ri4
ArtistUnicode:E0ri4
Creator:Erowdi
Version:Muzukashii
Source:BOFU2017 - LEGENDA EST A MYTH -
Tags:featured artist FA mappers’ guild MG MPG BOF BMS of Fighters Ultimate まさいたちの夜 Starry Gate GAMEBAKA2000 げ〜むばか Kengo Nakao Trance Core Artcore eori4 e0ria eoria Electronic Instrumental skolodojkO arityle
BeatmapID:4258302
BeatmapSetID:2041140

[Difficulty]
HPDrainRate:6
CircleSize:5
OverallDifficulty:5
ApproachRate:5
SliderMultiplier:1.4
SliderTickRate:1

[Events]
//Background and Video events
0,0,"qesiaqesia.jpg",0,35
//Break Periods
//Storyboard Layer 0 (Background)
//Storyboard Layer 1 (Fail)
//Storyboard Layer 2 (Pass)
//Storyboard Layer 3 (Foreground)
//Storyboard Layer 4 (Overlay)
//Storyboard Sound Samples

[TimingPoints]
562,292.682926829268,4,1,0,100,1,0
1659,-100,4,1,0,100,0,0
11025,-100,4,1,0,100,0,0
15781,-95.2380952380952,4,1,0,100,0,0
19293,-100,4,1,0,100,0,0
20391,-100,4,1,0,100,0,0
20610,-100,4,1,0,90,0,0
29366,-99.009900990099,4,1,0,100,0,0
29513,-98.0392156862745,4,1,0,100,0,0
29574,-97.0873786407767,4,1,0,100,0,0
29659,-96.1538461538461,4,1,0,100,0,0
29830,-95.2380952380952,4,1,0,100,0,1
37098,-96.1538461538461,4,1,0,100,0,1
37366,-97.0873786407767,4,1,0,100,0,1
37488,-98.0392156862745,4,1,0,100,0,1
37830,-99.009900990099,4,1,0,100,0,1
38025,-100,4,1,0,100,0,1
38976,-100,4,1,0,100,0,1
39196,-100,4,1,0,100,0,0
39375,-100,4,1,0,80,0,0
47464,-100,4,1,0,90,0,0
48488,-100,4,1,0,100,0,0
52854,-98.0392156862745,4,1,0,100,0,0
52976,-97.0873786407767,4,1,0,100,0,0
53244,-95.2380952380952,4,1,0,100,0,0
56683,-100,4,1,0,100,0,0
56757,-100,4,1,0,100,0,0
56830,-100,4,1,0,70,0,0
57927,-95.2380952380952,4,1,0,100,0,1
75708,-95.7305147716971,4,1,0,100,0,1
75830,-96.1538461538461,4,1,0,100,0,1
75879,-96.6184508390829,4,1,0,100,0,1
76025,-97.0873786407767,4,1,0,100,0,1
76122,-98.0392156862745,4,1,0,100,0,1
76293,-99.009900990099,4,1,0,100,0,1
76659,-100,4,1,0,100,0,0
78964,-95.2380952380952,4,1,0,100,0,0
79001,-95.2380952380952,4,1,0,100,0,1
84854,-100,4,1,0,100,0,0
84964,-99.009900990099,4,1,0,100,0,0
85037,-98.0392156862745,4,1,0,100,0,0
85515,-97.0873786407767,4,1,0,100,0,0
85622,-96.1538461538461,4,1,0,100,0,0
86025,-95.2380952380952,4,1,0,100,0,1
94440,-95.5109837631328,4,1,0,100,0,1
94549,-95.693871477389,4,1,0,100,0,1
94641,-96.1538461538461,4,1,0,100,0,1
94714,-97.0873786407767,4,1,0,100,0,1
94842,-98.0392156862745,4,1,0,100,0,1
95025,-98.3284169124877,4,1,0,100,0,1
95153,-98.5222645539552,4,1,0,100,0,1
95208,-99.009900990099,4,1,0,100,0,1
95391,-100,4,1,0,100,0,0
95464,-100,4,1,0,100,0,0
114122,-100,4,1,0,100,0,0

[HitObjects]
256,192,1732,5,12,0:0:0:0:
256,192,2903,1,12,0:0:0:0:
256,192,3488,1,4,0:0:0:0:
256,192,3781,1,4,0:0:0:0:
256,192,4074,1,12,0:0:0:0:
256,192,5244,1,12,0:0:0:0:
256,192,5830,1,12,0:0:0:0:
256,192,6049,1,12,0:0:0:0:
256,192,6269,1,4,0:0:0:0:
256,192,6415,1,12,0:0:0:0:
256,192,7586,1,12,0:0:0:0:
256,192,8171,1,12,0:0:0:0:
256,192,8391,1,12,0:0:0:0:
256,192,8610,1,4,0:0:0:0:
256,192,8757,1,12,0:0:0:0:
256,192,9342,1,4,0:0:0:0:
256,192,9927,1,12,0:0:0:0:
256,192,10220,1,12,0:0:0:0:
256,192,10513,1,12,0:0:0:0:
256,192,10732,1,12,0:0:0:0:
256,192,10952,1,4,0:0:0:0:
256,192,11098,1,12,0:0:0:0:
256,192,11391,1,0,0:0:0:0:
256,192,11683,1,8,0:0:0:0:
256,192,11976,1,0,0:0:0:0:
256,192,12122,1,8,0:0:0:0:
256,192,12269,1,8,0:0:0:0:
256,192,12415,1,0,0:0:0:0:
256,192,12488,1,0,0:0:0:0:
256,192,12561,1,0,0:0:0:0:
256,192,12708,1,8,0:0:0:0:
256,192,12854,1,0,0:0:0:0:
256,192,13147,1,8,0:0:0:0:
256,192,13440,1,0,0:0:0:0:
256,192,13586,1,8,0:0:0:0:
256,192,13732,1,8,0:0:0:0:
256,192,13879,1,0,0:0:0:0:
256,192,14171,1,8,0:0:0:0:
256,192,14464,1,0,0:0:0:0:
256,192,14610,1,8,0:0:0:0:
256,192,14757,1,0,0:0:0:0:
256,192,14903,1,0,0:0:0:0:
256,192,15196,1,8,0:0:0:0:
256,192,15488,1,8,0:0:0:0:
256,192,15781,1,4,0:0:0:0:
252,96,16074,1,8,0:0:0:0:
256,192,16366,1,4,0:0:0:0:
256,192,16659,1,8,0:0:0:0:
232,115,16805,1,0,0:0:0:0:
256,192,16952,1,12,0:0:0:0:
256,192,17244,1,0,0:0:0:0:
256,192,17537,1,4,0:0:0:0:
256,192,17830,1,8,0:0:0:0:
256,192,17903,1,8,0:0:0:0:
256,192,17976,1,8,0:0:0:0:
256,192,18122,1,4,0:0:0:0:
256,192,18415,1,4,0:0:0:0:
256,192,18708,1,12,0:0:0:0:
256,192,19001,1,12,0:0:0:0:
256,192,19293,1,4,0:0:0:0:
256,192,19732,1,0,0:0:0:0:
256,192,19879,1,8,0:0:0:0:
256,192,20318,1,0,0:0:0:0:
256,192,20464,1,12,0:0:0:0:
256,192,20757,1,0,0:0:0:0:
256,192,21049,1,0,0:0:0:0:
256,192,21342,1,0,0:0:0:0:
256,192,21635,1,8,0:0:0:0:
256,192,21927,1,0,0:0:0:0:
256,192,22220,1,0,0:0:0:0:
256,192,22513,1,0,0:0:0:0:
256,192,22805,1,8,0:0:0:0:
256,192,23098,1,0,0:0:0:0:
256,192,23391,1,0,0:0:0:0:
256,192,23683,1,0,0:0:0:0:
256,192,23976,1,8,0:0:0:0:
256,192,24269,1,0,0:0:0:0:
256,192,24415,1,8,0:0:0:0:
256,192,24708,1,8,0:0:0:0:
256,192,24854,1,8,0:0:0:0:
256,192,25001,1,0,0:0:0:0:
256,192,25147,1,8,0:0:0:0:
256,192,25440,1,8,0:0:0:0:
256,192,25732,1,0,0:0:0:0:
256,192,26025,1,8,0:0:0:0:
256,192,26318,1,0,0:0:0:0:
256,192,26610,1,8,0:0:0:0:
256,192,26903,1,0,0:0:0:0:
256,192,27196,1,8,0:0:0:0:
256,192,27488,1,8,0:0:0:0:
256,192,27781,1,0,0:0:0:0:
256,192,28074,1,0,0:0:0:0:
256,192,28366,1,8,0:0:0:0:
256,192,28659,1,4,0:0:0:0:
256,192,28805,1,4,0:0:0:0:
256,192,29098,1,12,0:0:0:0:
256,192,29391,1,0,0:0:0:0:
256,192,29537,1,8,0:0:0:0:
256,192,29610,1,8,0:0:0:0:
256,192,29683,1,8,0:0:0:0:
256,192,29830,1,4,0:0:0:0:
256,192,30122,1,0,0:0:0:0:
256,192,30269,1,0,0:0:0:0:
256,192,30415,1,8,0:0:0:0:
256,192,30708,1,8,0:0:0:0:
256,192,31001,1,0,0:0:0:0:
256,192,31147,1,0,0:0:0:0:
256,192,31440,1,8,0:0:0:0:
256,192,31586,1,0,0:0:0:0:
256,192,31732,1,8,0:0:0:0:
256,192,31879,1,8,0:0:0:0:
256,192,32171,1,0,0:0:0:0:
256,192,32464,1,0,0:0:0:0:
256,192,32610,1,0,0:0:0:0:
256,192,32757,1,8,0:0:0:0:
256,192,33049,1,8,0:0:0:0:
256,192,33342,1,0,0:0:0:0:
256,192,33488,1,0,0:0:0:0:
256,192,33781,1,8,0:0:0:0:
256,192,33927,1,0,0:0:0:0:
256,192,34074,1,8,0:0:0:0:
256,192,34513,1,12,0:0:0:0:
256,192,34805,1,0,0:0:0:0:
256,192,34952,1,0,0:0:0:0:
256,192,35098,1,8,0:0:0:0:
256,192,35391,1,8,0:0:0:0:
256,192,35683,1,4,0:0:0:0:
256,192,35830,1,8,0:0:0:0:
256,192,36122,1,0,0:0:0:0:
256,192,36269,1,8,0:0:0:0:
256,192,36415,1,8,0:0:0:0:
256,192,36561,1,0,0:0:0:0:
256,192,36854,1,12,0:0:0:0:
256,192,37147,1,12,0:0:0:0:
256,192,37440,1,12,0:0:0:0:
256,192,37659,1,12,0:0:0:0:
256,192,37879,1,4,0:0:0:0:
256,192,38025,1,12,0:0:0:0:
256,192,38318,1,0,0:0:0:0:
256,192,38610,1,8,0:0:0:0:
256,192,38757,1,8,0:0:0:0:
256,192,38903,1,0,0:0:0:0:
256,192,38976,1,0,0:0:0:0:
256,192,39049,1,0,0:0:0:0:
256,192,39196,1,12,0:0:0:0:
256,192,39635,1,0,0:0:0:0:
256,192,40074,1,8,0:0:0:0:
256,192,40220,1,0,0:0:0:0:
256,192,40513,1,0,0:0:0:0:
256,192,40659,1,8,0:0:0:0:
256,192,40805,1,0,0:0:0:0:
256,192,41098,1,0,0:0:0:0:
256,192,41244,1,8,0:0:0:0:
256,192,41391,1,8,0:0:0:0:
256,192,41537,1,0,0:0:0:0:
256,192,41830,1,8,0:0:0:0:
256,192,41976,1,0,0:0:0:0:
256,192,42269,1,0,0:0:0:0:
256,192,42561,1,8,0:0:0:0:
256,192,43001,1,8,0:0:0:0:
256,192,43293,1,8,0:0:0:0:
256,192,43586,1,0,0:0:0:0:
256,192,43879,1,8,0:0:0:0:
256,192,44025,1,0,0:0:0:0:
256,192,44171,1,0,0:0:0:0:
256,192,44318,1,8,0:0:0:0:
256,192,44610,1,0,0:0:0:0:
256,192,44757,1,8,0:0:0:0:
256,192,44903,1,8,0:0:0:0:
256,192,45049,1,0,0:0:0:0:
256,192,45342,1,8,0:0:0:0:
256,192,45488,1,8,0:0:0:0:
256,192,45781,1,0,0:0:0:0:
256,192,45927,1,8,0:0:0:0:
256,192,46074,1,0,0:0:0:0:
256,192,46220,1,8,0:0:0:0:
256,192,46513,1,0,0:0:0:0:
256,192,46659,1,8,0:0:0:0:
256,192,46952,1,0,0:0:0:0:
256,192,47244,1,8,0:0:0:0:
256,192,47537,1,0,0:0:0:0:
256,192,47610,1,0,0:0:0:0:
256,192,47683,1,0,0:0:0:0:
256,192,47830,1,8,0:0:0:0:
256,192,47976,1,0,0:0:0:0:
256,192,48122,1,8,0:0:0:0:
256,192,48196,1,8,0:0:0:0:
256,192,48269,1,8,0:0:0:0:
256,192,48415,1,0,0:0:0:0:
256,192,48561,1,12,0:0:0:0:
256,192,48854,1,0,0:0:0:0:
256,192,49146,1,8,0:0:0:0:
256,192,49439,1,8,0:0:0:0:
256,192,49513,1,8,0:0:0:0:
256,192,49585,1,8,0:0:0:0:
256,192,49732,1,0,0:0:0:0:
256,192,50025,1,8,0:0:0:0:
256,192,50171,1,0,0:0:0:0:
256,192,50318,1,8,0:0:0:0:
256,192,50610,1,0,0:0:0:0:
256,192,50757,1,0,0:0:0:0:
256,192,50903,1,8,0:0:0:0:
256,192,51196,1,0,0:0:0:0:
256,192,51488,1,8,0:0:0:0:
256,192,51708,1,8,0:0:0:0:
256,192,51927,1,0,0:0:0:0:
256,192,52074,1,8,0:0:0:0:
256,192,52366,1,8,0:0:0:0:
256,192,52513,1,0,0:0:0:0:
256,192,52659,1,8,0:0:0:0:
256,192,52952,1,8,0:0:0:0:
256,192,53098,1,8,0:0:0:0:
256,192,53244,1,4,0:0:0:0:
193,88,53537,1,8,0:0:0:0:
256,192,53829,1,4,0:0:0:0:
256,192,54122,1,0,0:0:0:0:
278,131,54269,1,0,0:0:0:0:
256,192,54415,1,12,0:0:0:0:
256,192,54708,1,8,0:0:0:0:
256,192,55000,1,4,0:0:0:0:
256,192,55293,1,8,0:0:0:0:
256,192,55366,1,8,0:0:0:0:
256,192,55439,1,8,0:0:0:0:
256,192,55585,1,4,0:0:0:0:
256,192,55878,1,4,0:0:0:0:
256,192,56171,1,12,0:0:0:0:
256,192,56464,1,12,0:0:0:0:
256,192,56757,1,0,0:0:0:0:
256,192,57635,1,4,0:0:0:0:
256,192,57927,1,12,0:0:0:0:
256,192,58220,1,8,0:0:0:0:
256,192,58513,1,0,0:0:0:0:
256,192,58732,1,8,0:0:0:0:
256,192,58805,1,8,0:0:0:0:
256,192,58952,1,0,0:0:0:0:
256,192,59098,1,8,0:0:0:0:
256,192,59391,1,0,0:0:0:0:
256,192,59537,1,0,0:0:0:0:
256,192,59683,1,8,0:0:0:0:
256,192,59976,1,8,0:0:0:0:
256,192,60122,1,8,0:0:0:0:
256,192,60269,1,0,0:0:0:0:
256,192,60561,1,8,0:0:0:0:
256,192,60854,1,8,0:0:0:0:
256,192,61074,1,0,0:0:0:0:
256,192,61147,1,0,0:0:0:0:
256,192,61293,1,8,0:0:0:0:
256,192,61440,1,0,0:0:0:0:
256,192,61732,1,8,0:0:0:0:
256,192,61879,1,0,0:0:0:0:
256,192,62025,1,8,0:0:0:0:
256,192,62318,1,8,0:0:0:0:
256,192,62610,1,4,0:0:0:0:
256,192,62903,1,0,0:0:0:0:
256,192,63196,1,8,0:0:0:0:
256,192,63415,1,8,0:0:0:0:
256,192,63488,1,8,0:0:0:0:
256,192,63635,1,0,0:0:0:0:
256,192,63781,1,12,0:0:0:0:
256,192,64074,1,0,0:0:0:0:
256,192,64366,1,8,0:0:0:0:
256,192,64586,1,0,0:0:0:0:
256,192,64659,1,0,0:0:0:0:
256,192,64805,1,8,0:0:0:0:
256,192,64952,1,4,0:0:0:0:
256,192,65244,1,8,0:0:0:0:
256,192,65391,1,0,0:0:0:0:
256,192,65537,1,12,0:0:0:0:
256,192,65757,1,0,0:0:0:0:
256,192,65976,1,0,0:0:0:0:
256,192,66122,1,12,0:0:0:0:
256,192,66415,1,0,0:0:0:0:
256,192,66488,1,0,0:0:0:0:
256,192,66561,1,0,0:0:0:0:
256,192,66708,1,8,0:0:0:0:
256,192,66854,1,0,0:0:0:0:
256,192,67001,1,8,0:0:0:0:
256,192,67293,1,4,0:0:0:0:
256,192,67879,1,8,0:0:0:0:
256,192,68098,1,0,0:0:0:0:
256,192,68171,1,0,0:0:0:0:
256,192,68318,1,8,0:0:0:0:
256,192,68464,1,0,0:0:0:0:
256,192,68757,1,0,0:0:0:0:
256,192,68903,1,8,0:0:0:0:
256,192,69049,1,8,0:0:0:0:
256,192,69342,1,8,0:0:0:0:
256,192,69488,1,0,0:0:0:0:
256,192,69635,1,8,0:0:0:0:
256,192,69927,1,8,0:0:0:0:
256,192,70220,1,8,0:0:0:0:
256,192,70440,1,0,0:0:0:0:
256,192,70513,1,0,0:0:0:0:
256,192,70659,1,8,0:0:0:0:
256,192,70806,1,0,0:0:0:0:
256,192,71098,1,8,0:0:0:0:
256,192,71245,1,0,0:0:0:0:
256,192,71391,1,8,0:0:0:0:
256,192,71684,1,8,0:0:0:0:
256,192,71976,1,4,0:0:0:0:
256,192,72269,1,0,0:0:0:0:
256,192,72562,1,8,0:0:0:0:
256,192,72781,1,8,0:0:0:0:
256,192,72854,1,8,0:0:0:0:
256,192,73001,1,0,0:0:0:0:
256,192,73147,1,12,0:0:0:0:
256,192,73440,1,0,0:0:0:0:
256,192,73586,1,8,0:0:0:0:
256,192,73732,1,0,0:0:0:0:
256,192,73952,1,0,0:0:0:0:
256,192,74025,1,0,0:0:0:0:
256,192,74171,1,8,0:0:0:0:
256,192,74318,1,4,0:0:0:0:
256,192,74610,1,8,0:0:0:0:
256,192,74757,1,0,0:0:0:0:
256,192,74903,1,12,0:0:0:0:
256,192,75123,1,0,0:0:0:0:
256,192,75342,1,0,0:0:0:0:
256,192,75488,1,12,0:0:0:0:
256,192,75781,1,0,0:0:0:0:
256,192,75854,1,0,0:0:0:0:
256,192,75927,1,0,0:0:0:0:
256,192,76074,1,8,0:0:0:0:
256,192,76220,1,0,0:0:0:0:
256,192,76367,1,8,0:0:0:0:
256,192,76659,1,4,0:0:0:0:
256,192,77244,1,8,0:0:0:0:
256,192,77391,1,0,0:0:0:0:
256,192,77683,1,0,0:0:0:0:
256,192,77976,1,12,0:0:0:0:
256,192,78269,1,12,0:0:0:0:
256,192,78415,1,12,0:0:0:0:
256,192,78708,1,0,0:0:0:0:
256,192,78781,1,0,0:0:0:0:
256,192,78854,1,0,0:0:0:0:
256,192,79001,1,12,0:0:0:0:
256,192,79220,1,8,0:0:0:0:
256,192,79293,1,8,0:0:0:0:
256,192,79440,1,0,0:0:0:0:
256,192,79586,1,8,0:0:0:0:
256,192,79879,1,0,0:0:0:0:
256,192,80025,1,0,0:0:0:0:
256,192,80171,1,8,0:0:0:0:
256,192,80464,1,0,0:0:0:0:
256,192,80610,1,8,0:0:0:0:
256,192,80757,1,8,0:0:0:0:
256,192,80976,1,0,0:0:0:0:
256,192,81049,1,0,0:0:0:0:
256,192,81196,1,8,0:0:0:0:
256,192,81342,1,4,0:0:0:0:
256,192,81635,1,0,0:0:0:0:
256,192,81928,1,8,0:0:0:0:
256,192,82147,1,8,0:0:0:0:
256,192,82220,1,8,0:0:0:0:
256,192,82367,1,0,0:0:0:0:
256,192,82513,1,12,0:0:0:0:
256,192,82806,1,0,0:0:0:0:
256,192,82952,1,8,0:0:0:0:
256,192,83098,1,0,0:0:0:0:
256,192,83318,1,0,0:0:0:0:
256,192,83391,1,0,0:0:0:0:
256,192,83537,1,8,0:0:0:0:
256,192,83684,1,4,0:0:0:0:
256,192,83903,1,0,0:0:0:0:
256,192,84122,1,12,0:0:0:0:
256,192,84415,1,0,0:0:0:0:
256,192,84561,1,12,0:0:0:0:
256,192,84854,1,0,0:0:0:0:
74,143,85001,1,8,0:0:0:0:
256,192,85440,1,8,0:0:0:0:
256,192,85586,1,0,0:0:0:0:
256,192,85732,1,8,0:0:0:0:
256,192,86025,1,4,0:0:0:0:
256,192,86317,1,0,0:0:0:0:
256,192,86464,1,0,0:0:0:0:
256,192,86610,1,8,0:0:0:0:
256,192,86903,1,8,0:0:0:0:
256,192,87196,1,0,0:0:0:0:
256,192,87342,1,0,0:0:0:0:
256,192,87635,1,8,0:0:0:0:
256,192,87781,1,0,0:0:0:0:
256,192,87927,1,8,0:0:0:0:
256,192,88074,1,8,0:0:0:0:
256,192,88366,1,0,0:0:0:0:
256,192,88659,1,0,0:0:0:0:
256,192,88805,1,0,0:0:0:0:
256,192,88952,1,8,0:0:0:0:
256,192,89244,1,8,0:0:0:0:
256,192,89537,1,0,0:0:0:0:
256,192,89683,1,0,0:0:0:0:
256,192,89976,1,8,0:0:0:0:
256,192,90122,1,0,0:0:0:0:
256,192,90269,1,8,0:0:0:0:
256,192,90708,1,12,0:0:0:0:
256,192,91000,1,0,0:0:0:0:
256,192,91147,1,0,0:0:0:0:
256,192,91293,1,8,0:0:0:0:
256,192,91586,1,8,0:0:0:0:
256,192,91878,1,4,0:0:0:0:
256,192,92025,1,8,0:0:0:0:
256,192,92317,1,0,0:0:0:0:
256,192,92464,1,8,0:0:0:0:
256,192,92610,1,8,0:0:0:0:
256,192,92756,1,0,0:0:0:0:
256,192,93049,1,12,0:0:0:0:
256,192,93342,1,12,0:0:0:0:
256,192,93635,1,12,0:0:0:0:
256,192,93854,1,12,0:0:0:0:
256,192,94074,1,4,0:0:0:0:
256,192,94220,1,12,0:0:0:0:
256,192,94513,1,8,0:0:0:0:
256,192,94586,1,8,0:0:0:0:
256,192,94659,1,8,0:0:0:0:
256,192,94805,1,0,0:0:0:0:
256,192,94952,1,8,0:0:0:0:
256,192,95098,1,0,0:0:0:0:
256,192,95171,1,0,0:0:0:0:
256,192,95244,1,0,0:0:0:0:
256,192,95391,1,12,0:0:0:0:
256,192,95830,1,0,0:0:0:0:
256,192,96269,1,0,0:0:0:0:
256,192,96415,1,8,0:0:0:0:
256,192,97147,1,8,0:0:0:0:
256,192,97440,1,8,0:0:0:0:
256,192,97732,1,0,0:0:0:0:
256,192,98171,1,8,0:0:0:0:
256,192,98610,1,8,0:0:0:0:
256,192,98757,1,0,0:0:0:0:
256,192,99488,1,8,0:0:0:0:
256,192,99781,1,0,0:0:0:0:
256,192,100074,1,8,0:0:0:0:
256,192,100513,1,8,0:0:0:0:
256,192,100952,1,0,0:0:0:0:
256,192,101244,1,8,0:0:0:0:
256,192,101537,1,8,0:0:0:0:
256,192,101830,1,0,0:0:0:0:
256,192,102122,1,8,0:0:0:0:
256,192,102415,1,0,0:0:0:0:
256,192,102854,1,8,0:0:0:0:
256,192,103293,1,8,0:0:0:0:
256,192,103440,1,0,0:0:0:0:
256,192,104610,1,8,0:0:0:0:
256,192,104683,1,8,0:0:0:0:
256,192,104757,1,8,0:0:0:0:
256,192,105196,1,0,0:0:0:0:
256,192,105635,1,8,0:0:0:0:
256,192,105781,1,0,0:0:0:0:
256,192,106513,1,0,0:0:0:0:
256,192,106805,1,8,0:0:0:0:
256,192,107098,1,8,0:0:0:0:
256,192,107537,1,0,0:0:0:0:
256,192,107976,1,8,0:0:0:0:
256,192,108122,1,8,0:0:0:0:
256,192,108854,1,8,0:0:0:0:
256,192,109147,1,8,0:0:0:0:
256,192,109440,1,0,0:0:0:0:
229,169,109879,1,8,0:0:0:0:
229,169,110318,1,8,0:0:0:0:
229,169,110610,1,8,0:0:0:0:
229,169,110903,1,0,0:0:0:0:
229,169,111196,1,8,0:0:0:0:
229,169,111488,1,8,0:0:0:0:
229,169,111635,1,0,0:0:0:0:
177,95,112074,1,0,0:0:0:0:
194,134,112220,1,8,0:0:0:0:
182,99,112513,1,8,0:0:0:0:
182,99,112659,1,0,0:0:0:0:
242,192,112952,1,8,0:0:0:0:
242,192,113244,1,0,0:0:0:0:
242,192,113391,1,8,0:0:0:0:
242,192,113537,1,8,0:0:0:0:
242,192,113830,1,0,0:0:0:0:
116,121,114122,1,8,0:0:0:0:
