osu file format v14

[General]
AudioFilename: audio.mp3
AudioLeadIn: 0
PreviewTime: 48557
Countdown: 0
SampleSet: Normal
StackLeniency: 0.7
Mode: 3
LetterboxInBreaks: 0
SpecialStyle: 0
WidescreenStoryboard: 0

[Editor]
DistanceSpacing: 1
BeatDivisor: 8
GridSize: 32
TimelineZoom: 2.1

[Metadata]
Title:Absolute Gate
TitleUnicode:Absolute Gate
Artist:E0ri4
ArtistUnicode:E0ri4
Creator:-3000
Version:Insane
Source:
Tags:
BeatmapID:3905195
BeatmapSetID:1894945

[Difficulty]
HPDrainRate:6
CircleSize:4
OverallDifficulty:8
ApproachRate:5
SliderMultiplier:1.4
SliderTickRate:1

[Events]
//Background and Video events
0,0,"_AG_stagefile.png",0,0
//Break Periods
//Storyboard Layer 0 (Background)
//Storyboard Layer 1 (Fail)
//Storyboard Layer 2 (Pass)
//Storyboard Layer 3 (Foreground)
//Storyboard Layer 4 (Overlay)
//Storyboard Sound Samples

[TimingPoints]
1728,292.682926829268,4,1,0,100,1,0

[HitObjects]
320,192,1727,5,0,0:0:0:0:
192,192,1874,1,0,0:0:0:0:
64,192,2020,1,0,0:0:0:0:
448,192,2167,1,0,0:0:0:0:
192,192,2167,1,0,0:0:0:0:
320,192,2459,1,0,0:0:0:0:
192,192,2752,1,0,0:0:0:0:
64,192,2898,1,0,0:0:0:0:
320,192,2898,1,0,0:0:0:0:
448,192,2898,1,0,0:0:0:0:
192,192,3045,1,0,0:0:0:0:
192,192,3191,1,0,0:0:0:0:
320,192,3337,1,0,0:0:0:0:
64,192,3484,1,0,0:0:0:0:
192,192,3484,1,0,0:0:0:0:
448,192,3776,1,0,0:0:0:0:
64,192,3776,1,0,0:0:0:0:
320,192,3776,1,0,0:0:0:0:
64,192,4069,1,0,0:0:0:0:
192,192,4069,1,0,0:0:0:0:
448,192,4069,1,0,0:0:0:0:
320,192,4215,1,0,0:0:0:0:
192,192,4362,1,0,0:0:0:0:
64,192,4508,1,0,0:0:0:0:
448,192,4508,1,0,0:0:0:0:
192,192,4801,1,0,0:0:0:0:
320,192,5093,1,0,0:0:0:0:
64,192,5240,1,0,0:0:0:0:
448,192,5240,1,0,0:0:0:0:
448,192,5386,1,0,0:0:0:0:
192,192,5532,1,0,0:0:0:0:
320,192,5679,1,0,0:0:0:0:
448,192,5679,1,0,0:0:0:0:
64,192,5752,1,0,0:0:0:0:
192,192,5752,1,0,0:0:0:0:
320,192,5825,1,0,0:0:0:0:
448,192,5825,1,0,0:0:0:0:
64,192,6045,1,0,0:0:0:0:
192,192,6045,1,0,0:0:0:0:
320,192,6264,1,0,0:0:0:0:
448,192,6264,1,0,0:0:0:0:
192,192,6410,1,0,0:0:0:0:
64,192,6410,1,0,0:0:0:0:
320,192,6557,1,0,0:0:0:0:
192,192,6703,1,0,0:0:0:0:
64,192,6849,1,0,0:0:0:0:
448,192,6849,1,0,0:0:0:0:
64,192,7288,1,0,0:0:0:0:
192,192,7435,1,0,0:0:0:0:
64,192,7581,1,0,0:0:0:0:
448,192,7581,1,0,0:0:0:0:
320,192,7581,1,0,0:0:0:0:
192,192,7874,1,0,0:0:0:0:
64,192,8167,1,0,0:0:0:0:
192,192,8167,1,0,0:0:0:0:
448,192,8386,1,0,0:0:0:0:
320,192,8386,1,0,0:0:0:0:
64,192,8606,1,0,0:0:0:0:
192,192,8606,1,0,0:0:0:0:
448,192,8752,1,0,0:0:0:0:
320,192,9191,1,0,0:0:0:0:
192,192,9337,1,0,0:0:0:0:
64,192,9337,1,0,0:0:0:0:
192,192,9630,1,0,0:0:0:0:
448,192,9923,1,0,0:0:0:0:
320,192,9923,1,0,0:0:0:0:
320,192,10215,1,0,0:0:0:0:
192,192,10215,1,0,0:0:0:0:
192,192,10508,1,0,0:0:0:0:
64,192,10508,1,0,0:0:0:0:
64,192,10727,1,0,0:0:0:0:
192,192,10727,1,0,0:0:0:0:
320,192,10947,1,0,0:0:0:0:
448,192,10947,1,0,0:0:0:0:
192,192,11020,1,0,0:0:0:0:
64,192,11020,1,0,0:0:0:0:
320,192,11093,1,0,0:0:0:0:
448,192,11093,1,0,0:0:0:0:
192,192,11240,1,0,0:0:0:0:
64,192,11386,1,0,0:0:0:0:
192,192,11532,1,0,0:0:0:0:
448,192,11825,1,0,0:0:0:0:
192,192,11971,1,0,0:0:0:0:
320,192,12118,1,0,0:0:0:0:
64,192,12264,1,0,0:0:0:0:
448,192,12410,1,0,0:0:0:0:
320,192,12484,1,0,0:0:0:0:
448,192,12557,1,0,0:0:0:0:
64,192,12703,1,0,0:0:0:0:
320,192,12849,1,0,0:0:0:0:
192,192,12996,1,0,0:0:0:0:
448,192,13142,1,0,0:0:0:0:
64,192,13142,1,0,0:0:0:0:
192,192,13215,1,0,0:0:0:0:
320,192,13215,1,0,0:0:0:0:
64,192,13288,1,0,0:0:0:0:
448,192,13288,1,0,0:0:0:0:
192,192,13362,1,0,0:0:0:0:
320,192,13362,1,0,0:0:0:0:
64,192,13435,1,0,0:0:0:0:
448,192,13435,1,0,0:0:0:0:
192,192,13581,1,0,0:0:0:0:
320,192,13727,1,0,0:0:0:0:
192,192,13874,1,0,0:0:0:0:
64,192,14020,1,0,0:0:0:0:
320,192,14167,1,0,0:0:0:0:
192,192,14313,1,0,0:0:0:0:
448,192,14459,1,0,0:0:0:0:
64,192,14459,1,0,0:0:0:0:
320,192,14606,1,0,0:0:0:0:
448,192,14752,1,0,0:0:0:0:
192,192,14898,1,0,0:0:0:0:
64,192,15045,1,0,0:0:0:0:
448,192,15191,1,0,0:0:0:0:
192,192,15337,1,0,0:0:0:0:
320,192,15484,1,0,0:0:0:0:
448,192,15484,1,0,0:0:0:0:
192,192,15557,1,0,0:0:0:0:
64,192,15557,1,0,0:0:0:0:
448,192,15630,1,0,0:0:0:0:
320,192,15630,1,0,0:0:0:0:
192,192,15703,1,0,0:0:0:0:
64,192,15703,1,0,0:0:0:0:
448,192,15776,1,0,0:0:0:0:
320,192,15776,1,0,0:0:0:0:
192,192,15923,1,0,0:0:0:0:
64,192,15923,1,0,0:0:0:0:
192,192,16069,1,0,0:0:0:0:
320,192,16069,1,0,0:0:0:0:
192,192,16215,1,0,0:0:0:0:
64,192,16215,1,0,0:0:0:0:
192,192,16362,1,0,0:0:0:0:
320,192,16362,1,0,0:0:0:0:
448,192,16362,1,0,0:0:0:0:
192,192,16508,1,0,0:0:0:0:
64,192,16508,1,0,0:0:0:0:
192,192,16654,1,0,0:0:0:0:
320,192,16654,1,0,0:0:0:0:
64,192,16801,1,0,0:0:0:0:
192,192,16801,1,0,0:0:0:0:
64,192,16947,1,0,0:0:0:0:
320,192,16947,1,0,0:0:0:0:
192,192,16947,1,0,0:0:0:0:
320,192,17093,1,0,0:0:0:0:
448,192,17093,1,0,0:0:0:0:
320,192,17240,1,0,0:0:0:0:
192,192,17240,1,0,0:0:0:0:
320,192,17386,1,0,0:0:0:0:
448,192,17386,1,0,0:0:0:0:
64,192,17532,1,0,0:0:0:0:
320,192,17532,1,0,0:0:0:0:
192,192,17532,1,0,0:0:0:0:
320,192,17679,1,0,0:0:0:0:
448,192,17679,1,0,0:0:0:0:
320,192,17825,1,0,0:0:0:0:
192,192,17825,1,0,0:0:0:0:
320,192,17971,1,0,0:0:0:0:
448,192,17971,1,0,0:0:0:0:
448,192,18118,1,0,0:0:0:0:
64,192,18118,1,0,0:0:0:0:
320,192,18191,1,0,0:0:0:0:
448,192,18264,1,0,0:0:0:0:
192,192,18337,1,0,0:0:0:0:
64,192,18410,1,0,0:0:0:0:
448,192,18410,1,0,0:0:0:0:
320,192,18410,1,0,0:0:0:0:
192,192,18484,1,0,0:0:0:0:
64,192,18557,1,0,0:0:0:0:
320,192,18630,1,0,0:0:0:0:
64,192,18703,1,0,0:0:0:0:
448,192,18703,1,0,0:0:0:0:
192,192,18703,1,0,0:0:0:0:
320,192,18776,1,0,0:0:0:0:
448,192,18849,1,0,0:0:0:0:
192,192,18923,1,0,0:0:0:0:
448,192,18996,1,0,0:0:0:0:
64,192,18996,1,0,0:0:0:0:
320,192,18996,1,0,0:0:0:0:
192,192,19069,1,0,0:0:0:0:
64,192,19142,1,0,0:0:0:0:
320,192,19215,1,0,0:0:0:0:
64,192,19288,1,0,0:0:0:0:
448,192,19288,1,0,0:0:0:0:
192,192,19288,1,0,0:0:0:0:
448,192,19508,1,0,0:0:0:0:
320,192,19508,1,0,0:0:0:0:
192,192,19727,1,0,0:0:0:0:
64,192,19727,1,0,0:0:0:0:
320,192,19874,1,0,0:0:0:0:
448,192,19874,1,0,0:0:0:0:
192,192,20093,1,0,0:0:0:0:
64,192,20093,1,0,0:0:0:0:
320,192,20313,1,0,0:0:0:0:
448,192,20313,1,0,0:0:0:0:
64,192,20459,1,0,0:0:0:0:
192,192,20459,1,0,0:0:0:0:
320,192,20532,1,0,0:0:0:0:
192,192,20606,1,0,0:0:0:0:
320,192,20752,1,0,0:0:0:0:
448,192,20752,1,0,0:0:0:0:
192,192,20825,1,0,0:0:0:0:
320,192,20898,1,0,0:0:0:0:
64,192,21045,1,0,0:0:0:0:
192,192,21045,1,0,0:0:0:0:
320,192,21118,1,0,0:0:0:0:
192,192,21191,1,0,0:0:0:0:
320,192,21337,1,0,0:0:0:0:
448,192,21337,1,0,0:0:0:0:
192,192,21410,1,0,0:0:0:0:
320,192,21484,1,0,0:0:0:0:
64,192,21630,1,0,0:0:0:0:
448,192,21630,1,0,0:0:0:0:
320,192,21703,1,0,0:0:0:0:
192,192,21776,1,0,0:0:0:0:
64,192,21923,1,0,0:0:0:0:
448,192,21923,1,0,0:0:0:0:
192,192,21996,1,0,0:0:0:0:
320,192,22069,1,0,0:0:0:0:
448,192,22215,1,0,0:0:0:0:
64,192,22215,1,0,0:0:0:0:
320,192,22288,1,0,0:0:0:0:
192,192,22362,1,0,0:0:0:0:
64,192,22508,1,0,0:0:0:0:
448,192,22508,1,0,0:0:0:0:
192,192,22581,1,0,0:0:0:0:
320,192,22654,1,0,0:0:0:0:
320,192,22801,1,0,0:0:0:0:
448,192,22801,1,0,0:0:0:0:
192,192,22874,1,0,0:0:0:0:
64,192,22947,1,0,0:0:0:0:
64,192,23093,1,0,0:0:0:0:
192,192,23093,1,0,0:0:0:0:
320,192,23167,1,0,0:0:0:0:
448,192,23240,1,0,0:0:0:0:
448,192,23386,1,0,0:0:0:0:
320,192,23386,1,0,0:0:0:0:
192,192,23459,1,0,0:0:0:0:
64,192,23532,1,0,0:0:0:0:
64,192,23679,1,0,0:0:0:0:
192,192,23679,1,0,0:0:0:0:
320,192,23752,1,0,0:0:0:0:
448,192,23825,1,0,0:0:0:0:
64,192,23971,1,0,0:0:0:0:
320,192,23971,1,0,0:0:0:0:
192,192,24045,1,0,0:0:0:0:
448,192,24118,1,0,0:0:0:0:
192,192,24264,1,0,0:0:0:0:
448,192,24264,1,0,0:0:0:0:
320,192,24337,1,0,0:0:0:0:
64,192,24410,1,0,0:0:0:0:
320,192,24557,1,0,0:0:0:0:
64,192,24557,1,0,0:0:0:0:
192,192,24630,1,0,0:0:0:0:
448,192,24703,1,0,0:0:0:0:
192,192,24849,1,0,0:0:0:0:
448,192,24849,1,0,0:0:0:0:
320,192,24923,1,0,0:0:0:0:
64,192,24996,1,0,0:0:0:0:
64,192,25142,1,0,0:0:0:0:
192,192,25142,1,0,0:0:0:0:
320,192,25215,1,0,0:0:0:0:
448,192,25288,1,0,0:0:0:0:
320,192,25435,1,0,0:0:0:0:
448,192,25435,1,0,0:0:0:0:
64,192,25435,1,0,0:0:0:0:
192,192,25508,1,0,0:0:0:0:
64,192,25581,1,0,0:0:0:0:
64,192,25727,1,0,0:0:0:0:
192,192,25727,1,0,0:0:0:0:
320,192,25801,1,0,0:0:0:0:
448,192,25874,1,0,0:0:0:0:
448,192,26020,1,0,0:0:0:0:
320,192,26020,1,0,0:0:0:0:
64,192,26020,1,0,0:0:0:0:
192,192,26093,1,0,0:0:0:0:
64,192,26167,1,0,0:0:0:0:
64,192,26313,1,0,0:0:0:0:
448,192,26313,1,0,0:0:0:0:
320,192,26386,1,0,0:0:0:0:
192,192,26459,1,0,0:0:0:0:
64,192,26606,1,0,0:0:0:0:
448,192,26606,1,0,0:0:0:0:
320,192,26606,1,0,0:0:0:0:
192,192,26679,1,0,0:0:0:0:
320,192,26752,1,0,0:0:0:0:
448,192,26898,1,0,0:0:0:0:
64,192,26898,1,0,0:0:0:0:
320,192,26971,1,0,0:0:0:0:
192,192,27045,1,0,0:0:0:0:
64,192,27191,1,0,0:0:0:0:
448,192,27191,1,0,0:0:0:0:
320,192,27191,1,0,0:0:0:0:
192,192,27264,1,0,0:0:0:0:
320,192,27337,1,0,0:0:0:0:
448,192,27484,1,0,0:0:0:0:
192,192,27484,1,0,0:0:0:0:
64,192,27557,1,0,0:0:0:0:
320,192,27630,1,0,0:0:0:0:
64,192,27776,1,0,0:0:0:0:
320,192,27776,1,0,0:0:0:0:
192,192,27776,1,0,0:0:0:0:
448,192,27849,1,0,0:0:0:0:
192,192,27923,1,0,0:0:0:0:
192,192,28069,1,0,0:0:0:0:
448,192,28069,1,0,0:0:0:0:
64,192,28142,1,0,0:0:0:0:
320,192,28215,1,0,0:0:0:0:
64,192,28362,1,0,0:0:0:0:
320,192,28362,1,0,0:0:0:0:
192,192,28362,1,0,0:0:0:0:
448,192,28435,1,0,0:0:0:0:
192,192,28508,1,0,0:0:0:0:
64,192,28654,1,0,0:0:0:0:
320,192,28654,1,0,0:0:0:0:
192,192,28727,1,0,0:0:0:0:
64,192,28801,1,0,0:0:0:0:
448,192,28801,1,0,0:0:0:0:
192,192,28874,1,0,0:0:0:0:
448,192,28947,1,0,0:0:0:0:
64,192,28947,1,0,0:0:0:0:
320,192,29020,1,0,0:0:0:0:
448,192,29093,1,0,0:0:0:0:
192,192,29093,1,0,0:0:0:0:
320,192,29167,1,0,0:0:0:0:
448,192,29240,1,0,0:0:0:0:
64,192,29240,1,0,0:0:0:0:
192,192,29313,1,0,0:0:0:0:
64,192,29386,1,0,0:0:0:0:
320,192,29386,1,0,0:0:0:0:
448,192,29386,1,0,0:0:0:0:
192,192,29459,1,0,0:0:0:0:
64,192,29532,1,0,0:0:0:0:
448,192,29532,1,0,0:0:0:0:
320,192,29606,1,0,0:0:0:0:
448,192,29679,1,0,0:0:0:0:
64,192,29679,1,0,0:0:0:0:
320,192,29752,1,0,0:0:0:0:
448,192,29825,1,0,0:0:0:0:
64,192,29825,1,0,0:0:0:0:
192,192,29825,1,0,0:0:0:0:
320,192,29898,1,0,0:0:0:0:
448,192,29971,1,0,0:0:0:0:
64,192,30118,1,0,0:0:0:0:
192,192,30118,1,0,0:0:0:0:
320,192,30118,1,0,0:0:0:0:
448,192,30191,1,0,0:0:0:0:
320,192,30264,1,0,0:0:0:0:
64,192,30410,1,0,0:0:0:0:
192,192,30410,1,0,0:0:0:0:
448,192,30410,1,0,0:0:0:0:
320,192,30484,1,0,0:0:0:0:
448,192,30557,1,0,0:0:0:0:
64,192,30703,1,0,0:0:0:0:
192,192,30703,1,0,0:0:0:0:
320,192,30703,1,0,0:0:0:0:
448,192,30703,1,0,0:0:0:0:
320,192,30996,1,0,0:0:0:0:
448,192,30996,1,0,0:0:0:0:
64,192,30996,1,0,0:0:0:0:
192,192,31069,1,0,0:0:0:0:
320,192,31142,1,0,0:0:0:0:
448,192,31142,1,0,0:0:0:0:
64,192,31142,1,0,0:0:0:0:
192,192,31288,1,0,0:0:0:0:
64,192,31362,1,0,0:0:0:0:
320,192,31435,1,0,0:0:0:0:
448,192,31435,1,0,0:0:0:0:
192,192,31435,1,0,0:0:0:0:
320,192,31581,1,0,0:0:0:0:
448,192,31581,1,0,0:0:0:0:
64,192,31581,1,0,0:0:0:0:
192,192,31654,1,0,0:0:0:0:
64,192,31727,1,0,0:0:0:0:
320,192,31727,1,0,0:0:0:0:
448,192,31727,1,0,0:0:0:0:
64,192,31874,1,0,0:0:0:0:
192,192,31874,1,0,0:0:0:0:
448,192,31874,1,0,0:0:0:0:
192,192,32167,1,0,0:0:0:0:
320,192,32167,1,0,0:0:0:0:
448,192,32167,1,0,0:0:0:0:
64,192,32240,1,0,0:0:0:0:
448,192,32313,1,0,0:0:0:0:
192,192,32459,1,0,0:0:0:0:
320,192,32459,1,0,0:0:0:0:
64,192,32459,1,0,0:0:0:0:
448,192,32532,1,0,0:0:0:0:
64,192,32606,1,0,0:0:0:0:
192,192,32752,1,0,0:0:0:0:
320,192,32752,1,0,0:0:0:0:
448,192,32752,1,0,0:0:0:0:
64,192,32825,1,0,0:0:0:0:
448,192,32898,1,0,0:0:0:0:
64,192,33045,1,0,0:0:0:0:
192,192,33045,1,0,0:0:0:0:
448,192,33045,1,0,0:0:0:0:
320,192,33045,1,0,0:0:0:0:
64,192,33337,1,0,0:0:0:0:
448,192,33337,1,0,0:0:0:0:
192,192,33337,1,0,0:0:0:0:
320,192,33410,1,0,0:0:0:0:
64,192,33484,1,0,0:0:0:0:
448,192,33484,1,0,0:0:0:0:
192,192,33484,1,0,0:0:0:0:
192,192,33630,1,0,0:0:0:0:
320,192,33703,1,0,0:0:0:0:
64,192,33776,1,0,0:0:0:0:
448,192,33776,1,0,0:0:0:0:
192,192,33776,1,0,0:0:0:0:
64,192,33923,1,0,0:0:0:0:
448,192,33923,1,0,0:0:0:0:
320,192,33923,1,0,0:0:0:0:
192,192,33996,1,0,0:0:0:0:
320,192,34069,1,0,0:0:0:0:
448,192,34069,1,0,0:0:0:0:
320,192,34215,1,0,0:0:0:0:
192,192,34215,1,0,0:0:0:0:
192,192,34362,1,0,0:0:0:0:
64,192,34362,1,0,0:0:0:0:
448,192,34508,1,0,0:0:0:0:
64,192,34508,1,0,0:0:0:0:
192,192,34508,1,0,0:0:0:0:
320,192,34581,1,0,0:0:0:0:
448,192,34654,1,0,0:0:0:0:
64,192,34801,1,0,0:0:0:0:
192,192,34801,1,0,0:0:0:0:
320,192,34801,1,0,0:0:0:0:
448,192,34874,1,0,0:0:0:0:
320,192,34947,1,0,0:0:0:0:
64,192,35093,1,0,0:0:0:0:
192,192,35093,1,0,0:0:0:0:
448,192,35093,1,0,0:0:0:0:
320,192,35167,1,0,0:0:0:0:
448,192,35240,1,0,0:0:0:0:
64,192,35386,1,0,0:0:0:0:
192,192,35386,1,0,0:0:0:0:
320,192,35386,1,0,0:0:0:0:
448,192,35386,1,0,0:0:0:0:
320,192,35679,1,0,0:0:0:0:
448,192,35679,1,0,0:0:0:0:
64,192,35679,1,0,0:0:0:0:
192,192,35752,1,0,0:0:0:0:
320,192,35825,1,0,0:0:0:0:
448,192,35825,1,0,0:0:0:0:
64,192,35825,1,0,0:0:0:0:
192,192,35971,1,0,0:0:0:0:
64,192,36045,1,0,0:0:0:0:
320,192,36118,1,0,0:0:0:0:
448,192,36118,1,0,0:0:0:0:
192,192,36118,1,0,0:0:0:0:
320,192,36264,1,0,0:0:0:0:
448,192,36264,1,0,0:0:0:0:
64,192,36264,1,0,0:0:0:0:
192,192,36337,1,0,0:0:0:0:
64,192,36410,1,0,0:0:0:0:
320,192,36410,1,0,0:0:0:0:
448,192,36410,1,0,0:0:0:0:
64,192,36557,1,0,0:0:0:0:
192,192,36557,1,0,0:0:0:0:
448,192,36557,1,0,0:0:0:0:
192,192,36849,1,0,0:0:0:0:
320,192,36849,1,0,0:0:0:0:
448,192,36849,1,0,0:0:0:0:
64,192,36923,1,0,0:0:0:0:
448,192,36996,1,0,0:0:0:0:
64,192,37142,1,0,0:0:0:0:
448,192,37142,1,0,0:0:0:0:
192,192,37142,1,0,0:0:0:0:
320,192,37215,1,0,0:0:0:0:
192,192,37288,1,0,0:0:0:0:
448,192,37435,1,0,0:0:0:0:
320,192,37435,1,0,0:0:0:0:
192,192,37508,1,0,0:0:0:0:
64,192,37581,1,0,0:0:0:0:
320,192,37654,1,0,0:0:0:0:
192,192,37654,1,0,0:0:0:0:
448,192,37727,1,0,0:0:0:0:
320,192,37801,1,0,0:0:0:0:
192,192,37874,1,0,0:0:0:0:
64,192,37874,1,0,0:0:0:0:
320,192,38020,1,0,0:0:0:0:
448,192,38020,1,0,0:0:0:0:
64,192,38020,1,0,0:0:0:0:
192,192,38167,1,0,0:0:0:0:
64,192,38167,1,0,0:0:0:0:
448,192,38167,1,0,0:0:0:0:
320,192,38313,1,0,0:0:0:0:
448,192,38313,1,0,0:0:0:0:
192,192,38313,1,0,0:0:0:0:
192,192,38459,1,0,0:0:0:0:
64,192,38459,1,0,0:0:0:0:
320,192,38459,1,0,0:0:0:0:
320,192,38606,1,0,0:0:0:0:
448,192,38606,1,0,0:0:0:0:
64,192,38606,1,0,0:0:0:0:
192,192,38752,1,0,0:0:0:0:
64,192,38752,1,0,0:0:0:0:
448,192,38752,1,0,0:0:0:0:
320,192,38898,1,0,0:0:0:0:
448,192,38898,1,0,0:0:0:0:
192,192,38898,1,0,0:0:0:0:
192,192,39045,1,0,0:0:0:0:
64,192,39045,1,0,0:0:0:0:
320,192,39045,1,0,0:0:0:0:
448,192,39191,1,0,0:0:0:0:
320,192,39630,1,0,0:0:0:0:
192,192,40069,1,0,0:0:0:0:
320,192,40215,1,0,0:0:0:0:
448,192,40508,1,0,0:0:0:0:
320,192,40654,1,0,0:0:0:0:
192,192,40801,1,0,0:0:0:0:
64,192,41093,1,0,0:0:0:0:
192,192,41240,1,0,0:0:0:0:
64,192,41386,1,0,0:0:0:0:
320,192,41532,1,0,0:0:0:0:
64,192,41679,1,0,0:0:0:0:
448,192,41825,1,0,0:0:0:0:
192,192,41971,1,0,0:0:0:0:
320,192,42264,1,0,0:0:0:0:
448,192,42557,1,0,0:0:0:0:
448,192,42996,1,0,0:0:0:0:
192,192,43288,1,0,0:0:0:0:
320,192,43288,1,0,0:0:0:0:
64,192,43581,1,0,0:0:0:0:
192,192,43581,1,0,0:0:0:0:
320,192,43874,1,0,0:0:0:0:
192,192,44020,1,0,0:0:0:0:
64,192,44167,1,0,0:0:0:0:
192,192,44313,1,0,0:0:0:0:
320,192,44606,1,0,0:0:0:0:
448,192,44752,1,0,0:0:0:0:
320,192,44898,1,0,0:0:0:0:
64,192,45045,1,0,0:0:0:0:
320,192,45191,1,0,0:0:0:0:
192,192,45337,1,0,0:0:0:0:
320,192,45484,1,0,0:0:0:0:
192,192,45776,1,0,0:0:0:0:
192,192,45923,1,0,0:0:0:0:
320,192,46069,1,0,0:0:0:0:
448,192,46215,1,0,0:0:0:0:
64,192,46508,1,0,0:0:0:0:
192,192,46654,1,0,0:0:0:0:
64,192,46947,1,0,0:0:0:0:
448,192,47240,1,0,0:0:0:0:
320,192,47532,1,0,0:0:0:0:
192,192,47606,1,0,0:0:0:0:
320,192,47679,1,0,0:0:0:0:
64,192,47825,1,0,0:0:0:0:
192,192,47898,1,0,0:0:0:0:
64,192,47971,1,0,0:0:0:0:
448,192,48118,1,0,0:0:0:0:
320,192,48191,1,0,0:0:0:0:
448,192,48264,1,0,0:0:0:0:
192,192,48410,1,0,0:0:0:0:
320,192,48484,1,0,0:0:0:0:
64,192,48557,1,0,0:0:0:0:
448,192,48557,1,0,0:0:0:0:
320,192,48703,1,0,0:0:0:0:
448,192,48849,1,0,0:0:0:0:
64,192,48849,1,0,0:0:0:0:
192,192,48996,1,0,0:0:0:0:
448,192,49142,1,0,0:0:0:0:
64,192,49142,1,0,0:0:0:0:
320,192,49288,1,0,0:0:0:0:
64,192,49435,1,0,0:0:0:0:
192,192,49435,1,0,0:0:0:0:
320,192,49508,1,0,0:0:0:0:
448,192,49508,1,0,0:0:0:0:
64,192,49581,1,0,0:0:0:0:
192,192,49581,1,0,0:0:0:0:
320,192,49654,1,0,0:0:0:0:
448,192,49654,1,0,0:0:0:0:
64,192,49727,1,0,0:0:0:0:
192,192,49727,1,0,0:0:0:0:
448,192,49874,1,0,0:0:0:0:
320,192,50020,1,0,0:0:0:0:
192,192,50020,1,0,0:0:0:0:
64,192,50167,1,0,0:0:0:0:
192,192,50313,1,0,0:0:0:0:
320,192,50313,1,0,0:0:0:0:
448,192,50459,1,0,0:0:0:0:
192,192,50606,1,0,0:0:0:0:
320,192,50606,1,0,0:0:0:0:
64,192,50752,1,0,0:0:0:0:
192,192,50825,1,0,0:0:0:0:
320,192,50898,1,0,0:0:0:0:
448,192,50898,1,0,0:0:0:0:
64,192,51045,1,0,0:0:0:0:
320,192,51191,1,0,0:0:0:0:
448,192,51191,1,0,0:0:0:0:
192,192,51337,1,0,0:0:0:0:
320,192,51484,1,0,0:0:0:0:
448,192,51484,1,0,0:0:0:0:
64,192,51630,1,0,0:0:0:0:
192,192,51703,1,0,0:0:0:0:
320,192,51776,1,0,0:0:0:0:
448,192,51776,1,0,0:0:0:0:
192,192,51923,1,0,0:0:0:0:
320,192,51996,1,0,0:0:0:0:
64,192,52069,1,0,0:0:0:0:
448,192,52069,1,0,0:0:0:0:
320,192,52215,1,0,0:0:0:0:
64,192,52362,1,0,0:0:0:0:
448,192,52362,1,0,0:0:0:0:
192,192,52508,1,0,0:0:0:0:
64,192,52654,1,0,0:0:0:0:
448,192,52654,1,0,0:0:0:0:
320,192,52801,1,0,0:0:0:0:
64,192,52947,1,0,0:0:0:0:
448,192,52947,1,0,0:0:0:0:
192,192,53093,1,0,0:0:0:0:
64,192,53240,1,0,0:0:0:0:
320,192,53240,1,0,0:0:0:0:
448,192,53240,1,0,0:0:0:0:
64,192,53386,1,0,0:0:0:0:
192,192,53386,1,0,0:0:0:0:
64,192,53532,1,0,0:0:0:0:
320,192,53532,1,0,0:0:0:0:
64,192,53679,1,0,0:0:0:0:
192,192,53679,1,0,0:0:0:0:
64,192,53825,1,0,0:0:0:0:
320,192,53825,1,0,0:0:0:0:
448,192,53825,1,0,0:0:0:0:
64,192,53971,1,0,0:0:0:0:
192,192,53971,1,0,0:0:0:0:
64,192,54118,1,0,0:0:0:0:
320,192,54118,1,0,0:0:0:0:
448,192,54118,1,0,0:0:0:0:
64,192,54264,1,0,0:0:0:0:
192,192,54264,1,0,0:0:0:0:
320,192,54410,1,0,0:0:0:0:
192,192,54410,1,0,0:0:0:0:
64,192,54410,1,0,0:0:0:0:
448,192,54557,1,0,0:0:0:0:
320,192,54557,1,0,0:0:0:0:
448,192,54703,1,0,0:0:0:0:
192,192,54703,1,0,0:0:0:0:
448,192,54849,1,0,0:0:0:0:
320,192,54849,1,0,0:0:0:0:
448,192,54996,1,0,0:0:0:0:
192,192,54996,1,0,0:0:0:0:
64,192,54996,1,0,0:0:0:0:
448,192,55142,1,0,0:0:0:0:
320,192,55142,1,0,0:0:0:0:
448,192,55288,1,0,0:0:0:0:
192,192,55288,1,0,0:0:0:0:
448,192,55435,1,0,0:0:0:0:
320,192,55435,1,0,0:0:0:0:
192,192,55581,1,0,0:0:0:0:
320,192,55581,1,0,0:0:0:0:
448,192,55581,1,0,0:0:0:0:
64,192,55654,1,0,0:0:0:0:
192,192,55727,1,0,0:0:0:0:
320,192,55801,1,0,0:0:0:0:
192,192,55874,1,0,0:0:0:0:
64,192,55874,1,0,0:0:0:0:
320,192,55947,1,0,0:0:0:0:
448,192,56020,1,0,0:0:0:0:
192,192,56093,1,0,0:0:0:0:
448,192,56167,1,0,0:0:0:0:
320,192,56167,1,0,0:0:0:0:
64,192,56240,1,0,0:0:0:0:
320,192,56313,1,0,0:0:0:0:
192,192,56313,1,0,0:0:0:0:
448,192,56386,1,0,0:0:0:0:
192,192,56459,1,0,0:0:0:0:
64,192,56459,1,0,0:0:0:0:
320,192,56532,1,0,0:0:0:0:
448,192,56532,1,0,0:0:0:0:
192,192,56606,1,0,0:0:0:0:
64,192,56606,1,0,0:0:0:0:
320,192,56679,1,0,0:0:0:0:
448,192,56679,1,0,0:0:0:0:
64,192,56752,1,0,0:0:0:0:
192,192,56752,1,0,0:0:0:0:
448,192,56752,128,0,56898:0:0:0:0:
64,192,56898,1,0,0:0:0:0:
320,192,56971,128,0,57118:0:0:0:0:
64,192,57118,1,0,0:0:0:0:
192,192,57191,128,0,57337:0:0:0:0:
64,192,57337,1,0,0:0:0:0:
192,192,57410,128,0,57557:0:0:0:0:
64,192,57557,1,0,0:0:0:0:
320,192,57630,128,0,57703:0:0:0:0:
64,192,57703,1,0,0:0:0:0:
192,192,57776,128,0,57849:0:0:0:0:
64,192,57849,1,0,0:0:0:0:
320,192,57923,1,0,0:0:0:0:
448,192,57923,1,0,0:0:0:0:
64,192,58069,1,0,0:0:0:0:
320,192,58215,1,0,0:0:0:0:
192,192,58215,1,0,0:0:0:0:
448,192,58362,1,0,0:0:0:0:
192,192,58508,1,0,0:0:0:0:
64,192,58508,1,0,0:0:0:0:
448,192,58581,1,0,0:0:0:0:
320,192,58654,1,0,0:0:0:0:
192,192,58727,1,0,0:0:0:0:
448,192,58801,1,0,0:0:0:0:
320,192,58801,1,0,0:0:0:0:
64,192,58874,1,0,0:0:0:0:
320,192,58947,1,0,0:0:0:0:
192,192,58947,1,0,0:0:0:0:
448,192,59020,1,0,0:0:0:0:
64,192,59093,1,0,0:0:0:0:
192,192,59093,1,0,0:0:0:0:
448,192,59240,1,0,0:0:0:0:
192,192,59386,1,0,0:0:0:0:
320,192,59386,1,0,0:0:0:0:
64,192,59532,1,0,0:0:0:0:
320,192,59679,1,0,0:0:0:0:
448,192,59679,1,0,0:0:0:0:
64,192,59752,1,0,0:0:0:0:
192,192,59825,1,0,0:0:0:0:
320,192,59898,1,0,0:0:0:0:
64,192,59971,1,0,0:0:0:0:
192,192,59971,1,0,0:0:0:0:
448,192,60045,1,0,0:0:0:0:
320,192,60118,1,0,0:0:0:0:
192,192,60191,1,0,0:0:0:0:
448,192,60264,1,0,0:0:0:0:
320,192,60264,1,0,0:0:0:0:
64,192,60410,1,0,0:0:0:0:
320,192,60557,1,0,0:0:0:0:
192,192,60557,1,0,0:0:0:0:
448,192,60703,1,0,0:0:0:0:
192,192,60849,1,0,0:0:0:0:
64,192,60849,1,0,0:0:0:0:
448,192,60923,1,0,0:0:0:0:
320,192,60996,1,0,0:0:0:0:
448,192,61069,1,0,0:0:0:0:
192,192,61142,1,0,0:0:0:0:
64,192,61142,1,0,0:0:0:0:
448,192,61215,1,0,0:0:0:0:
320,192,61288,1,0,0:0:0:0:
192,192,61288,1,0,0:0:0:0:
64,192,61362,1,0,0:0:0:0:
320,192,61435,1,0,0:0:0:0:
448,192,61435,1,0,0:0:0:0:
64,192,61581,1,0,0:0:0:0:
192,192,61727,1,0,0:0:0:0:
320,192,61727,1,0,0:0:0:0:
64,192,61874,1,0,0:0:0:0:
448,192,62020,1,0,0:0:0:0:
320,192,62020,1,0,0:0:0:0:
192,192,62093,1,0,0:0:0:0:
320,192,62167,1,0,0:0:0:0:
448,192,62240,1,0,0:0:0:0:
192,192,62313,1,0,0:0:0:0:
64,192,62313,1,0,0:0:0:0:
320,192,62386,1,0,0:0:0:0:
192,192,62459,1,0,0:0:0:0:
64,192,62532,1,0,0:0:0:0:
192,192,62606,1,0,0:0:0:0:
320,192,62606,1,0,0:0:0:0:
448,192,62606,1,2,0:0:0:0:
448,192,62752,1,0,0:0:0:0:
192,192,62898,1,0,0:0:0:0:
64,192,62898,1,0,0:0:0:0:
448,192,63045,1,0,0:0:0:0:
320,192,63191,1,0,0:0:0:0:
192,192,63191,1,0,0:0:0:0:
64,192,63264,1,0,0:0:0:0:
192,192,63337,1,0,0:0:0:0:
320,192,63410,1,0,0:0:0:0:
192,192,63484,1,0,0:0:0:0:
64,192,63484,1,0,0:0:0:0:
448,192,63557,1,0,0:0:0:0:
320,192,63630,1,0,0:0:0:0:
192,192,63630,1,0,0:0:0:0:
64,192,63703,1,0,0:0:0:0:
448,192,63776,1,0,0:0:0:0:
320,192,63776,1,0,0:0:0:0:
192,192,63776,1,2,0:0:0:0:
64,192,63923,1,0,0:0:0:0:
192,192,64069,1,0,0:0:0:0:
320,192,64069,1,0,0:0:0:0:
64,192,64215,1,0,0:0:0:0:
448,192,64362,1,0,0:0:0:0:
320,192,64362,1,0,0:0:0:0:
192,192,64435,1,0,0:0:0:0:
320,192,64508,1,0,0:0:0:0:
448,192,64581,1,0,0:0:0:0:
320,192,64654,1,0,0:0:0:0:
192,192,64654,1,0,0:0:0:0:
64,192,64727,1,0,0:0:0:0:
320,192,64801,1,0,0:0:0:0:
448,192,64801,1,0,0:0:0:0:
64,192,64947,1,0,0:0:0:0:
192,192,64947,1,0,0:0:0:0:
320,192,64947,1,2,0:0:0:0:
448,192,65093,1,0,0:0:0:0:
320,192,65240,1,0,0:0:0:0:
192,192,65240,1,0,0:0:0:0:
64,192,65386,1,0,0:0:0:0:
320,192,65532,1,0,0:0:0:0:
448,192,65532,1,0,0:0:0:0:
64,192,65532,1,2,0:0:0:0:
192,192,65606,1,0,0:0:0:0:
64,192,65679,1,0,0:0:0:0:
320,192,65752,1,0,0:0:0:0:
192,192,65752,1,0,0:0:0:0:
448,192,65825,1,0,0:0:0:0:
64,192,65898,1,0,0:0:0:0:
320,192,65971,1,0,0:0:0:0:
448,192,65971,1,0,0:0:0:0:
192,192,66045,1,0,0:0:0:0:
448,192,66118,1,0,0:0:0:0:
320,192,66118,1,0,0:0:0:0:
192,192,66191,1,0,0:0:0:0:
64,192,66264,1,0,0:0:0:0:
448,192,66337,1,0,0:0:0:0:
320,192,66410,1,0,0:0:0:0:
192,192,66410,1,0,0:0:0:0:
64,192,66484,1,0,0:0:0:0:
448,192,66557,1,0,0:0:0:0:
320,192,66630,1,0,0:0:0:0:
192,192,66703,1,0,0:0:0:0:
64,192,66703,1,0,0:0:0:0:
448,192,66776,1,0,0:0:0:0:
320,192,66849,1,0,0:0:0:0:
192,192,66923,1,0,0:0:0:0:
448,192,66923,1,0,0:0:0:0:
64,192,66996,1,0,0:0:0:0:
448,192,67069,1,0,0:0:0:0:
64,192,67142,1,0,0:0:0:0:
320,192,67142,1,0,0:0:0:0:
192,192,67215,1,0,0:0:0:0:
64,192,67288,1,0,0:0:0:0:
448,192,67288,1,0,0:0:0:0:
320,192,67435,1,0,0:0:0:0:
64,192,67581,1,0,0:0:0:0:
448,192,67581,1,0,0:0:0:0:
192,192,67727,1,0,0:0:0:0:
64,192,67874,1,0,0:0:0:0:
448,192,67874,1,0,0:0:0:0:
320,192,67947,1,0,0:0:0:0:
192,192,68020,1,0,0:0:0:0:
320,192,68093,1,0,0:0:0:0:
64,192,68167,1,0,0:0:0:0:
448,192,68167,1,0,0:0:0:0:
320,192,68240,1,0,0:0:0:0:
192,192,68313,1,0,0:0:0:0:
448,192,68313,1,0,0:0:0:0:
64,192,68386,1,0,0:0:0:0:
192,192,68459,1,0,0:0:0:0:
320,192,68459,1,0,0:0:0:0:
448,192,68606,1,0,0:0:0:0:
192,192,68752,1,0,0:0:0:0:
320,192,68752,1,0,0:0:0:0:
64,192,68898,1,0,0:0:0:0:
192,192,69045,1,0,0:0:0:0:
320,192,69045,1,0,0:0:0:0:
64,192,69118,1,0,0:0:0:0:
448,192,69191,1,0,0:0:0:0:
192,192,69264,1,0,0:0:0:0:
64,192,69337,1,0,0:0:0:0:
320,192,69337,1,0,0:0:0:0:
448,192,69410,1,0,0:0:0:0:
320,192,69484,1,0,0:0:0:0:
192,192,69557,1,0,0:0:0:0:
64,192,69630,1,0,0:0:0:0:
448,192,69630,1,0,0:0:0:0:
320,192,69630,1,2,0:0:0:0:
192,192,69776,1,0,0:0:0:0:
64,192,69923,1,0,0:0:0:0:
448,192,69923,1,0,0:0:0:0:
320,192,70069,1,0,0:0:0:0:
64,192,70215,1,0,0:0:0:0:
448,192,70215,1,0,0:0:0:0:
320,192,70288,1,0,0:0:0:0:
192,192,70362,1,0,0:0:0:0:
320,192,70435,1,0,0:0:0:0:
448,192,70508,1,0,0:0:0:0:
64,192,70508,1,0,0:0:0:0:
320,192,70581,1,0,0:0:0:0:
192,192,70654,1,0,0:0:0:0:
448,192,70654,1,0,0:0:0:0:
64,192,70727,1,0,0:0:0:0:
192,192,70801,1,0,0:0:0:0:
320,192,70801,1,0,0:0:0:0:
448,192,70801,1,2,0:0:0:0:
64,192,70947,1,0,0:0:0:0:
192,192,71093,1,0,0:0:0:0:
320,192,71093,1,0,0:0:0:0:
448,192,71240,1,0,0:0:0:0:
192,192,71386,1,0,0:0:0:0:
320,192,71386,1,0,0:0:0:0:
192,192,71532,1,0,0:0:0:0:
64,192,71532,1,0,0:0:0:0:
320,192,71606,1,0,0:0:0:0:
448,192,71606,1,0,0:0:0:0:
192,192,71679,1,0,0:0:0:0:
320,192,71679,1,0,0:0:0:0:
192,192,71825,1,0,0:0:0:0:
320,192,71825,1,0,0:0:0:0:
64,192,71825,1,0,0:0:0:0:
448,192,71825,1,0,0:0:0:0:
320,192,71971,1,0,0:0:0:0:
192,192,71971,1,0,0:0:0:0:
64,192,71971,1,2,0:0:0:0:
448,192,72118,1,0,0:0:0:0:
64,192,72264,1,0,0:0:0:0:
192,192,72264,1,0,0:0:0:0:
448,192,72410,1,0,0:0:0:0:
192,192,72557,1,0,0:0:0:0:
320,192,72557,1,0,0:0:0:0:
64,192,72630,1,0,0:0:0:0:
192,192,72703,1,0,0:0:0:0:
320,192,72776,1,0,0:0:0:0:
64,192,72849,1,0,0:0:0:0:
192,192,72849,1,0,0:0:0:0:
448,192,72923,1,0,0:0:0:0:
192,192,72996,1,0,0:0:0:0:
320,192,72996,1,0,0:0:0:0:
64,192,73069,1,0,0:0:0:0:
320,192,73142,1,0,0:0:0:0:
448,192,73142,1,0,0:0:0:0:
192,192,73142,1,2,0:0:0:0:
64,192,73288,1,0,0:0:0:0:
192,192,73435,1,0,0:0:0:0:
320,192,73435,1,0,0:0:0:0:
64,192,73581,1,0,0:0:0:0:
448,192,73727,1,0,0:0:0:0:
320,192,73727,1,0,0:0:0:0:
192,192,73801,1,0,0:0:0:0:
320,192,73874,1,0,0:0:0:0:
448,192,73947,1,0,0:0:0:0:
320,192,74020,1,0,0:0:0:0:
192,192,74020,1,0,0:0:0:0:
64,192,74093,1,0,0:0:0:0:
320,192,74167,1,0,0:0:0:0:
448,192,74167,1,0,0:0:0:0:
64,192,74313,1,0,0:0:0:0:
192,192,74313,1,0,0:0:0:0:
448,192,74313,1,2,0:0:0:0:
320,192,74386,1,0,0:0:0:0:
448,192,74459,1,0,0:0:0:0:
64,192,74532,1,0,0:0:0:0:
192,192,74606,1,0,0:0:0:0:
320,192,74606,1,0,0:0:0:0:
448,192,74679,1,0,0:0:0:0:
64,192,74752,1,0,0:0:0:0:
192,192,74825,1,0,0:0:0:0:
320,192,74898,1,0,0:0:0:0:
448,192,74898,1,0,0:0:0:0:
64,192,74971,1,0,0:0:0:0:
192,192,75045,1,0,0:0:0:0:
320,192,75118,1,0,0:0:0:0:
64,192,75118,1,0,0:0:0:0:
448,192,75191,1,0,0:0:0:0:
64,192,75264,1,0,0:0:0:0:
192,192,75337,1,0,0:0:0:0:
448,192,75337,1,0,0:0:0:0:
320,192,75410,1,0,0:0:0:0:
448,192,75484,1,0,0:0:0:0:
64,192,75484,1,0,0:0:0:0:
320,192,75557,1,0,0:0:0:0:
192,192,75630,1,0,0:0:0:0:
64,192,75703,1,0,0:0:0:0:
192,192,75776,1,0,0:0:0:0:
320,192,75776,1,0,0:0:0:0:
448,192,75776,1,0,0:0:0:0:
64,192,75849,1,0,0:0:0:0:
448,192,75923,1,0,0:0:0:0:
320,192,75923,1,0,0:0:0:0:
192,192,75996,1,0,0:0:0:0:
64,192,75996,1,0,0:0:0:0:
448,192,76069,1,0,0:0:0:0:
320,192,76069,1,0,0:0:0:0:
192,192,76142,1,0,0:0:0:0:
64,192,76215,1,0,0:0:0:0:
448,192,76288,1,0,0:0:0:0:
320,192,76288,1,0,0:0:0:0:
192,192,76288,1,0,0:0:0:0:
64,192,76362,1,0,0:0:0:0:
448,192,76435,1,0,0:0:0:0:
320,192,76508,1,0,0:0:0:0:
192,192,76508,1,0,0:0:0:0:
64,192,76581,1,0,0:0:0:0:
192,192,76654,1,0,0:0:0:0:
448,192,76654,128,0,76801:0:0:0:0:
64,192,76801,128,0,76947:0:0:0:0:
320,192,76947,128,0,77093:0:0:0:0:
192,192,77093,128,0,77240:0:0:0:0:
448,192,77240,128,0,77386:0:0:0:0:
64,192,77386,1,0,0:0:0:0:
320,192,77459,128,0,77606:0:0:0:0:
64,192,77606,1,0,0:0:0:0:
192,192,77679,128,0,77825:0:0:0:0:
64,192,77825,1,0,0:0:0:0:
448,192,77825,128,0,78118:0:0:0:0:
192,192,77971,1,0,0:0:0:0:
320,192,77971,1,0,0:0:0:0:
64,192,78118,128,0,78410:0:0:0:0:
192,192,78264,1,0,0:0:0:0:
320,192,78264,1,0,0:0:0:0:
448,192,78410,128,0,78703:0:0:0:0:
192,192,78410,1,0,0:0:0:0:
320,192,78410,128,0,78557:0:0:0:0:
192,192,78557,128,0,78703:0:0:0:0:
64,192,78703,128,0,78996:0:0:0:0:
192,192,78996,1,0,0:0:0:0:
320,192,78996,1,0,0:0:0:0:
448,192,79069,1,0,0:0:0:0:
64,192,79142,1,0,0:0:0:0:
320,192,79215,1,0,0:0:0:0:
448,192,79215,1,0,0:0:0:0:
192,192,79288,1,0,0:0:0:0:
64,192,79362,1,0,0:0:0:0:
192,192,79435,1,0,0:0:0:0:
320,192,79435,1,0,0:0:0:0:
448,192,79508,1,0,0:0:0:0:
64,192,79581,1,0,0:0:0:0:
320,192,79654,1,0,0:0:0:0:
448,192,79654,1,0,0:0:0:0:
192,192,79727,1,0,0:0:0:0:
64,192,79801,1,0,0:0:0:0:
192,192,79874,1,0,0:0:0:0:
320,192,79874,1,0,0:0:0:0:
64,192,79947,1,0,0:0:0:0:
320,192,80020,1,0,0:0:0:0:
448,192,80020,1,0,0:0:0:0:
192,192,80093,1,0,0:0:0:0:
64,192,80167,1,0,0:0:0:0:
448,192,80167,1,0,0:0:0:0:
192,192,80240,1,0,0:0:0:0:
64,192,80313,1,0,0:0:0:0:
320,192,80386,1,0,0:0:0:0:
448,192,80386,1,0,0:0:0:0:
192,192,80459,1,0,0:0:0:0:
320,192,80532,1,0,0:0:0:0:
64,192,80606,1,0,0:0:0:0:
192,192,80606,1,0,0:0:0:0:
448,192,80679,1,0,0:0:0:0:
320,192,80752,1,0,0:0:0:0:
64,192,80825,1,0,0:0:0:0:
448,192,80825,1,0,0:0:0:0:
320,192,80898,1,0,0:0:0:0:
192,192,80971,1,0,0:0:0:0:
320,192,81045,1,0,0:0:0:0:
448,192,81045,1,0,0:0:0:0:
64,192,81118,1,0,0:0:0:0:
192,192,81191,1,0,0:0:0:0:
320,192,81191,1,0,0:0:0:0:
448,192,81264,1,0,0:0:0:0:
64,192,81337,1,0,0:0:0:0:
192,192,81337,1,0,0:0:0:0:
320,192,81410,1,0,0:0:0:0:
192,192,81484,1,0,0:0:0:0:
64,192,81557,1,0,0:0:0:0:
448,192,81630,1,0,0:0:0:0:
320,192,81630,1,0,0:0:0:0:
192,192,81703,1,0,0:0:0:0:
320,192,81776,1,0,0:0:0:0:
448,192,81849,1,0,0:0:0:0:
192,192,81923,1,0,0:0:0:0:
320,192,81923,1,0,0:0:0:0:
64,192,81996,1,0,0:0:0:0:
320,192,82069,1,0,0:0:0:0:
448,192,82069,1,0,0:0:0:0:
64,192,82142,1,0,0:0:0:0:
192,192,82215,1,0,0:0:0:0:
320,192,82215,1,0,0:0:0:0:
448,192,82288,1,0,0:0:0:0:
64,192,82362,1,0,0:0:0:0:
192,192,82362,1,0,0:0:0:0:
448,192,82435,1,0,0:0:0:0:
320,192,82508,1,0,0:0:0:0:
192,192,82508,1,0,0:0:0:0:
64,192,82581,1,0,0:0:0:0:
448,192,82654,1,0,0:0:0:0:
192,192,82727,1,0,0:0:0:0:
64,192,82727,1,0,0:0:0:0:
320,192,82801,1,0,0:0:0:0:
448,192,82874,1,0,0:0:0:0:
320,192,82947,1,0,0:0:0:0:
192,192,82947,1,0,0:0:0:0:
64,192,83020,1,0,0:0:0:0:
448,192,83093,1,0,0:0:0:0:
192,192,83167,1,0,0:0:0:0:
64,192,83167,1,0,0:0:0:0:
448,192,83240,1,0,0:0:0:0:
320,192,83313,1,0,0:0:0:0:
64,192,83386,1,0,0:0:0:0:
192,192,83386,1,0,0:0:0:0:
448,192,83459,1,0,0:0:0:0:
192,192,83532,1,0,0:0:0:0:
320,192,83532,1,0,0:0:0:0:
64,192,83606,1,0,0:0:0:0:
320,192,83679,1,0,0:0:0:0:
448,192,83679,1,0,0:0:0:0:
192,192,83752,1,0,0:0:0:0:
64,192,83825,1,0,0:0:0:0:
320,192,83898,1,0,0:0:0:0:
192,192,83898,1,0,0:0:0:0:
448,192,83971,1,0,0:0:0:0:
320,192,84045,1,0,0:0:0:0:
64,192,84118,1,0,0:0:0:0:
192,192,84118,1,0,0:0:0:0:
320,192,84191,1,0,0:0:0:0:
448,192,84264,1,0,0:0:0:0:
64,192,84337,1,0,0:0:0:0:
192,192,84410,1,0,0:0:0:0:
320,192,84410,1,0,0:0:0:0:
64,192,84484,1,0,0:0:0:0:
320,192,84557,1,0,0:0:0:0:
448,192,84557,1,0,0:0:0:0:
64,192,84630,1,0,0:0:0:0:
192,192,84703,1,0,0:0:0:0:
320,192,84703,1,0,0:0:0:0:
448,192,84776,1,0,0:0:0:0:
64,192,84849,1,0,0:0:0:0:
192,192,84849,1,0,0:0:0:0:
320,192,84923,1,0,0:0:0:0:
192,192,84996,1,0,0:0:0:0:
64,192,85069,1,0,0:0:0:0:
448,192,85142,1,0,0:0:0:0:
320,192,85142,1,0,0:0:0:0:
192,192,85215,1,0,0:0:0:0:
64,192,85288,1,0,0:0:0:0:
448,192,85362,1,0,0:0:0:0:
320,192,85435,1,0,0:0:0:0:
192,192,85435,1,0,0:0:0:0:
64,192,85508,1,0,0:0:0:0:
448,192,85581,1,0,0:0:0:0:
320,192,85654,1,0,0:0:0:0:
192,192,85727,1,0,0:0:0:0:
64,192,85727,1,0,0:0:0:0:
448,192,85801,1,0,0:0:0:0:
320,192,85874,1,0,0:0:0:0:
192,192,85947,1,0,0:0:0:0:
64,192,86020,1,0,0:0:0:0:
320,192,86020,1,0,0:0:0:0:
448,192,86020,1,0,0:0:0:0:
320,192,86167,1,0,0:0:0:0:
192,192,86167,1,0,0:0:0:0:
64,192,86313,1,0,0:0:0:0:
192,192,86313,1,0,0:0:0:0:
448,192,86313,1,0,0:0:0:0:
320,192,86459,1,0,0:0:0:0:
192,192,86459,1,0,0:0:0:0:
64,192,86606,1,0,0:0:0:0:
320,192,86606,1,0,0:0:0:0:
448,192,86606,1,0,0:0:0:0:
192,192,86752,1,0,0:0:0:0:
320,192,86752,1,0,0:0:0:0:
448,192,86898,1,0,0:0:0:0:
64,192,86898,1,0,0:0:0:0:
192,192,86898,1,0,0:0:0:0:
320,192,86971,1,0,0:0:0:0:
448,192,87045,1,0,0:0:0:0:
320,192,87118,1,0,0:0:0:0:
192,192,87191,1,0,0:0:0:0:
64,192,87191,1,0,0:0:0:0:
64,192,87337,1,0,0:0:0:0:
192,192,87337,1,0,0:0:0:0:
192,192,87484,1,0,0:0:0:0:
320,192,87484,1,0,0:0:0:0:
448,192,87484,1,0,0:0:0:0:
64,192,87630,1,0,0:0:0:0:
192,192,87630,1,0,0:0:0:0:
64,192,87776,1,0,0:0:0:0:
192,192,87776,1,0,0:0:0:0:
192,192,87923,1,0,0:0:0:0:
320,192,87923,1,0,0:0:0:0:
64,192,88069,1,0,0:0:0:0:
448,192,88069,1,0,0:0:0:0:
320,192,88142,1,0,0:0:0:0:
192,192,88215,1,0,0:0:0:0:
320,192,88288,1,0,0:0:0:0:
64,192,88362,1,0,0:0:0:0:
192,192,88362,1,0,0:0:0:0:
448,192,88362,1,0,0:0:0:0:
192,192,88508,1,0,0:0:0:0:
320,192,88508,1,0,0:0:0:0:
64,192,88654,1,0,0:0:0:0:
320,192,88654,1,0,0:0:0:0:
448,192,88654,1,0,0:0:0:0:
192,192,88801,1,0,0:0:0:0:
320,192,88801,1,0,0:0:0:0:
64,192,88947,1,0,0:0:0:0:
192,192,88947,1,0,0:0:0:0:
448,192,88947,1,0,0:0:0:0:
192,192,89093,1,0,0:0:0:0:
320,192,89093,1,0,0:0:0:0:
64,192,89240,1,0,0:0:0:0:
320,192,89240,1,0,0:0:0:0:
448,192,89240,1,0,0:0:0:0:
192,192,89313,1,0,0:0:0:0:
64,192,89386,1,0,0:0:0:0:
192,192,89459,1,0,0:0:0:0:
320,192,89532,1,0,0:0:0:0:
448,192,89532,1,0,0:0:0:0:
320,192,89679,1,0,0:0:0:0:
448,192,89679,1,0,0:0:0:0:
64,192,89825,1,0,0:0:0:0:
192,192,89825,1,0,0:0:0:0:
320,192,89825,1,0,0:0:0:0:
320,192,89971,1,0,0:0:0:0:
448,192,89971,1,0,0:0:0:0:
320,192,90118,1,0,0:0:0:0:
448,192,90118,1,0,0:0:0:0:
64,192,90264,1,0,0:0:0:0:
320,192,90264,1,0,0:0:0:0:
192,192,90337,1,0,0:0:0:0:
448,192,90337,1,0,0:0:0:0:
64,192,90410,1,0,0:0:0:0:
320,192,90410,1,0,0:0:0:0:
64,192,90557,1,0,0:0:0:0:
192,192,90557,1,0,0:0:0:0:
320,192,90557,1,0,0:0:0:0:
448,192,90557,1,0,0:0:0:0:
320,192,90703,1,0,0:0:0:0:
448,192,90703,1,0,0:0:0:0:
192,192,90703,1,0,0:0:0:0:
64,192,90849,1,0,0:0:0:0:
192,192,90923,1,0,0:0:0:0:
448,192,90996,1,0,0:0:0:0:
64,192,90996,1,0,0:0:0:0:
320,192,91069,1,0,0:0:0:0:
192,192,91142,1,0,0:0:0:0:
320,192,91215,1,0,0:0:0:0:
448,192,91288,1,0,0:0:0:0:
64,192,91288,1,0,0:0:0:0:
320,192,91362,1,0,0:0:0:0:
192,192,91435,1,0,0:0:0:0:
64,192,91508,1,0,0:0:0:0:
448,192,91581,1,0,0:0:0:0:
192,192,91581,1,0,0:0:0:0:
320,192,91654,1,0,0:0:0:0:
192,192,91727,1,0,0:0:0:0:
64,192,91801,1,0,0:0:0:0:
192,192,91874,1,0,0:0:0:0:
448,192,91874,1,0,0:0:0:0:
320,192,91947,1,0,0:0:0:0:
448,192,92020,1,0,0:0:0:0:
192,192,92020,1,0,0:0:0:0:
64,192,92093,1,0,0:0:0:0:
192,192,92167,1,0,0:0:0:0:
320,192,92240,1,0,0:0:0:0:
448,192,92313,1,0,0:0:0:0:
64,192,92313,1,0,0:0:0:0:
320,192,92386,1,0,0:0:0:0:
448,192,92459,1,0,0:0:0:0:
64,192,92459,1,0,0:0:0:0:
320,192,92532,1,0,0:0:0:0:
192,192,92606,1,0,0:0:0:0:
448,192,92606,1,0,0:0:0:0:
64,192,92679,1,0,0:0:0:0:
448,192,92752,1,0,0:0:0:0:
192,192,92752,1,0,0:0:0:0:
320,192,92825,1,0,0:0:0:0:
192,192,92898,1,0,0:0:0:0:
64,192,92971,1,0,0:0:0:0:
320,192,93045,1,0,0:0:0:0:
192,192,93045,1,0,0:0:0:0:
448,192,93118,1,0,0:0:0:0:
64,192,93191,1,0,0:0:0:0:
320,192,93191,1,0,0:0:0:0:
192,192,93264,1,0,0:0:0:0:
448,192,93337,1,0,0:0:0:0:
320,192,93337,1,0,0:0:0:0:
64,192,93410,1,0,0:0:0:0:
192,192,93484,1,0,0:0:0:0:
448,192,93484,1,0,0:0:0:0:
320,192,93557,1,0,0:0:0:0:
64,192,93630,1,0,0:0:0:0:
448,192,93630,1,0,0:0:0:0:
192,192,93703,1,0,0:0:0:0:
320,192,93776,1,0,0:0:0:0:
448,192,93849,1,0,0:0:0:0:
64,192,93849,1,0,0:0:0:0:
192,192,93923,1,0,0:0:0:0:
320,192,93996,1,0,0:0:0:0:
448,192,94069,1,0,0:0:0:0:
192,192,94069,1,0,0:0:0:0:
64,192,94142,1,0,0:0:0:0:
448,192,94215,1,0,0:0:0:0:
192,192,94215,1,0,0:0:0:0:
320,192,94288,1,0,0:0:0:0:
192,192,94362,1,0,0:0:0:0:
448,192,94362,1,0,0:0:0:0:
64,192,94435,1,0,0:0:0:0:
448,192,94508,1,0,0:0:0:0:
320,192,94508,1,0,0:0:0:0:
192,192,94581,1,0,0:0:0:0:
64,192,94654,1,0,0:0:0:0:
320,192,94654,1,0,0:0:0:0:
448,192,94727,1,0,0:0:0:0:
320,192,94801,1,0,0:0:0:0:
192,192,94801,1,0,0:0:0:0:
64,192,94874,1,0,0:0:0:0:
448,192,94947,1,0,0:0:0:0:
192,192,94947,1,0,0:0:0:0:
320,192,95020,1,0,0:0:0:0:
192,192,95093,1,0,0:0:0:0:
64,192,95093,1,0,0:0:0:0:
448,192,95093,1,0,0:0:0:0:
320,192,95130,1,0,0:0:0:0:
192,192,95167,1,0,0:0:0:0:
64,192,95203,1,0,0:0:0:0:
448,192,95240,1,0,0:0:0:0:
320,192,95276,1,0,0:0:0:0:
192,192,95313,1,0,0:0:0:0:
64,192,95349,1,0,0:0:0:0:
448,192,95386,1,0,0:0:0:0:
320,192,95825,1,0,0:0:0:0:
192,192,96264,1,0,0:0:0:0:
64,192,96410,1,0,0:0:0:0:
320,192,96557,1,0,0:0:0:0:
448,192,96703,1,0,0:0:0:0:
64,192,96849,1,0,0:0:0:0:
192,192,96996,1,0,0:0:0:0:
64,192,97142,1,0,0:0:0:0:
448,192,97142,1,0,0:0:0:0:
320,192,97435,1,0,0:0:0:0:
320,192,97727,1,0,0:0:0:0:
64,192,97874,1,0,0:0:0:0:
192,192,98020,1,0,0:0:0:0:
320,192,98167,1,0,0:0:0:0:
64,192,98167,1,0,0:0:0:0:
448,192,98606,1,0,0:0:0:0:
320,192,98752,1,0,0:0:0:0:
64,192,98898,1,0,0:0:0:0:
192,192,99045,1,0,0:0:0:0:
320,192,99191,1,0,0:0:0:0:
448,192,99337,1,0,0:0:0:0:
320,192,99484,1,0,0:0:0:0:
192,192,99484,1,0,0:0:0:0:
192,192,99776,1,0,0:0:0:0:
64,192,99776,1,0,0:0:0:0:
64,192,100069,1,0,0:0:0:0:
192,192,100215,1,0,0:0:0:0:
320,192,100362,1,0,0:0:0:0:
64,192,100508,1,0,0:0:0:0:
448,192,100508,1,0,0:0:0:0:
320,192,100947,1,0,0:0:0:0:
64,192,101240,1,0,0:0:0:0:
448,192,101240,1,0,0:0:0:0:
192,192,101386,1,0,0:0:0:0:
320,192,101532,1,0,0:0:0:0:
64,192,101532,1,0,0:0:0:0:
448,192,101679,1,0,0:0:0:0:
320,192,101825,1,0,0:0:0:0:
192,192,102118,1,0,0:0:0:0:
64,192,102410,1,0,0:0:0:0:
192,192,102557,1,0,0:0:0:0:
320,192,102703,1,0,0:0:0:0:
192,192,102849,1,0,0:0:0:0:
448,192,102849,1,0,0:0:0:0:
320,192,103288,1,0,0:0:0:0:
192,192,103435,1,0,0:0:0:0:
64,192,103581,1,0,0:0:0:0:
192,192,103727,1,0,0:0:0:0:
320,192,103874,1,0,0:0:0:0:
448,192,104020,1,0,0:0:0:0:
64,192,104020,1,0,0:0:0:0:
320,192,104167,1,0,0:0:0:0:
192,192,104167,1,0,0:0:0:0:
192,192,104459,1,0,0:0:0:0:
64,192,104459,1,0,0:0:0:0:
192,192,104606,1,0,0:0:0:0:
320,192,104679,1,0,0:0:0:0:
448,192,104752,1,0,0:0:0:0:
64,192,104752,1,0,0:0:0:0:
192,192,104898,1,0,0:0:0:0:
320,192,105045,1,0,0:0:0:0:
64,192,105191,1,0,0:0:0:0:
448,192,105191,1,0,0:0:0:0:
320,192,105630,1,0,0:0:0:0:
192,192,105776,1,0,0:0:0:0:
64,192,105923,1,0,0:0:0:0:
192,192,106069,1,0,0:0:0:0:
320,192,106215,1,0,0:0:0:0:
448,192,106362,1,0,0:0:0:0:
64,192,106362,1,0,0:0:0:0:
192,192,106508,1,0,0:0:0:0:
320,192,106801,1,0,0:0:0:0:
448,192,107093,1,0,0:0:0:0:
64,192,107093,1,0,0:0:0:0:
320,192,107240,1,0,0:0:0:0:
192,192,107386,1,0,0:0:0:0:
64,192,107532,1,0,0:0:0:0:
320,192,107532,1,0,0:0:0:0:
192,192,107971,1,0,0:0:0:0:
64,192,108118,1,0,0:0:0:0:
448,192,108264,1,0,0:0:0:0:
320,192,108410,1,0,0:0:0:0:
192,192,108557,1,0,0:0:0:0:
64,192,108703,1,0,0:0:0:0:
448,192,108703,1,0,0:0:0:0:
320,192,108849,1,0,0:0:0:0:
192,192,108849,1,0,0:0:0:0:
64,192,109142,1,0,0:0:0:0:
192,192,109142,1,0,0:0:0:0:
64,192,109435,1,0,0:0:0:0:
192,192,109581,1,0,0:0:0:0:
320,192,109727,1,0,0:0:0:0:
192,192,109874,1,0,0:0:0:0:
448,192,109874,1,0,0:0:0:0:
320,192,110313,1,0,0:0:0:0:
448,192,110606,1,0,0:0:0:0:
64,192,110606,1,0,0:0:0:0:
192,192,110752,1,0,0:0:0:0:
320,192,110898,1,0,0:0:0:0:
64,192,111045,1,0,0:0:0:0:
192,192,111045,1,0,0:0:0:0:
448,192,111191,1,0,0:0:0:0:
64,192,111484,1,0,0:0:0:0:
448,192,111630,1,0,0:0:0:0:
64,192,111776,1,0,0:0:0:0:
192,192,111923,1,0,0:0:0:0:
320,192,112069,1,0,0:0:0:0:
64,192,112215,1,0,0:0:0:0:
448,192,112215,1,0,0:0:0:0:
448,192,112947,1,0,0:0:0:0:
320,192,113093,1,0,0:0:0:0:
192,192,113240,1,0,0:0:0:0:
64,192,113386,1,0,0:0:0:0:
448,192,113386,1,0,0:0:0:0:
192,192,113532,1,0,0:0:0:0:
320,192,113532,1,0,0:0:0:0:
192,192,113825,1,0,0:0:0:0:
64,192,113825,1,0,0:0:0:0:
