osu file format v14

[General]
AudioFilename: audio.mp3
AudioLeadIn: 0
PreviewTime: 52186
Countdown: 0
SampleSet: Normal
StackLeniency: 0.7
Mode: 1
LetterboxInBreaks: 0
WidescreenStoryboard: 1

[Editor]
DistanceSpacing: 1
BeatDivisor: 6
GridSize: 32
TimelineZoom: 3.419998

[Metadata]
Title:OK I'm blue rat
TitleUnicode:OK I'm blue rat
Artist:E.G.G.
ArtistUnicode:E.G.G.
Creator:Genjuro
Version:DREAM's Daitatsujin
Source:太鼓の達人 イエローVer.
Tags:electronic instrumental video game taiko no tatsujin yellow version _wwwwww_wwwwww_ argentine dream _w6 im egg tnt
BeatmapID:2520232
BeatmapSetID:1184988

[Difficulty]
HPDrainRate:5
CircleSize:5
OverallDifficulty:7
ApproachRate:5
SliderMultiplier:1.4
SliderTickRate:1

[Events]
//Background and Video events
0,0,"dream bg.jpg",0,0
//Break Periods
//Storyboard Layer 0 (Background)
//Storyboard Layer 1 (Fail)
//Storyboard Layer 2 (Pass)
//Storyboard Layer 3 (Foreground)
//Storyboard Layer 4 (Overlay)
//Storyboard Sound Samples

[TimingPoints]
196,468.75,3,1,0,10,1,0
3008,468.75,5,1,0,10,1,0
5000,-100,5,1,0,70,0,0
5107,468.75,6,1,0,70,1,8
5107,-111.111111111111,6,1,0,70,0,8
5810,468.75,3,1,0,70,1,0
5810,-111.111111111111,6,1,0,70,0,8
6982,468.75,4,1,0,70,1,0
6982,-111.111111111111,6,1,0,70,0,8
8622,468.75,3,1,0,70,1,0
8622,-111.111111111111,6,1,0,70,0,8
9794,468.75,4,1,0,70,1,0
9794,-111.111111111111,6,1,0,70,0,8
11435,468.75,4,1,0,70,1,0
11435,-111.111111111111,6,1,0,70,0,8
13075,468.75,3,1,0,70,1,0
13075,-105.263157894737,3,1,0,70,0,0
14247,468.75,4,1,0,70,1,0
14247,-105.263157894737,3,1,0,70,0,0
15888,468.75,3,1,0,70,1,0
15888,-105.263157894737,3,1,0,70,0,0
17060,468.75,4,1,0,70,1,0
17060,-105.263157894737,3,1,0,70,0,0
18700,468.75,6,1,0,70,1,0
18700,-105.263157894737,3,1,0,70,0,0
20340,-100,3,1,0,70,0,0
21044,468.75,3,1,0,70,1,0
22216,468.75,4,1,0,70,1,0
23857,468.75,3,1,0,70,1,0
25028,468.75,4,1,0,70,1,0
26669,468.75,4,1,0,70,1,0
28310,468.75,3,1,0,70,1,0
29482,468.75,4,1,0,70,1,0
31122,468.75,3,1,0,70,1,0
32294,468.75,4,1,0,70,1,0
33935,468.75,4,1,0,70,1,0
35575,468.75,4,1,0,70,1,0
35809,-90.9090909090909,4,1,0,70,0,0
37216,468.75,3,1,0,70,1,0
37216,-90.9090909090909,4,1,0,70,0,0
38153,468.75,6,1,0,70,1,1
38153,-83.3333333333333,6,1,0,70,0,1
40732,468.75,6,1,0,70,1,1
40732,-83.3333333333333,6,1,0,70,0,1
42763,-83.3333333333333,6,1,0,70,0,0
43075,-100,6,1,0,70,0,0
43310,468.75,6,1,0,70,1,1
43310,-83.3333333333333,6,1,0,70,0,1
45888,468.75,5,1,0,70,1,1
45888,-83.3333333333333,6,1,0,70,0,1
47997,468.75,4,1,0,70,1,0
47997,-83.3333333333333,4,1,0,70,0,0
48231,-100,4,1,0,10,0,0
49638,468.75,6,1,0,10,1,0
52216,468.75,3,1,0,70,1,0
53388,468.75,4,1,0,70,1,1
56435,468.75,2,1,0,70,1,9
57138,468.75,4,1,0,70,1,1
58778,468.75,4,1,0,70,1,1
61825,468.75,2,1,0,70,1,9
62528,468.75,4,1,0,70,1,1
64169,468.75,4,1,0,70,1,0
65575,468.75,4,1,0,70,1,0
67216,468.75,3,1,0,70,1,0
68153,468.75,4,1,0,70,1,0
69794,468.75,4,1,0,70,1,1
72841,468.75,2,1,0,70,1,9
73544,468.75,4,1,0,70,1,1
75185,468.75,4,1,0,70,1,1
78232,468.75,2,1,0,70,1,9
78935,468.75,4,1,0,70,1,1
80575,468.75,3,1,0,70,1,0
80809,-125,3,1,0,70,0,0
86200,468.75,4,1,0,70,1,0
86200,-125,3,1,0,70,0,0
87841,468.75,3,1,0,70,1,0
87841,-111.111111111111,3,1,0,70,0,0
93466,468.75,4,1,0,70,1,0
93466,-111.111111111111,3,1,0,70,0,0
95106,468.75,3,1,0,70,1,0
95106,-105.263157894737,3,1,0,70,0,0
96278,468.75,4,1,0,70,1,0
96278,-105.263157894737,3,1,0,70,0,0
97919,468.75,3,1,0,70,1,0
97919,-105.263157894737,3,1,0,70,0,0
99091,468.75,4,1,0,70,1,0
99091,-105.263157894737,3,1,0,70,0,0
100732,468.75,6,1,0,70,1,0
100732,-105.263157894737,3,1,0,70,0,0
103075,468.75,3,1,0,70,1,0
104247,468.75,4,1,0,70,1,0
105888,468.75,3,1,0,70,1,0
107060,468.75,4,1,0,70,1,0
108700,468.75,4,1,0,70,1,0
110341,468.75,4,1,0,70,1,0
110341,-90.9090909090909,4,1,0,70,0,0
111982,468.75,5,1,0,70,1,0
111982,-90.9090909090909,4,1,0,70,0,0
112919,-100,4,1,0,70,0,0
114091,468.75,4,1,0,70,1,1
117138,468.75,2,1,0,70,1,9
117841,468.75,4,1,0,70,1,1
119482,468.75,4,1,0,70,1,1
122528,468.75,2,1,0,70,1,9
123232,468.75,4,1,0,70,1,1
124872,468.75,3,1,0,70,1,0
126278,468.75,4,1,0,70,1,0
127919,468.75,3,1,0,70,1,0
128857,468.75,4,1,0,70,1,0
130497,468.75,3,1,0,70,1,0
131669,468.75,4,1,0,70,1,0
133310,468.75,3,1,0,70,1,0
134482,468.75,4,1,0,70,1,0
136122,468.75,4,1,0,70,1,0
137763,468.75,4,1,0,70,1,0
139403,468.75,4,1,0,70,1,0
140820,468.75,3,1,0,70,1,0
140820,-25,3,1,0,70,0,0
140937,-100,3,1,0,10,0,0
141288,-25,3,1,0,10,0,0
143632,468.75,6,1,0,10,1,0
143632,-25,6,1,0,10,0,0
146316,-25,6,1,0,70,0,0
146434,468.75,6,1,0,70,1,0
146434,-25,6,1,0,70,0,0

[HitObjects]
256,192,196,12,0,4883,0:0:0:0:
224,160,5107,5,8,0:0:0:0:
224,160,5341,1,8,0:0:0:0:
224,160,5575,1,8,0:0:0:0:
224,224,5810,1,0,0:0:0:0:
224,160,6044,1,8,0:0:0:0:
224,224,6278,1,0,0:0:0:0:
224,224,6395,1,0,0:0:0:0:
224,160,6513,1,8,0:0:0:0:
224,160,6630,1,8,0:0:0:0:
224,160,6747,1,8,0:0:0:0:
224,224,6982,1,0,0:0:0:0:
224,160,7216,1,8,0:0:0:0:
224,224,7450,5,0,0:0:0:0:
224,224,7567,1,0,0:0:0:0:
224,224,7685,1,0,0:0:0:0:
224,224,7919,1,0,0:0:0:0:
224,160,8153,1,8,0:0:0:0:
224,224,8388,5,0,0:0:0:0:
224,224,8505,1,0,0:0:0:0:
224,160,8622,1,8,0:0:0:0:
224,224,8856,1,0,0:0:0:0:
224,224,9090,1,0,0:0:0:0:
224,224,9207,1,0,0:0:0:0:
224,160,9325,1,8,0:0:0:0:
224,160,9559,1,8,0:0:0:0:
224,224,9794,1,0,0:0:0:0:
224,160,10028,1,8,0:0:0:0:
224,160,10145,1,8,0:0:0:0:
224,160,10262,1,8,0:0:0:0:
224,224,10379,1,0,0:0:0:0:
224,160,10497,1,8,0:0:0:0:
224,224,10731,1,0,0:0:0:0:
224,224,10848,1,0,0:0:0:0:
224,160,10965,1,8,0:0:0:0:
224,224,11083,1,0,0:0:0:0:
224,224,11200,1,0,0:0:0:0:
224,224,11435,1,0,0:0:0:0:
224,160,11669,1,8,0:0:0:0:
224,160,11786,1,8,0:0:0:0:
224,160,11903,1,8,0:0:0:0:
224,160,12020,1,8,0:0:0:0:
224,160,12138,1,8,0:0:0:0:
224,224,12606,5,0,0:0:0:0:
224,224,12724,1,0,0:0:0:0:
224,224,12841,1,0,0:0:0:0:
224,160,13075,5,8,0:0:0:0:
224,224,13309,1,0,0:0:0:0:
224,160,13426,1,8,0:0:0:0:
224,224,13543,1,0,0:0:0:0:
224,224,13660,1,0,0:0:0:0:
224,160,13778,1,8,0:0:0:0:
224,160,13895,1,8,0:0:0:0:
224,160,14012,1,8,0:0:0:0:
224,160,14247,1,8,0:0:0:0:
224,224,14481,1,0,0:0:0:0:
224,160,14598,1,8,0:0:0:0:
224,224,14715,1,0,0:0:0:0:
224,160,14832,1,8,0:0:0:0:
224,224,14950,1,0,0:0:0:0:
224,160,15184,1,8,0:0:0:0:
224,160,15418,1,8,0:0:0:0:
224,224,15536,1,0,0:0:0:0:
224,160,15653,1,8,0:0:0:0:
224,224,15770,1,0,0:0:0:0:
224,160,15888,1,8,0:0:0:0:
224,160,16005,1,8,0:0:0:0:
224,224,16122,1,0,0:0:0:0:
224,160,16356,1,8,0:0:0:0:
224,224,16473,1,0,0:0:0:0:
224,224,16591,1,0,0:0:0:0:
224,160,16708,1,8,0:0:0:0:
224,224,16825,1,0,0:0:0:0:
224,160,16942,1,8,0:0:0:0:
224,224,17060,1,0,0:0:0:0:
224,160,17294,1,8,0:0:0:0:
224,224,17411,1,0,0:0:0:0:
224,160,17528,1,8,0:0:0:0:
224,160,17763,1,8,0:0:0:0:
224,160,17880,1,8,0:0:0:0:
224,160,17997,1,8,0:0:0:0:
224,224,18114,1,0,0:0:0:0:
224,160,18231,1,8,0:0:0:0:
224,160,18349,1,8,0:0:0:0:
224,224,18466,1,0,0:0:0:0:
224,160,18583,5,8,0:0:0:0:
224,224,18700,1,0,0:0:0:0:
224,160,18934,1,8,0:0:0:0:
224,160,19051,1,8,0:0:0:0:
224,160,19168,1,8,0:0:0:0:
224,224,19285,1,0,0:0:0:0:
224,160,19403,1,8,0:0:0:0:
224,224,19520,5,0,0:0:0:0:
224,160,19637,5,8,0:0:0:0:
224,160,19754,1,8,0:0:0:0:
224,224,19871,5,0,0:0:0:0:
224,160,19989,1,8,0:0:0:0:
224,224,20106,5,0,0:0:0:0:
224,224,20340,5,0,0:0:0:0:
224,160,20457,1,8,0:0:0:0:
224,160,20575,1,8,0:0:0:0:
224,160,20653,1,8,0:0:0:0:
224,160,20731,1,8,0:0:0:0:
288,224,20809,1,4,0:0:0:0:
288,160,21043,1,12,0:0:0:0:
224,160,21278,1,8,0:0:0:0:
224,160,21395,1,8,0:0:0:0:
224,224,21512,1,0,0:0:0:0:
224,224,21629,1,0,0:0:0:0:
224,160,21747,1,8,0:0:0:0:
224,160,21864,1,8,0:0:0:0:
224,224,21981,1,0,0:0:0:0:
224,160,22098,1,8,0:0:0:0:
224,224,22215,1,0,0:0:0:0:
224,160,22450,1,8,0:0:0:0:
224,160,22567,1,8,0:0:0:0:
224,224,22684,1,0,0:0:0:0:
224,160,22801,1,8,0:0:0:0:
224,160,22919,1,8,0:0:0:0:
224,224,23153,1,0,0:0:0:0:
288,160,23387,1,12,0:0:0:0:
224,224,23622,1,0,0:0:0:0:
224,224,23739,1,0,0:0:0:0:
224,160,23856,1,8,0:0:0:0:
224,160,23974,1,8,0:0:0:0:
224,160,24091,1,8,0:0:0:0:
224,160,24325,1,8,0:0:0:0:
224,224,24442,1,0,0:0:0:0:
224,224,24560,1,0,0:0:0:0:
224,160,24677,1,8,0:0:0:0:
224,224,24794,1,0,0:0:0:0:
224,160,24911,1,8,0:0:0:0:
288,224,25028,1,4,0:0:0:0:
224,160,25262,1,8,0:0:0:0:
224,224,25379,1,0,0:0:0:0:
224,160,25496,1,8,0:0:0:0:
224,160,25613,1,8,0:0:0:0:
224,224,25731,1,0,0:0:0:0:
224,160,25848,1,8,0:0:0:0:
288,160,25965,1,12,0:0:0:0:
224,224,26199,1,0,0:0:0:0:
224,160,26317,1,8,0:0:0:0:
224,160,26434,1,8,0:0:0:0:
224,160,26551,1,8,0:0:0:0:
288,224,26668,1,4,0:0:0:0:
224,160,26903,1,8,0:0:0:0:
224,224,27020,1,0,0:0:0:0:
224,160,27137,1,8,0:0:0:0:
224,160,27254,1,8,0:0:0:0:
224,224,27372,1,0,0:0:0:0:
224,160,27489,1,8,0:0:0:0:
224,224,27606,1,0,0:0:0:0:
224,160,27684,1,8,0:0:0:0:
224,160,27762,1,8,0:0:0:0:
224,224,27840,1,0,0:0:0:0:
224,224,27958,1,0,0:0:0:0:
224,160,28075,1,8,0:0:0:0:
224,160,28153,1,8,0:0:0:0:
224,160,28231,1,8,0:0:0:0:
288,224,28310,1,4,0:0:0:0:
224,160,28544,1,8,0:0:0:0:
224,160,28661,1,8,0:0:0:0:
224,224,28778,1,0,0:0:0:0:
224,224,28895,1,0,0:0:0:0:
224,160,29013,1,8,0:0:0:0:
224,160,29130,1,8,0:0:0:0:
224,224,29247,1,0,0:0:0:0:
224,160,29364,1,8,0:0:0:0:
224,224,29482,1,0,0:0:0:0:
224,160,29716,1,8,0:0:0:0:
224,160,29833,1,8,0:0:0:0:
224,224,29950,1,0,0:0:0:0:
224,160,30067,1,8,0:0:0:0:
224,160,30185,1,8,0:0:0:0:
224,224,30419,1,0,0:0:0:0:
288,160,30653,1,12,0:0:0:0:
224,224,30888,1,0,0:0:0:0:
224,224,31005,1,0,0:0:0:0:
224,160,31122,1,8,0:0:0:0:
224,160,31239,1,8,0:0:0:0:
224,160,31356,1,8,0:0:0:0:
224,160,31590,1,8,0:0:0:0:
224,224,31707,1,0,0:0:0:0:
224,224,31825,1,0,0:0:0:0:
224,160,31942,1,8,0:0:0:0:
224,224,32059,1,0,0:0:0:0:
224,160,32176,1,8,0:0:0:0:
288,224,32294,1,4,0:0:0:0:
224,160,32528,1,8,0:0:0:0:
224,224,32645,1,0,0:0:0:0:
224,160,32762,1,8,0:0:0:0:
224,160,32879,1,8,0:0:0:0:
224,224,32997,1,0,0:0:0:0:
224,160,33114,1,8,0:0:0:0:
288,160,33231,1,12,0:0:0:0:
224,224,33465,1,0,0:0:0:0:
224,160,33583,1,8,0:0:0:0:
224,160,33700,1,8,0:0:0:0:
224,160,33817,1,8,0:0:0:0:
288,224,33935,1,4,0:0:0:0:
224,160,34169,1,8,0:0:0:0:
224,224,34286,1,0,0:0:0:0:
224,160,34403,1,8,0:0:0:0:
224,160,34520,1,8,0:0:0:0:
224,224,34638,1,0,0:0:0:0:
224,160,34755,1,8,0:0:0:0:
224,224,34872,1,0,0:0:0:0:
224,160,34950,1,8,0:0:0:0:
224,160,35028,1,8,0:0:0:0:
224,224,35106,1,0,0:0:0:0:
224,224,35224,1,0,0:0:0:0:
224,160,35341,1,8,0:0:0:0:
224,160,35419,1,8,0:0:0:0:
224,160,35497,1,8,0:0:0:0:
288,224,35575,1,4,0:0:0:0:
224,160,35809,1,8,0:0:0:0:
224,160,35965,1,8,0:0:0:0:
224,160,36200,1,8,0:0:0:0:
224,160,36278,1,8,0:0:0:0:
224,224,36434,1,0,0:0:0:0:
224,160,36512,1,8,0:0:0:0:
224,224,36668,1,0,0:0:0:0:
224,160,36746,1,8,0:0:0:0:
224,160,36805,1,8,0:0:0:0:
224,160,36864,1,8,0:0:0:0:
224,160,36922,1,8,0:0:0:0:
224,224,36981,1,0,0:0:0:0:
224,160,37059,1,8,0:0:0:0:
224,160,37137,1,8,0:0:0:0:
288,224,37216,1,4,0:0:0:0:
224,160,37450,1,8,0:0:0:0:
224,224,37606,1,0,0:0:0:0:
224,160,37801,1,8,0:0:0:0:
224,224,37919,1,0,0:0:0:0:
288,224,38153,1,4,0:0:0:0:
224,224,38270,1,0,0:0:0:0:
224,160,38387,1,8,0:0:0:0:
224,224,38504,1,0,0:0:0:0:
224,160,38621,1,8,0:0:0:0:
224,160,38738,1,8,0:0:0:0:
224,224,38856,1,0,0:0:0:0:
224,160,38973,1,8,0:0:0:0:
288,224,39090,1,4,0:0:0:0:
224,224,39207,1,0,0:0:0:0:
224,160,39324,1,8,0:0:0:0:
224,224,39442,1,0,0:0:0:0:
224,160,39559,1,8,0:0:0:0:
288,160,39676,1,12,0:0:0:0:
224,224,39793,1,0,0:0:0:0:
224,160,39910,1,8,0:0:0:0:
224,160,40028,1,8,0:0:0:0:
224,224,40145,1,0,0:0:0:0:
224,160,40262,1,8,0:0:0:0:
224,224,40340,1,0,0:0:0:0:
224,224,40418,1,0,0:0:0:0:
224,160,40496,1,8,0:0:0:0:
224,160,40574,1,8,0:0:0:0:
224,160,40653,1,8,0:0:0:0:
288,224,40732,1,4,0:0:0:0:
224,224,40849,1,0,0:0:0:0:
224,160,40966,1,8,0:0:0:0:
224,224,41083,1,0,0:0:0:0:
224,160,41200,1,8,0:0:0:0:
288,160,41317,1,12,0:0:0:0:
224,224,41435,1,0,0:0:0:0:
224,160,41552,1,8,0:0:0:0:
224,224,41669,1,0,0:0:0:0:
224,160,41786,1,8,0:0:0:0:
224,224,41903,1,0,0:0:0:0:
224,160,41982,1,8,0:0:0:0:
224,160,42060,1,8,0:0:0:0:
224,224,42138,1,0,0:0:0:0:
224,160,42216,1,8,0:0:0:0:
224,160,42294,1,8,0:0:0:0:
288,224,42372,1,4,0:0:0:0:
288,160,42528,1,12,0:0:0:0:
224,224,42763,1,0,0:0:0:0:
224,160,43075,1,8,0:0:0:0:
224,160,43192,1,8,0:0:0:0:
288,224,43310,1,4,0:0:0:0:
224,224,43427,1,0,0:0:0:0:
224,160,43544,1,8,0:0:0:0:
224,224,43661,1,0,0:0:0:0:
224,160,43778,1,8,0:0:0:0:
224,160,43895,1,8,0:0:0:0:
224,224,44013,1,0,0:0:0:0:
224,160,44130,1,8,0:0:0:0:
288,224,44247,1,4,0:0:0:0:
224,224,44364,1,0,0:0:0:0:
224,160,44481,1,8,0:0:0:0:
224,224,44599,1,0,0:0:0:0:
224,160,44716,1,8,0:0:0:0:
288,160,44833,1,12,0:0:0:0:
224,224,44950,1,0,0:0:0:0:
224,160,45067,1,8,0:0:0:0:
224,160,45185,1,8,0:0:0:0:
224,224,45302,1,0,0:0:0:0:
224,160,45419,1,8,0:0:0:0:
224,224,45497,1,0,0:0:0:0:
224,224,45575,1,0,0:0:0:0:
224,160,45653,1,8,0:0:0:0:
224,160,45731,1,8,0:0:0:0:
224,160,45810,1,8,0:0:0:0:
288,224,45888,1,4,0:0:0:0:
224,224,46005,1,0,0:0:0:0:
224,160,46122,1,8,0:0:0:0:
224,224,46239,1,0,0:0:0:0:
224,160,46356,1,8,0:0:0:0:
288,160,46473,1,12,0:0:0:0:
224,224,46591,1,0,0:0:0:0:
224,160,46708,1,8,0:0:0:0:
224,224,46825,1,0,0:0:0:0:
224,160,46942,1,8,0:0:0:0:
224,224,47059,1,0,0:0:0:0:
224,160,47138,1,8,0:0:0:0:
224,160,47216,1,8,0:0:0:0:
224,224,47294,1,0,0:0:0:0:
224,160,47372,1,8,0:0:0:0:
224,160,47450,1,8,0:0:0:0:
288,224,47528,1,4,0:0:0:0:
288,160,47684,1,12,0:0:0:0:
224,224,47919,1,0,0:0:0:0:
224,224,47997,1,0,0:0:0:0:
256,192,48231,12,0,51747,0:0:0:0:
224,224,52216,5,0,0:0:0:0:
224,224,52333,1,0,0:0:0:0:
224,160,52450,1,8,0:0:0:0:
224,160,52567,1,8,0:0:0:0:
224,160,52684,1,8,0:0:0:0:
224,224,52801,1,0,0:0:0:0:
224,224,52919,1,0,0:0:0:0:
224,224,53036,1,0,0:0:0:0:
224,224,53153,1,0,0:0:0:0:
224,160,53270,1,8,0:0:0:0:
288,224,53388,1,4,0:0:0:0:
224,224,53505,1,0,0:0:0:0:
224,160,53622,1,8,0:0:0:0:
224,224,53739,1,0,0:0:0:0:
224,160,53856,1,8,0:0:0:0:
224,224,53973,1,0,0:0:0:0:
224,160,54091,1,8,0:0:0:0:
224,160,54208,1,8,0:0:0:0:
224,224,54325,1,0,0:0:0:0:
224,160,54442,1,8,0:0:0:0:
224,160,54559,1,8,0:0:0:0:
224,224,54677,1,0,0:0:0:0:
224,160,54794,1,8,0:0:0:0:
224,224,54911,1,0,0:0:0:0:
224,160,55028,1,8,0:0:0:0:
224,160,55087,1,8,0:0:0:0:
224,224,55145,1,0,0:0:0:0:
224,224,55263,1,0,0:0:0:0:
224,224,55380,1,0,0:0:0:0:
224,160,55497,1,8,0:0:0:0:
224,224,55614,1,0,0:0:0:0:
224,160,55731,1,8,0:0:0:0:
224,160,55848,1,8,0:0:0:0:
224,160,55966,1,8,0:0:0:0:
224,224,56083,1,0,0:0:0:0:
224,160,56200,1,8,0:0:0:0:
224,160,56259,1,8,0:0:0:0:
224,224,56317,1,0,0:0:0:0:
224,160,56435,1,8,0:0:0:0:
224,160,56493,1,8,0:0:0:0:
224,224,56552,1,0,0:0:0:0:
224,160,56669,1,8,0:0:0:0:
224,224,56786,1,0,0:0:0:0:
224,160,56903,1,8,0:0:0:0:
224,160,56962,1,8,0:0:0:0:
224,224,57020,1,0,0:0:0:0:
224,160,57138,1,8,0:0:0:0:
224,160,57196,1,8,0:0:0:0:
224,224,57255,1,0,0:0:0:0:
224,160,57372,1,8,0:0:0:0:
224,224,57489,1,0,0:0:0:0:
224,160,57606,1,8,0:0:0:0:
224,224,57665,1,0,0:0:0:0:
224,224,57723,1,0,0:0:0:0:
224,224,57782,1,0,0:0:0:0:
224,160,57841,1,8,0:0:0:0:
224,224,57958,1,0,0:0:0:0:
224,160,58075,1,8,0:0:0:0:
224,160,58153,1,8,0:0:0:0:
224,224,58231,1,0,0:0:0:0:
224,160,58309,1,8,0:0:0:0:
224,160,58368,1,8,0:0:0:0:
224,224,58427,1,0,0:0:0:0:
224,160,58544,1,8,0:0:0:0:
224,160,58602,1,8,0:0:0:0:
224,160,58661,1,8,0:0:0:0:
224,160,58720,1,8,0:0:0:0:
288,224,58778,1,4,0:0:0:0:
224,224,58895,1,0,0:0:0:0:
224,160,59012,1,8,0:0:0:0:
224,224,59129,1,0,0:0:0:0:
224,160,59246,1,8,0:0:0:0:
224,224,59363,1,0,0:0:0:0:
224,160,59481,1,8,0:0:0:0:
224,160,59598,1,8,0:0:0:0:
224,224,59715,1,0,0:0:0:0:
224,160,59832,1,8,0:0:0:0:
224,160,59949,1,8,0:0:0:0:
224,224,60067,1,0,0:0:0:0:
224,160,60184,1,8,0:0:0:0:
224,224,60301,1,0,0:0:0:0:
224,160,60418,1,8,0:0:0:0:
224,160,60477,1,8,0:0:0:0:
224,224,60535,1,0,0:0:0:0:
224,160,60653,1,8,0:0:0:0:
224,224,60770,1,0,0:0:0:0:
224,160,60887,1,8,0:0:0:0:
224,224,61004,1,0,0:0:0:0:
224,224,61063,1,0,0:0:0:0:
224,160,61121,1,8,0:0:0:0:
224,160,61238,1,8,0:0:0:0:
224,224,61356,1,0,0:0:0:0:
224,160,61473,1,8,0:0:0:0:
224,160,61590,1,8,0:0:0:0:
224,160,61649,1,8,0:0:0:0:
224,224,61707,1,0,0:0:0:0:
224,160,61825,1,8,0:0:0:0:
224,160,61883,1,8,0:0:0:0:
224,224,61942,1,0,0:0:0:0:
224,160,62059,1,8,0:0:0:0:
224,160,62176,1,8,0:0:0:0:
224,160,62293,1,8,0:0:0:0:
224,160,62352,1,8,0:0:0:0:
224,224,62410,1,0,0:0:0:0:
224,160,62528,1,8,0:0:0:0:
224,160,62586,1,8,0:0:0:0:
224,224,62645,1,0,0:0:0:0:
224,224,62762,1,0,0:0:0:0:
224,160,62879,1,8,0:0:0:0:
224,160,62996,1,8,0:0:0:0:
224,160,63055,1,8,0:0:0:0:
224,224,63113,1,0,0:0:0:0:
224,160,63231,1,8,0:0:0:0:
224,160,63348,1,8,0:0:0:0:
224,160,63465,1,8,0:0:0:0:
224,224,63582,1,0,0:0:0:0:
288,160,63699,1,12,0:0:0:0:
224,224,63817,1,0,0:0:0:0:
224,160,63934,1,8,0:0:0:0:
224,160,63992,1,8,0:0:0:0:
224,160,64051,1,8,0:0:0:0:
224,160,64110,1,8,0:0:0:0:
224,224,64168,1,0,0:0:0:0:
224,224,64403,1,0,0:0:0:0:
224,160,64637,1,8,0:0:0:0:
224,160,64754,1,8,0:0:0:0:
224,160,64989,1,8,0:0:0:0:
224,224,65106,1,0,0:0:0:0:
288,160,65340,1,12,0:0:0:0:
224,224,65575,1,0,0:0:0:0:
224,160,65809,1,8,0:0:0:0:
224,160,65926,1,8,0:0:0:0:
224,224,66278,1,0,0:0:0:0:
224,224,66395,1,0,0:0:0:0:
224,160,66512,1,8,0:0:0:0:
224,160,66668,1,8,0:0:0:0:
224,160,66825,1,8,0:0:0:0:
224,224,66981,1,0,0:0:0:0:
224,160,67098,1,8,0:0:0:0:
224,224,67215,1,0,0:0:0:0:
224,160,67333,1,8,0:0:0:0:
224,224,67450,1,0,0:0:0:0:
224,160,67567,5,8,0:0:0:0:
224,160,67801,1,8,0:0:0:0:
224,224,68036,1,0,0:0:0:0:
256,192,68153,2,0,L|256:160,10,23.3333333333333
256,192,69090,8,0,69676,0:0:0:0:
288,224,69794,5,4,0:0:0:0:
224,224,69911,1,0,0:0:0:0:
224,160,70028,1,8,0:0:0:0:
224,224,70145,1,0,0:0:0:0:
224,160,70262,1,8,0:0:0:0:
224,224,70379,1,0,0:0:0:0:
224,160,70497,1,8,0:0:0:0:
224,160,70614,1,8,0:0:0:0:
224,224,70731,1,0,0:0:0:0:
224,160,70848,1,8,0:0:0:0:
224,160,70965,1,8,0:0:0:0:
224,224,71083,1,0,0:0:0:0:
224,160,71200,1,8,0:0:0:0:
224,224,71317,1,0,0:0:0:0:
224,160,71434,1,8,0:0:0:0:
224,160,71493,1,8,0:0:0:0:
224,224,71551,1,0,0:0:0:0:
224,224,71669,1,0,0:0:0:0:
224,224,71786,1,0,0:0:0:0:
224,160,71903,1,8,0:0:0:0:
224,224,72020,1,0,0:0:0:0:
224,160,72137,1,8,0:0:0:0:
224,160,72254,1,8,0:0:0:0:
224,160,72372,1,8,0:0:0:0:
224,224,72489,1,0,0:0:0:0:
224,160,72606,1,8,0:0:0:0:
224,160,72665,1,8,0:0:0:0:
224,224,72723,1,0,0:0:0:0:
224,160,72841,1,8,0:0:0:0:
224,160,72899,1,8,0:0:0:0:
224,224,72958,1,0,0:0:0:0:
224,160,73075,1,8,0:0:0:0:
224,160,73192,1,8,0:0:0:0:
224,160,73309,1,8,0:0:0:0:
224,160,73368,1,8,0:0:0:0:
224,224,73426,1,0,0:0:0:0:
224,160,73544,1,8,0:0:0:0:
224,160,73602,1,8,0:0:0:0:
224,224,73661,1,0,0:0:0:0:
224,160,73778,1,8,0:0:0:0:
224,224,73895,1,0,0:0:0:0:
224,160,74012,1,8,0:0:0:0:
224,224,74071,1,0,0:0:0:0:
224,224,74129,1,0,0:0:0:0:
224,224,74188,1,0,0:0:0:0:
224,160,74247,1,8,0:0:0:0:
224,224,74364,1,0,0:0:0:0:
224,160,74481,1,8,0:0:0:0:
224,160,74559,1,8,0:0:0:0:
224,224,74637,1,0,0:0:0:0:
224,160,74715,1,8,0:0:0:0:
224,160,74774,1,8,0:0:0:0:
224,224,74833,1,0,0:0:0:0:
224,160,74950,1,8,0:0:0:0:
224,160,75008,1,8,0:0:0:0:
224,160,75067,1,8,0:0:0:0:
224,160,75126,1,8,0:0:0:0:
288,224,75184,1,4,0:0:0:0:
224,224,75302,1,0,0:0:0:0:
224,160,75419,1,8,0:0:0:0:
224,224,75536,1,0,0:0:0:0:
224,160,75653,1,8,0:0:0:0:
224,224,75770,1,0,0:0:0:0:
224,160,75888,1,8,0:0:0:0:
224,160,76005,1,8,0:0:0:0:
224,224,76122,1,0,0:0:0:0:
224,160,76239,1,8,0:0:0:0:
224,160,76356,1,8,0:0:0:0:
224,224,76474,1,0,0:0:0:0:
224,160,76591,1,8,0:0:0:0:
224,224,76708,1,0,0:0:0:0:
224,160,76825,1,8,0:0:0:0:
224,160,76884,1,8,0:0:0:0:
224,224,76942,1,0,0:0:0:0:
224,160,77060,1,8,0:0:0:0:
224,224,77177,1,0,0:0:0:0:
224,160,77294,1,8,0:0:0:0:
224,224,77411,1,0,0:0:0:0:
224,224,77470,1,0,0:0:0:0:
224,160,77528,1,8,0:0:0:0:
224,160,77645,1,8,0:0:0:0:
224,224,77763,1,0,0:0:0:0:
224,160,77880,1,8,0:0:0:0:
224,160,77997,1,8,0:0:0:0:
224,160,78056,1,8,0:0:0:0:
224,224,78114,1,0,0:0:0:0:
224,160,78231,1,8,0:0:0:0:
224,160,78290,1,8,0:0:0:0:
224,224,78349,1,0,0:0:0:0:
224,160,78466,1,8,0:0:0:0:
224,160,78583,1,8,0:0:0:0:
224,160,78700,1,8,0:0:0:0:
224,160,78759,1,8,0:0:0:0:
224,224,78817,1,0,0:0:0:0:
224,160,78935,1,8,0:0:0:0:
224,160,78993,1,8,0:0:0:0:
224,224,79052,1,0,0:0:0:0:
224,224,79169,1,0,0:0:0:0:
224,160,79286,1,8,0:0:0:0:
224,160,79403,1,8,0:0:0:0:
224,160,79462,1,8,0:0:0:0:
224,224,79520,1,0,0:0:0:0:
288,160,79638,1,12,0:0:0:0:
224,160,79872,1,8,0:0:0:0:
224,224,79989,1,0,0:0:0:0:
224,160,80106,1,8,0:0:0:0:
224,160,80165,1,8,0:0:0:0:
224,224,80224,1,0,0:0:0:0:
224,160,80341,1,8,0:0:0:0:
224,160,80399,1,8,0:0:0:0:
224,160,80458,1,8,0:0:0:0:
224,160,80517,1,8,0:0:0:0:
288,224,80575,1,4,0:0:0:0:
224,224,80926,1,0,0:0:0:0:
224,224,81043,1,0,0:0:0:0:
224,224,81278,1,0,0:0:0:0:
224,224,81395,1,0,0:0:0:0:
224,224,81512,1,0,0:0:0:0:
224,224,81746,1,0,0:0:0:0:
224,224,81981,1,0,0:0:0:0:
224,224,82098,1,0,0:0:0:0:
224,224,82332,1,0,0:0:0:0:
224,224,82450,1,0,0:0:0:0:
224,224,82567,1,0,0:0:0:0:
224,224,82684,1,0,0:0:0:0:
224,224,82918,1,0,0:0:0:0:
224,224,83035,1,0,0:0:0:0:
224,160,83153,1,8,0:0:0:0:
224,224,83270,1,0,0:0:0:0:
224,224,83387,1,0,0:0:0:0:
224,224,83739,1,0,0:0:0:0:
224,224,83856,1,0,0:0:0:0:
224,224,84090,1,0,0:0:0:0:
224,224,84325,1,0,0:0:0:0:
224,224,84442,1,0,0:0:0:0:
224,160,84559,1,8,0:0:0:0:
224,224,84793,1,0,0:0:0:0:
224,224,84910,1,0,0:0:0:0:
224,224,85028,1,0,0:0:0:0:
224,224,85262,1,0,0:0:0:0:
224,224,85496,1,0,0:0:0:0:
224,224,85614,1,0,0:0:0:0:
224,160,85731,1,8,0:0:0:0:
224,224,85848,1,0,0:0:0:0:
224,160,85965,1,8,0:0:0:0:
224,224,86200,1,0,0:0:0:0:
224,224,86434,1,0,0:0:0:0:
224,224,86551,1,0,0:0:0:0:
224,224,86668,1,0,0:0:0:0:
224,224,86903,1,0,0:0:0:0:
224,160,87137,1,8,0:0:0:0:
224,224,87254,1,0,0:0:0:0:
224,224,87371,1,0,0:0:0:0:
224,224,87489,1,0,0:0:0:0:
224,160,87606,1,8,0:0:0:0:
224,160,87723,1,8,0:0:0:0:
288,224,87841,1,4,0:0:0:0:
224,160,88075,1,8,0:0:0:0:
224,224,88192,1,0,0:0:0:0:
224,224,88309,1,0,0:0:0:0:
224,160,88426,1,8,0:0:0:0:
224,224,88544,1,0,0:0:0:0:
224,224,88778,1,0,0:0:0:0:
224,160,88895,1,8,0:0:0:0:
224,224,89012,1,0,0:0:0:0:
224,160,89130,1,8,0:0:0:0:
224,224,89247,1,0,0:0:0:0:
224,160,89481,1,8,0:0:0:0:
224,224,89598,1,0,0:0:0:0:
224,160,89716,1,8,0:0:0:0:
224,224,89833,1,0,0:0:0:0:
224,224,89950,1,0,0:0:0:0:
224,160,90067,1,8,0:0:0:0:
224,224,90184,1,0,0:0:0:0:
224,160,90301,1,8,0:0:0:0:
224,160,90419,1,8,0:0:0:0:
224,224,90653,1,0,0:0:0:0:
224,160,90770,1,8,0:0:0:0:
224,160,91005,1,8,0:0:0:0:
224,224,91122,1,0,0:0:0:0:
224,160,91239,1,8,0:0:0:0:
224,160,91473,1,8,0:0:0:0:
224,160,91591,1,8,0:0:0:0:
224,224,91708,1,0,0:0:0:0:
224,160,91825,1,8,0:0:0:0:
224,160,92059,1,8,0:0:0:0:
224,160,92176,1,8,0:0:0:0:
224,224,92294,1,0,0:0:0:0:
224,160,92411,1,8,0:0:0:0:
224,224,92528,1,0,0:0:0:0:
224,160,92645,1,8,0:0:0:0:
224,160,92762,1,8,0:0:0:0:
224,160,92997,1,8,0:0:0:0:
224,224,93114,1,0,0:0:0:0:
224,160,93231,1,8,0:0:0:0:
224,160,93466,1,8,0:0:0:0:
224,160,93700,1,8,0:0:0:0:
224,160,93817,1,8,0:0:0:0:
224,224,93934,1,0,0:0:0:0:
224,160,94051,1,8,0:0:0:0:
224,160,94169,1,8,0:0:0:0:
224,224,94286,1,0,0:0:0:0:
224,160,94403,1,8,0:0:0:0:
224,224,94520,1,0,0:0:0:0:
224,224,94637,1,0,0:0:0:0:
224,224,94755,1,0,0:0:0:0:
224,160,94872,1,8,0:0:0:0:
224,160,94989,1,8,0:0:0:0:
288,224,95106,1,4,0:0:0:0:
224,160,95340,1,8,0:0:0:0:
224,224,95457,1,0,0:0:0:0:
224,160,95691,1,8,0:0:0:0:
224,224,95809,1,0,0:0:0:0:
224,224,96043,1,0,0:0:0:0:
224,160,96160,1,8,0:0:0:0:
224,224,96278,1,0,0:0:0:0:
224,160,96395,1,8,0:0:0:0:
224,224,96512,1,0,0:0:0:0:
224,224,96746,1,0,0:0:0:0:
224,224,96863,1,0,0:0:0:0:
224,224,96981,1,0,0:0:0:0:
224,224,97215,1,0,0:0:0:0:
224,160,97332,1,8,0:0:0:0:
224,224,97449,1,0,0:0:0:0:
224,160,97567,1,8,0:0:0:0:
224,160,97684,1,8,0:0:0:0:
224,224,97801,1,0,0:0:0:0:
224,224,97919,1,0,0:0:0:0:
224,160,98036,1,8,0:0:0:0:
224,160,98270,1,8,0:0:0:0:
224,224,98387,1,0,0:0:0:0:
224,160,98504,1,8,0:0:0:0:
224,160,98739,1,8,0:0:0:0:
224,224,98856,1,0,0:0:0:0:
224,224,98973,1,0,0:0:0:0:
224,160,99091,1,8,0:0:0:0:
224,160,99325,1,8,0:0:0:0:
224,224,99442,1,0,0:0:0:0:
224,160,99559,1,8,0:0:0:0:
224,160,99676,1,8,0:0:0:0:
224,224,99794,1,0,0:0:0:0:
224,160,99911,1,8,0:0:0:0:
224,224,100028,1,0,0:0:0:0:
224,224,100145,1,0,0:0:0:0:
224,160,100262,1,8,0:0:0:0:
224,224,100380,1,0,0:0:0:0:
224,160,100497,1,8,0:0:0:0:
224,224,100732,1,0,0:0:0:0:
224,160,100966,1,8,0:0:0:0:
224,160,101083,1,8,0:0:0:0:
224,224,101200,1,0,0:0:0:0:
224,224,101317,1,0,0:0:0:0:
224,160,101435,1,8,0:0:0:0:
224,224,101552,1,0,0:0:0:0:
224,160,101669,1,8,0:0:0:0:
224,224,101786,1,0,0:0:0:0:
224,224,101903,1,0,0:0:0:0:
224,224,102021,1,0,0:0:0:0:
224,160,102138,1,8,0:0:0:0:
224,160,102255,1,8,0:0:0:0:
224,224,102372,1,0,0:0:0:0:
224,160,102489,1,8,0:0:0:0:
224,160,102607,1,8,0:0:0:0:
224,160,102685,1,8,0:0:0:0:
224,160,102763,1,8,0:0:0:0:
288,224,102841,1,4,0:0:0:0:
288,160,103075,1,12,0:0:0:0:
224,160,103309,1,8,0:0:0:0:
224,160,103426,1,8,0:0:0:0:
224,224,103543,1,0,0:0:0:0:
224,224,103660,1,0,0:0:0:0:
224,160,103778,1,8,0:0:0:0:
224,160,103895,1,8,0:0:0:0:
224,224,104012,1,0,0:0:0:0:
224,160,104129,1,8,0:0:0:0:
224,224,104246,1,0,0:0:0:0:
224,160,104481,1,8,0:0:0:0:
224,160,104598,1,8,0:0:0:0:
224,224,104715,1,0,0:0:0:0:
224,160,104832,1,8,0:0:0:0:
224,160,104950,1,8,0:0:0:0:
224,224,105184,1,0,0:0:0:0:
288,160,105418,1,12,0:0:0:0:
224,224,105653,1,0,0:0:0:0:
224,224,105770,1,0,0:0:0:0:
224,160,105887,1,8,0:0:0:0:
224,160,106005,1,8,0:0:0:0:
224,160,106122,1,8,0:0:0:0:
224,160,106356,1,8,0:0:0:0:
224,224,106473,1,0,0:0:0:0:
224,224,106591,1,0,0:0:0:0:
224,160,106708,1,8,0:0:0:0:
224,224,106825,1,0,0:0:0:0:
224,160,106942,1,8,0:0:0:0:
288,224,107059,1,4,0:0:0:0:
224,160,107294,1,8,0:0:0:0:
224,224,107411,1,0,0:0:0:0:
224,160,107528,1,8,0:0:0:0:
224,160,107645,1,8,0:0:0:0:
224,224,107763,1,0,0:0:0:0:
224,160,107880,1,8,0:0:0:0:
288,160,107997,1,12,0:0:0:0:
224,224,108231,1,0,0:0:0:0:
224,160,108349,1,8,0:0:0:0:
224,160,108466,1,8,0:0:0:0:
224,160,108583,1,8,0:0:0:0:
288,224,108700,1,4,0:0:0:0:
224,160,108934,1,8,0:0:0:0:
224,224,109051,1,0,0:0:0:0:
224,160,109168,1,8,0:0:0:0:
224,160,109285,1,8,0:0:0:0:
224,224,109403,1,0,0:0:0:0:
224,160,109520,1,8,0:0:0:0:
224,224,109637,1,0,0:0:0:0:
224,160,109715,1,8,0:0:0:0:
224,160,109793,1,8,0:0:0:0:
224,224,109871,1,0,0:0:0:0:
224,224,109989,1,0,0:0:0:0:
224,160,110106,1,8,0:0:0:0:
224,160,110184,1,8,0:0:0:0:
224,160,110262,1,8,0:0:0:0:
288,224,110341,1,4,0:0:0:0:
224,160,110575,1,8,0:0:0:0:
224,160,110731,1,8,0:0:0:0:
224,160,110966,1,8,0:0:0:0:
224,160,111044,1,8,0:0:0:0:
224,224,111200,1,0,0:0:0:0:
224,160,111278,1,8,0:0:0:0:
224,224,111434,1,0,0:0:0:0:
224,160,111512,1,8,0:0:0:0:
224,160,111571,1,8,0:0:0:0:
224,160,111630,1,8,0:0:0:0:
224,160,111688,1,8,0:0:0:0:
224,224,111747,5,0,0:0:0:0:
224,160,111825,1,8,0:0:0:0:
224,160,111903,1,8,0:0:0:0:
288,224,111982,1,4,0:0:0:0:
224,160,112216,1,8,0:0:0:0:
224,224,112372,1,0,0:0:0:0:
224,160,112567,1,8,0:0:0:0:
224,224,112685,1,0,0:0:0:0:
224,224,112919,5,0,0:0:0:0:
224,224,113036,1,0,0:0:0:0:
224,160,113153,1,8,0:0:0:0:
224,160,113271,1,8,0:0:0:0:
224,160,113388,1,8,0:0:0:0:
224,224,113505,1,0,0:0:0:0:
224,224,113622,1,0,0:0:0:0:
224,224,113739,1,0,0:0:0:0:
224,224,113857,1,0,0:0:0:0:
224,160,113974,1,8,0:0:0:0:
288,224,114091,1,4,0:0:0:0:
224,224,114208,1,0,0:0:0:0:
224,160,114325,1,8,0:0:0:0:
224,224,114442,1,0,0:0:0:0:
224,160,114559,1,8,0:0:0:0:
224,224,114676,1,0,0:0:0:0:
224,160,114794,1,8,0:0:0:0:
224,160,114911,1,8,0:0:0:0:
224,224,115028,1,0,0:0:0:0:
224,160,115145,1,8,0:0:0:0:
224,160,115262,1,8,0:0:0:0:
224,224,115380,1,0,0:0:0:0:
224,160,115497,1,8,0:0:0:0:
224,224,115614,1,0,0:0:0:0:
224,160,115731,1,8,0:0:0:0:
224,160,115790,1,8,0:0:0:0:
224,224,115848,1,0,0:0:0:0:
224,224,115966,1,0,0:0:0:0:
224,224,116083,1,0,0:0:0:0:
224,160,116200,1,8,0:0:0:0:
224,224,116317,1,0,0:0:0:0:
224,160,116434,1,8,0:0:0:0:
224,160,116551,1,8,0:0:0:0:
224,160,116669,1,8,0:0:0:0:
224,224,116786,1,0,0:0:0:0:
224,160,116903,1,8,0:0:0:0:
224,160,116962,1,8,0:0:0:0:
224,224,117020,1,0,0:0:0:0:
224,160,117138,1,8,0:0:0:0:
224,160,117196,1,8,0:0:0:0:
224,224,117255,1,0,0:0:0:0:
224,160,117372,1,8,0:0:0:0:
224,160,117489,1,8,0:0:0:0:
224,160,117606,1,8,0:0:0:0:
224,160,117665,1,8,0:0:0:0:
224,224,117723,1,0,0:0:0:0:
224,160,117841,1,8,0:0:0:0:
224,160,117899,1,8,0:0:0:0:
224,224,117958,1,0,0:0:0:0:
224,160,118075,1,8,0:0:0:0:
224,224,118192,1,0,0:0:0:0:
224,160,118309,1,8,0:0:0:0:
224,224,118368,1,0,0:0:0:0:
224,224,118426,1,0,0:0:0:0:
224,224,118485,1,0,0:0:0:0:
224,160,118544,1,8,0:0:0:0:
224,224,118661,1,0,0:0:0:0:
224,160,118778,1,8,0:0:0:0:
224,160,118856,1,8,0:0:0:0:
224,224,118934,1,0,0:0:0:0:
224,160,119012,1,8,0:0:0:0:
224,160,119071,1,8,0:0:0:0:
224,224,119130,1,0,0:0:0:0:
224,160,119247,1,8,0:0:0:0:
224,160,119305,1,8,0:0:0:0:
224,160,119364,1,8,0:0:0:0:
224,160,119423,1,8,0:0:0:0:
288,224,119481,1,4,0:0:0:0:
224,224,119599,1,0,0:0:0:0:
224,160,119716,1,8,0:0:0:0:
224,224,119833,1,0,0:0:0:0:
224,160,119950,1,8,0:0:0:0:
224,224,120067,1,0,0:0:0:0:
224,160,120185,1,8,0:0:0:0:
224,160,120302,1,8,0:0:0:0:
224,224,120419,1,0,0:0:0:0:
224,160,120536,1,8,0:0:0:0:
224,160,120653,1,8,0:0:0:0:
224,224,120771,1,0,0:0:0:0:
224,160,120888,1,8,0:0:0:0:
224,224,121005,1,0,0:0:0:0:
224,160,121122,1,8,0:0:0:0:
224,160,121181,1,8,0:0:0:0:
224,224,121239,1,0,0:0:0:0:
224,160,121357,1,8,0:0:0:0:
224,224,121474,1,0,0:0:0:0:
224,160,121591,1,8,0:0:0:0:
224,224,121708,1,0,0:0:0:0:
224,224,121767,1,0,0:0:0:0:
224,160,121825,1,8,0:0:0:0:
224,160,121942,1,8,0:0:0:0:
224,224,122060,1,0,0:0:0:0:
224,160,122177,1,8,0:0:0:0:
224,160,122294,1,8,0:0:0:0:
224,160,122353,1,8,0:0:0:0:
224,224,122411,1,0,0:0:0:0:
224,160,122528,1,8,0:0:0:0:
224,160,122586,1,8,0:0:0:0:
224,224,122645,1,0,0:0:0:0:
224,160,122762,1,8,0:0:0:0:
224,160,122879,1,8,0:0:0:0:
224,160,122996,1,8,0:0:0:0:
224,160,123055,1,8,0:0:0:0:
224,224,123113,1,0,0:0:0:0:
224,160,123231,1,8,0:0:0:0:
224,160,123290,1,8,0:0:0:0:
224,224,123349,1,0,0:0:0:0:
224,224,123466,1,0,0:0:0:0:
224,160,123583,1,8,0:0:0:0:
224,160,123700,1,8,0:0:0:0:
224,160,123759,1,8,0:0:0:0:
224,224,123817,1,0,0:0:0:0:
224,160,123935,1,8,0:0:0:0:
224,160,124052,1,8,0:0:0:0:
224,160,124169,1,8,0:0:0:0:
224,224,124286,1,0,0:0:0:0:
288,160,124403,1,12,0:0:0:0:
224,224,124521,1,0,0:0:0:0:
224,160,124638,1,8,0:0:0:0:
224,160,124696,1,8,0:0:0:0:
224,160,124755,1,8,0:0:0:0:
224,160,124814,1,8,0:0:0:0:
224,224,124872,1,0,0:0:0:0:
224,224,125106,1,0,0:0:0:0:
224,160,125340,1,8,0:0:0:0:
224,160,125457,1,8,0:0:0:0:
224,160,125692,1,8,0:0:0:0:
224,224,125809,1,0,0:0:0:0:
288,160,126043,1,12,0:0:0:0:
224,224,126278,1,0,0:0:0:0:
224,160,126512,1,8,0:0:0:0:
224,160,126629,1,8,0:0:0:0:
224,224,126981,1,0,0:0:0:0:
224,224,127098,1,0,0:0:0:0:
224,160,127215,1,8,0:0:0:0:
224,160,127371,1,8,0:0:0:0:
224,160,127528,1,8,0:0:0:0:
224,224,127684,1,0,0:0:0:0:
224,160,127801,1,8,0:0:0:0:
224,224,127918,1,0,0:0:0:0:
224,160,128036,1,8,0:0:0:0:
224,224,128153,1,0,0:0:0:0:
224,160,128270,5,8,0:0:0:0:
224,160,128504,1,8,0:0:0:0:
224,224,128739,1,0,0:0:0:0:
256,192,128856,2,0,L|256:160,10,23.3333333333333
256,192,129794,8,0,130380,0:0:0:0:
288,160,130497,5,12,0:0:0:0:
224,160,130731,1,8,0:0:0:0:
224,160,130848,1,8,0:0:0:0:
224,224,130965,1,0,0:0:0:0:
224,224,131082,1,0,0:0:0:0:
224,160,131200,1,8,0:0:0:0:
224,160,131317,1,8,0:0:0:0:
224,224,131434,1,0,0:0:0:0:
224,160,131551,1,8,0:0:0:0:
224,224,131669,1,0,0:0:0:0:
224,160,131903,1,8,0:0:0:0:
224,160,132020,1,8,0:0:0:0:
224,224,132137,1,0,0:0:0:0:
224,160,132254,1,8,0:0:0:0:
224,160,132372,1,8,0:0:0:0:
224,224,132606,1,0,0:0:0:0:
288,160,132840,1,12,0:0:0:0:
224,224,133075,1,0,0:0:0:0:
224,224,133192,1,0,0:0:0:0:
224,160,133310,1,8,0:0:0:0:
224,160,133427,1,8,0:0:0:0:
224,160,133544,1,8,0:0:0:0:
224,160,133778,1,8,0:0:0:0:
224,224,133895,1,0,0:0:0:0:
224,224,134013,1,0,0:0:0:0:
224,160,134130,1,8,0:0:0:0:
224,224,134247,1,0,0:0:0:0:
224,160,134364,1,8,0:0:0:0:
288,224,134482,1,4,0:0:0:0:
224,160,134716,1,8,0:0:0:0:
224,224,134833,1,0,0:0:0:0:
224,160,134950,1,8,0:0:0:0:
224,160,135067,1,8,0:0:0:0:
224,224,135185,1,0,0:0:0:0:
224,160,135302,1,8,0:0:0:0:
288,160,135419,1,12,0:0:0:0:
224,224,135653,1,0,0:0:0:0:
224,160,135771,1,8,0:0:0:0:
224,160,135888,1,8,0:0:0:0:
224,160,136005,1,8,0:0:0:0:
288,224,136122,1,4,0:0:0:0:
224,160,136356,1,8,0:0:0:0:
224,224,136473,1,0,0:0:0:0:
224,160,136590,1,8,0:0:0:0:
224,160,136707,1,8,0:0:0:0:
224,224,136825,1,0,0:0:0:0:
224,160,136942,1,8,0:0:0:0:
224,224,137059,1,0,0:0:0:0:
224,160,137137,1,8,0:0:0:0:
224,160,137215,1,8,0:0:0:0:
224,224,137293,1,0,0:0:0:0:
224,224,137411,1,0,0:0:0:0:
224,160,137528,1,8,0:0:0:0:
224,160,137606,1,8,0:0:0:0:
224,160,137684,1,8,0:0:0:0:
288,224,137762,1,4,0:0:0:0:
224,160,137997,1,8,0:0:0:0:
224,160,138153,1,8,0:0:0:0:
224,160,138388,1,8,0:0:0:0:
224,160,138466,1,8,0:0:0:0:
224,224,138622,1,0,0:0:0:0:
224,160,138700,1,8,0:0:0:0:
224,224,138856,1,0,0:0:0:0:
224,160,138934,1,8,0:0:0:0:
224,160,138993,1,8,0:0:0:0:
224,160,139052,1,8,0:0:0:0:
224,160,139110,1,8,0:0:0:0:
224,224,139169,1,0,0:0:0:0:
224,160,139247,1,8,0:0:0:0:
224,160,139325,1,8,0:0:0:0:
288,224,139403,1,4,0:0:0:0:
224,160,139637,5,8,0:0:0:0:
224,224,139793,1,0,0:0:0:0:
224,160,139988,1,8,0:0:0:0:
224,224,140106,1,0,0:0:0:0:
288,224,140820,5,4,0:0:0:0:
256,192,141054,12,0,146210,0:0:0:0:
224,160,146434,5,8,0:0:0:0:
224,160,146512,1,8,0:0:0:0:
224,224,146590,1,0,0:0:0:0:
