osu file format v14

[General]
AudioFilename: audio.mp3
AudioLeadIn: 0
PreviewTime: 9937
Countdown: 0
SampleSet: Normal
StackLeniency: 0.7
Mode: 0
LetterboxInBreaks: 0
EpilepsyWarning: 1
WidescreenStoryboard: 0

[Editor]
DistanceSpacing: 1.3
BeatDivisor: 2
GridSize: 8
TimelineZoom: 1

[Metadata]
Title:dlya tebya
TitleUnicode:dlya tebya
Artist:E-Phoria, D.Substance And Jin
ArtistUnicode:E-Phoria, D.Substance And Jin
Creator:TeranVova
Version:Insane
Source:VK
Tags:E-Phoria, D.Substance And Jin dlya tebya VK
BeatmapID:4533521
BeatmapSetID:2151689

[Difficulty]
HPDrainRate:5
CircleSize:3
OverallDifficulty:5
ApproachRate:10
SliderMultiplier:1.99999990463257
SliderTickRate:1

[Events]
//Background and Video events
0,0,"WhatsApp Image 2024-03-17 at 11.10.57.jpeg",0,0
Video,0,"output(compress-video-online.com) (1).mp4"
//Break Periods
//Storyboard Layer 0 (Background)
//Storyboard Layer 1 (Fail)
//Storyboard Layer 2 (Pass)
//Storyboard Layer 3 (Foreground)
//Storyboard Layer 4 (Overlay)
//Storyboard Sound Samples

[TimingPoints]
-0.376146788990809,375,4,1,0,100,1,0

[HitObjects]
256,192,1687,12,0,5624,0:0:0:0:
93,79,5812,5,0,0:0:0:0:
200,239,5999,1,0,0:0:0:0:
355,48,6187,2,0,L|272:123,1,99.9999952316283
161,208,6562,1,0,0:0:0:0:
392,66,6937,1,0,0:0:0:0:
253,213,7124,1,0,0:0:0:0:
62,47,7312,2,0,L|138:127,1,99.9999952316283
381,298,7687,1,0,0:0:0:0:
248,68,7874,2,0,L|127:173,1,99.9999952316283
370,136,8249,1,0,0:0:0:0:
82,269,8437,1,0,0:0:0:0:
220,71,8624,1,0,0:0:0:0:
366,281,8812,1,0,0:0:0:0:
157,172,8999,2,0,L|50:170,1,99.9999952316283
311,76,9374,2,0,L|436:78,1,99.9999952316283
85,73,10874,2,0,L|86:203,1,99.9999952316283
185,211,11249,1,0,0:0:0:0:
240,81,11437,1,0,0:0:0:0:
343,193,11624,1,0,0:0:0:0:
271,295,11812,2,0,P|65:296|52:289,1,199.999990463257
66,52,12374,2,0,P|230:52|237:57,1,99.9999952316283
374,131,12749,2,0,P|303:213|261:220,2,99.9999952316283
206,65,13312,2,0,P|53:203|53:212,1,199.999990463257
116,287,13874,2,0,L|197:220,2,99.9999952316283
345,137,14437,2,0,L|344:246,1,99.9999952316283
158,54,14812,2,0,P|201:353|204:360,1,299.999985694885
360,65,15562,2,0,L|234:69,1,99.9999952316283
180,235,15937,2,0,B|296:246|310:218|310:168|336:165,1,99.9999952316283
96,53,16312,2,0,L|78:182,1,99.9999952316283
166,334,16687,1,0,0:0:0:0:
361,69,16874,2,0,L|282:130,1,79.9999961853028
185,208,17249,2,0,L|268:150,1,79.9999961853028
69,45,17624,1,0,0:0:0:0:
71,315,17812,1,0,0:0:0:0:
70,52,17999,1,0,0:0:0:0:
71,315,18187,1,0,0:0:0:0:
336,296,18374,2,0,L|167:247,1,159.999992370606
112,147,18937,2,0,L|216:135,6,99.9999952316283
376,81,20249,2,0,L|374:203,1,99.9999952316283
344,278,20624,2,0,L|252:346,1,99.9999952316283
155,307,20999,6,0,L|79:231,1,99.9999952316283
245,175,21374,1,0,0:0:0:0:
63,48,21562,2,0,L|84:158,1,99.9999952316283
171,46,21937,2,0,L|171:154,1,99.9999952316283
288,52,22312,2,0,L|278:167,1,99.9999952316283
409,334,22687,1,0,0:0:0:0:
444,44,22874,2,0,L|436:167,1,99.9999952316285
330,39,23249,6,0,L|321:162,1,99.9999952316285
209,39,23624,2,0,L|203:161,1,99.9999952316285
48,84,23999,1,0,0:0:0:0:
66,345,24187,2,0,L|91:237,1,99.9999952316285
174,344,24562,2,0,L|175:237,1,99.9999952316285
275,353,24937,2,0,L|268:234,1,99.9999952316285
374,352,25312,2,0,L|367:244,1,99.9999952316285
105,54,25687,1,0,0:0:0:0:
98,108,25780,1,0,0:0:0:0:
92,143,25874,1,0,0:0:0:0:
84,192,25968,1,0,0:0:0:0:
439,68,26062,2,0,L|316:68,1,99.9999952316285
233,185,26437,2,0,L|371:185,1,99.9999952316285
49,55,26812,1,0,0:0:0:0:
461,339,26999,2,0,L|374:278,1,99.9999952316285
180,150,27374,2,0,L|269:204,1,99.9999952316285
433,93,27749,2,0,L|379:180,1,99.9999952316285
249,340,28124,1,0,0:0:0:0:
65,46,28312,2,0,L|107:152,1,99.9999952316285
212,37,28687,2,0,L|218:165,1,99.9999952316285
433,43,29062,2,0,L|388:150,1,99.9999952316285
369,318,29437,2,0,L|223:344,1,99.9999952316285
102,206,29812,2,0,P|113:67|132:48,1,99.9999952316285
192,77,30187,2,0,P|258:214|258:218,1,99.9999952316285
387,253,30562,5,0,0:0:0:0:
387,253,30749,1,0,0:0:0:0:
360,75,30999,2,0,L|204:78,1,133.333326975505
101,264,31499,6,0,L|234:237,1,133.333326975505
374,108,31999,1,0,0:0:0:0:
374,108,32124,1,0,0:0:0:0:
72,55,32437,1,0,0:0:0:0:
157,288,32624,5,0,0:0:0:0:
382,59,32874,2,0,L|246:66,1,133.333326975505
331,269,33249,5,0,0:0:0:0:
125,72,33562,2,0,L|124:209,1,99.9999952316285
250,66,33937,2,0,L|248:195,1,99.9999952316285
367,62,34312,2,0,L|367:169,1,99.9999952316285
147,304,34624,1,0,0:0:0:0:
34,52,34874,2,0,L|142:51,1,99.9999952316285
457,170,35249,2,0,L|341:171,1,99.9999952316285
41,292,35624,2,0,L|180:292,1,99.9999952316285
404,321,35999,2,0,L|311:245,1,66.6666634877523
115,79,36374,2,0,L|221:172,1,99.9999952316285
255,316,36749,2,0,L|149:272,1,99.9999952316285
364,126,37124,2,0,L|263:81,2,99.9999952316285
85,79,37687,2,0,L|86:234,1,99.9999952316285
141,325,38062,1,0,0:0:0:0:
343,96,38249,1,0,0:0:0:0:
336,281,38437,2,0,L|234:215,1,99.9999952316285
69,75,38812,2,0,L|231:72,1,99.9999952316285
439,88,39187,2,0,L|334:86,1,99.9999952316285
131,272,39562,1,0,0:0:0:0:
251,149,39749,1,0,0:0:0:0:
380,287,39937,1,0,0:0:0:0:
406,78,40124,2,0,L|290:77,1,99.9999952316285
164,80,40499,1,0,0:0:0:0:
151,237,40687,2,0,L|264:240,1,99.9999952316285
371,251,41062,1,0,0:0:0:0:
122,79,41249,1,0,0:0:0:0:
275,90,41437,2,0,P|422:124|448:184,1,199.999990463257
428,282,41999,1,0,0:0:0:0:
91,145,42187,1,0,0:0:0:0:
101,295,42374,2,0,L|218:253,1,99.9999952316285
250,184,42749,2,0,L|286:169,4,24.9999988079071
98,54,43124,2,0,L|99:176,1,99.9999952316285
162,340,43499,2,0,L|162:229,1,99.9999952316285
49,181,43874,2,0,L|165:181,1,99.9999952316285
461,188,44249,1,0,0:0:0:0:
299,43,44437,2,0,L|299:157,1,99.9999952316285
332,344,44812,2,0,L|332:234,1,99.9999952316285
50,194,45187,2,0,L|160:193,1,99.9999952316285
50,194,45562,1,0,0:0:0:0:
210,74,45749,1,0,0:0:0:0:
401,232,45937,1,0,0:0:0:0:
240,323,46124,1,0,0:0:0:0:
95,198,46312,1,0,0:0:0:0:
221,59,46499,1,0,0:0:0:0:
364,122,46687,1,0,0:0:0:0:
369,292,46874,2,0,L|261:304,1,99.9999952316285
181,314,47249,2,0,L|72:292,1,99.9999952316285
87,236,47624,1,0,0:0:0:0:
94,183,47749,1,0,0:0:0:0:
101,141,47874,1,0,0:0:0:0:
130,98,47999,1,0,0:0:0:0:
160,54,48124,1,0,0:0:0:0:
214,40,48249,1,0,0:0:0:0:
260,40,48374,1,0,0:0:0:0:
402,344,48562,2,0,L|401:226,1,99.9999952316285
302,345,48937,2,0,L|301:241,1,99.9999952316285
93,42,49499,2,0,L|93:153,1,99.9999952316285
203,44,49874,2,0,L|203:164,1,99.9999952316285
345,179,50249,2,0,P|287:278|340:178,1,299.999985694885
61,65,50999,2,0,L|181:65,1,99.9999952316285
61,177,51374,2,0,L|166:177,1,99.9999952316285
56,295,51749,2,0,L|169:293,1,99.9999952316285
135,82,52312,2,0,L|9:88,1,99.9999952316285
246,224,52687,1,0,0:0:0:0:
330,88,52874,2,0,L|430:98,1,99.9999952316285
195,98,53249,2,0,L|161:117,4,28.5714272090367
