osu file format v14

[General]
AudioFilename: audio.mp3
AudioLeadIn: 0
PreviewTime: -1
Countdown: 1
SampleSet: Soft
StackLeniency: 0.7
Mode: 0
LetterboxInBreaks: 0
WidescreenStoryboard: 0

[Editor]
DistanceSpacing: 0.8
BeatDivisor: 4
GridSize: 32
TimelineZoom: 1

[Metadata]
Title:Be A King
TitleUnicode:Be A King
Artist:E-Dubble
ArtistUnicode:E-Dubble
Creator:jasionnn
Version:Hard
Source:
Tags:
BeatmapID:1314713
BeatmapSetID:623746

[Difficulty]
HPDrainRate:4
CircleSize:4
OverallDifficulty:4
ApproachRate:7
SliderMultiplier:1.6
SliderTickRate:1

[Events]
//Background and Video events
//Break Periods
//Storyboard Layer 0 (Background)
//Storyboard Layer 1 (Fail)
//Storyboard Layer 2 (Pass)
//Storyboard Layer 3 (Foreground)
//Storyboard Sound Samples

[TimingPoints]
336,292.682926829268,4,2,0,100,1,0

[HitObjects]
128,193,9409,5,0,0:0:0:0:
140,155,9482,1,0,0:0:0:0:
163,121,9555,1,0,0:0:0:0:
194,94,9628,1,0,0:0:0:0:
233,77,9701,2,0,P|312:75|373:108,1,120
301,190,10067,2,0,P|332:240|450:219,1,160
453,215,10506,1,0,0:0:0:0:
413,101,10799,2,0,L|258:47,1,160
128,64,11384,1,0,0:0:0:0:
224,128,11531,1,0,0:0:0:0:
128,192,11677,1,0,0:0:0:0:
224,256,11823,1,0,0:0:0:0:
320,192,11970,1,0,0:0:0:0:
413,101,12262,6,0,P|483:165|471:249,1,160
326,257,12848,1,0,0:0:0:0:
427,307,13140,2,0,L|505:262,3,80
448,160,13726,1,0,0:0:0:0:
352,160,13872,1,0,0:0:0:0:
352,64,14018,1,0,0:0:0:0:
256,64,14165,1,0,0:0:0:0:
212,162,14311,2,0,P|156:204|75:171,1,160
77,174,14750,1,0,0:0:0:0:
176,87,14896,2,0,P|252:87|326:151,1,160
234,196,15482,2,0,P|208:250|279:315,1,160
306,311,15921,1,0,0:0:0:0:
392,288,16067,2,0,P|449:291|491:320,4,80
284,229,16945,2,0,P|282:183|334:144,1,80
338,141,17238,1,0,0:0:0:0:
342,279,17531,2,0,P|310:302|260:299,1,80
197,258,17823,1,0,0:0:0:0:
172,182,17970,1,0,0:0:0:0:
215,108,18116,2,0,P|266:106|349:178,1,160
235,246,18701,5,0,0:0:0:0:
233,292,18775,1,0,0:0:0:0:
254,332,18848,1,0,0:0:0:0:
288,358,18921,1,0,0:0:0:0:
337,365,18994,2,0,P|378:351|409:309,1,80
388,236,19287,2,0,P|343:256|320:314,1,80
402,324,19579,2,0,P|443:310|474:268,1,80
449,191,19872,2,0,P|404:211|381:269,1,80
356,308,20165,2,0,P|322:341|278:351,1,80
224,314,20457,2,0,P|227:244|245:220,1,80
297,194,20750,2,0,P|332:196|380:234,1,80
427,271,21043,2,0,P|484:276|519:241,1,80
512,167,21335,1,0,0:0:0:0:
430,133,21482,1,0,0:0:0:0:
479,52,21628,1,0,0:0:0:0:
396,22,21775,1,0,0:0:0:0:
313,42,21921,2,0,P|271:93|264:132,1,80
242,179,22214,2,0,P|203:207|144:205,1,80
110,171,22506,2,0,P|103:123|135:78,3,80
196,45,23092,1,0,0:0:0:0:
288,62,23238,1,0,0:0:0:0:
340,135,23384,2,0,P|380:174|414:179,1,80
489,194,23677,6,0,P|485:249|401:315,1,160
349,259,24116,1,0,0:0:0:0:
349,259,24262,2,0,P|286:251|230:326,1,160
309,370,24701,1,0,0:0:0:0:
309,370,24848,2,0,P|371:348|391:309,1,80
401,257,25140,2,0,P|404:206|434:150,1,80
444,97,25433,2,0,P|404:71|346:80,1,80
298,105,25726,1,0,0:0:0:0:
261,178,25872,1,0,0:0:0:0:
255,257,26018,2,0,P|263:305|314:349,1,80
357,357,26311,1,0,0:0:0:0:
433,332,26457,1,0,0:0:0:0:
482,269,26604,2,0,P|494:220|479:177,1,80
407,104,26896,5,0,0:0:0:0:
350,204,27043,1,0,0:0:0:0:
265,116,27189,2,0,P|272:73|324:32,1,80
380,98,27482,1,0,0:0:0:0:
380,98,27628,2,0,P|422:133|459:132,1,80
448,56,27921,1,0,0:0:0:0:
448,56,28067,2,0,P|379:22|347:34,1,80
302,85,28360,2,0,P|225:129|132:111,1,160
70,78,28799,1,0,0:0:0:0:
70,78,28945,2,0,P|58:157|118:246,1,160
183,256,29384,1,0,0:0:0:0:
183,256,29531,2,0,P|217:272|143:295,1,160
100,260,29970,1,0,0:0:0:0:
79,176,30116,2,0,P|104:113|144:85,1,80
197,84,30409,2,0,P|253:72|293:33,3,80
354,35,30994,2,0,P|399:59|420:110,1,80
395,209,31287,1,0,0:0:0:0:
264,105,31433,1,0,0:0:0:0:
282,228,31579,1,0,0:0:0:0:
358,81,31726,1,0,0:0:0:0:
386,74,31872,2,0,P|436:83|506:169,1,160
437,255,32311,2,0,P|428:319|510:280,1,160
510,221,32750,2,0,P|489:174|452:151,1,80
377,137,33043,5,0,0:0:0:0:
330,141,33189,1,0,0:0:0:0:
287,160,33335,2,0,P|252:196|244:249,1,80
216,296,33628,2,0,P|175:326|115:249,1,160
176,174,34067,1,0,0:0:0:0:
176,174,34214,2,0,P|245:178|270:201,1,80
318,229,34506,2,0,L|431:212,1,80
412,128,34799,2,0,L|305:145,1,80
245,163,35092,1,0,0:0:0:0:
245,163,35238,2,0,P|172:146|156:120,1,80
185,70,35531,1,0,0:0:0:0:
185,70,35677,2,0,P|233:65|275:96,1,80
314,136,35970,2,0,P|365:159|420:146,3,80
470,150,36555,2,0,P|527:182|502:293,1,160
451,309,36994,2,0,P|376:293|324:211,1,160
