osu file format v14

[General]
AudioFilename: audio.mp3
AudioLeadIn: 0
PreviewTime: 206929
Countdown: 0
SampleSet: None
StackLeniency: 0.7
Mode: 0
LetterboxInBreaks: 0
WidescreenStoryboard: 0

[Editor]
DistanceSpacing: 0.7
BeatDivisor: 4
GridSize: 32
TimelineZoom: 4.199998

[Metadata]
Title:AugoEidEs
TitleUnicode:∧ugΦEidEs
Artist:DystopiaGround
ArtistUnicode:DystopiaGround
Creator:yShadowXOP_
Version:Demoniac
Source:
Tags:
BeatmapID:1273512
BeatmapSetID:602939

[Difficulty]
HPDrainRate:3.6
CircleSize:4
OverallDifficulty:8.6
ApproachRate:9.6
SliderMultiplier:1.9
SliderTickRate:1

[Events]
//Background and Video events
0,0,"BG.jpg",0,0
//Break Periods
2,161187,169737
2,313016,329737
//Storyboard Layer 0 (Background)
//Storyboard Layer 1 (Fail)
//Storyboard Layer 2 (Pass)
//Storyboard Layer 3 (Foreground)
//Storyboard Sound Samples

[TimingPoints]
33596,289.855072463768,4,1,1,100,1,0
33596,-133.333333333333,4,3,1,100,0,0
35769,-100,4,1,50,90,0,0
35842,-100,4,1,1,90,0,0
36929,-125,4,1,1,90,0,0
38088,-90.9090909090909,4,1,1,90,0,0
39682,-111.111111111111,4,1,1,90,0,0
40407,-111.111111111111,4,1,50,90,0,0
40480,-111.111111111111,4,1,1,90,0,0
42001,-90.9090909090909,4,1,1,90,0,0
45045,-90.9090909090909,4,1,50,90,0,0
45117,-90.9090909090909,4,1,1,90,0,0
45480,-111.111111111111,4,1,1,90,0,0
49682,-90.9090909090908,4,1,50,90,0,0
49755,-90.9090909090908,4,1,1,90,0,0
50117,-111.111111111111,4,1,1,90,0,0
50552,-111.111111111111,4,1,1,90,0,0
51277,-83.3333333333333,4,1,1,90,0,0
51711,-100,4,1,1,90,0,0
52001,-83.3333333333333,4,1,1,90,0,0
52436,-100,4,1,1,90,0,0
52726,-125,4,1,1,90,0,0
53016,-166.666666666667,4,1,1,90,0,0
53161,-166.666666666667,4,3,1,90,0,0
53306,-100,4,3,1,90,0,0
53451,-100,4,3,1,65,0,0
53595,-100,4,3,1,60,0,0
53740,-100,4,3,1,55,0,0
53885,-100,4,3,1,50,0,0
54030,-125,4,3,1,50,0,0
54175,-90.9090909090909,4,3,1,45,0,0
54320,-66.6666666666667,4,3,1,45,0,0
54465,-58.8235294117647,4,1,1,40,0,0
54755,-76.9230769230769,4,1,1,30,0,0
55335,-111.111111111111,4,1,1,20,0,0
55624,-200,4,1,1,50,0,0
56784,-83.3333333333333,4,1,1,70,0,0
57219,-111.111111111111,4,1,1,50,0,0
57509,-133.333333333333,4,1,1,50,0,0
57943,-158.730158730159,4,1,1,30,0,0
58813,-200,4,1,1,50,0,0
58958,-133.333333333333,4,1,50,60,0,0
59030,-133.333333333333,4,2,1,70,0,0
63594,-133.333333333333,4,1,60,70,0,0
63668,-133.333333333333,4,2,1,70,0,0
65914,-133.333333333333,4,1,70,70,0,0
65987,-133.333333333333,4,2,1,70,0,0
67074,-133.333333333333,4,1,80,70,0,0
67146,-133.333333333333,4,2,1,70,0,0
68233,-133.333333333333,4,1,50,70,0,0
68306,-133.333333333333,4,2,1,70,0,0
72871,-133.333333333333,4,1,60,70,0,0
72943,-133.333333333333,4,2,1,70,0,0
75190,-133.333333333333,4,1,70,70,0,0
75262,-133.333333333333,4,2,1,70,0,0
76349,-133.333333333333,4,1,80,70,0,0
76784,-133.333333333333,4,2,1,70,0,0
77509,-90.9090909090909,4,1,50,90,0,0
77581,-90.9090909090909,4,1,1,90,0,0
80552,-100,4,1,1,90,0,0
81422,-111.111111111111,4,1,1,90,0,0
82146,-90.9090909090909,4,1,50,90,0,0
82219,-90.9090909090909,4,1,1,90,0,0
85190,-83.3333333333333,4,1,1,90,0,0
85624,-83.3333333333333,4,1,1,90,0,0
86784,-133.333333333333,4,1,50,90,0,0
86856,-133.333333333333,4,2,1,90,0,0
89103,-133.333333333333,4,1,50,90,0,0
89175,-133.333333333333,4,2,1,90,0,0
91132,-153.846153846153,4,2,1,90,0,0
91422,-133.333333333333,4,1,60,90,0,0
91494,-133.333333333333,4,2,1,90,0,0
93740,-133.333333333333,4,1,70,90,0,0
93813,-133.333333333333,4,2,1,90,0,0
94900,-133.333333333333,4,1,80,90,0,0
94972,-133.333333333333,4,2,1,90,0,0
96059,-111.111111111111,4,1,50,90,0,0
96132,-111.111111111111,4,2,1,90,0,0
100697,-111.111111111111,4,1,60,90,0,0
100769,-111.111111111111,4,2,1,90,0,0
103016,-90.9090909090909,4,1,70,90,0,0
103088,-90.9090909090909,4,2,1,90,0,0
104175,-90.9090909090909,4,3,1,100,0,0
104900,-133.333333333333,4,3,1,100,0,0
109972,-100,4,2,1,90,0,0
112726,-111.111111111111,4,2,1,90,0,0
113451,-133.333333333333,4,2,1,90,0,0
114175,-95.2380952380951,4,3,1,90,0,0
114755,-95.2380952380951,4,2,1,90,0,0
117509,-117.647058823529,4,2,1,90,0,0
117943,-95.2380952380952,4,2,1,90,0,0
119248,-117.647058823529,4,2,2,90,0,0
120407,-100,4,2,2,90,0,0
121567,-83.3333333333333,4,2,2,90,0,0
121856,-83.3333333333333,4,3,1,90,0,0
122726,-83.3333333333333,4,1,1,90,0,0
123451,-200,4,3,1,60,0,0
124030,-83.3333333333333,4,1,55,90,0,1
124103,-83.3333333333333,4,1,1,90,0,1
125480,-100,4,1,1,90,0,1
125769,-83.3333333333333,4,1,1,90,0,1
126349,-83.3333333333333,4,1,65,90,0,1
126422,-83.3333333333333,4,1,1,90,0,1
128668,-83.3333333333333,4,1,75,90,0,1
128740,-83.3333333333333,4,1,1,90,0,1
130987,-83.3333333333333,4,1,85,90,0,1
131059,-83.3333333333333,4,1,1,90,0,1
133306,-83.3333333333333,4,1,57,90,0,1
133451,-83.3333333333333,4,1,1,90,0,1
135624,-83.3333333333333,4,1,80,90,0,1
135697,-83.3333333333333,4,1,1,90,0,1
137943,-83.3333333333333,4,1,67,90,0,1
138016,-83.3333333333333,4,1,1,90,0,1
139103,-83.3333333333333,4,1,85,90,0,1
139175,-83.3333333333333,4,1,1,90,0,1
140262,-83.3333333333333,4,1,77,90,0,1
140697,-74.0740740740741,4,1,1,90,0,1
140987,-66.6666666666667,4,1,1,90,0,1
141422,-66.6666666666667,4,3,1,90,0,1
142001,-66.6666666666667,4,3,1,90,0,1
142581,-83.3333333333333,4,1,55,90,0,1
142653,-83.3333333333333,4,1,1,90,0,1
144900,-83.3333333333333,4,1,75,90,0,1
144972,-83.3333333333333,4,1,1,90,0,1
147219,-83.3333333333333,4,1,57,90,0,1
147291,-83.3333333333333,4,1,1,90,0,1
148378,-83.3333333333333,4,1,75,90,0,1
148451,-83.3333333333333,4,1,1,90,0,1
149538,-83.3333333333333,4,1,87,90,0,1
149610,-83.3333333333333,4,1,1,90,0,1
150407,-83.3333333333333,4,3,1,90,0,1
151277,-133.333333333333,4,3,1,90,0,1
151856,-95.2380952380951,4,1,80,90,0,0
151929,-95.2380952380951,4,1,1,90,0,0
152871,-95.2380952380951,4,1,75,90,0,0
152943,-95.2380952380951,4,1,1,90,0,0
154175,-95.2380952380951,4,1,65,90,0,0
154248,-95.2380952380951,4,1,1,90,0,0
155190,-95.2380952380951,4,1,55,90,0,0
155262,-95.2380952380951,4,1,1,90,0,0
156494,-133.333333333334,4,1,80,90,0,0
156567,-105.263157894737,4,1,1,90,0,0
157653,-105.263157894737,4,1,75,90,0,0
157726,-105.263157894737,4,1,1,90,0,0
158523,-117.647058823529,4,1,1,90,0,0
158813,-117.647058823529,4,1,55,90,0,0
158885,-117.647058823529,4,1,1,90,0,0
160987,-117.647058823529,4,1,50,90,0,0
170262,-153.846153846153,4,1,5,90,0,0
170335,-153.846153846153,4,1,5,90,0,0
170697,-153.846153846153,4,1,1,90,0,0
171856,-153.846153846153,4,3,1,90,0,0
172581,-200,4,3,50,90,0,0
172653,-200,4,3,1,90,0,0
173885,-125,4,1,1,55,0,0
174900,-111.111111111111,4,1,60,70,0,0
174972,-111.111111111111,4,2,1,70,0,0
177219,-111.111111111111,4,1,70,70,0,0
177291,-111.111111111111,4,2,1,70,0,0
178378,-111.111111111111,4,1,80,70,0,0
178451,-111.111111111111,4,2,1,70,0,0
179538,-133.333333333333,4,1,50,70,0,0
179610,-133.333333333333,4,2,1,70,0,0
184175,-200,4,1,60,70,0,0
184248,-200,4,2,1,70,0,0
186204,-100,4,2,1,70,0,0
186639,-100,4,3,1,70,0,0
187653,-181.818181818181,4,1,80,70,0,0
187726,-181.818181818181,4,2,1,70,0,0
188958,-181.818181818181,4,1,50,70,0,0
189030,-181.818181818181,4,2,1,70,0,0
189827,-133.333333333333,4,2,1,70,0,0
190407,-100,4,2,1,70,0,0
191277,-166.666666666667,4,1,50,70,0,0
191349,-166.666666666667,4,2,1,70,0,0
192291,-125,4,2,1,70,0,0
192581,-100,4,2,1,70,0,0
193595,-133.333333333333,4,1,50,70,0,0
193668,-133.333333333333,4,2,1,70,0,0
194175,-133.333333333333,4,2,1,70,0,0
194610,-105.263157894737,4,2,1,70,0,0
195045,-86.9565217391303,4,2,1,70,0,0
195335,-133.333333333333,4,2,1,70,0,0
196349,-100,4,2,1,70,0,0
196784,-90.9090909090909,4,2,1,70,0,0
198088,-200,4,1,50,70,0,0
198161,-200,4,2,1,70,0,0
198668,-100,4,2,1,70,0,0
200407,-133.333333333333,4,1,50,70,0,0
200480,-133.333333333333,4,2,1,70,0,0
202726,-133.333333333333,4,1,50,70,0,0
202798,-133.333333333333,4,2,1,70,0,0
203088,-100,4,2,1,70,0,0
205045,-133.333333333333,4,1,50,70,0,0
205117,-133.333333333333,4,2,1,70,0,0
205480,-100,4,1,57,70,0,0
205552,-100,4,2,1,70,0,0
205914,-76.9230769230769,4,1,75,70,0,0
205987,-76.9230769230769,4,2,1,70,0,0
206349,-76.9230769230769,4,3,1,70,0,0
206929,-76.9230769230769,4,2,1,70,0,0
207509,-83.3333333333333,4,1,55,90,0,1
207581,-83.3333333333333,4,1,1,90,0,1
209832,-83.3333333333333,4,1,65,90,0,1
209900,-83.3333333333333,4,1,1,90,0,1
212146,-83.3333333333333,4,1,75,90,0,1
212219,-83.3333333333333,4,1,1,90,0,1
214465,-83.3333333333333,4,1,85,90,0,1
214538,-83.3333333333333,4,1,1,90,0,1
216784,-83.3333333333333,4,1,57,90,0,1
216856,-83.3333333333333,4,1,1,90,0,1
219103,-83.3333333333333,4,1,80,90,0,1
219175,-83.3333333333333,4,1,1,90,0,1
221422,-83.3333333333333,4,1,67,90,0,1
221494,-83.3333333333333,4,1,1,90,0,1
222581,-83.3333333333333,4,1,85,90,0,1
222653,-83.3333333333333,4,1,1,90,0,1
223740,-100,4,1,77,90,0,1
223813,-100,4,1,1,90,0,1
224320,-83.3333333333333,4,1,1,90,0,1
224610,-71.4285714285714,4,1,1,90,0,1
224900,-71.4285714285714,4,3,1,90,0,1
225480,-90.9090909090909,4,3,1,90,0,1
226059,-83.3333333333333,4,1,55,90,0,1
226132,-83.3333333333333,4,1,1,90,0,1
228378,-83.3333333333333,4,1,75,90,0,1
228451,-83.3333333333333,4,1,1,90,0,1
230117,-90.9090909090909,4,1,1,90,0,1
230407,-100,4,1,1,90,0,1
230697,-71.4285714285714,4,1,57,90,0,1
230769,-71.4285714285714,4,1,1,90,0,1
231856,-71.4285714285714,4,1,75,90,0,1
231929,-71.4285714285714,4,1,1,90,0,1
233016,-71.4285714285714,4,1,87,90,0,1
233088,-83.3333333333333,4,1,1,90,0,1
233740,-76.9230769230769,4,1,1,90,0,1
234030,-90.9090909090909,4,1,1,90,0,1
234175,-90.9090909090909,4,3,1,90,0,1
234465,-100,4,3,1,90,0,1
235335,-100,4,1,80,90,0,0
235407,-100,4,1,1,90,0,0
236349,-100,4,1,75,90,0,0
236422,-100,4,1,1,90,0,0
237653,-100,4,1,65,90,0,0
237726,-100,4,1,1,90,0,0
238668,-100,4,1,55,90,0,0
238740,-100,4,1,1,90,0,0
239393,-111.111111111111,4,1,1,90,0,0
239682,-121.951219512195,4,1,1,90,0,0
239972,-133.333333333333,4,1,80,90,0,0
240045,-133.333333333333,4,1,1,90,0,0
241132,-133.333333333333,4,1,75,90,0,0
241204,-133.333333333333,4,1,1,90,0,0
242291,-133.333333333333,4,1,55,90,0,0
242364,-133.333333333333,4,3,1,90,0,0
243306,-133.333333333333,4,1,1,90,0,0
245624,-133.333333333333,4,2,1,90,0,0
247726,-125,4,2,1,90,0,0
248958,-133.333333333333,4,2,1,90,0,0
250262,-181.818181818181,4,2,1,90,0,0
251132,-133.333333333333,4,2,1,90,0,0
254900,-100,4,3,1,90,0,0
254972,-100,4,2,1,90,0,0
261277,-133.333333333333,4,2,1,90,0,0
264175,-200,4,2,1,100,0,0
265480,-133.333333333333,4,3,1,100,0,0
266059,-100,4,3,1,100,0,0
266494,-83.3333333333333,4,3,1,100,0,1
268378,-90.9090909090909,4,3,1,100,0,1
268523,-100,4,3,1,100,0,1
268668,-111.111111111111,4,3,1,100,0,1
268813,-90.9090909090909,4,3,1,100,0,1
270117,-83.3333333333333,4,3,1,100,0,1
271132,-100,4,2,1,100,0,1
271567,-83.3333333333333,4,2,1,100,0,1
275914,-100,4,1,1,90,0,1
281059,-100,4,1,1,100,0,1
285190,-100,4,3,1,100,0,0
294610,-83.3333333333333,4,3,1,100,0,0
297798,-66.6666666666667,4,3,1,100,0,0
298813,-66.6666666666667,4,3,1,100,0,0
298958,-83.3333333333333,4,1,1,100,0,0
300117,-76.9230769230769,4,1,1,100,0,0
300552,-83.3333333333333,4,1,1,100,0,0
301277,-71.4285714285714,4,1,1,100,0,0
301711,-76.9230769230769,4,1,1,100,0,0
302436,-66.6666666666667,4,1,1,100,0,0
302871,-74.0740740740741,4,1,1,100,0,0
303595,-83.3333333333333,4,1,1,100,0,0
306059,-100,4,1,1,100,0,0
308668,-133.333333333333,4,1,1,100,0,0
309248,-100,4,1,1,100,0,0
330262,-100,4,1,1,85,0,0
330987,-100,4,1,1,60,0,0
331277,-100,4,1,1,45,0,0
331567,-83.3333333333333,4,1,55,100,0,1
331639,-83.3333333333333,4,1,1,100,0,1
333885,-83.3333333333333,4,1,65,100,0,1
333958,-83.3333333333333,4,1,1,100,0,1
336204,-83.3333333333333,4,1,75,100,0,1
336277,-83.3333333333333,4,1,1,100,0,1
338523,-83.3333333333333,4,1,85,100,0,1
338595,-83.3333333333333,4,1,1,100,0,1
340842,-83.3333333333333,4,1,57,100,0,1
340914,-83.3333333333333,4,1,1,100,0,1
343161,-83.3333333333333,4,1,80,100,0,1
343233,-83.3333333333333,4,1,1,100,0,1
345480,-83.3333333333333,4,1,75,100,0,1
345552,-83.3333333333333,4,1,1,100,0,1
346639,-83.3333333333333,4,1,57,100,0,1
346711,-83.3333333333333,4,1,1,100,0,1
347798,-83.3333333333333,4,1,77,100,0,1
347871,-83.3333333333333,4,1,1,100,0,1
350117,-83.3333333333333,4,1,55,100,0,1
350190,-83.3333333333333,4,1,1,100,0,1
352436,-83.3333333333333,4,1,75,100,0,1
352509,-83.3333333333333,4,1,1,100,0,1
354755,-83.3333333333333,4,1,57,100,0,1
354827,-83.3333333333333,4,1,1,100,0,1
355914,-83.3333333333333,4,1,75,100,0,1
355987,-83.3333333333333,4,1,1,100,0,1
357074,-83.3333333333333,4,1,87,100,0,1
357146,-83.3333333333333,4,1,1,100,0,1
358233,-83.3333333333333,4,3,1,100,0,1
359393,-100,4,1,80,100,0,0
359465,-100,4,1,1,100,0,0
360407,-100,4,1,75,100,0,0
360480,-100,4,1,1,100,0,0
361711,-100,4,1,65,100,0,0
361784,-100,4,1,1,100,0,0
362726,-100,4,1,55,100,0,0
362798,-100,4,1,1,100,0,0
364030,-100,4,1,80,100,0,0
364103,-100,4,1,1,100,0,0
365190,-100,4,1,90,100,0,0
365262,-100,4,1,1,100,0,0
366349,-153.846153846153,4,1,55,100,0,0
366422,-153.846153846153,4,1,1,100,0,0
368668,-153.846153846153,4,1,80,100,0,0
368740,-153.846153846153,4,1,1,100,0,0
369827,-153.846153846153,4,1,90,100,0,0
369900,-153.846153846153,4,1,1,100,0,0
370987,-153.846153846153,4,1,55,100,0,0
371059,-153.846153846153,4,1,1,100,0,0
373306,-100,4,1,1,100,0,0
376639,-100,4,3,1,100,0,0
377798,-100,4,1,50,90,0,0
377871,-100,4,1,1,90,0,0
386059,-66.6666666666667,4,3,1,90,0,0
386204,-71.4285714285714,4,3,1,90,0,0
386349,-83.3333333333333,4,3,1,90,0,0
386494,-100,4,3,1,90,0,0
386639,-114.942528735632,4,3,1,90,0,0
386784,-133.333333333333,4,3,1,90,0,0
386929,-200,4,3,1,90,0,0
387074,-200,4,1,50,90,0,0
387146,-200,4,1,1,90,0,0
387509,-71.4285714285714,4,1,1,100,0,1
389827,-66.6666666666667,4,1,1,100,0,1
391711,-133.333333333333,4,1,50,100,0,1
391784,-133.333333333333,4,1,1,100,0,1
392146,-66.6666666666667,4,1,1,100,0,1
392436,-66.6666666666667,4,1,1,100,0,1
394030,-64.5161290322581,4,1,1,100,0,1
395190,-55.5555555555556,4,1,80,100,0,1
395262,-55.5555555555556,4,1,1,100,0,1
395335,-100,4,1,80,100,0,1
395407,-100,4,1,1,100,0,1
395769,-100,4,1,1,100,0,1
395914,-66.6666666666667,4,1,1,100,0,1
396204,-52.6315789473684,4,1,1,100,0,1
396494,-52.6315789473684,4,1,50,100,0,0
410117,-200,4,1,50,100,0,0

[HitObjects]
64,220,33596,6,0,L|28:180,2,35.625001358986,4|0|0,0:0|0:0|0:0,0:0:0:0:
164,340,33885,1,0,0:0:0:0:
164,340,34030,1,0,0:0:0:0:
400,168,34175,6,0,L|428:140,2,35.625001358986,4|0|0,0:0|0:0|0:0,0:0:0:0:
256,264,34465,1,0,0:0:0:0:
172,144,34610,1,0,0:0:0:0:
80,324,34755,6,0,L|24:348,2,35.625001358986,4|0|0,0:0|0:0|0:0,0:0:0:0:
308,336,35045,1,0,0:0:0:0:
260,132,35190,1,0,0:0:0:0:
464,264,35335,1,8,0:0:0:0:
400,64,35480,1,8,0:0:0:0:
64,228,35769,6,0,B|152:196|152:264|260:220,1,190,14|0,0:0|0:0,0:0:0:0:
352,336,36204,2,0,P|384:280|384:232,1,95,8|0,0:0|0:0,0:0:0:0:
208,104,36494,1,0,0:0:0:0:
460,176,36639,1,0,0:0:0:0:
336,20,36784,1,8,0:0:0:0:
176,184,36929,2,0,L|160:288,1,76
280,352,37219,1,0,0:0:0:0:
344,136,37364,1,8,0:0:0:0:
416,324,37509,5,0,0:0:0:0:
416,324,37581,1,0,0:0:0:0:
416,324,37653,1,0,0:0:0:0:
184,240,37798,1,0,0:0:0:0:
436,168,37943,1,8,0:0:0:0:
92,348,38088,6,0,B|92:292|48:252|48:252|88:208|88:144,1,209.000006378174,4|0,0:0|0:0,0:0:0:0:
176,60,38523,2,0,P|208:112|204:168,1,104.500003189087,8|0,0:0|0:0,0:0:0:0:
316,324,38813,1,0,0:0:0:0:
316,324,38885,1,0,0:0:0:0:
316,324,38958,1,0,0:0:0:0:
360,56,39103,1,8,0:0:0:0:
448,232,39248,6,0,L|236:200,1,209.000006378174
64,104,39682,2,0,L|80:216,1,85.4999973907472,8|0,0:0|0:0,0:0:0:0:
108,276,39900,1,0,0:0:0:0:
108,276,39972,1,0,0:0:0:0:
312,344,40117,1,0,0:0:0:0:
240,148,40262,1,8,0:0:0:0:
372,248,40407,6,0,P|408:164|356:88,1,170.999994781494,14|0,0:0|0:0,0:0:0:0:
240,148,40842,2,0,P|240:80|260:48,1,85.4999973907472,8|0,0:0|0:0,0:0:0:0:
56,116,41132,1,0,0:0:0:0:
180,276,41277,1,0,0:0:0:0:
44,340,41422,2,0,L|56:236,1,85.4999973907472,8|0,0:0|0:0,0:0:0:0:
249,63,41711,6,0,L|237:167,1,85.4999973907472
368,364,42001,2,0,P|404:316|412:260,1,104.500003189087,8|0,0:0|0:0,0:0:0:0:
432,176,42219,1,0,0:0:0:0:
432,176,42291,1,0,0:0:0:0:
236,312,42436,1,0,0:0:0:0:
180,64,42581,1,8,0:0:0:0:
32,188,42726,6,0,B|100:184|100:184|164:200|164:200|252:196,1,209.000006378174,4|0,0:0|0:0,0:0:0:0:
328,68,43161,2,0,P|364:136|360:184,1,104.500003189087,8|0,0:0|0:0,0:0:0:0:
348,264,43378,1,0,0:0:0:0:
348,264,43451,2,0,P|280:300|232:296,1,104.500003189087
96,128,43740,5,8,0:0:0:0:
202,28,43885,1,0,0:0:0:0:
302,135,44030,1,0,0:0:0:0:
195,234,44175,1,0,0:0:0:0:
344,340,44320,5,8,0:0:0:0:
312,214,44465,1,0,0:0:0:0:
439,182,44610,1,0,0:0:0:0:
470,309,44755,1,0,0:0:0:0:
180,336,44900,5,8,0:0:0:0:
180,336,44972,1,0,0:0:0:0:
180,336,45045,6,0,B|180:272|180:272|164:224|164:224|176:180|176:180|176:108,1,209.000006378174,4|0,0:0|0:0,0:0:0:0:
280,52,45480,2,0,L|296:152,1,85.4999973907472,8|0,0:0|0:0,0:0:0:0:
428,280,45769,2,0,L|328:296,1,85.4999973907472
180,368,46059,1,8,0:0:0:0:
44,164,46204,1,0,0:0:0:0:
204,252,46349,5,0,0:0:0:0:
112,64,46494,1,0,0:0:0:0:
76,296,46639,1,8,0:0:0:0:
236,124,46784,1,0,0:0:0:0:
236,124,46856,1,0,0:0:0:0:
236,124,46929,1,0,0:0:0:0:
44,164,47074,1,0,0:0:0:0:
296,24,47219,1,8,0:0:0:0:
432,132,47364,6,0,B|416:188|432:208|428:224|428:224|408:260|376:232|380:204,1,170.999994781494,4|0,0:0|0:0,0:0:0:0:
268,272,47798,2,0,P|252:232|260:184,1,85.4999973907472,8|0,0:0|0:0,0:0:0:0:
120,104,48088,1,0,0:0:0:0:
120,104,48161,1,0,0:0:0:0:
120,104,48233,1,0,0:0:0:0:
328,88,48378,1,8,0:0:0:0:
120,260,48523,5,0,0:0:0:0:
328,344,48668,1,0,0:0:0:0:
221,152,48813,5,0,0:0:0:0:
208,368,48958,1,8,0:0:0:0:
380,224,49103,5,0,0:0:0:0:
124,140,49248,1,0,0:0:0:0:
320,44,49393,5,0,0:0:0:0:
236,280,49538,1,8,0:0:0:0:
16,152,49682,6,0,B|84:152|84:152|124:140|124:140|168:152|168:152|244:152,1,209.000006378174,4|0,0:0|0:0,0:0:0:0:
352,112,50117,2,0,P|368:156|360:204,1,85.4999973907472,8|0,0:0|0:0,0:0:0:0:
272,304,50407,1,0,0:0:0:0:
112,200,50552,1,0,0:0:0:0:
144,376,50697,1,8,0:0:0:0:
240,136,50842,1,0,0:0:0:0:
360,240,50987,2,0,L|376:332,1,85.4999973907472
112,200,51277,2,0,L|94:80,1,113.999996520996,8|0,0:0|0:0,0:0:0:0:
224,252,51567,5,0,0:0:0:0:
416,156,51711,1,0,0:0:0:0:
236,52,51856,1,8,0:0:0:0:
428,328,52001,6,0,B|316:292|316:360|184:332,1,227.999993041992,4|0,0:0|0:0,0:0:0:0:
48,280,52436,2,0,L|60:168,1,95,8|0,0:0|0:0,0:0:0:0:
200,48,52726,2,0,L|188:144,1,76
236,240,53016,2,0,P|296:240|312:232,1,56.9999982604981
412,192,53233,1,0,0:0:0:0:
412,192,53306,6,0,L|440:144,3,47.5,4|0|0|0,0:0|0:0|0:0|0:0,0:0:0:0:
232,145,53595,2,0,L|184:117,3,47.5,4|0|0|0,0:0|0:0|0:0|0:0,0:0:0:0:
68,116,53885,6,0,P|52:168|56:196,1,47.5,8|0,0:0|0:0,0:0:0:0:
140,288,54030,2,0,P|156:236|152:208,1,47.5,8|0,0:0|0:0,0:0:0:0:
248,96,54175,2,0,P|232:148|236:180,1,52.2500015945435,8|0,0:0|0:0,0:0:0:0:
320,268,54320,2,0,P|336:216|328:184,1,71.2500027179719,8|0,0:0|0:0,0:0:0:0:
412,48,54465,6,0,L|420:232,1,161.500003080368
424,64,54900,6,0,L|432:240,1,123.499994346619
444,84,55335,6,0,L|452:200,1,85.4999973907472
468,104,55769,6,0,L|472:164,1,47.5
312,328,56059,1,0,0:0:0:0:
312,328,56132,1,0,0:0:0:0:
312,328,56204,1,0,0:0:0:0:
212,96,56349,1,0,0:0:0:0:
128,288,56494,5,0,0:0:0:0:
280,56,56639,1,0,0:0:0:0:
64,212,56784,6,0,L|112:100,1,113.999996520996
52,196,57219,6,0,L|96:92,1,85.4999973907472
40,176,57653,6,0,L|80:80,1,71.2500027179719
36,152,57943,6,0,L|68:84,1,59.849998173523
208,36,58233,2,0,L|176:104,1,59.849998173523
160,240,58523,1,0,0:0:0:0:
160,240,58813,1,0,0:0:0:0:
312,348,58958,6,0,B|300:316|320:292|320:292|308:260|308:260|328:240|324:196,1,142.500005435944,4|0,0:0|0:0,0:0:0:0:
392,96,59393,2,0,L|408:180,1,71.2500027179719,8|0,0:0|0:0,0:0:0:0:
192,264,59682,2,0,L|176:180,1,71.2500027179719
88,68,59972,1,8,0:0:0:0:
92,272,60117,2,0,P|128:336|192:352,1,142.500005435944
304,280,60552,2,0,P|316:320|312:352,1,71.2500027179719,8|0,0:0|0:0,0:0:0:0:
376,208,60842,2,0,P|364:168|368:136,1,71.2500027179719
288,60,61132,1,8,0:0:0:0:
288,60,61277,6,0,L|136:72,1,142.500005435944
48,208,61711,6,0,P|84:228|124:224,1,71.2500027179719,8|0,0:0|0:0,0:0:0:0:
240,176,62001,1,0,0:0:0:0:
240,176,62146,2,0,P|273:164|307:171,1,71.2500027179719,0|8,0:0|0:0,0:0:0:0:
408,288,62436,6,0,L|416:140,1,142.500005435944
304,40,62871,2,0,L|284:128,1,71.2500027179719,8|0,0:0|0:0,0:0:0:0:
136,124,63161,1,0,0:0:0:0:
136,124,63306,2,0,P|116:176|116:208,1,71.2500027179719
172,344,63595,1,2,0:0:0:0:
180,352,63885,5,0,0:0:0:0:
180,352,63958,1,0,0:0:0:0:
180,352,64030,2,0,L|212:264,1,71.2500027179719,12|0,0:0|0:0,0:0:0:0:
312,240,64320,1,0,0:0:0:0:
200,88,64465,1,0,0:0:0:0:
384,64,64610,1,8,0:0:0:0:
312,240,64755,6,0,B|232:220|232:264|152:240,1,142.500005435944
48,228,65190,2,0,P|40:188|48:152,1,71.2500027179719,8|0,0:0|0:0,0:0:0:0:
152,68,65480,2,0,P|160:108|152:144,1,71.2500027179719
276,296,65769,1,0,0:0:0:0:
276,296,65914,6,0,B|276:256|276:256|288:220|288:220|280:184|280:184|280:128,1,142.500005435944,2|0,0:0|0:0,0:0:0:0:
372,68,66349,2,0,L|376:148,1,71.2500027179719,8|0,0:0|0:0,0:0:0:0:
144,312,66639,2,0,L|140:232,1,71.2500027179719
72,80,66929,1,0,0:0:0:0:
72,80,67074,2,0,B|108:84|128:72|128:72|164:84|164:84|188:72|232:80,1,142.500005435944,2|0,0:0|0:0,0:0:0:0:
296,136,67509,2,0,P|312:92|312:52,1,71.2500027179719,8|0,0:0|0:0,0:0:0:0:
376,196,67798,2,0,P|360:240|360:280,1,71.2500027179719
248,356,68088,1,8,0:0:0:0:
64,228,68233,1,2,0:0:0:0:
64,228,68306,1,0,0:0:0:0:
64,228,68378,6,0,L|136:232,1,71.2500027179719
324,156,68668,2,0,P|280:160|248:152,1,71.2500027179719,8|0,0:0|0:0,0:0:0:0:
156,44,68958,2,0,P|200:40|232:48,1,71.2500027179719
408,88,69248,1,8,0:0:0:0:
339,297,69393,6,0,L|323:153,1,142.500005435944
204,52,69827,2,0,L|200:136,1,71.2500027179719,8|0,0:0|0:0,0:0:0:0:
164,292,70117,1,0,0:0:0:0:
324,224,70262,1,0,0:0:0:0:
173,168,70407,1,8,0:0:0:0:
408,296,70552,6,0,B|408:260|408:260|420:224|420:224|412:196|412:196|412:152,1,142.500005435944
336,56,70987,2,0,P|376:52|412:56,1,71.2500027179719,8|0,0:0|0:0,0:0:0:0:
244,168,71277,2,0,P|204:172|168:168,1,71.2500027179719
80,64,71567,1,8,0:0:0:0:
40,212,71711,6,0,P|52:264|144:308,1,142.500005435944
384,244,72146,2,0,P|336:232|308:236,1,71.2500027179719,8|0,0:0|0:0,0:0:0:0:
172,212,72436,1,0,0:0:0:0:
236,40,72581,1,0,0:0:0:0:
56,124,72726,1,0,0:0:0:0:
361,103,72871,6,0,L|385:255,1,142.500005435944,2|0,0:0|0:0,0:0:0:0:
276,324,73306,2,0,P|236:328|200:320,1,71.2500027179719
80,208,73595,1,0,0:0:0:0:
192,88,73740,2,0,L|204:188,1,71.2500027179719,0|8,0:0|0:0,0:0:0:0:
304,244,74030,1,0,0:0:0:0:
372,52,74175,6,0,L|384:152,1,71.2500027179719
388,316,74465,2,0,P|320:360|240:344,1,142.500005435944,8|0,0:0|0:0,0:0:0:0:
160,248,74900,1,0,0:0:0:0:
60,356,75045,1,8,0:0:0:0:
32,152,75190,6,0,B|72:152|72:152|128:136|128:136|176:136,1,142.500005435944
272,212,75624,2,0,P|284:156|280:124,1,71.2500027179719,8|0,0:0|0:0,0:0:0:0:
404,40,75914,2,0,P|392:96|396:128,1,71.2500027179719
408,232,76204,1,8,0:0:0:0:
332,336,76349,2,0,B|260:364|260:308|188:340,1,142.500005435944
56,352,76784,2,0,L|64:272,1,71.2500027179719,8|0,0:0|0:0,0:0:0:0:
104,168,77074,1,0,0:0:0:0:
304,180,77219,1,0,0:0:0:0:
200,12,77364,1,0,0:0:0:0:
388,72,77509,6,0,B|388:144|388:144|400:180|400:180|388:216|388:216|388:284,1,209.000006378174,4|0,0:0|0:0,0:0:0:0:
256,368,77943,2,0,L|232:260,1,104.500003189087,8|0,0:0|0:0,0:0:0:0:
72,188,78233,1,0,0:0:0:0:
284,76,78378,1,0,0:0:0:0:
80,40,78523,1,8,0:0:0:0:
308,176,78668,2,0,L|412:188,1,104.500003189087
464,296,78958,5,0,0:0:0:0:
296,360,79103,1,8,0:0:0:0:
140,212,79248,1,0,0:0:0:0:
140,212,79320,1,0,0:0:0:0:
144,216,79393,1,0,0:0:0:0:
296,40,79538,1,0,0:0:0:0:
352,272,79682,1,8,0:0:0:0:
60,328,79827,6,0,B|68:272|28:232|28:232|68:168|52:120,1,209.000006378174,4|0,0:0|0:0,0:0:0:0:
168,48,80262,2,0,L|192:176,1,104.500003189087,8|0,0:0|0:0,0:0:0:0:
256,252,80552,1,0,0:0:0:0:
256,252,80624,1,0,0:0:0:0:
256,252,80697,1,0,0:0:0:0:
344,64,80842,1,8,0:0:0:0:
384,224,80987,2,0,P|388:304|292:368,1,190
112,368,81422,6,0,L|124:264,1,85.4999973907472,8|0,0:0|0:0,0:0:0:0:
144,168,81639,1,0,0:0:0:0:
144,168,81711,1,0,0:0:0:0:
264,24,81856,1,0,0:0:0:0:
384,224,82001,1,8,0:0:0:0:
256,348,82146,6,0,B|232:296|260:256|260:256|232:224|232:224|256:184|248:116,1,209.000006378174,14|0,0:0|0:0,0:0:0:0:
412,52,82581,2,0,L|428:172,1,104.500003189087,8|0,0:0|0:0,0:0:0:0:
388,288,82871,1,0,0:0:0:0:
136,104,83016,1,0,0:0:0:0:
425,155,83161,2,0,L|317:167,1,104.500003189087,8|0,0:0|0:0,0:0:0:0:
76,216,83451,6,0,L|88:324,1,104.500003189087
368,376,83740,2,0,L|356:268,1,104.500003189087,8|0,0:0|0:0,0:0:0:0:
304,120,83958,1,0,0:0:0:0:
304,120,84030,1,0,0:0:0:0:
204,316,84175,1,0,0:0:0:0:
120,56,84320,1,8,0:0:0:0:
416,236,84465,6,0,L|196:212,1,209.000006378174,4|0,0:0|0:0,0:0:0:0:
48,260,84900,2,0,P|32:208|56:152,1,104.500003189087,8|0,0:0|0:0,0:0:0:0:
128,104,85117,1,0,0:0:0:0:
128,104,85190,2,0,P|180:88|240:112,1,113.999996520996
312,236,85480,1,0,0:0:0:0:
412,80,85624,5,2,0:0:0:0:
432,260,85769,1,8,0:0:0:0:
236,200,85914,1,0,0:0:0:0:
320,72,86059,5,10,0:0:0:0:
332,328,86204,1,0,0:0:0:0:
112,220,86349,1,10,0:0:0:0:
196,36,86494,5,0,0:0:0:0:
240,364,86639,1,10,0:0:0:0:
444,184,86784,6,0,B|404:184|404:184|372:176|372:176|340:184|340:184|288:184,1,142.500005435944,14|0,0:0|0:0,0:0:0:0:
56,272,87219,2,0,P|92:292|136:292,1,71.2500027179719,8|0,0:0|0:0,0:0:0:0:
280,100,87509,2,0,P|239:92|197:105,1,71.2500027179719
48,156,87798,1,8,0:0:0:0:
180,348,87943,2,0,B|232:348|232:348|284:336|284:336|324:336,1,142.500005435944
412,264,88378,2,0,L|424:340,1,71.2500027179719,8|0,0:0|0:0,0:0:0:0:
252,152,88668,2,0,L|240:76,1,71.2500027179719
64,224,88958,1,8,0:0:0:0:
64,224,89103,6,0,B|136:240|136:180|208:220,1,142.500005435944,2|0,0:0|0:0,0:0:0:0:
256,312,89538,2,0,L|348:308,1,71.2500027179719,8|0,0:0|0:0,0:0:0:0:
204,104,89827,1,0,0:0:0:0:
204,104,89972,2,0,L|112:108,1,71.2500027179719,0|8,0:0|0:0,0:0:0:0:
340,96,90262,2,0,B|336:132|348:160|348:160|332:184|332:184|340:204|336:236,1,142.500005435944
216,344,90697,2,0,L|220:264,1,71.2500027179719,8|0,0:0|0:0,0:0:0:0:
140,196,90987,1,0,0:0:0:0:
52,80,91132,2,0,L|48:152,1,61.7499971733095,0|8,0:0|0:0,0:0:0:0:
264,108,91422,1,2,0:0:0:0:
268,260,91711,5,0,0:0:0:0:
156,352,91856,1,8,0:0:0:0:
412,316,92001,1,0,0:0:0:0:
412,316,92146,2,0,L|408:232,1,71.2500027179719
320,136,92436,1,8,0:0:0:0:
125,252,92581,2,0,L|277:260,1,142.500005435944
390,146,93016,2,0,L|310:134,1,71.2500027179719,8|0,0:0|0:0,0:0:0:0:
136,28,93306,2,0,L|216:40,1,71.2500027179719
416,48,93595,1,8,0:0:0:0:
440,232,93740,6,0,B|408:232|408:232|368:224|368:224|320:232|320:232|276:232,1,142.500005435944,2|0,0:0|0:0,0:0:0:0:
176,280,94175,2,0,P|164:240|168:208,1,71.2500027179719,8|0,0:0|0:0,0:0:0:0:
52,64,94465,2,0,P|64:104|60:136,1,71.2500027179719
72,324,94755,1,8,0:0:0:0:
240,356,94900,2,0,B|288:352|288:352|324:336|324:336|388:336,1,142.500005435944,2|0,0:0|0:0,0:0:0:0:
464,292,95335,2,0,P|464:244|456:216,1,71.2500027179719,8|0,0:0|0:0,0:0:0:0:
320,112,95624,2,0,P|320:160|328:188,1,71.2500027179719
340,288,95914,1,8,0:0:0:0:
148,348,96059,6,0,B|144:304|160:284|160:284|148:256|148:256|164:232|156:176,1,170.999994781494,2|0,0:0|0:0,0:0:0:0:
212,80,96494,2,0,P|264:88|308:76,1,85.4999973907472,8|0,0:0|0:0,0:0:0:0:
464,180,96784,2,0,P|412:172|368:184,1,85.4999973907472
292,308,97074,1,8,0:0:0:0:
72,240,97219,2,0,B|132:240|132:240|172:216|172:216|236:216,1,170.999994781494
344,136,97653,2,0,P|296:124|252:132,1,85.4999973907472,8|0,0:0|0:0,0:0:0:0:
444,272,97943,1,0,0:0:0:0:
444,272,98088,2,0,P|456:224|448:180,1,85.4999973907472,0|8,0:0|0:0,0:0:0:0:
408,40,98378,6,0,L|204:56,1,170.999994781494
88,128,98813,2,0,P|80:80|92:40,1,85.4999973907472,8|0,0:0|0:0,0:0:0:0:
168,240,99103,1,0,0:0:0:0:
196,264,99248,2,0,P|204:312|192:352,1,85.4999973907472,0|8,0:0|0:0,0:0:0:0:
320,360,99538,6,0,P|296:272|372:208,1,170.999994781494
424,280,99972,2,0,P|456:228|456:184,1,85.4999973907472,8|0,0:0|0:0,0:0:0:0:
364,80,100262,1,0,0:0:0:0:
328,88,100407,2,0,P|296:140|296:184,1,85.4999973907472,0|8,0:0|0:0,0:0:0:0:
272,280,100697,6,0,P|192:292|124:232,1,170.999994781494,6|0,0:0|0:0,0:0:0:0:
48,104,101132,1,8,0:0:0:0:
176,80,101277,1,0,0:0:0:0:
176,80,101349,1,0,0:0:0:0:
176,80,101422,2,0,L|172:172,1,85.4999973907472
60,312,101711,1,8,0:0:0:0:
220,372,101856,6,0,L|416:360,1,170.999994781494
448,248,102291,2,0,L|328:252,1,85.4999973907472,8|0,0:0|0:0,0:0:0:0:
240,152,102581,1,0,0:0:0:0:
240,152,102726,2,0,L|360:148,1,85.4999973907472,0|8,0:0|0:0,0:0:0:0:
112,40,103016,6,0,B|100:108|100:108|120:152|120:152|108:244,1,209.000006378174,4|0,0:0|0:0,0:0:0:0:
176,336,103451,2,0,P|228:348|296:344,1,104.500003189087,8|0,0:0|0:0,0:0:0:0:
456,236,103740,2,0,P|404:224|336:228,1,104.500003189087
236,188,104030,1,0,0:0:0:0:
96,44,104175,1,0,0:0:0:0:
96,44,104248,1,0,0:0:0:0:
96,44,104320,6,0,L|152:48,1,52.2500015945435
312,108,104465,2,0,L|256:104,1,52.2500015945435
84,212,104610,2,0,L|87:159,1,52.2500015945435
188,244,104755,2,0,L|184:296,1,52.2500015945435
336,352,104900,6,0,P|368:356|396:352,1,35.625001358986
460,284,105045,2,0,P|464:252|460:224,1,35.625001358986
388,156,105190,2,0,P|356:152|328:156,1,35.625001358986
268,224,105335,2,0,P|264:256|268:284,1,35.625001358986
204,352,105480,5,6,0:0:0:0:
36,304,105624,1,0,0:0:0:0:
8,48,105914,5,0,0:0:0:0:
178,156,106059,1,8,0:0:0:0:
30,31,106204,1,0,0:0:0:0:
204,176,106349,2,0,L|304:188,1,71.2500027179719,8|0,0:0|0:0,0:0:0:0:
340,104,106784,5,0,0:0:0:0:
416,344,106929,1,0,0:0:0:0:
468,168,107074,1,0,0:0:0:0:
252,256,107219,1,12,0:0:0:0:
480,272,107364,1,0,0:0:0:0:
256,360,107509,2,0,P|200:360|168:352,1,71.2500027179719,8|0,0:0|0:0,0:0:0:0:
80,180,107798,6,0,P|80:236|72:268,1,71.2500027179719,12|0,0:0|0:0,0:0:0:0:
80,340,108233,1,0,0:0:0:0:
288,128,108378,1,0,0:0:0:0:
208,224,108523,5,0,0:0:0:0:
144,32,108668,1,0,0:0:0:0:
312,48,108813,1,0,0:0:0:0:
96,176,108958,6,0,P|52:176|16:164,1,71.2500027179719,4|0,0:0|0:0,0:0:0:0:
248,124,109248,2,0,P|292:124|328:136,1,71.2500027179719
460,204,109538,1,8,0:0:0:0:
455,249,109610,1,0,0:0:0:0:
433,290,109682,1,8,0:0:0:0:
396,318,109755,1,0,0:0:0:0:
352,330,109827,1,8,0:0:0:0:
307,323,109900,1,0,0:0:0:0:
268,300,109972,6,0,P|208:256|92:272,1,190,4|0,0:0|0:0,0:0:0:0:
48,348,110407,2,0,P|16:304|20:248,1,95,8|0,0:0|0:0,0:0:0:0:
100,136,110624,1,0,0:0:0:0:
100,136,110697,1,0,0:0:0:0:
320,200,110842,1,0,0:0:0:0:
208,28,110987,1,8,0:0:0:0:
384,296,111132,6,0,P|424:216|352:104,1,190
200,252,111567,2,0,P|188:204|200:156,1,95,8|0,0:0|0:0,0:0:0:0:
56,256,111856,2,0,P|68:304|56:352,1,95
168,356,112146,1,8,0:0:0:0:
184,100,112291,2,0,P|220:48|252:136,1,190,4|0,0:0|0:0,0:0:0:0:
384,168,112726,6,0,L|368:256,1,85.4999973907472,8|0,0:0|0:0,0:0:0:0:
316,328,112943,1,0,0:0:0:0:
316,328,113016,1,0,0:0:0:0:
120,188,113161,1,0,0:0:0:0:
152,368,113306,1,8,0:0:0:0:
272,136,113451,2,0,L|292:40,1,71.2500027179719
384,168,113740,2,0,L|404:264,1,71.2500027179719
436,352,114030,1,0,0:0:0:0:
276,276,114175,6,0,P|220:276|204:284,1,49.8749984779358
128,352,114320,2,0,P|184:352|200:344,1,49.8749984779358
40,252,114465,2,0,P|40:308|48:324,1,49.8749984779358
136,240,114610,2,0,P|136:184|128:168,1,49.8749984779358
48,72,114755,6,0,P|100:44|240:104,1,199.499993911743,4|8,0:0|0:0,0:0:0:0:
312,152,115190,2,0,P|328:80|316:36,1,99.7499969558717
444,80,115480,1,0,0:0:0:0:
428,208,115624,2,0,P|412:280|424:324,1,99.7499969558717,8|0,0:0|0:0,0:0:0:0:
308,272,115914,1,0,0:0:0:0:
224,340,116059,6,0,B|164:336|164:336|116:352|116:352|12:344,1,199.499993911743
20,244,116494,2,0,P|76:252|124:240,1,99.7499969558717
264,56,116784,2,0,P|208:48|160:60,1,99.7499969558717,8|0,0:0|0:0,0:0:0:0:
16,144,117074,6,0,L|224:164|224:164,1,199.499993911743,4|8,0:0|0:0,0:0:0:0:
368,112,117509,2,0,P|396:64|448:140,1,161.500003080368,2|0,0:0|0:0,0:0:0:0:
444,248,117943,2,0,L|428:356,1,99.7499969558717,8|0,0:0|0:0,0:0:0:0:
308,348,118233,6,0,B|252:356|252:356|204:348|204:348|104:356,1,199.499993911743,4|8,0:0|0:0,0:0:0:0:
40,264,118668,1,0,0:0:0:0:
112,168,118813,1,0,0:0:0:0:
148,196,118885,1,0,0:0:0:0:
192,207,118957,1,0,0:0:0:0:
238,200,119030,1,0,0:0:0:0:
276,175,119102,1,8,0:0:0:0:
360,72,119248,6,0,L|176:68|176:68,1,161.500003080368
72,96,119682,2,0,P|64:52|80:12,1,80.750001540184,8|0,0:0|0:0,0:0:0:0:
148,196,119972,1,0,0:0:0:0:
88,292,120117,2,0,P|126:303|165:295,1,80.750001540184,0|8,0:0|0:0,0:0:0:0:
276,344,120407,6,0,B|304:300|268:256|268:256|240:220|268:168,1,190
412,80,120842,2,0,L|420:180,1,95,8|0,0:0|0:0,0:0:0:0:
392,296,121132,1,0,0:0:0:0:
212,96,121277,2,0,L|112:104,1,95,0|8,0:0|0:0,0:0:0:0:
36,260,121567,2,0,P|20:332|112:284,1,227.999993041992
160,220,121929,1,0,0:0:0:0:
160,220,122001,1,0,0:0:0:0:
272,340,122146,6,0,L|296:280,1,56.9999982604981
328,200,122291,1,0,0:0:0:0:
372,368,122436,6,0,L|404:288,1,56.9999982604981
476,116,122581,1,0,0:0:0:0:
56,32,122726,5,0,0:0:0:0:
132,240,123016,5,0,0:0:0:0:
56,32,123161,1,0,0:0:0:0:
64,48,123451,6,0,L|80:108,1,47.5
164,96,123740,2,0,L|184:180,1,71.25
220,248,124030,6,0,B|276:264|276:264|376:228,1,113.999996520996,2|0,0:0|0:0,0:0:0:0:
388,184,124248,1,0,0:0:0:0:
388,184,124320,1,8,0:0:0:0:
296,88,124465,2,0,P|356:60|424:72,1,113.999996520996
268,332,124755,2,0,P|208:360|140:348,1,113.999996520996,0|8,0:0|0:0,0:0:0:0:
16,232,125045,6,0,B|80:224|80:224|140:236|140:236|252:224,1,227.999993041992,4|0,0:0|0:0,0:0:0:0:
312,48,125480,2,0,B|304:104|304:104|312:152,1,95,8|0,0:0|0:0,0:0:0:0:
424,352,125769,2,0,B|432:296|432:296|424:240,1,113.999996520996
424,92,126059,1,8,0:0:0:0:
168,44,126204,1,0,0:0:0:0:
168,44,126277,1,0,0:0:0:0:
168,44,126349,6,0,B|120:84|60:92|60:92|120:108|168:144,1,227.999993041992,2|8,0:0|0:0,0:0:0:0:
336,304,126784,2,0,P|400:328|460:312,1,113.999996520996
176,236,127074,2,0,P|112:212|52:228,1,113.999996520996,0|8,0:0|0:0,0:0:0:0:
440,368,127364,6,0,B|428:308|448:272|448:272|432:240|432:240|448:200|432:136,1,227.999993041992,2|0,0:0|0:0,0:0:0:0:
320,124,127798,1,8,0:0:0:0:
400,4,127943,1,0,0:0:0:0:
184,68,128088,2,0,L|204:184,1,113.999996520996
204,356,128378,1,8,0:0:0:0:
344,264,128523,1,0,0:0:0:0:
72,348,128668,6,0,B|44:244|44:244|72:112,1,227.999993041992,2|8,0:0|0:0,0:0:0:0:
268,184,129103,2,0,B|332:164|332:164|404:184,1,113.999996520996
178,118,129393,2,0,B|114:138|114:138|42:118,1,113.999996520996,0|8,0:0|0:0,0:0:0:0:
416,272,129682,6,0,P|464:180|352:72,1,227.999993041992,4|0,0:0|0:0,0:0:0:0:
188,12,130117,2,0,B|161:73|161:73|184:136,1,113.999996520996,8|0,0:0|0:0,0:0:0:0:
184,300,130407,2,0,B|250:291|250:291|292:239,1,113.999996520996
272,100,130697,1,8,0:0:0:0:
416,272,130842,1,0,0:0:0:0:
72,340,130987,6,0,B|124:300|180:328|180:328|256:364|312:312,1,227.999993041992,2|8,0:0|0:0,0:0:0:0:
416,272,131422,2,0,P|408:184|276:228,1,227.999993041992
192,232,131856,1,8,0:0:0:0:
108,100,132001,1,0,0:0:0:0:
108,100,132074,1,0,0:0:0:0:
108,100,132146,6,0,B|172:104|172:104|244:92,1,113.999996520996
356,132,132436,1,8,0:0:0:0:
448,52,132581,6,0,B|488:112|472:160|472:160|424:192|424:268,1,227.999993041992
364,344,133016,2,0,L|480:364,1,113.999996520996,8|0,0:0|0:0,0:0:0:0:
248,352,133306,6,0,B|192:360|136:312|136:312|236:268|200:192,1,227.999993041992,2|8,0:0|0:0,0:0:0:0:
124,112,133740,2,0,P|100:168|108:224,1,113.999996520996
276,84,134030,2,0,P|236:37|182:20,1,113.999996520996,0|8,0:0|0:0,0:0:0:0:
384,148,134320,6,0,B|428:180|488:196|488:196|428:204|380:244,1,227.999993041992
240,276,134755,2,0,P|275:325|349:341,1,113.999996520996,8|0,0:0|0:0,0:0:0:0:
180,172,135045,2,0,P|131:208|116:282,1,113.999996520996
152,356,135335,1,8,0:0:0:0:
240,276,135480,1,0,0:0:0:0:
358,214,135624,6,0,P|282:137|169:188,1,227.999993041992,2|8,0:0|0:0,0:0:0:0:
48,216,136059,2,0,B|28:276|28:276|40:336,1,113.999996520996
347,104,136349,2,0,B|367:164|367:164|355:224,1,113.999996520996,0|8,0:0|0:0,0:0:0:0:
464,96,136639,6,0,B|504:156|488:204|488:204|440:236|440:312,1,227.999993041992
336,332,137074,2,0,P|276:324|224:340,1,113.999996520996,8|0,0:0|0:0,0:0:0:0:
100,344,137364,1,0,0:0:0:0:
328,180,137509,1,0,0:0:0:0:
116,328,137653,1,8,0:0:0:0:
288,40,137798,1,0,0:0:0:0:
121,161,137943,6,0,B|196:140|252:204|252:204|285:173|357:181,1,227.999993041992,2|8,0:0|0:0,0:0:0:0:
432,80,138378,1,0,0:0:0:0:
368,276,138523,2,0,L|492:284,1,113.999996520996
288,40,138813,2,0,L|164:48,1,113.999996520996,8|0,0:0|0:0,0:0:0:0:
72,136,139030,1,0,0:0:0:0:
72,136,139103,5,2,0:0:0:0:
128,328,139248,1,0,0:0:0:0:
240,152,139393,1,8,0:0:0:0:
24,252,139538,5,0,0:0:0:0:
244,316,139682,1,0,0:0:0:0:
144,64,139827,1,0,0:0:0:0:
136,224,139972,5,8,0:0:0:0:
324,48,140117,1,0,0:0:0:0:
412,212,140262,6,0,B|436:176|436:176|424:88,1,113.999996520996,2|0,0:0|0:0,0:0:0:0:
328,52,140480,1,0,0:0:0:0:
328,52,140552,1,8,0:0:0:0:
291,190,140697,2,0,P|352:218|431:202,1,128.250000489235,8|8,0:0|0:0,0:0:0:0:
126,79,140987,2,0,B|202:87|202:87|264:47|264:47|366:55,1,213.750008153916,8|0,0:0|0:0,0:0:0:0:
456,92,141277,1,8,0:0:0:0:
156,252,141422,5,4,0:0:0:0:
156,252,141494,1,0,0:0:0:0:
156,252,141567,2,0,L|152:332,1,71.2500027179719
272,204,141711,5,4,0:0:0:0:
272,204,141783,1,0,0:0:0:0:
272,204,141856,2,0,L|276:284,1,71.2500027179719
428,104,142001,6,0,P|372:104|352:112,1,71.2500027179719,4|0,0:0|0:0,0:0:0:0:
272,204,142146,2,0,P|328:204|348:196,1,71.2500027179719
176,104,142291,2,0,P|176:160|184:184,1,71.2500027179719,4|0,0:0|0:0,0:0:0:0:
272,80,142436,2,0,P|272:24|264:4,1,71.2500027179719
60,40,142581,6,0,B|56:108|56:108|80:168|80:168|68:272,1,227.999993041992,2|8,0:0|0:0,0:0:0:0:
168,352,143016,2,0,L|292:356,1,113.999996520996
444,328,143306,2,0,B|420:292|420:292|432:204,1,113.999996520996,0|8,0:0|0:0,0:0:0:0:
348,151,143595,6,0,B|292:203|292:203|279:368,1,227.999993041992
184,140,144030,2,0,L|192:264,1,113.999996520996,8|0,0:0|0:0,0:0:0:0:
359,38,144320,2,0,L|347:162,1,113.999996520996
80,252,144610,1,8,0:0:0:0:
184,140,144755,1,0,0:0:0:0:
80,56,144900,6,0,B|140:16|188:32|188:32|220:80|296:80,1,227.999993041992,2|8,0:0|0:0,0:0:0:0:
408,184,145335,2,0,L|416:68,1,113.999996520996
288,252,145624,2,0,P|328:296|392:312,1,113.999996520996,0|8,0:0|0:0,0:0:0:0:
188,328,145914,6,0,B|136:304|56:332|56:332|76:284|108:272|136:276,1,227.999993041992
194,203,146349,2,0,P|258:215|290:259,1,113.999996520996,8|0,0:0|0:0,0:0:0:0:
416,256,146639,2,0,P|404:320|360:352,1,113.999996520996
408,144,146929,2,0,P|472:156|504:200,1,113.999996520996,8|0,0:0|0:0,0:0:0:0:
296,80,147219,5,2,0:0:0:0:
72,192,147364,1,0,0:0:0:0:
204,36,147509,1,8,0:0:0:0:
148,352,147653,1,0,0:0:0:0:
72,192,147798,1,0,0:0:0:0:
280,360,147943,1,0,0:0:0:0:
16,280,148088,1,8,0:0:0:0:
332,244,148233,1,0,0:0:0:0:
156,112,148378,5,2,0:0:0:0:
440,152,148523,1,0,0:0:0:0:
168,220,148668,1,8,0:0:0:0:
428,24,148813,1,0,0:0:0:0:
332,244,148958,1,0,0:0:0:0:
264,48,149103,1,0,0:0:0:0:
264,48,149175,1,0,0:0:0:0:
264,48,149248,1,8,0:0:0:0:
424,292,149393,1,0,0:0:0:0:
188,304,149538,5,2,0:0:0:0:
48,192,149682,1,0,0:0:0:0:
276,184,149827,1,8,0:0:0:0:
152,56,149972,1,0,0:0:0:0:
152,56,150045,1,0,0:0:0:0:
152,56,150117,2,0,L|164:176,1,113.999996520996
284,192,150407,5,4,0:0:0:0:
284,192,150480,1,0,0:0:0:0:
284,192,150552,2,0,L|280:264,1,56.9999982604981
396,272,150696,5,4,0:0:0:0:
396,272,150769,1,0,0:0:0:0:
396,272,150841,2,0,L|392:344,1,56.9999982604981
248,348,150987,1,4,0:0:0:0:
201,360,151059,1,0,0:0:0:0:
154,347,151131,1,0,0:0:0:0:
119,313,151204,1,0,0:0:0:0:
108,276,151277,6,0,L|96:180,1,71.2500027179719,8|0,0:0|0:0,0:0:0:0:
200,156,151567,2,0,L|212:60,1,71.2500027179719,8|0,0:0|0:0,0:0:0:0:
328,56,151856,6,0,B|320:108|348:140|348:140|340:184|340:184|360:216|352:284,1,199.499993911743,2|8,0:0|0:0,0:0:0:0:
444,348,152291,2,0,L|456:240,1,99.7499969558717
200,156,152581,2,0,L|212:264,1,99.7499969558717,0|8,0:0|0:0,0:0:0:0:
156,364,152871,6,0,P|88:320|88:196,1,199.499993911743,2|0,0:0|0:0,0:0:0:0:
200,156,153306,1,8,0:0:0:0:
348,56,153451,1,0,0:0:0:0:
64,108,153595,2,0,P|64:168|84:216,1,99.7499969558717
332,188,153885,2,0,P|280:218|249:260,1,99.7499969558717,8|0,0:0|0:0,0:0:0:0:
432,300,154175,6,0,B|424:236|424:236|452:168|452:168|444:92,1,199.499993911743,2|8,0:0|0:0,0:0:0:0:
324,84,154610,1,2,0:0:0:0:
296,76,154900,1,2,0:0:0:0:
264,72,155190,6,0,B|116:64|116:64|168:96|168:96,1,199.499993911743,2|0,0:0|0:0,0:0:0:0:
44,220,155624,2,0,L|52:328,1,99.7499969558717,8|0,0:0|0:0,0:0:0:0:
152,190,155842,1,0,0:0:0:0:
152,190,155914,2,0,L|160:82,1,99.7499969558717
216,288,156204,1,8,0:0:0:0:
312,168,156349,1,0,0:0:0:0:
404,36,156494,6,0,B|440:96|408:152|408:152|428:208|428:208|408:236|420:328,1,285.000010871888,2|0,0:0|0:0,0:0:0:0:
312,332,157219,1,0,0:0:0:0:
312,332,157291,1,0,0:0:0:0:
312,332,157364,2,0,L|208:324,1,90.2499975900651,8|0,0:0|0:0,0:0:0:0:
48,272,157653,6,0,P|84:224|196:228,1,180.49999518013,2|8,0:0|0:0,0:0:0:0:
360,160,158088,2,0,P|324:112|212:116,1,180.49999518013
37,191,158523,2,0,L|49:287,1,80.750001540184,8|0,0:0|0:0,0:0:0:0:
176,340,158813,5,2,0:0:0:0:
176,340,158958,1,0,0:0:0:0:
340,288,159103,1,8,0:0:0:0:
340,288,159248,1,0,0:0:0:0:
216,180,159393,1,0,0:0:0:0:
216,180,159538,1,0,0:0:0:0:
364,140,159682,1,8,0:0:0:0:
264,48,159827,1,0,0:0:0:0:
264,48,159900,1,0,0:0:0:0:
264,48,159972,5,0,0:0:0:0:
64,236,160117,1,0,0:0:0:0:
128,44,160262,1,8,0:0:0:0:
64,236,160552,5,0,0:0:0:0:
128,44,160697,1,8,0:0:0:0:
164,296,160987,5,4,0:0:0:0:
332,124,170262,6,0,L|328:256,1,123.499994346619,2|0,0:0|0:0,0:0:0:0:
296,348,170697,1,8,0:0:0:0:
92,284,171856,6,0,L|132:320,3,30.8749985866547,4|0|0|0,0:0|0:0|0:0|0:0,0:0:0:0:
96,196,172146,2,0,L|56:160,3,30.8749985866547,4|0|0|0,0:0|0:0|0:0|0:0,0:0:0:0:
144,108,172436,1,0,0:0:0:0:
144,108,172509,1,0,0:0:0:0:
144,108,172581,6,0,L|252:112,1,95,12|0,0:0|0:0,0:0:0:0:
352,140,173016,1,4,0:0:0:0:
240,176,173885,6,0,P|236:144|240:112,2,50.6666666666667,8|0|0,0:0|0:0|0:0,0:0:0:0:
336,240,174175,2,0,P|340:208|336:176,2,50.6666666666667,8|0|0,0:0|0:0|0:0,0:0:0:0:
224,324,174465,1,8,0:0:0:0:
88,252,174610,1,0,0:0:0:0:
224,324,174755,1,8,0:0:0:0:
88,252,174900,6,0,P|64:200|128:116,1,170.999994781494,2|0,0:0|0:0,0:0:0:0:
228,176,175335,1,8,0:0:0:0:
324,64,175480,1,0,0:0:0:0:
324,64,175552,1,0,0:0:0:0:
324,64,175624,1,0,0:0:0:0:
396,160,175769,2,8,L|400:252,1,85.4999973907472,0|8,0:0|0:0,0:0:0:0:
248,339,176059,6,0,B|219:281|219:281|228:160,1,170.999994781494
168,80,176494,2,0,P|216:68|256:76,1,85.4999973907472,8|0,0:0|0:0,0:0:0:0:
396,240,176784,2,0,P|347:229|315:205,1,85.4999973907472
352,92,177074,1,8,0:0:0:0:
76,48,177219,6,0,B|76:100|76:100|100:160|100:160|100:216,1,170.999994781494,2|0,0:0|0:0,0:0:0:0:
176,352,177653,1,8,0:0:0:0:
28,288,177798,1,0,0:0:0:0:
28,288,177871,1,0,0:0:0:0:
28,288,177943,1,0,0:0:0:0:
188,267,178088,2,0,L|172:375,1,85.4999973907472,0|8,0:0|0:0,0:0:0:0:
304,264,178378,6,0,L|288:156,1,85.4999973907472,2|0,0:0|0:0,0:0:0:0:
400,320,178668,1,0,0:0:0:0:
452,200,178813,2,0,L|484:232,3,42.7499986953736,8|0|0|0,0:0|0:0|0:0|0:0,0:0:0:0:
292,180,179103,2,0,L|324:148,3,42.7499986953736,8|0|0|0,0:0|0:0|0:0|0:0,0:0:0:0:
156,104,179393,1,8,0:0:0:0:
156,104,179465,1,0,0:0:0:0:
156,104,179538,6,0,P|100:116|64:204,1,142.500005435944,2|0,0:0|0:0,0:0:0:0:
136,332,179972,2,0,L|144:248,1,71.2500027179719,8|0,0:0|0:0,0:0:0:0:
248,252,180262,1,0,0:0:0:0:
248,252,180407,2,0,L|260:164,1,71.2500027179719,0|8,0:0|0:0,0:0:0:0:
384,96,180697,6,0,L|368:252,1,142.500005435944
296,340,181132,2,0,L|368:336,1,71.2500027179719,8|0,0:0|0:0,0:0:0:0:
248,252,181422,1,0,0:0:0:0:
248,252,181567,2,0,L|176:248,1,71.2500027179719,0|8,0:0|0:0,0:0:0:0:
96,168,181856,6,0,B|72:208|72:208|84:328,1,142.500005435944
208,72,182291,2,0,L|200:160,1,71.2500027179719,8|0,0:0|0:0,0:0:0:0:
360,240,182581,1,0,0:0:0:0:
360,240,182726,2,0,L|352:152,1,71.2500027179719
456,68,183016,5,0,0:0:0:0:
476,208,183161,1,0,0:0:0:0:
416,340,183306,1,0,0:0:0:0:
304,304,183451,2,0,P|232:280|164:308,1,142.500005435944,8|0,0:0|0:0,0:0:0:0:
64,340,183885,2,0,P|52:296|64:244,1,71.2500027179719,0|8,0:0|0:0,0:0:0:0:
128,184,184175,6,0,B|120:84|120:84|140:40|140:40|148:84,1,190,2|0,0:0|0:0,0:0:0:0:
240,40,184900,2,0,L|252:184,1,142.5,8|0,0:0|0:0,0:0:0:0:
251,182,185408,1,0,0:0:0:0:
251,182,185480,1,0,0:0:0:0:
384,176,185769,5,0,0:0:0:0:
275,29,186059,1,8,0:0:0:0:
148,152,186349,1,0,0:0:0:0:
72,284,186639,5,4,0:0:0:0:
72,284,186711,1,0,0:0:0:0:
72,284,186784,2,0,L|68:200,1,47.5
156,160,186929,5,4,0:0:0:0:
156,160,187001,1,0,0:0:0:0:
156,160,187074,2,0,L|160:76,1,47.5
236,40,187219,5,4,0:0:0:0:
275,29,187291,1,0,0:0:0:0:
315,31,187363,1,0,0:0:0:0:
353,45,187436,1,0,0:0:0:0:
385,70,187508,1,0,0:0:0:0:
408,104,187581,1,0,0:0:0:0:
424,136,187653,6,0,B|408:212|472:280|472:280|324:276|272:344,1,365.750011161805,2|0,0:0|0:0,0:0:0:0:
140,348,188958,6,0,P|124:312|140:232,1,104.500003189087,2|0,0:0|0:0,0:0:0:0:
220,176,189393,1,0,0:0:0:0:
112,56,189538,2,0,L|104:128,1,52.2500015945435,8|0,0:0|0:0,0:0:0:0:
220,176,189827,5,0,0:0:0:0:
320,60,189972,2,0,L|332:144,1,71.2500027179719
392,276,190262,1,0,0:0:0:0:
212,356,190407,6,0,L|308:340,1,95
76,264,190697,1,8,0:0:0:0:
227,262,190842,2,0,L|212:356,1,95
184,120,191132,1,0,0:0:0:0:
62,150,191277,6,0,L|78:286,1,113.999996520996,2|0,0:0|0:0,0:0:0:0:
116,356,191711,1,0,0:0:0:0:
219,205,191856,2,0,P|227:245|223:281,1,56.9999982604981,8|0,0:0|0:0,0:0:0:0:
320,336,192146,1,0,0:0:0:0:
304,136,192291,2,0,P|268:112|215:111,1,76
48,128,192581,5,0,0:0:0:0:
125,220,192726,2,0,L|221:204,1,95
304,136,193016,1,8,0:0:0:0:
404,40,193161,6,0,B|432:120|432:120|412:228,1,190
376,328,193595,6,0,P|316:292|224:316,1,142.500005435944,2|0,0:0|0:0,0:0:0:0:
80,340,194030,1,0,0:0:0:0:
200,195,194175,2,0,P|232:179|284:167,1,71.2500027179719,8|0,0:0|0:0,0:0:0:0:
168,60,194465,1,0,0:0:0:0:
96,164,194610,6,0,P|74:192|60:248,1,90.2499975900651
320,96,194900,1,0,0:0:0:0:
200,195,195045,2,0,L|92:163,1,109.250002083778
368,140,195335,6,0,B|320:92|320:92|260:152|304:256,1,213.750008153916,8|0,0:0|0:0,0:0:0:0:
304,336,195914,6,0,P|240:336|200:248,1,142.500005435944,2|0,0:0|0:0,0:0:0:0:
88,136,196349,6,0,L|108:340,1,190,2|0,0:0|0:0,0:0:0:0:
196,152,196784,6,0,L|196:36,1,104.500003189087,2|0,0:0|0:0,0:0:0:0:
328,60,197074,5,0,0:0:0:0:
328,60,197219,1,0,0:0:0:0:
284,216,197364,1,8,0:0:0:0:
424,96,197509,1,0,0:0:0:0:
404,248,197653,1,8,0:0:0:0:
404,248,197726,1,8,0:0:0:0:
404,248,197798,1,8,0:0:0:0:
404,248,197871,2,0,L|396:312,1,52.2500015945435
304,344,198088,6,0,L|208:336,1,95,2|0,0:0|0:0,0:0:0:0:
209,336,198451,1,0,0:0:0:0:
209,336,198523,1,8,0:0:0:0:
160,228,198668,2,0,L|168:160,2,47.5,0|0|8,0:0|0:0|0:0,0:0:0:0:
44,96,198958,1,0,0:0:0:0:
216,80,199248,6,0,L|284:72,2,47.5,0|0|8,0:0|0:0|0:0,0:0:0:0:
356,160,199538,2,0,L|288:152,2,47.5,0|0|8,0:0|0:0|0:0,0:0:0:0:
240,256,199827,2,0,L|308:248,2,47.5,0|0|8,0:0|0:0|0:0,0:0:0:0:
140,196,200117,1,0,0:0:0:0:
156,344,200262,1,8,0:0:0:0:
48,188,200407,6,0,P|64:132|164:112,1,142.500005435944,2|0,0:0|0:0,0:0:0:0:
137,102,200769,1,0,0:0:0:0:
137,102,200842,1,8,0:0:0:0:
264,160,200987,2,0,L|280:96,2,35.625001358986,0|0|8,0:0|0:0|0:0,0:0:0:0:
360,72,201277,1,0,0:0:0:0:
408,208,201567,6,0,L|416:264,2,35.625001358986,0|0|8,0:0|0:0|0:0,0:0:0:0:
316,264,201856,2,0,L|308:320,2,35.625001358986,0|0|8,0:0|0:0|0:0,0:0:0:0:
208,308,202146,2,0,L|216:364,2,35.625001358986,0|0|8,0:0|0:0|0:0,0:0:0:0:
96,312,202436,1,0,0:0:0:0:
96,312,202581,1,0,0:0:0:0:
181,167,202726,6,0,L|213:339,1,142.500005435944,2|0,0:0|0:0,0:0:0:0:
296,332,203088,2,0,L|304:264,1,47.5,0|8,0:0|0:0,0:0:0:0:
360,192,203306,2,0,L|376:144,2,47.5,0|0|8,0:0|0:0|0:0,0:0:0:0:
304,64,203595,1,0,0:0:0:0:
188,96,203885,6,0,L|120:88,2,47.5,0|0|8,0:0|0:0|0:0,0:0:0:0:
72,192,204175,2,0,L|140:184,2,47.5,0|0|8,0:0|0:0|0:0,0:0:0:0:
208,280,204465,2,0,L|140:272,2,47.5,0|0|8,0:0|0:0|0:0,0:0:0:0:
76,336,204755,1,0,0:0:0:0:
76,336,204900,1,8,0:0:0:0:
72,192,205045,6,0,P|140:160|220:196,1,142.500005435944,2|0,0:0|0:0,0:0:0:0:
304,136,205480,6,0,B|328:92|328:92|392:136|360:228,1,190,2|0,0:0|0:0,0:0:0:0:
448,280,205914,6,0,P|476:180|432:44,1,246.999988693238,2|0,0:0|0:0,0:0:0:0:
240,92,206349,6,0,L|236:20,1,61.7499971733095,4|0,0:0|0:0,0:0:0:0:
140,164,206494,2,0,L|144:92,1,61.7499971733095
240,188,206639,2,0,P|248:248|244:284,1,61.7499971733095,4|0,0:0|0:0,0:0:0:0:
156,319,206784,2,0,P|148:268|152:232,1,61.7499971733095
240,188,206929,5,8,0:0:0:0:
368,64,207219,1,8,0:0:0:0:
244,276,207509,6,0,P|265:337|180:276,1,227.999993041992,2|8,0:0|0:0,0:0:0:0:
52,212,207943,2,0,L|44:328,1,113.999996520996
236,162,208233,2,0,L|244:278,1,113.999996520996,0|8,0:0|0:0,0:0:0:0:
88,64,208523,2,0,B|152:80|188:56|188:56|268:76|268:76|312:52,1,227.999993041992,4|0,0:0|0:0,0:0:0:0:
432,220,208958,1,8,0:0:0:0:
428,52,209103,1,0,0:0:0:0:
352,292,209248,2,0,P|410:319|468:308,1,113.999996520996
296,40,209538,2,0,P|232:32|180:60,1,113.999996520996,8|0,0:0|0:0,0:0:0:0:
228,352,209827,6,0,L|248:112,1,227.999993041992,2|8,0:0|0:0,0:0:0:0:
132,112,210262,2,0,B|108:148|108:148|120:236,1,113.999996520996
360,164,210552,2,0,B|384:128|384:128|372:40,1,113.999996520996,0|8,0:0|0:0,0:0:0:0:
472,48,210842,2,0,B|468:140|468:140|480:176|480:176|472:280,1,227.999993041992
368,356,211277,2,0,L|380:240,1,113.999996520996,8|0,0:0|0:0,0:0:0:0:
152,240,211567,2,0,P|92:228|32:240,1,113.999996520996
256,352,211856,2,0,P|316:364|376:352,1,113.999996520996,8|0,0:0|0:0,0:0:0:0:
222,154,212146,6,0,B|182:99|182:99|106:143|158:255,1,227.999993041992,2|8,0:0|0:0,0:0:0:0:
280,264,212581,1,0,0:0:0:0:
340,72,212726,1,0,0:0:0:0:
68,88,212871,2,0,L|196:104,1,113.999996520996,0|8,0:0|0:0,0:0:0:0:
340,72,213161,2,0,B|392:32|392:32|368:104|372:200,1,227.999993041992
464,316,213595,2,0,L|484:200,1,113.999996520996,8|0,0:0|0:0,0:0:0:0:
248,144,213885,2,0,L|268:260,1,113.999996520996
272,356,214175,1,8,0:0:0:0:
380,240,214320,1,0,0:0:0:0:
80,352,214465,6,0,P|36:296|136:312,1,227.999993041992,2|8,0:0|0:0,0:0:0:0:
308,192,214900,2,0,P|372:156|424:168,1,113.999996520996
192,60,215190,2,0,L|200:180,1,113.999996520996,0|8,0:0|0:0,0:0:0:0:
444,80,215480,6,0,B|494:131|488:181|488:181|447:222|461:296,1,227.999993041992
380,352,215914,2,0,P|308:368|256:352,1,113.999996520996,8|0,0:0|0:0,0:0:0:0:
200,320,216132,1,0,0:0:0:0:
200,320,216204,1,0,0:0:0:0:
36,168,216349,1,0,0:0:0:0:
92,368,216494,1,8,0:0:0:0:
232,80,216639,1,0,0:0:0:0:
22,296,216784,6,0,P|66:256|202:336,1,227.999993041992,2|8,0:0|0:0,0:0:0:0:
320,256,217219,2,0,P|336:312|332:368,1,113.999996520996
164,227,217509,2,0,P|148:171|152:115,1,113.999996520996,0|8,0:0|0:0,0:0:0:0:
258,136,217798,2,0,B|306:100|306:100|370:156|310:276,1,227.999993041992
428,328,218233,2,0,P|456:268|448:208,1,113.999996520996,8|0,0:0|0:0,0:0:0:0:
432,136,218451,1,0,0:0:0:0:
432,136,218523,1,0,0:0:0:0:
328,24,218668,1,0,0:0:0:0:
152,116,218813,2,0,P|220:144|276:124,1,113.999996520996,8|0,0:0|0:0,0:0:0:0:
44,284,219103,6,0,B|120:292|120:292|182:252|182:252|288:260,1,227.999993041992,2|8,0:0|0:0,0:0:0:0:
396,328,219538,2,0,P|340:352|284:348,1,113.999996520996
58,177,219827,2,0,B|34:213|34:213|46:301,1,113.999996520996,0|8,0:0|0:0,0:0:0:0:
164,64,220117,2,0,P|244:52|216:160,1,227.999993041992
388,214,220552,2,0,L|396:338,1,113.999996520996,8|0,0:0|0:0,0:0:0:0:
214,272,220842,2,0,L|222:148,1,113.999996520996
436,56,221132,1,8,0:0:0:0:
388,214,221277,1,0,0:0:0:0:
120,312,221422,6,0,P|176:356|304:288,1,227.999993041992,2|8,0:0|0:0,0:0:0:0:
440,144,221856,1,0,0:0:0:0:
309,186,222001,2,0,P|289:246|309:306,1,113.999996520996
136,132,222291,2,0,P|156:72|136:12,1,113.999996520996,8|0,0:0|0:0,0:0:0:0:
64,256,222581,5,2,0:0:0:0:
288,40,222726,1,0,0:0:0:0:
224,288,222871,1,8,0:0:0:0:
136,132,223016,1,0,0:0:0:0:
132,97,223088,1,0,0:0:0:0:
128,62,223160,5,0,0:0:0:0:
296,180,223306,1,0,0:0:0:0:
288,40,223451,1,8,0:0:0:0:
440,252,223595,1,0,0:0:0:0:
316,332,223740,6,0,P|260:268|308:172,1,190,2|8,0:0|0:0,0:0:0:0:
416,136,224175,1,0,0:0:0:0:
228,116,224320,2,0,P|184:152|172:216,1,113.999996520996
120,308,224610,2,0,P|76:272|64:196,1,132.999995941162,8|0,0:0|0:0,0:0:0:0:
80,92,224900,5,4,0:0:0:0:
80,92,224972,1,0,0:0:0:0:
80,92,225045,2,0,L|88:20,1,66.4999979705811
232,124,225190,5,4,0:0:0:0:
232,124,225262,1,0,0:0:0:0:
232,124,225335,2,0,L|224:190,1,66.4999979705811
364,72,225480,6,0,P|308:40|260:40,1,104.500003189087,8|0,0:0|0:0,0:0:0:0:
384,192,225769,2,0,P|447:180|484:149,1,104.500003189087,8|0,0:0|0:0,0:0:0:0:
392,315,226059,6,0,B|314:309|314:309|252:349|252:349|176:341,1,227.999993041992,2|8,0:0|0:0,0:0:0:0:
56,244,226494,2,0,L|68:364,1,113.999996520996
208,264,226784,2,0,B|232:228|232:228|220:140,1,113.999996520996,0|8,0:0|0:0,0:0:0:0:
344,112,227074,6,0,B|400:164|400:164|392:328,1,227.999993041992
222,157,227509,2,0,L|106:149,1,113.999996520996,8|0,0:0|0:0,0:0:0:0:
288,32,227798,2,0,L|404:24,1,113.999996520996
484,208,228088,1,8,0:0:0:0:
344,112,228233,1,0,0:0:0:0:
232,288,228378,6,0,B|180:264|100:292|100:292|120:244|152:232|180:236,1,227.999993041992,2|8,0:0|0:0,0:0:0:0:
44,176,228813,2,0,P|100:144|152:144,1,113.999996520996
337,315,229103,2,0,P|272:312|228:284,1,113.999996520996,0|8,0:0|0:0,0:0:0:0:
444,364,229393,6,0,B|484:304|468:256|468:256|420:224|428:152,1,227.999993041992
320,112,229827,2,0,P|360:60|412:44,1,113.999996520996,8|0,0:0|0:0,0:0:0:0:
215,117,230117,2,0,P|237:185|262:210,1,104.500003189087
232,316,230407,2,0,P|303:305|327:285,1,95,8|0,0:0|0:0,0:0:0:0:
28,252,230697,5,2,0:0:0:0:
260,208,230842,1,0,0:0:0:0:
108,340,230987,1,8,0:0:0:0:
184,32,231132,1,0,0:0:0:0:
260,208,231277,1,0,0:0:0:0:
24,28,231422,1,0,0:0:0:0:
332,108,231567,1,8,0:0:0:0:
48,168,231711,1,0,0:0:0:0:
212,312,231856,5,2,0:0:0:0:
332,108,232001,1,0,0:0:0:0:
108,248,232146,1,8,0:0:0:0:
352,320,232291,1,0,0:0:0:0:
192,44,232436,1,0,0:0:0:0:
220,320,232581,1,0,0:0:0:0:
220,320,232653,1,0,0:0:0:0:
220,320,232726,1,8,0:0:0:0:
424,148,232871,1,0,0:0:0:0:
260,216,233016,5,2,0:0:0:0:
360,24,233161,1,0,0:0:0:0:
396,272,233306,1,8,0:0:0:0:
176,108,233451,1,0,0:0:0:0:
176,108,233523,1,0,0:0:0:0:
176,108,233595,2,0,L|172:232,1,113.999996520996
80,344,233885,1,8,0:0:0:0:
272,292,234030,1,0,0:0:0:0:
328,156,234175,6,0,L|340:80,3,52.2500015945435,4|0|0|0,0:0|0:0|0:0|0:0,0:0:0:0:
440,232,234465,2,0,L|428:164,3,47.5,4|0|0|0,0:0|0:0|0:0|0:0,0:0:0:0:
400,328,234755,5,4,0:0:0:0:
356,308,234827,1,0,0:0:0:0:
309,304,234899,1,0,0:0:0:0:
263,314,234972,1,0,0:0:0:0:
224,340,235045,1,4,0:0:0:0:
177,350,235117,1,0,0:0:0:0:
130,346,235189,1,0,0:0:0:0:
87,326,235262,1,0,0:0:0:0:
52,296,235335,6,0,P|20:240|20:192,1,95,2|0,0:0|0:0,0:0:0:0:
108,104,235624,1,8,0:0:0:0:
108,104,235769,2,0,P|167:80|215:86,1,95
304,224,236059,2,0,P|241:207|206:174,1,95,0|8,0:0|0:0,0:0:0:0:
416,160,236349,6,0,P|436:240|360:344,1,190,2|0,0:0|0:0,0:0:0:0:
248,336,236784,1,8,0:0:0:0:
248,336,236929,1,0,0:0:0:0:
136,288,237074,2,0,P|120:336|132:384,1,95
252,244,237364,2,0,P|258:193|237:149,1,95,8|0,0:0|0:0,0:0:0:0:
144,48,237653,6,0,B|208:40|208:40|272:64|272:64|344:56,1,190,2|8,0:0|0:0,0:0:0:0:
432,120,238088,1,2,0:0:0:0:
436,140,238378,1,2,0:0:0:0:
440,160,238668,2,0,B|424:248|492:248|456:352,1,190,2|0,0:0|0:0,0:0:0:0:
328,332,239103,2,0,P|268:316|224:332,1,95,8|0,0:0|0:0,0:0:0:0:
124,252,239393,2,0,L|132:348,1,85.4999973907472
244,152,239682,2,0,L|236:244,1,77.9000011886597,8|0,0:0|0:0,0:0:0:0:
122,64,239972,6,0,P|70:84|126:252,1,285.000010871888,2|0,0:0|0:0,0:0:0:0:
252,160,240697,1,0,0:0:0:0:
252,160,240769,1,0,0:0:0:0:
252,160,240842,2,0,L|328:152,1,71.2500027179719,8|0,0:0|0:0,0:0:0:0:
388,64,241132,6,0,P|424:100|416:200,1,142.500005435944,2|8,0:0|0:0,0:0:0:0:
288,283,241567,2,0,P|252:247|260:147,1,142.500005435944,0|0,0:0|0:0,0:0:0:0:
144,76,242001,2,0,P|128:128|132:164,1,71.2500027179719,8|0,0:0|0:0,0:0:0:0:
92,296,242291,6,0,L|100:340,3,35.625001358986,2|0|0|0,0:0|0:0|0:0|0:0,0:0:0:0:
188,276,242581,2,0,L|196:232,3,35.625001358986,8|0|0|0,0:0|0:0|0:0|0:0,0:0:0:0:
240,344,242871,2,0,L|284:348,1,35.625001358986,8|0,0:0|0:0,0:0:0:0:
344,272,243016,2,0,L|300:276,1,35.625001358986,8|0,0:0|0:0,0:0:0:0:
360,356,243161,2,0,L|404:360,1,35.625001358986,8|0,0:0|0:0,0:0:0:0:
464,288,243306,1,8,0:0:0:0:
464,288,243595,5,0,0:0:0:0:
340,72,243740,1,0,0:0:0:0:
444,176,243885,1,0,0:0:0:0:
288,216,244030,5,8,0:0:0:0:
456,68,244175,1,0,0:0:0:0:
220,36,244320,1,0,0:0:0:0:
444,176,244465,5,8,0:0:0:0:
192,136,244610,1,0,0:0:0:0:
192,136,244682,1,0,0:0:0:0:
192,136,244755,1,8,0:0:0:0:
340,72,244900,5,0,0:0:0:0:
236,268,245045,1,0,0:0:0:0:
444,176,245190,1,8,0:0:0:0:
340,352,245335,5,0,0:0:0:0:
340,72,245480,1,0,0:0:0:0:
192,352,245624,6,0,P|136:352|80:288,1,142.500005435944,4|0,0:0|0:0,0:0:0:0:
80,291,245987,1,0,0:0:0:0:
80,291,246059,1,8,0:0:0:0:
168,92,246204,6,0,L|176:244,1,142.500005435944
176,235,246567,1,0,0:0:0:0:
176,235,246639,1,8,0:0:0:0:
308,356,246784,6,0,L|316:204,1,142.500005435944
316,213,247147,1,0,0:0:0:0:
316,213,247219,1,8,0:0:0:0:
436,120,247364,6,0,P|412:84|304:64,1,142.500005435944
320,58,247726,1,0,0:0:0:0:
320,58,247798,1,8,0:0:0:0:
77,123,247943,6,0,P|116:104|239:157,1,152
218,130,248305,1,0,0:0:0:0:
218,130,248377,1,8,0:0:0:0:
416,272,248523,6,0,L|256:260,1,152
264,260,248885,1,0,0:0:0:0:
264,260,248958,1,8,0:0:0:0:
20,332,249103,6,0,L|172:316,1,142.500005435944
167,324,249465,1,0,0:0:0:0:
167,324,249538,1,8,0:0:0:0:
304,344,249682,5,0,0:0:0:0:
388,180,249827,2,0,L|392:264,1,71.2500027179719
256,140,250117,1,8,0:0:0:0:
397,75,250262,6,0,L|386:193,1,104.500003189087
256,140,250697,2,0,P|216:136|192:140,1,52.2500015945435,8|0,0:0|0:0,0:0:0:0:
140,236,250987,2,0,P|180:240|204:236,1,52.2500015945435
52,316,251277,2,0,P|84:329|119:333,1,71.2500027179719,8|0,0:0|0:0,0:0:0:0:
284,340,251567,6,0,L|344:324,2,47.5000018119813
328,240,251856,2,0,L|387:259,2,47.5000018119813,8|0|0,0:0|0:0|0:0,0:0:0:0:
344,148,252146,2,0,L|428:140,1,71.2500027179719
396,48,252436,2,0,L|480:56,1,71.2500027179719,8|0,0:0|0:0,0:0:0:0:
284,36,252726,6,0,L|288:104,2,47.5000018119813
204,104,253016,2,0,L|200:172,2,47.5000018119813,8|0|0,0:0|0:0|0:0,0:0:0:0:
116,160,253306,2,0,L|120:228,2,47.5000018119813
40,288,253595,1,8,0:0:0:0:
40,288,253740,6,0,P|120:328|224:260,1,213.750008153916,0|8,0:0|0:0,0:0:0:0:
288,200,254272,1,0,0:0:0:0:
288,200,254368,1,0,0:0:0:0:
288,200,254465,2,0,P|320:272|284:348,1,142.500005435944,0|8,0:0|0:0,0:0:0:0:
420,152,254900,6,0,P|380:93|260:73,1,190,4|0,0:0|0:0,0:0:0:0:
176,88,255262,1,0,0:0:0:0:
176,88,255335,2,0,L|184:136,3,47.5
80,216,255624,5,8,0:0:0:0:
160,308,255769,1,0,0:0:0:0:
160,308,255842,1,0,0:0:0:0:
160,308,255914,2,0,L|244:316,1,47.5
312,352,256059,6,0,P|280:280|332:176,1,190
392,140,256422,1,0,0:0:0:0:
392,140,256494,2,0,L|396:76,3,47.5
304,52,256784,2,0,L|248:44,1,47.5,8|0,0:0|0:0,0:0:0:0:
192,136,256929,2,0,L|248:128,1,47.5
304,52,257074,1,0,0:0:0:0:
84,40,257219,6,0,L|80:236,1,190,0|0,0:0|0:0,0:0:0:0:
176,308,257581,1,0,0:0:0:0:
176,308,257653,2,0,L|184:360,2,47.5
296,260,257943,1,8,0:0:0:0:
384,360,258088,6,0,L|388:304,1,47.5
476,228,258233,2,0,L|480:276,1,47.5
384,360,258378,1,0,0:0:0:0:
476,228,258523,6,0,L|464:124,1,95
328,112,258813,2,0,P|336:72|348:48,2,63.3333333333333
232,180,259103,2,0,P|206:148|195:123,2,63.3333333333333,8|0|0,0:0|0:0|0:0,0:0:0:0:
112,292,259393,1,0,0:0:0:0:
112,292,259465,1,0,0:0:0:0:
112,292,259538,6,0,P|160:328|284:300,1,190,4|0,0:0|0:0,0:0:0:0:
328,184,259900,2,0,L|356:232,2,47.5
440,200,260117,2,0,L|488:296,1,95,0|8,0:0|0:0,0:0:0:0:
408,84,260407,6,0,L|460:76,3,47.5
344,20,260697,2,0,L|128:28,1,190
64,56,261059,1,0,0:0:0:0:
49,90,261131,1,0,0:0:0:0:
51,128,261203,1,0,0:0:0:0:
56,164,261277,2,0,L|72:260,1,71.2500027179719,0|8,0:0|0:0,0:0:0:0:
176,288,261567,6,0,L|164:352,3,35.625001358986
292,360,261856,2,0,B|296:312|296:312|320:280|320:280|328:212,1,142.500005435944
272,120,262219,2,0,L|264:164,1,35.625001358986
372,96,262364,2,0,L|365:60,1,35.625001358986
240,36,262581,6,0,L|152:40,1,71.2500027179719,8|0,0:0|0:0,0:0:0:0:
64,144,262871,1,0,0:0:0:0:
64,144,262943,1,0,0:0:0:0:
64,144,263016,1,0,0:0:0:0:
156,312,263161,5,0,0:0:0:0:
284,228,263306,1,0,0:0:0:0:
284,228,263378,1,0,0:0:0:0:
284,228,263451,1,8,0:0:0:0:
184,136,263595,5,0,0:0:0:0:
263,339,263740,1,8,0:0:0:0:
308,52,263885,5,0,0:0:0:0:
400,228,264030,1,8,0:0:0:0:
263,339,264175,6,0,P|191:339|283:227,1,332.5
436,100,265480,5,0,0:0:0:0:
403,85,265552,1,0,0:0:0:0:
368,79,265624,1,0,0:0:0:0:
333,82,265697,1,0,0:0:0:0:
300,95,265769,1,0,0:0:0:0:
268,116,265842,1,0,0:0:0:0:
235,130,265914,1,0,0:0:0:0:
200,136,265986,1,0,0:0:0:0:
164,136,266059,6,0,L|152:60,2,47.5
71,41,266277,2,0,L|64:88,2,47.5
52,192,266494,6,0,P|60:260|115:310,1,113.999996520996,4|0,0:0|0:0,0:0:0:0:
120,316,266711,1,0,0:0:0:0:
154,331,266783,1,0,0:0:0:0:
192,335,266855,1,0,0:0:0:0:
232,336,266929,2,0,L|220:280,3,56.9999982604981,8|0|0|0,0:0|0:0|0:0|0:0,0:0:0:0:
328,220,267219,2,0,L|316:276,3,56.9999982604981
456,164,267509,2,0,P|388:164|364:152,1,56.9999982604981,8|0,0:0|0:0,0:0:0:0:
300,60,267653,2,0,P|368:60|392:72,1,56.9999982604981
204,128,267798,6,0,L|192:64,3,56.9999982604981
108,144,268088,2,0,L|96:208,3,56.9999982604981,8|0|0|0,0:0|0:0|0:0|0:0,0:0:0:0:
32,308,268378,5,0,0:0:0:0:
74,293,268450,1,0,0:0:0:0:
118,294,268522,1,0,0:0:0:0:
159,313,268595,1,0,0:0:0:0:
196,336,268668,1,8,0:0:0:0:
236,349,268740,1,0,0:0:0:0:
278,342,268812,1,0,0:0:0:0:
312,317,268885,1,0,0:0:0:0:
344,292,268958,6,0,L|372:352,3,52.2500015945435
388,204,269248,2,0,L|360:144,3,52.2500015945435,8|0|0|0,0:0|0:0|0:0|0:0,0:0:0:0:
268,100,269538,2,0,P|228:104|196:92,3,52.2500015945435
123,34,269827,2,0,P|97:31|72:36,3,52.2500015945435,8|0|0|0,0:0|0:0|0:0|0:0,0:0:0:0:
60,160,270117,6,0,P|56:216|64:236,1,56.9999982604981,8|0,0:0|0:0,0:0:0:0:
164,284,270262,2,0,P|168:228|160:208,1,56.9999982604981
272,344,270407,2,0,P|299:350|327:348,1,56.9999982604981,8|0,0:0|0:0,0:0:0:0:
395,239,270552,2,0,P|368:233|340:235,1,56.9999982604981
264,152,270697,2,0,P|270:124|267:95,1,56.9999982604981,8|0,0:0|0:0,0:0:0:0:
158,29,270842,2,0,P|151:56|154:85,1,56.9999982604981
164,284,270987,1,8,0:0:0:0:
56,348,271132,6,0,B|44:284|44:284|60:236|60:236|0:192|40:88,1,237.5,6|0,0:0|0:0,0:0:0:0:
158,29,271567,2,0,L|282:33,1,113.999996520996,8|0,0:0|0:0,0:0:0:0:
396,148,271784,1,0,0:0:0:0:
396,148,271856,2,0,L|272:152,1,113.999996520996
184,240,272146,1,8,0:0:0:0:
305,314,272291,6,0,P|381:279|381:127,1,227.999993041992
452,32,272726,2,0,P|484:84|484:152,1,113.999996520996,8|0,0:0|0:0,0:0:0:0:
305,314,273016,2,0,P|273:262|273:194,1,113.999996520996
164,120,273306,1,8,0:0:0:0:
56,224,273451,2,0,L|72:336,1,113.999996520996
196,328,273740,1,0,0:0:0:0:
312,152,273885,1,8,0:0:0:0:
164,120,274030,2,0,L|148:232,1,113.999996520996
312,152,274320,1,0,0:0:0:0:
305,314,274465,1,8,0:0:0:0:
384,92,274610,6,0,P|416:32|424:128,1,227.999993041992
384,228,275045,2,0,P|452:240|496:224,1,113.999996520996,8|0,0:0|0:0,0:0:0:0:
280,72,275335,2,0,P|212:60|168:76,1,113.999996520996
80,216,275624,1,8,0:0:0:0:
216,311,275769,6,0,P|300:327|384:223,1,227.999993041992,2|0,0:0|0:0,0:0:0:0:
280,176,276132,1,0,0:0:0:0:
280,176,276204,2,0,L|232:168,1,47.5,8|0,0:0|0:0,0:0:0:0:
168,84,276349,1,0,0:0:0:0:
168,84,276422,1,0,0:0:0:0:
168,84,276494,2,0,L|232:88,3,47.5
104,164,276784,2,0,L|40:160,3,47.5,8|0|0|0,0:0|0:0|0:0|0:0,0:0:0:0:
112,272,277074,5,0,0:0:0:0:
112,272,277146,1,0,0:0:0:0:
112,272,277219,2,0,L|116:336,1,47.5
232,320,277364,5,8,0:0:0:0:
232,320,277436,1,0,0:0:0:0:
232,320,277509,2,0,L|236:384,1,47.5
336,296,277653,6,0,P|328:248|332:224,1,47.5
404,156,277798,2,0,P|412:204|408:228,1,47.5
292,116,277943,2,0,P|269:123|245:125,1,47.5,8|0,0:0|0:0,0:0:0:0:
96,160,278088,6,0,B|52:124|52:124|16:204|60:284,1,190,6|0,0:0|0:0,0:0:0:0:
184,352,278523,2,0,P|196:288|188:252,1,95,8|0,0:0|0:0,0:0:0:0:
102,67,278813,2,0,P|90:131|98:167,1,95
240,148,279103,2,0,P|300:171|326:197,1,95,8|0,0:0|0:0,0:0:0:0:
420,272,279320,1,0,0:0:0:0:
420,272,279393,1,0,0:0:0:0:
408,80,279538,5,0,0:0:0:0:
408,80,279610,1,0,0:0:0:0:
408,80,279682,1,8,0:0:0:0:
327,267,279827,2,0,P|375:279|431:267,1,95
216,348,280117,2,0,L|280:352,1,47.5
327,267,280262,2,0,L|263:263,1,47.5,8|0,0:0|0:0,0:0:0:0:
112,352,280407,6,0,B|176:280|124:180|124:180|64:208|56:284,1,285,0|8,0:0|0:0,0:0:0:0:
88,92,280987,1,0,0:0:0:0:
232,120,281132,2,0,L|244:220,1,95
417,189,281422,1,8,0:0:0:0:
417,189,281494,1,0,0:0:0:0:
417,189,281567,6,0,P|397:105|225:133,1,285,0|8,0:0|0:0,0:0:0:0:
144,220,282146,1,0,0:0:0:0:
144,220,282219,1,0,0:0:0:0:
144,220,282291,1,0,0:0:0:0:
272,200,282436,5,0,0:0:0:0:
112,48,282581,1,8,0:0:0:0:
100,316,282726,1,0,0:0:0:0:
280,208,282871,5,0,0:0:0:0:
280,208,282943,1,0,0:0:0:0:
280,208,283016,1,0,0:0:0:0:
80,184,283161,1,8,0:0:0:0:
244,64,283306,1,0,0:0:0:0:
216,328,283451,1,0,0:0:0:0:
116,48,283595,1,0,0:0:0:0:
380,128,283740,1,8,0:0:0:0:
216,328,283885,6,0,P|144:344|248:260,1,427.5
328,304,284610,6,0,P|344:260|344:236,3,47.5
344,176,284900,2,0,P|324:133|307:116,3,47.5
328,304,285190,5,6,0:0:0:0:
289,331,285262,1,0,0:0:0:0:
244,343,285334,1,0,0:0:0:0:
197,337,285407,1,0,0:0:0:0:
156,314,285480,1,0,0:0:0:0:
126,277,285552,1,0,0:0:0:0:
112,232,285624,1,0,0:0:0:0:
124,188,285697,1,0,0:0:0:0:
159,156,285769,1,8,0:0:0:0:
204,142,285841,1,0,0:0:0:0:
250,147,285914,1,0,0:0:0:0:
291,171,285986,1,0,0:0:0:0:
324,204,286059,1,0,0:0:0:0:
367,219,286131,1,0,0:0:0:0:
412,205,286203,1,0,0:0:0:0:
438,167,286276,1,0,0:0:0:0:
452,132,286349,6,0,P|404:108|384:108,3,47.5
432,284,286639,2,0,P|480:308|500:308,3,47.5
304,308,286929,2,0,P|288:252|292:228,1,47.5,8|0,0:0|0:0,0:0:0:0:
320,88,287074,2,0,P|336:144|332:168,1,47.5
212,196,287219,2,0,P|268:180|292:184,1,47.5
432,212,287364,2,0,P|376:228|352:224,1,47.5
192,76,287509,5,4,0:0:0:0:
145,70,287581,1,0,0:0:0:0:
104,92,287653,1,0,0:0:0:0:
83,134,287726,1,0,0:0:0:0:
89,180,287798,1,0,0:0:0:0:
120,212,287871,1,0,0:0:0:0:
147,250,287943,1,0,0:0:0:0:
150,297,288015,1,0,0:0:0:0:
127,338,288088,1,8,0:0:0:0:
87,361,288160,1,0,0:0:0:0:
44,344,288234,1,0,0:0:0:0:
66,302,288306,1,0,0:0:0:0:
102,272,288378,1,0,0:0:0:0:
147,258,288451,1,0,0:0:0:0:
194,262,288523,1,0,0:0:0:0:
236,284,288596,1,0,0:0:0:0:
280,304,288668,6,0,P|296:252|296:240,3,47.5
392,200,288958,2,0,P|376:252|376:264,3,47.5
364,104,289248,6,0,P|312:100|288:112,1,47.5,8|0,0:0|0:0,0:0:0:0:
240,192,289393,2,0,P|296:192|312:180,1,47.5
128,116,289538,2,0,P|128:172|136:192,1,47.5
224,80,289683,2,0,P|224:24|216:8,1,47.5
40,292,289827,5,4,0:0:0:0:
77,263,289899,1,0,0:0:0:0:
123,251,289971,1,0,0:0:0:0:
169,258,290044,1,0,0:0:0:0:
210,283,290116,1,0,0:0:0:0:
248,312,290190,1,0,0:0:0:0:
288,336,290262,1,0,0:0:0:0:
334,343,290334,1,0,0:0:0:0:
380,331,290407,1,8,0:0:0:0:
418,303,290479,1,0,0:0:0:0:
452,268,290552,1,0,0:0:0:0:
474,226,290624,1,0,0:0:0:0:
483,179,290696,1,0,0:0:0:0:
478,132,290769,1,0,0:0:0:0:
459,89,290841,1,0,0:0:0:0:
428,53,290914,1,0,0:0:0:0:
388,36,290987,6,0,P|380:92|384:104,3,47.5
276,156,291277,2,0,P|284:100|280:88,3,47.5
180,64,291567,1,8,0:0:0:0:
180,64,291639,1,0,0:0:0:0:
180,64,291711,2,0,L|172:124,1,47.5
72,184,291856,1,0,0:0:0:0:
72,184,291928,1,0,0:0:0:0:
72,184,292000,2,0,L|80:124,1,47.5
160,244,292146,5,4,0:0:0:0:
163,290,292218,1,0,0:0:0:0:
187,331,292290,1,0,0:0:0:0:
226,356,292363,1,0,0:0:0:0:
273,360,292435,1,0,0:0:0:0:
317,343,292508,1,0,0:0:0:0:
348,307,292580,1,0,0:0:0:0:
368,268,292653,1,0,0:0:0:0:
380,228,292726,2,0,L|432:248,3,47.5,8|0|0|0,0:0|0:0|0:0|0:0,0:0:0:0:
344,100,293016,2,0,L|292:80,3,47.5,8|0|0|0,0:0|0:0|0:0|0:0,0:0:0:0:
176,104,293306,6,0,L|158:148,3,47.5
32,208,293595,2,0,L|49:163,3,47.5,8|0|0|0,0:0|0:0|0:0|0:0,0:0:0:0:
84,292,293885,1,0,0:0:0:0:
118,259,293957,1,0,0:0:0:0:
163,246,294029,1,0,0:0:0:0:
210,254,294102,1,0,0:0:0:0:
248,281,294174,1,8,0:0:0:0:
276,316,294248,1,0,0:0:0:0:
308,348,294320,6,0,P|332:308|336:288,3,47.5,6|0|0|0,0:0|0:0|0:0|0:0,0:0:0:0:
420,308,294610,2,0,P|424:252|420:232,1,56.9999982604981
324,148,294755,2,0,P|320:204|324:224,1,56.9999982604981,8|0,0:0|0:0,0:0:0:0:
432,124,294900,2,0,P|436:68|432:48,1,56.9999982604981
256,56,295045,1,0,0:0:0:0:
222,96,295117,1,0,0:0:0:0:
207,147,295189,1,0,0:0:0:0:
213,199,295262,1,0,0:0:0:0:
228,248,295335,1,8,0:0:0:0:
210,297,295407,1,0,0:0:0:0:
184,340,295479,6,0,L|127:346,3,56.9999982604981,6|0|0|0,0:0|0:0|0:0|0:0,0:0:0:0:
228,248,295769,2,0,P|276:240|312:244,1,56.9999982604981
376,320,295914,2,0,P|328:328|292:324,1,56.9999982604981,8|0,0:0|0:0,0:0:0:0:
424,196,296059,1,0,0:0:0:0:
392,153,296131,1,0,0:0:0:0:
347,126,296203,1,0,0:0:0:0:
295,119,296276,1,0,0:0:0:0:
244,132,296348,1,0,0:0:0:0:
200,160,296422,1,0,0:0:0:0:
151,179,296494,1,8,0:0:0:0:
98,178,296566,1,0,0:0:0:0:
44,172,296639,6,0,P|36:116|40:100,3,56.9999982604981,6|0|0|0,0:0|0:0|0:0|0:0,0:0:0:0:
152,280,296929,2,0,P|123:280|96:271,1,56.9999982604981
200,160,297074,2,0,P|228:159|255:168,1,56.9999982604981,8|0,0:0|0:0,0:0:0:0:
272,324,297219,1,0,0:0:0:0:
322,308,297291,1,0,0:0:0:0:
364,276,297363,1,0,0:0:0:0:
393,232,297436,1,0,0:0:0:0:
405,181,297508,1,0,0:0:0:0:
416,132,297581,2,0,P|468:140|488:156,2,56.9999982604981,0|8|0,0:0|0:0|0:0,0:0:0:0:
320,44,297798,6,0,P|268:52|240:76,3,71.2500027179719,6|0|0|0,0:0|0:0|0:0|0:0,0:0:0:0:
164,108,298088,2,0,P|152:44|156:16,1,71.2500027179719
280,136,298233,2,0,P|292:200|288:228,1,71.2500027179719,8|0,0:0|0:0,0:0:0:0:
176,204,298378,2,0,P|141:214|106:215,1,71.2500027179719
250,55,298523,2,0,P|284:44|319:43,1,71.2500027179719,8|0,0:0|0:0,0:0:0:0:
408,148,298668,2,0,L|416:240,1,71.2500027179719
320,320,298813,2,0,L|312:228,1,71.2500027179719,8|0,0:0|0:0,0:0:0:0:
80,84,298958,6,0,P|36:188|120:296,1,227.999993041992,6|0,0:0|0:0,0:0:0:0:
184,336,299393,1,8,0:0:0:0:
284,160,299538,1,0,0:0:0:0:
128,184,299682,1,0,0:0:0:0:
392,220,299827,2,0,L|456:216,1,56.9999982604981
352,312,299972,2,0,L|288:316,1,56.9999982604981,8|0,0:0|0:0,0:0:0:0:
392,220,300117,6,0,B|436:144|396:56|396:56|368:80|340:144,1,246.999988693238,2|0,0:0|0:0,0:0:0:0:
272,32,300552,2,0,P|248:92|252:160,1,113.999996520996,8|0,0:0|0:0,0:0:0:0:
212,264,300842,1,0,0:0:0:0:
56,244,300987,2,0,L|60:180,1,56.9999982604981
176,108,301132,2,0,L|172:172,1,56.9999982604981,8|0,0:0|0:0,0:0:0:0:
212,264,301277,6,0,P|272:324|372:192,1,265.999991882324,2|0,0:0|0:0,0:0:0:0:
440,144,301711,2,0,P|476:216|464:296,1,123.499994346619,8|0,0:0|0:0,0:0:0:0:
412,356,302001,1,0,0:0:0:0:
304,252,302146,2,0,P|300:200|284:168,1,61.7499971733095
212,264,302291,2,0,P|216:316|232:348,1,61.7499971733095,8|0,0:0|0:0,0:0:0:0:
112,356,302436,6,0,B|84:284|84:284|116:212|116:212|56:160|124:88,1,285.000010871888,2|0,0:0|0:0,0:0:0:0:
220,44,302871,2,0,P|244:112|236:172,1,128.250000489235,8|0,0:0|0:0,0:0:0:0:
352,256,303161,1,0,0:0:0:0:
376,80,303306,2,0,P|372:128|388:168,1,64.1250002446175
480,212,303451,2,0,P|484:164|468:124,1,64.1250002446175,8|0,0:0|0:0,0:0:0:0:
400,344,303595,6,0,B|332:360|300:328|300:328|260:344|260:344|216:320|148:336,1,227.999993041992,2|0,0:0|0:0,0:0:0:0:
72,244,304030,2,0,P|64:308|80:364,1,113.999996520996,8|0,0:0|0:0,0:0:0:0:
212,236,304320,2,0,P|220:172|204:116,1,113.999996520996
92,68,304610,1,8,0:0:0:0:
304,68,304755,6,0,P|380:28|344:128,1,227.999993041992,2|0,0:0|0:0,0:0:0:0:
468,220,305190,2,0,P|412:204|356:220,1,113.999996520996,8|0,0:0|0:0,0:0:0:0:
264,328,305480,2,0,P|320:344|376:328,1,113.999996520996
256,212,305769,2,0,P|200:196|144:212,1,113.999996520996,8|0,0:0|0:0,0:0:0:0:
40,244,306059,6,0,P|44:292|52:312,2,63.3333333333333
114,123,306349,2,0,P|142:175|146:231,1,95,8|0,0:0|0:0,0:0:0:0:
260,120,306639,2,0,P|328:132|400:100,2,126.666666666667
464,240,307219,6,0,B|408:208|308:256|308:256|260:228|260:228|192:280|100:224,1,380
52,320,307943,2,0,P|100:340|160:332,1,95,0|8,0:0|0:0,0:0:0:0:
140,140,308233,2,0,P|232:112|316:152,1,190
448,140,308668,6,0,L|460:76,3,35.625001358986,8|0|0|0,0:0|0:0|0:0|0:0,0:0:0:0:
313,149,308958,2,0,L|301:213,3,35.625001358986
448,140,309248,1,8,0:0:0:0:
388,252,309393,6,0,P|332:308|224:180,1,285,0|8,0:0|0:0,0:0:0:0:
164,60,309972,1,0,0:0:0:0:
72,232,310117,1,0,0:0:0:0:
32,64,310262,1,0,0:0:0:0:
218,191,310407,2,0,P|226:259|206:303,1,95,8|0,0:0|0:0,0:0:0:0:
296,128,310697,6,0,L|296:76,2,47.5
368,272,310987,1,8,0:0:0:0:
480,132,311132,1,0,0:0:0:0:
480,132,311204,1,0,0:0:0:0:
480,132,311277,1,8,0:0:0:0:
176,56,311422,1,0,0:0:0:0:
252,252,311567,1,8,0:0:0:0:
340,36,311711,5,0,0:0:0:0:
252,252,312001,1,4,0:0:0:0:
128,168,330262,5,8,0:0:0:0:
128,168,330335,1,0,0:0:0:0:
128,168,330407,2,0,L|136:308,2,126.666666666667
352,60,330987,5,8,0:0:0:0:
372,80,331277,1,8,0:0:0:0:
396,104,331567,6,0,B|446:155|440:205|440:205|399:246|413:320,1,227.999993041992,2|8,0:0|0:0,0:0:0:0:
312,336,332001,2,0,P|240:356|188:336,1,113.999996520996
64,262,332291,2,0,P|56:206|72:152,1,113.999996520996,0|8,0:0|0:0,0:0:0:0:
184,96,332581,2,0,B|232:60|232:60|296:116|236:236,1,227.999993041992
364,248,333016,2,0,L|376:128,1,113.999996520996,8|0,0:0|0:0,0:0:0:0:
184,96,333306,2,0,L|196:216,1,113.999996520996
244,344,333595,1,8,0:0:0:0:
364,248,333740,1,0,0:0:0:0:
100,332,333885,6,0,B|108:256|108:256|68:194|68:194|73:116,1,227.999993041992,2|8,0:0|0:0,0:0:0:0:
128,36,334320,2,0,P|184:24|240:40,1,113.999996520996
364,248,334610,2,0,P|308:232|266:191,1,113.999996520996,0|8,0:0|0:0,0:0:0:0:
452,312,334900,6,0,P|336:364|228:308,1,227.999993041992
104,296,335335,1,8,0:0:0:0:
248,164,335480,1,0,0:0:0:0:
124,64,335624,2,0,P|108:132|120:188,1,113.999996520996
364,248,335914,2,0,P|380:180|368:124,1,113.999996520996,8|0,0:0|0:0,0:0:0:0:
216,43,336204,6,0,B|268:3|268:3|244:75|248:171,1,227.999993041992,2|8,0:0|0:0,0:0:0:0:
280,324,336639,1,0,0:0:0:0:
432,88,336784,1,0,0:0:0:0:
376,344,336929,1,0,0:0:0:0:
344,28,337074,1,8,0:0:0:0:
173,266,337219,6,0,P|257:205|365:250,1,227.999993041992
456,216,337653,2,0,P|464:276|448:336,1,113.999996520996,8|0,0:0|0:0,0:0:0:0:
300,188,337943,2,0,P|292:128|308:68,1,113.999996520996
416,68,338233,1,8,0:0:0:0:
456,216,338378,1,0,0:0:0:0:
112,320,338523,6,0,P|64:268|176:240,1,227.999993041992,2|8,0:0|0:0,0:0:0:0:
248,316,338958,2,0,P|360:364|460:264,1,227.999993041992
432,148,339393,1,8,0:0:0:0:
302,201,339538,2,0,B|258:153|258:153|246:337,1,227.999993041992
108,332,339972,5,8,0:0:0:0:
108,72,340117,1,0,0:0:0:0:
108,72,340190,1,0,0:0:0:0:
108,72,340262,1,0,0:0:0:0:
368,104,340407,1,0,0:0:0:0:
124,232,340552,1,8,0:0:0:0:
400,20,340697,1,0,0:0:0:0:
232,16,340842,6,0,L|248:248,1,227.999993041992,2|8,0:0|0:0,0:0:0:0:
356,324,341277,2,0,L|376:204,1,113.999996520996
120,112,341567,2,0,L|140:232,1,113.999996520996,0|8,0:0|0:0,0:0:0:0:
440,360,341856,2,0,P|472:236|444:116,1,227.999993041992
256,144,342291,1,8,0:0:0:0:
408,28,342436,1,0,0:0:0:0:
320,224,342581,2,0,P|256:240|204:224,1,113.999996520996
56,56,342871,2,0,P|120:40|172:56,1,113.999996520996,8|0,0:0|0:0,0:0:0:0:
40,344,343161,6,0,B|116:352|116:352|178:312|178:312|284:320,1,227.999993041992,2|8,0:0|0:0,0:0:0:0:
400,256,343595,2,0,L|392:376,1,113.999996520996
260,112,343885,2,0,L|268:232,1,113.999996520996,0|8,0:0|0:0,0:0:0:0:
64,164,344175,2,0,P|48:88|144:132,1,227.999993041992
220,32,344610,2,0,B|256:8|256:8|326:17,1,113.999996520996,8|0,0:0|0:0,0:0:0:0:
468,164,344900,2,0,B|432:188|432:188|361:178,1,113.999996520996
208,320,345190,1,8,0:0:0:0:
232,104,345335,1,0,0:0:0:0:
73,195,345480,6,0,P|92:290|217:315,1,227.999993041992,2|8,0:0|0:0,0:0:0:0:
344,268,345914,1,0,0:0:0:0:
344,268,345987,1,0,0:0:0:0:
344,268,346059,1,0,0:0:0:0:
192,212,346204,1,0,0:0:0:0:
396,64,346349,1,8,0:0:0:0:
432,344,346494,1,0,0:0:0:0:
192,212,346639,6,0,P|184:148|272:204,1,227.999993041992,2|8,0:0|0:0,0:0:0:0:
108,268,347074,2,0,P|64:196|132:56,1,227.999993041992
372,44,347509,2,0,P|388:108|376:168,1,113.999996520996,8|0,0:0|0:0,0:0:0:0:
436,344,347798,6,0,L|204:336,1,227.999993041992,2|8,0:0|0:0,0:0:0:0:
24,244,348233,2,0,L|251:236,1,227.999993041992
336,172,348668,2,0,L|408:180,3,56.9999982604981,8|0|0|0,0:0|0:0|0:0|0:0,0:0:0:0:
288,88,348958,6,0,L|204:80,1,56.9999982604981
112,64,349103,1,8,0:0:0:0:
108,288,349393,5,0,0:0:0:0:
112,64,349538,1,8,0:0:0:0:
108,288,349827,1,0,0:0:0:0:
272,352,350117,6,0,P|364:364|460:260,1,227.999993041992,2|8,0:0|0:0,0:0:0:0:
348,144,350552,2,0,L|344:264,1,113.999996520996
176,20,350842,2,0,L|180:140,1,113.999996520996,0|8,0:0|0:0,0:0:0:0:
128,284,351132,2,0,B|204:292|204:292|266:252|266:252|372:260,1,227.999993041992
308,48,351567,2,0,P|368:32|428:56,1,113.999996520996,8|0,0:0|0:0,0:0:0:0:
128,284,351856,2,0,P|68:300|8:276,1,113.999996520996
176,112,352146,1,8,0:0:0:0:
224,348,352291,1,0,0:0:0:0:
380,220,352436,6,0,P|404:156|448:248,1,227.999993041992,2|8,0:0|0:0,0:0:0:0:
337,354,352871,2,0,L|201:346,1,113.999996520996
56,224,353161,2,0,L|192:216,1,113.999996520996,0|8,0:0|0:0,0:0:0:0:
250,104,353451,2,0,P|322:96|370:236,1,227.999993041992
464,36,353885,2,0,L|472:156,1,113.999996520996,8|0,0:0|0:0,0:0:0:0:
284,336,354175,2,0,L|292:216,1,113.999996520996
128,28,354465,2,0,L|136:148,1,113.999996520996,8|0,0:0|0:0,0:0:0:0:
108,304,354755,5,2,0:0:0:0:
364,104,354900,1,0,0:0:0:0:
284,336,355045,1,8,0:0:0:0:
168,152,355190,1,0,0:0:0:0:
452,344,355335,1,0,0:0:0:0:
364,104,355480,1,0,0:0:0:0:
284,336,355624,1,8,0:0:0:0:
480,36,355769,1,0,0:0:0:0:
168,152,355914,5,2,0:0:0:0:
448,240,356059,1,0,0:0:0:0:
260,64,356204,1,8,0:0:0:0:
376,352,356349,1,0,0:0:0:0:
464,104,356494,1,0,0:0:0:0:
252,272,356639,1,0,0:0:0:0:
252,272,356711,1,0,0:0:0:0:
252,272,356784,1,8,0:0:0:0:
128,16,356929,1,0,0:0:0:0:
40,152,357074,5,2,0:0:0:0:
176,352,357219,1,0,0:0:0:0:
232,20,357364,1,8,0:0:0:0:
332,164,357509,1,0,0:0:0:0:
332,164,357581,1,0,0:0:0:0:
332,164,357653,2,0,L|320:292,1,113.999996520996
476,344,357943,2,0,L|464:216,1,113.999996520996,8|0,0:0|0:0,0:0:0:0:
332,164,358233,6,0,L|336:104,3,56.9999982604981,4|0|0|0,0:0|0:0|0:0|0:0,0:0:0:0:
224,164,358523,2,0,L|220:224,3,56.9999982604981,4|0|0|0,0:0|0:0|0:0|0:0,0:0:0:0:
104,240,358813,2,0,P|56:236|32:240,1,56.9999982604981,4|0,0:0|0:0,0:0:0:0:
144,340,358958,2,0,P|192:344|216:340,1,56.9999982604981
308,208,359103,2,0,P|303:236|304:264,1,56.9999982604981,4|0,0:0|0:0,0:0:0:0:
404,348,359248,2,0,P|408:319|407:291,1,56.9999982604981
400,148,359393,6,0,P|352:116|308:112,1,95,2|0,0:0|0:0,0:0:0:0:
152,136,359682,1,8,0:0:0:0:
152,136,359827,2,0,P|154:78|176:40,1,95
44,200,360117,2,0,P|87:237|130:246,1,95,0|8,0:0|0:0,0:0:0:0:
208,328,360407,6,0,P|288:360|392:308,1,190,2|0,0:0|0:0,0:0:0:0:
444,220,360842,1,8,0:0:0:0:
444,220,360987,1,0,0:0:0:0:
300,108,361132,2,0,P|232:96|200:104,1,95
351,213,361422,2,0,P|419:225|451:217,1,95,8|0,0:0|0:0,0:0:0:0:
120,40,361711,6,0,P|84:132|160:228,1,190,2|8,0:0|0:0,0:0:0:0:
200,324,362146,1,2,0:0:0:0:
224,332,362436,1,2,0:0:0:0:
252,340,362726,6,0,B|400:352|400:352|328:312,1,190,2|0,0:0|0:0,0:0:0:0:
248,200,363161,2,0,L|256:96,1,95,8|0,0:0|0:0,0:0:0:0:
356,237,363451,2,0,L|364:341,1,95
448,196,363740,1,8,0:0:0:0:
420,24,363885,1,0,0:0:0:0:
152,76,364030,6,0,P|44:92|180:140,1,380,2|0,0:0|0:0,0:0:0:0:
272,80,364755,1,0,0:0:0:0:
272,80,364827,1,0,0:0:0:0:
272,80,364900,2,0,L|276:184,1,95,8|0,0:0|0:0,0:0:0:0:
408,296,365190,6,0,P|336:336|224:296,1,190,2|8,0:0|0:0,0:0:0:0:
124,224,365624,2,0,P|196:184|308:224,1,190
411,201,366059,2,0,L|407:301,1,95,8|0,0:0|0:0,0:0:0:0:
396,84,366349,6,0,B|336:76|336:76|284:96|284:96|216:88,1,185.249991519928,2|0,0:0|0:0,0:0:0:0:
215,87,366856,1,0,0:0:0:0:
215,87,366929,1,0,0:0:0:0:
104,228,367074,1,0,0:0:0:0:
112,96,367219,2,0,L|120:12,1,61.7499971733095
380,168,367509,6,0,L|376:216,1,30.8749985866547
368,284,367653,1,0,0:0:0:0:
368,284,367798,1,0,0:0:0:0:
224,184,367943,1,0,0:0:0:0:
224,344,368088,1,0,0:0:0:0:
112,156,368233,1,0,0:0:0:0:
100,288,368378,2,0,L|104:376,1,61.7499971733095
344,96,368668,6,0,P|408:96|444:144,1,123.499994346619,2|8,0:0|0:0,0:0:0:0:
408,248,369103,1,0,0:0:0:0:
408,248,369248,2,0,L|412:324,1,61.7499971733095
288,360,369538,2,0,L|292:284,1,61.7499971733095,8|0,0:0|0:0,0:0:0:0:
164,344,369827,6,0,L|180:208,1,123.499994346619,2|8,0:0|0:0,0:0:0:0:
44,80,370262,2,0,L|58:202,1,123.499994346619
187,160,370697,2,0,L|175:240,1,61.7499971733095,8|0,0:0|0:0,0:0:0:0:
340,176,370987,6,0,L|352:96,1,61.7499971733095,2|0,0:0|0:0,0:0:0:0:
448,64,371277,1,8,0:0:0:0:
448,64,371422,1,0,0:0:0:0:
440,176,371567,1,0,0:0:0:0:
432,288,371711,1,0,0:0:0:0:
312,344,371856,2,0,L|320:256,1,61.7499971733095,8|0,0:0|0:0,0:0:0:0:
184,208,372146,6,0,L|180:152,2,30.8749985866547
96,264,372436,2,0,L|92:320,2,30.8749985866547,8|0|0,0:0|0:0|0:0,0:0:0:0:
272,104,372726,2,0,L|268:180,1,61.7499971733095
380,248,373016,2,0,L|376:172,1,61.7499971733095,8|0,0:0|0:0,0:0:0:0:
272,104,373306,6,0,P|208:88|168:100,1,95
84,176,373740,1,0,0:0:0:0:
84,176,373813,1,0,0:0:0:0:
84,176,373885,1,0,0:0:0:0:
196,324,374030,1,0,0:0:0:0:
76,270,374175,2,0,L|84:174,1,95,8|0,0:0|0:0,0:0:0:0:
232,88,374465,5,0,0:0:0:0:
232,88,374610,2,8,P|284:80|336:96,1,95,0|8,0:0|0:0,0:0:0:0:
448,208,374900,2,0,L|456:136,2,47.5
316,244,375190,2,0,L|324:316,2,47.5,0|0|8,0:0|0:0|0:0,0:0:0:0:
200,336,375480,1,0,0:0:0:0:
72,268,375624,6,0,L|76:212,3,47.5,8|0|0|0,0:0|0:0|0:0|0:0,0:0:0:0:
188,172,375914,2,0,L|184:116,3,47.5,8|0|0|0,0:0|0:0|0:0|0:0,0:0:0:0:
292,80,376204,6,0,L|296:144,1,47.5,8|8,0:0|0:0,0:0:0:0:
404,216,376349,2,0,L|408:152,1,47.5
280,224,376494,2,0,P|280:276|284:288,1,47.5,8|0,0:0|0:0,0:0:0:0:
408,352,376639,1,6,0:0:0:0:
240,340,377798,6,0,P|176:340|120:236,1,190,2|0,0:0|0:0,0:0:0:0:
60,120,378233,2,0,P|32:164|32:216,1,95,8|0,0:0|0:0,0:0:0:0:
184,56,378523,1,0,0:0:0:0:
248,220,378668,1,0,0:0:0:0:
72,40,378813,1,8,0:0:0:0:
320,168,378958,2,0,P|336:220|328:272,1,95
392,344,379248,1,0,0:0:0:0:
444,184,379393,1,8,0:0:0:0:
200,320,379538,5,0,0:0:0:0:
200,320,379610,1,0,0:0:0:0:
200,320,379682,1,0,0:0:0:0:
140,108,379827,1,0,0:0:0:0:
88,316,379972,1,8,0:0:0:0:
44,96,380117,6,0,P|64:48|192:44,1,190
236,136,380552,2,0,P|300:132|336:104,1,95,8|0,0:0|0:0,0:0:0:0:
440,40,380842,1,0,0:0:0:0:
440,40,380914,1,0,0:0:0:0:
440,40,380987,1,0,0:0:0:0:
432,280,381132,1,8,0:0:0:0:
242,306,381277,6,0,B|242:250|202:216|202:216|238:166|238:104,1,190
104,80,381711,2,0,L|88:204,1,95,8|0,0:0|0:0,0:0:0:0:
84,264,381929,1,0,0:0:0:0:
84,264,382001,1,0,0:0:0:0:
320,136,382146,1,0,0:0:0:0:
242,306,382291,1,8,0:0:0:0:
216,108,382436,6,0,P|260:48|376:64,1,190
468,172,382871,2,0,P|480:108|468:64,1,95,8|0,0:0|0:0,0:0:0:0:
344,272,383161,1,0,0:0:0:0:
468,340,383306,1,0,0:0:0:0:
256,216,383451,2,0,P|244:280|256:324,1,95,8|0,0:0|0:0,0:0:0:0:
108,236,383740,6,0,L|104:344,1,95
252,121,384030,2,0,L|256:229,1,95,8|0,0:0|0:0,0:0:0:0:
372,100,384320,1,0,0:0:0:0:
372,100,384393,1,0,0:0:0:0:
372,100,384465,1,0,0:0:0:0:
136,60,384610,1,8,0:0:0:0:
428,24,384755,6,0,P|472:96|436:220,1,190
392,268,385190,2,0,P|348:296|292:292,1,95,8|0,0:0|0:0,0:0:0:0:
168,284,385480,1,0,0:0:0:0:
168,284,385552,1,0,0:0:0:0:
168,284,385624,1,0,0:0:0:0:
48,212,385769,2,0,L|56:320,1,95,8|0,0:0|0:0,0:0:0:0:
96,68,386059,6,0,P|152:56|184:64,1,71.2500027179719,4|0,0:0|0:0,0:0:0:0:
264,140,386204,2,0,P|212:152|180:144,1,66.4999979705811
408,96,386349,2,0,P|420:152|416:180,1,56.9999982604981,4|0,0:0|0:0,0:0:0:0:
336,264,386494,2,0,P|324:212|328:184,1,47.5
224,332,386639,2,0,P|176:344|148:340,1,41.3250003468132,4|0,0:0|0:0,0:0:0:0:
96,268,386784,2,0,P|136:256|160:256,1,35.625001358986
184,152,386929,2,0,L|188:196,1,23.75,4|0,0:0|0:0,0:0:0:0:
216,48,387074,6,0,P|272:40|316:48,1,95,2|0,0:0|0:0,0:0:0:0:
440,64,387436,1,0,0:0:0:0:
440,64,387509,5,8,0:0:0:0:
328,336,387653,1,0,0:0:0:0:
208,164,387798,5,8,0:0:0:0:
480,272,387943,1,0,0:0:0:0:
364,92,388088,5,8,0:0:0:0:
328,336,388233,1,0,0:0:0:0:
84,272,388378,6,0,L|68:132,1,132.999995941162,8|0,0:0|0:0,0:0:0:0:
223,31,388668,2,0,L|207:171,1,132.999995941162,8|0,0:0|0:0,0:0:0:0:
216,328,388958,5,8,0:0:0:0:
440,92,389103,1,0,0:0:0:0:
352,352,389248,5,8,0:0:0:0:
300,168,389393,2,0,P|208:184|132:52,1,265.999991882324
72,288,389827,5,8,0:0:0:0:
304,40,389972,1,0,0:0:0:0:
216,328,390117,5,8,0:0:0:0:
196,20,390262,1,0,0:0:0:0:
372,220,390407,5,8,0:0:0:0:
56,152,390552,1,0,0:0:0:0:
456,80,390697,6,0,L|464:236,1,142.500005435944,8|0,0:0|0:0,0:0:0:0:
280,336,390987,2,0,L|288:180,1,142.500005435944,8|0,0:0|0:0,0:0:0:0:
292,60,391277,1,8,0:0:0:0:
38,217,391422,1,0,0:0:0:0:
292,60,391567,1,8,0:0:0:0:
176,80,391711,6,0,L|180:236,1,142.500005435944,2|0,0:0|0:0,0:0:0:0:
80,340,392146,2,0,B|36:300|36:300|40:180,1,142.500005435944,8|0,0:0|0:0,0:0:0:0:
292,60,392436,2,0,B|336:100|336:100|336:220,1,142.500005435944,8|0,0:0|0:0,0:0:0:0:
272,336,392726,5,8,0:0:0:0:
456,128,392871,1,0,0:0:0:0:
168,216,393016,5,8,0:0:0:0:
452,252,393161,1,0,0:0:0:0:
248,40,393306,5,8,0:0:0:0:
380,348,393451,1,0,0:0:0:0:
168,216,393595,6,0,L|152:64,1,142.500005435944,8|0,0:0|0:0,0:0:0:0:
36,24,393885,1,8,0:0:0:0:
48,268,394030,6,0,P|172:336|332:240,1,294.500002246857
368,64,394465,1,8,0:0:0:0:
400,348,394610,1,0,0:0:0:0:
184,164,394755,5,8,0:0:0:0:
480,112,394900,1,0,0:0:0:0:
404,248,395045,5,8,0:0:0:0:
192,172,395190,1,2,0:0:0:0:
192,172,395262,1,0,0:0:0:0:
192,172,395335,6,0,L|200:116,3,47.5,8|0|0|0,0:0|0:0|0:0|0:0,0:0:0:0:
68,264,395624,2,0,L|76:320,3,47.5,8|0|0|0,0:0|0:0|0:0|0:0,0:0:0:0:
220,332,395914,6,0,L|320:336,1,71.2500027179719,8|0,0:0|0:0,0:0:0:0:
432,256,396059,2,0,L|332:260,1,71.2500027179719
96,176,396204,6,0,L|208:180,1,90.2499975900651,8|0,0:0|0:0,0:0:0:0:
452,96,396349,2,0,L|336:100,1,90.2499975900651
176,56,396494,1,14,0:0:0:0:
