osu file format v14

[General]
AudioFilename: audio.mp3
AudioLeadIn: 0
PreviewTime: 123467
Countdown: 0
SampleSet: Normal
StackLeniency: 0.7
Mode: 1
LetterboxInBreaks: 0
WidescreenStoryboard: 1

[Editor]
DistanceSpacing: 1.6
BeatDivisor: 4
GridSize: 32
TimelineZoom: 2.2

[Metadata]
Title:AugoEidEs
TitleUnicode:∧ugΦEidEs
Artist:DystopiaGround
ArtistUnicode:DystopiaGround
Creator:mizkifanboy
Version:Shadow
Source:
Tags:#004 C81 The Prologue 第五楽章「ウェグナンの嘆き」/第一節 DYGC-0006 nao demetori Japanese rock jrock j-rock jmetal j-metal metal kalmlpv
BeatmapID:3670528
BeatmapSetID:1791178

[Difficulty]
HPDrainRate:4.5
CircleSize:5
OverallDifficulty:7
ApproachRate:5
SliderMultiplier:1.4
SliderTickRate:1

[Events]
//Background and Video events
0,0,"augobg.jpg",0,60
//Break Periods
//Storyboard Layer 0 (Background)
//Storyboard Layer 1 (Fail)
//Storyboard Layer 2 (Pass)
//Storyboard Layer 3 (Foreground)
//Storyboard Layer 4 (Overlay)
//Storyboard Sound Samples

[TimingPoints]
33608,289.855072463768,4,1,0,100,1,0
33608,-100,4,1,0,70,0,0
35781,-95.2380952380952,4,1,0,80,0,0
57376,-83.3333333333333,4,1,0,80,0,0
58825,-95.2380952380952,4,1,0,80,0,0
105492,-100,4,1,0,70,0,0
124042,-90.9090909090909,4,1,0,80,0,1
160999,-100,4,1,0,80,0,0
187810,-83.3333333333333,4,1,0,80,0,0
188970,-111.111111111111,4,1,0,60,0,0
198390,-100,4,1,0,70,0,0
207521,-90.9090909090909,4,1,0,80,0,1
243318,-93.0232558139535,4,1,0,80,0,0
264332,-83.3333333333333,4,1,0,80,0,0
265492,-93.0232558139535,4,1,0,80,0,0
285202,-95.2380952380952,4,1,0,100,0,1
294332,-90.9090909090909,4,1,0,100,0,1
296651,-86.9565217391304,4,1,0,100,0,1
297810,-83.3333333333333,4,1,0,100,0,1
298970,-76.9230769230769,4,1,0,80,0,0
299115,-95.2380952380952,4,1,0,80,0,0
313028,-153.846153846154,4,1,0,70,0,0
330129,-95.2380952380952,4,1,0,80,0,0
331579,-90.9090909090909,4,1,0,80,0,1
368680,-95.2380952380952,4,1,0,80,0,1
376651,-95.2380952380952,4,1,0,80,0,0
377810,-100,4,1,0,80,0,0
382593,-100,4,1,0,70,0,0
387231,-100,4,1,0,70,0,0
387376,-95.2380952380952,4,1,0,70,0,0
396506,-83.3333333333333,4,1,0,70,0,0

[HitObjects]
256,192,33608,5,0,0:0:0:0:
256,192,33680,1,0,0:0:0:0:
256,192,33752,1,8,0:0:0:0:
256,192,33897,1,8,0:0:0:0:
256,192,34042,1,8,0:0:0:0:
256,192,34187,1,0,0:0:0:0:
256,192,34260,1,0,0:0:0:0:
256,192,34332,1,8,0:0:0:0:
256,192,34477,1,8,0:0:0:0:
256,192,34622,1,8,0:0:0:0:
256,192,34767,1,0,0:0:0:0:
256,192,34839,1,0,0:0:0:0:
256,192,34912,1,8,0:0:0:0:
256,192,35057,1,8,0:0:0:0:
256,192,35202,1,8,0:0:0:0:
256,192,35274,1,0,0:0:0:0:
256,192,35347,1,0,0:0:0:0:
256,192,35492,1,8,0:0:0:0:
256,192,35781,1,4,0:0:0:0:
256,192,36071,1,0,0:0:0:0:
256,192,36216,1,8,0:0:0:0:
256,192,36361,1,8,0:0:0:0:
256,192,36434,1,8,0:0:0:0:
256,192,36506,1,0,0:0:0:0:
256,192,36651,1,8,0:0:0:0:
256,192,36796,1,0,0:0:0:0:
256,192,36941,1,8,0:0:0:0:
256,192,37231,1,0,0:0:0:0:
256,192,37376,1,8,0:0:0:0:
256,192,37521,1,8,0:0:0:0:
256,192,37593,1,0,0:0:0:0:
256,192,37665,1,0,0:0:0:0:
256,192,37810,1,8,0:0:0:0:
256,192,37955,1,0,0:0:0:0:
261,194,38100,1,8,0:0:0:0:
256,192,38390,1,0,0:0:0:0:
256,192,38535,1,8,0:0:0:0:
256,192,38680,1,0,0:0:0:0:
256,192,38752,1,0,0:0:0:0:
256,192,38825,1,8,0:0:0:0:
256,192,38970,1,8,0:0:0:0:
256,192,39115,1,0,0:0:0:0:
256,192,39260,1,8,0:0:0:0:
256,192,39332,1,8,0:0:0:0:
256,192,39405,1,8,0:0:0:0:
256,192,39550,1,0,0:0:0:0:
256,192,39694,1,8,0:0:0:0:
256,192,39839,1,8,0:0:0:0:
256,192,39912,1,0,0:0:0:0:
256,192,39984,1,0,0:0:0:0:
256,192,40129,1,0,0:0:0:0:
256,192,40274,1,0,0:0:0:0:
249,195,40419,1,8,0:0:0:0:
256,192,40709,1,0,0:0:0:0:
256,192,40854,1,8,0:0:0:0:
266,200,40999,1,0,0:0:0:0:
259,195,41071,1,0,0:0:0:0:
255,204,41144,1,8,0:0:0:0:
255,182,41289,1,8,0:0:0:0:
262,188,41434,1,0,0:0:0:0:
256,192,41579,1,8,0:0:0:0:
256,192,41868,1,0,0:0:0:0:
256,192,42013,1,8,0:0:0:0:
256,192,42158,1,0,0:0:0:0:
255,182,42231,1,0,0:0:0:0:
256,192,42303,1,0,0:0:0:0:
256,192,42448,1,0,0:0:0:0:
256,192,42593,1,0,0:0:0:0:
256,192,42738,1,8,0:0:0:0:
256,192,43028,1,0,0:0:0:0:
256,192,43173,1,8,0:0:0:0:
256,192,43318,1,8,0:0:0:0:
242,198,43390,1,8,0:0:0:0:
256,192,43463,1,0,0:0:0:0:
256,192,43608,1,0,0:0:0:0:
256,192,43752,1,8,0:0:0:0:
256,192,43897,1,8,0:0:0:0:
253,178,43970,1,8,0:0:0:0:
256,192,44042,1,0,0:0:0:0:
256,192,44187,1,0,0:0:0:0:
256,192,44332,1,8,0:0:0:0:
256,192,44477,1,0,0:0:0:0:
252,198,44550,1,0,0:0:0:0:
256,192,44622,1,8,0:0:0:0:
256,192,44767,1,0,0:0:0:0:
256,192,44912,1,0,0:0:0:0:
256,192,45057,1,12,0:0:0:0:
256,192,45347,1,0,0:0:0:0:
256,192,45492,1,8,0:0:0:0:
256,192,45636,1,0,0:0:0:0:
256,192,45709,1,0,0:0:0:0:
256,192,45781,1,8,0:0:0:0:
256,192,45926,1,0,0:0:0:0:
252,188,46071,1,8,0:0:0:0:
256,192,46216,1,8,0:0:0:0:
256,192,46506,1,0,0:0:0:0:
256,192,46651,1,8,0:0:0:0:
256,192,46796,1,0,0:0:0:0:
256,192,46868,1,0,0:0:0:0:
256,192,46941,1,8,0:0:0:0:
256,192,47086,1,8,0:0:0:0:
256,192,47231,1,8,0:0:0:0:
256,192,47376,1,0,0:0:0:0:
256,192,47665,1,0,0:0:0:0:
256,192,47810,1,8,0:0:0:0:
256,192,47955,1,0,0:0:0:0:
256,192,48028,1,0,0:0:0:0:
256,192,48100,1,8,0:0:0:0:
256,192,48245,1,0,0:0:0:0:
256,192,48390,1,0,0:0:0:0:
256,192,48535,1,8,0:0:0:0:
256,192,48680,1,0,0:0:0:0:
256,192,48825,1,8,0:0:0:0:
256,192,48897,1,8,0:0:0:0:
256,192,48970,1,0,0:0:0:0:
256,192,49115,1,0,0:0:0:0:
256,192,49260,1,8,0:0:0:0:
256,192,49332,1,8,0:0:0:0:
256,192,49405,1,8,0:0:0:0:
256,192,49550,1,0,0:0:0:0:
256,192,49694,1,8,0:0:0:0:
256,192,49984,1,0,0:0:0:0:
256,192,50129,1,8,0:0:0:0:
256,192,50274,1,0,0:0:0:0:
256,192,50347,1,0,0:0:0:0:
256,192,50419,1,8,0:0:0:0:
256,192,50564,1,8,0:0:0:0:
256,192,50709,1,0,0:0:0:0:
256,192,50854,1,8,0:0:0:0:
256,192,51144,1,0,0:0:0:0:
256,192,51289,1,8,0:0:0:0:
256,192,51434,1,8,0:0:0:0:
256,192,51506,1,8,0:0:0:0:
256,192,51579,1,0,0:0:0:0:
256,192,51723,1,0,0:0:0:0:
256,192,51868,1,0,0:0:0:0:
256,192,52013,1,8,0:0:0:0:
256,192,52303,1,0,0:0:0:0:
256,192,52448,1,8,0:0:0:0:
256,192,52593,1,8,0:0:0:0:
256,192,52665,1,8,0:0:0:0:
256,192,52738,1,0,0:0:0:0:
256,192,52883,1,0,0:0:0:0:
256,192,53028,1,8,0:0:0:0:
256,192,53173,1,8,0:0:0:0:
244,152,53245,1,8,0:0:0:0:
257,189,53318,1,0,0:0:0:0:
257,189,53390,1,0,0:0:0:0:
257,189,53463,1,8,0:0:0:0:
256,192,53535,1,8,0:0:0:0:
256,192,53607,1,0,0:0:0:0:
256,192,53680,1,0,0:0:0:0:
256,192,53752,1,8,0:0:0:0:
256,192,53825,1,0,0:0:0:0:
256,192,53897,1,8,0:0:0:0:
276,226,53970,1,0,0:0:0:0:
256,192,54042,1,0,0:0:0:0:
256,192,54115,1,0,0:0:0:0:
256,192,54187,1,8,0:0:0:0:
256,192,54260,1,0,0:0:0:0:
256,192,54332,1,8,0:0:0:0:
256,192,54477,1,4,0:0:0:0:
256,192,56071,1,0,0:0:0:0:
256,192,56144,1,0,0:0:0:0:
256,192,56216,1,8,0:0:0:0:
256,192,56361,1,8,0:0:0:0:
256,192,56506,1,8,0:0:0:0:
256,192,56651,1,8,0:0:0:0:
256,192,56796,1,4,0:0:0:0:
256,192,57376,12,0,58535,0:0:0:0:
256,192,58825,5,0,0:0:0:0:
256,192,58970,1,12,0:0:0:0:
256,192,59260,1,0,0:0:0:0:
256,192,59405,1,8,0:0:0:0:
256,192,59477,1,8,0:0:0:0:
267,196,59550,1,0,0:0:0:0:
224,192,59694,1,8,0:0:0:0:
226,202,59839,1,8,0:0:0:0:
224,192,59984,1,0,0:0:0:0:
224,192,60129,1,8,0:0:0:0:
217,180,60419,1,8,0:0:0:0:
231,191,60492,1,8,0:0:0:0:
224,192,60564,1,0,0:0:0:0:
224,192,60709,1,0,0:0:0:0:
224,192,60854,1,8,0:0:0:0:
224,192,60999,1,8,0:0:0:0:
224,192,61144,1,0,0:0:0:0:
224,192,61289,1,8,0:0:0:0:
233,201,61579,1,8,0:0:0:0:
224,192,61723,1,0,0:0:0:0:
217,188,61796,1,0,0:0:0:0:
231,201,61868,1,0,0:0:0:0:
224,192,62013,1,8,0:0:0:0:
226,208,62158,1,0,0:0:0:0:
224,192,62303,1,0,0:0:0:0:
231,207,62448,1,8,0:0:0:0:
213,197,62521,1,8,0:0:0:0:
221,201,62593,1,0,0:0:0:0:
210,194,62738,1,8,0:0:0:0:
225,195,62883,1,0,0:0:0:0:
198,217,63028,1,8,0:0:0:0:
216,218,63173,1,0,0:0:0:0:
216,218,63318,1,8,0:0:0:0:
216,218,63463,1,8,0:0:0:0:
216,218,63607,1,0,0:0:0:0:
246,216,63897,1,8,0:0:0:0:
223,207,64042,1,0,0:0:0:0:
224,192,64187,1,0,0:0:0:0:
224,192,64260,1,0,0:0:0:0:
224,192,64332,1,8,0:0:0:0:
224,192,64477,1,8,0:0:0:0:
224,192,64622,1,0,0:0:0:0:
224,192,64767,1,8,0:0:0:0:
235,192,64839,1,8,0:0:0:0:
235,192,64912,1,8,0:0:0:0:
256,192,65057,1,8,0:0:0:0:
224,192,65202,1,0,0:0:0:0:
224,192,65347,1,8,0:0:0:0:
224,192,65492,1,8,0:0:0:0:
224,192,65636,1,0,0:0:0:0:
256,192,65709,1,0,0:0:0:0:
224,192,65781,1,8,0:0:0:0:
236,197,65926,1,8,0:0:0:0:
224,192,66216,1,8,0:0:0:0:
224,192,66361,1,0,0:0:0:0:
224,192,66506,1,0,0:0:0:0:
230,200,66579,1,0,0:0:0:0:
224,192,66651,1,8,0:0:0:0:
237,198,66796,1,0,0:0:0:0:
224,192,66941,1,0,0:0:0:0:
224,192,67086,1,8,0:0:0:0:
224,192,67376,1,0,0:0:0:0:
224,192,67521,1,8,0:0:0:0:
224,192,67665,1,0,0:0:0:0:
225,177,67810,1,0,0:0:0:0:
208,188,67955,1,8,0:0:0:0:
208,188,68028,1,8,0:0:0:0:
224,192,68100,1,8,0:0:0:0:
224,192,68245,1,4,0:0:0:0:
224,192,68535,1,0,0:0:0:0:
224,192,68680,1,8,0:0:0:0:
224,192,68825,1,0,0:0:0:0:
224,192,68970,1,8,0:0:0:0:
224,192,69042,1,0,0:0:0:0:
224,192,69115,1,0,0:0:0:0:
224,192,69260,1,8,0:0:0:0:
224,192,69405,1,0,0:0:0:0:
236,195,69550,1,0,0:0:0:0:
224,192,69694,1,8,0:0:0:0:
219,186,69839,1,8,0:0:0:0:
236,197,69984,1,0,0:0:0:0:
234,198,70057,1,0,0:0:0:0:
224,192,70129,1,8,0:0:0:0:
224,192,70274,1,8,0:0:0:0:
224,192,70419,1,0,0:0:0:0:
224,192,70564,1,8,0:0:0:0:
224,192,70854,1,0,0:0:0:0:
224,192,70999,1,8,0:0:0:0:
224,192,71144,1,0,0:0:0:0:
224,192,71289,1,8,0:0:0:0:
231,196,71361,1,8,0:0:0:0:
215,192,71434,1,0,0:0:0:0:
224,192,71579,1,0,0:0:0:0:
224,192,71723,1,8,0:0:0:0:
224,192,72013,1,8,0:0:0:0:
224,192,72158,1,0,0:0:0:0:
224,192,72303,1,0,0:0:0:0:
224,192,72376,1,0,0:0:0:0:
224,192,72448,1,8,0:0:0:0:
224,192,72593,1,0,0:0:0:0:
203,193,72738,1,0,0:0:0:0:
224,192,72883,1,12,0:0:0:0:
224,192,73173,1,0,0:0:0:0:
224,207,73245,1,0,0:0:0:0:
224,192,73318,1,0,0:0:0:0:
224,192,73463,1,8,0:0:0:0:
224,192,73607,1,8,0:0:0:0:
224,192,73680,1,8,0:0:0:0:
224,192,73752,1,0,0:0:0:0:
224,192,73897,1,8,0:0:0:0:
224,192,74042,1,8,0:0:0:0:
224,198,74187,1,0,0:0:0:0:
224,192,74332,1,0,0:0:0:0:
224,192,74477,1,8,0:0:0:0:
224,192,74550,1,0,0:0:0:0:
224,192,74622,1,0,0:0:0:0:
224,192,74767,1,8,0:0:0:0:
224,192,74912,1,0,0:0:0:0:
224,192,75057,1,8,0:0:0:0:
224,192,75202,1,8,0:0:0:0:
224,192,75492,1,0,0:0:0:0:
222,197,75564,1,0,0:0:0:0:
224,192,75636,1,8,0:0:0:0:
224,192,75781,1,0,0:0:0:0:
224,192,75926,1,8,0:0:0:0:
221,197,75999,1,8,0:0:0:0:
221,197,76071,1,0,0:0:0:0:
224,192,76216,1,0,0:0:0:0:
224,192,76361,1,12,0:0:0:0:
246,190,76651,1,8,0:0:0:0:
226,187,76796,1,0,0:0:0:0:
223,200,76868,1,0,0:0:0:0:
224,192,76941,1,0,0:0:0:0:
224,192,77086,1,8,0:0:0:0:
224,192,77231,1,8,0:0:0:0:
224,192,77376,1,0,0:0:0:0:
224,192,77521,1,12,0:0:0:0:
221,180,77810,1,8,0:0:0:0:
224,192,77955,1,8,0:0:0:0:
224,192,78028,1,0,0:0:0:0:
224,192,78100,1,0,0:0:0:0:
224,192,78245,1,8,0:0:0:0:
224,192,78390,1,8,0:0:0:0:
224,192,78535,1,0,0:0:0:0:
224,192,78680,1,8,0:0:0:0:
224,192,78825,1,8,0:0:0:0:
233,191,78897,1,8,0:0:0:0:
224,192,78970,1,0,0:0:0:0:
224,192,79115,1,8,0:0:0:0:
224,192,79260,1,0,0:0:0:0:
224,192,79332,1,0,0:0:0:0:
224,192,79405,1,8,0:0:0:0:
224,192,79477,1,0,0:0:0:0:
224,192,79550,1,8,0:0:0:0:
224,192,79694,1,0,0:0:0:0:
224,192,79839,1,8,0:0:0:0:
224,192,80129,1,0,0:0:0:0:
224,192,80202,1,0,0:0:0:0:
224,192,80274,1,8,0:0:0:0:
224,192,80419,1,8,0:0:0:0:
224,192,80564,1,0,0:0:0:0:
224,192,80709,1,8,0:0:0:0:
224,192,80781,1,8,0:0:0:0:
224,192,80854,1,0,0:0:0:0:
224,192,80999,1,0,0:0:0:0:
224,192,81144,1,8,0:0:0:0:
224,192,81289,1,8,0:0:0:0:
222,197,81361,1,8,0:0:0:0:
224,192,81434,1,0,0:0:0:0:
224,192,81579,1,0,0:0:0:0:
224,192,81723,1,8,0:0:0:0:
224,192,81796,1,8,0:0:0:0:
224,192,81868,1,0,0:0:0:0:
224,192,81941,1,0,0:0:0:0:
224,192,82013,1,8,0:0:0:0:
226,185,82158,1,4,0:0:0:0:
224,192,82448,1,0,0:0:0:0:
224,192,82593,1,8,0:0:0:0:
227,178,82665,1,8,0:0:0:0:
223,180,82738,1,0,0:0:0:0:
224,192,82883,1,0,0:0:0:0:
224,192,83028,1,8,0:0:0:0:
224,192,83173,1,8,0:0:0:0:
224,192,83318,1,0,0:0:0:0:
224,192,83463,1,8,0:0:0:0:
209,189,83535,1,8,0:0:0:0:
209,189,83607,1,0,0:0:0:0:
224,192,83752,1,0,0:0:0:0:
210,197,83897,1,0,0:0:0:0:
224,192,83970,1,0,0:0:0:0:
224,192,84042,1,8,0:0:0:0:
211,196,84115,1,8,0:0:0:0:
211,196,84187,1,0,0:0:0:0:
224,192,84332,1,0,0:0:0:0:
224,192,84477,1,8,0:0:0:0:
224,192,84767,1,0,0:0:0:0:
219,209,84839,1,0,0:0:0:0:
224,192,84912,1,8,0:0:0:0:
224,192,85057,1,8,0:0:0:0:
224,192,85202,1,0,0:0:0:0:
224,192,85347,1,8,0:0:0:0:
213,193,85492,1,4,0:0:0:0:
224,192,85636,1,8,0:0:0:0:
216,191,85709,1,8,0:0:0:0:
224,192,85781,1,0,0:0:0:0:
224,192,85926,1,8,0:0:0:0:
220,200,85999,1,0,0:0:0:0:
224,192,86071,1,8,0:0:0:0:
224,192,86216,1,8,0:0:0:0:
224,192,86361,1,0,0:0:0:0:
224,192,86434,1,0,0:0:0:0:
224,192,86506,1,8,0:0:0:0:
209,191,86579,1,8,0:0:0:0:
224,192,86651,1,0,0:0:0:0:
217,181,86796,1,4,0:0:0:0:
224,192,87086,1,0,0:0:0:0:
224,192,87231,1,8,0:0:0:0:
224,192,87303,1,8,0:0:0:0:
224,192,87376,1,0,0:0:0:0:
224,192,87521,1,8,0:0:0:0:
224,192,87665,1,8,0:0:0:0:
224,192,87810,1,0,0:0:0:0:
224,192,87955,1,8,0:0:0:0:
224,192,88245,1,0,0:0:0:0:
225,201,88318,1,0,0:0:0:0:
224,192,88390,1,8,0:0:0:0:
224,192,88535,1,0,0:0:0:0:
224,192,88680,1,8,0:0:0:0:
224,192,88825,1,0,0:0:0:0:
224,192,88970,1,0,0:0:0:0:
224,192,89115,1,8,0:0:0:0:
224,192,89405,1,0,0:0:0:0:
224,192,89550,1,8,0:0:0:0:
228,198,89622,1,8,0:0:0:0:
224,192,89694,1,0,0:0:0:0:
224,192,89839,1,8,0:0:0:0:
224,192,89984,1,8,0:0:0:0:
224,192,90129,1,0,0:0:0:0:
214,191,90274,1,0,0:0:0:0:
214,191,90347,1,8,0:0:0:0:
232,203,90419,1,8,0:0:0:0:
224,192,90564,1,0,0:0:0:0:
224,192,90709,1,8,0:0:0:0:
224,192,90854,1,0,0:0:0:0:
229,210,90999,1,0,0:0:0:0:
224,192,91144,1,8,0:0:0:0:
229,210,91289,1,8,0:0:0:0:
229,210,91434,1,0,0:0:0:0:
227,203,91723,1,8,0:0:0:0:
222,204,91868,1,0,0:0:0:0:
224,192,92013,1,0,0:0:0:0:
224,192,92086,1,0,0:0:0:0:
224,192,92158,1,8,0:0:0:0:
224,192,92303,1,0,0:0:0:0:
224,192,92448,1,0,0:0:0:0:
224,192,92593,1,8,0:0:0:0:
228,195,92883,1,8,0:0:0:0:
228,195,93028,1,0,0:0:0:0:
224,192,93173,1,0,0:0:0:0:
224,192,93318,1,8,0:0:0:0:
224,192,93463,1,0,0:0:0:0:
226,206,93535,1,0,0:0:0:0:
224,192,93607,1,8,0:0:0:0:
227,207,93752,1,0,0:0:0:0:
224,192,94042,1,0,0:0:0:0:
224,192,94187,1,8,0:0:0:0:
218,198,94332,1,0,0:0:0:0:
218,198,94405,1,0,0:0:0:0:
218,198,94477,1,8,0:0:0:0:
224,192,94622,1,8,0:0:0:0:
224,192,94767,1,0,0:0:0:0:
224,192,94912,1,8,0:0:0:0:
230,208,94984,1,8,0:0:0:0:
231,203,95057,1,8,0:0:0:0:
224,192,95202,1,8,0:0:0:0:
224,192,95347,1,0,0:0:0:0:
224,192,95492,1,0,0:0:0:0:
224,192,95636,1,8,0:0:0:0:
232,203,95709,1,8,0:0:0:0:
224,192,95781,1,0,0:0:0:0:
224,192,95926,1,8,0:0:0:0:
215,187,96071,1,4,0:0:0:0:
224,192,96361,1,0,0:0:0:0:
224,192,96506,1,8,0:0:0:0:
224,192,96651,1,8,0:0:0:0:
224,192,96723,1,8,0:0:0:0:
224,192,96796,1,0,0:0:0:0:
224,192,96941,1,0,0:0:0:0:
224,192,97086,1,8,0:0:0:0:
224,192,97231,1,8,0:0:0:0:
224,192,97521,1,8,0:0:0:0:
224,192,97665,1,0,0:0:0:0:
224,192,97810,1,0,0:0:0:0:
224,192,97955,1,8,0:0:0:0:
224,192,98028,1,0,0:0:0:0:
192,192,98100,1,8,0:0:0:0:
224,192,98245,1,0,0:0:0:0:
224,192,98390,1,8,0:0:0:0:
225,197,98535,1,0,0:0:0:0:
224,192,98680,1,8,0:0:0:0:
224,192,98825,1,8,0:0:0:0:
224,192,98970,1,0,0:0:0:0:
224,192,99042,1,0,0:0:0:0:
224,192,99115,1,8,0:0:0:0:
224,192,99260,1,8,0:0:0:0:
224,192,99405,1,0,0:0:0:0:
224,192,99550,1,8,0:0:0:0:
224,192,99839,1,0,0:0:0:0:
224,192,99984,1,8,0:0:0:0:
224,147,100129,1,0,0:0:0:0:
224,192,100202,1,0,0:0:0:0:
224,192,100274,1,8,0:0:0:0:
224,192,100419,1,8,0:0:0:0:
224,192,100564,1,0,0:0:0:0:
224,192,100709,1,12,0:0:0:0:
224,192,100999,1,0,0:0:0:0:
224,192,101144,1,8,0:0:0:0:
224,192,101289,1,0,0:0:0:0:
309,214,101434,1,8,0:0:0:0:
265,211,101506,1,8,0:0:0:0:
224,192,101579,1,0,0:0:0:0:
224,192,101723,1,0,0:0:0:0:
224,192,101868,1,8,0:0:0:0:
224,192,102158,1,8,0:0:0:0:
224,192,102303,1,8,0:0:0:0:
224,192,102448,1,0,0:0:0:0:
224,192,102593,1,8,0:0:0:0:
224,192,102665,1,8,0:0:0:0:
224,192,102738,1,0,0:0:0:0:
224,192,102883,1,0,0:0:0:0:
239,190,103028,1,12,0:0:0:0:
232,189,103318,1,0,0:0:0:0:
232,189,103463,1,8,0:0:0:0:
224,192,103607,1,0,0:0:0:0:
224,192,103752,1,8,0:0:0:0:
224,192,103825,1,8,0:0:0:0:
224,192,103897,1,0,0:0:0:0:
224,192,104042,1,12,0:0:0:0:
226,190,104187,1,0,0:0:0:0:
226,190,104260,1,0,0:0:0:0:
226,190,104332,1,8,0:0:0:0:
412,379,104477,1,8,0:0:0:0:
224,192,104622,1,0,0:0:0:0:
224,192,104694,1,0,0:0:0:0:
224,192,104767,1,0,0:0:0:0:
224,192,104912,1,8,0:0:0:0:
222,198,105057,1,0,0:0:0:0:
233,203,105202,1,0,0:0:0:0:
233,203,105347,1,8,0:0:0:0:
224,192,105492,1,0,0:0:0:0:
224,192,105564,1,0,0:0:0:0:
224,192,105636,1,0,0:0:0:0:
224,192,105926,1,0,0:0:0:0:
224,192,106216,1,0,0:0:0:0:
224,192,106289,1,0,0:0:0:0:
224,192,106361,1,8,0:0:0:0:
224,192,106506,1,0,0:0:0:0:
224,192,106796,1,8,0:0:0:0:
224,192,107086,1,8,0:0:0:0:
224,192,107231,1,0,0:0:0:0:
224,192,107376,1,0,0:0:0:0:
224,192,107521,1,12,0:0:0:0:
224,192,107810,1,8,0:0:0:0:
224,192,107883,1,0,0:0:0:0:
224,192,107955,1,8,0:0:0:0:
224,192,108245,1,8,0:0:0:0:
224,192,108535,1,0,0:0:0:0:
224,192,108607,1,0,0:0:0:0:
224,192,108680,1,8,0:0:0:0:
224,192,108825,1,0,0:0:0:0:
224,192,108970,1,12,0:0:0:0:
224,192,109115,1,0,0:0:0:0:
224,192,109260,1,12,0:0:0:0:
224,192,109405,1,0,0:0:0:0:
224,192,109550,1,0,0:0:0:0:
224,192,109622,1,0,0:0:0:0:
224,192,109694,1,8,0:0:0:0:
224,192,109767,1,0,0:0:0:0:
224,192,109839,1,8,0:0:0:0:
236,199,109984,1,4,0:0:0:0:
224,192,110274,1,0,0:0:0:0:
224,192,110419,1,8,0:0:0:0:
224,192,110492,1,8,0:0:0:0:
224,192,110564,1,0,0:0:0:0:
224,192,110709,1,0,0:0:0:0:
224,192,110854,1,0,0:0:0:0:
224,192,110999,1,8,0:0:0:0:
224,192,111144,1,0,0:0:0:0:
224,192,111434,1,0,0:0:0:0:
224,192,111579,1,8,0:0:0:0:
224,192,111723,1,0,0:0:0:0:
224,192,111868,1,8,0:0:0:0:
224,192,111941,1,8,0:0:0:0:
221,198,112013,1,8,0:0:0:0:
224,192,112158,1,0,0:0:0:0:
224,192,112303,1,12,0:0:0:0:
224,192,112593,1,0,0:0:0:0:
224,192,112738,1,8,0:0:0:0:
222,203,112810,1,0,0:0:0:0:
224,192,112883,1,0,0:0:0:0:
224,192,113028,1,8,0:0:0:0:
224,192,113173,1,0,0:0:0:0:
224,192,113318,1,8,0:0:0:0:
224,192,113463,1,8,0:0:0:0:
224,192,113535,1,8,0:0:0:0:
224,192,113607,1,0,0:0:0:0:
224,192,113752,1,8,0:0:0:0:
224,192,113897,1,0,0:0:0:0:
224,192,114042,1,8,0:0:0:0:
231,199,114187,1,0,0:0:0:0:
231,194,114260,1,0,0:0:0:0:
224,192,114332,1,8,0:0:0:0:
224,192,114477,1,0,0:0:0:0:
224,192,114622,1,8,0:0:0:0:
229,192,114767,1,4,0:0:0:0:
224,192,115057,1,8,0:0:0:0:
224,192,115202,1,0,0:0:0:0:
224,192,115492,1,0,0:0:0:0:
224,192,115636,1,8,0:0:0:0:
224,192,115781,1,8,0:0:0:0:
224,192,115926,1,0,0:0:0:0:
224,192,116071,1,8,0:0:0:0:
224,192,116361,1,0,0:0:0:0:
224,192,116506,1,8,0:0:0:0:
224,192,116651,1,0,0:0:0:0:
224,192,116796,1,8,0:0:0:0:
224,192,116868,1,8,0:0:0:0:
224,192,116941,1,0,0:0:0:0:
224,192,117086,1,8,0:0:0:0:
224,192,117376,1,0,0:0:0:0:
224,192,117521,1,8,0:0:0:0:
224,192,117810,1,0,0:0:0:0:
224,192,117955,1,8,0:0:0:0:
224,192,118100,1,0,0:0:0:0:
224,192,118245,1,8,0:0:0:0:
224,192,118535,1,8,0:0:0:0:
224,192,118680,1,8,0:0:0:0:
224,192,118825,1,0,0:0:0:0:
224,192,118897,1,0,0:0:0:0:
224,192,118970,1,8,0:0:0:0:
224,192,119042,1,8,0:0:0:0:
224,192,119115,1,0,0:0:0:0:
224,192,119260,1,12,0:0:0:0:
224,192,119550,1,0,0:0:0:0:
224,192,119694,1,8,0:0:0:0:
224,192,119839,1,0,0:0:0:0:
228,195,119912,1,0,0:0:0:0:
224,192,119984,1,0,0:0:0:0:
224,192,120129,1,8,0:0:0:0:
224,192,120419,1,8,0:0:0:0:
224,192,120564,1,0,0:0:0:0:
224,192,120709,1,8,0:0:0:0:
224,192,120854,1,0,0:0:0:0:
224,192,121144,1,8,0:0:0:0:
224,192,121289,1,0,0:0:0:0:
224,192,121361,1,0,0:0:0:0:
224,192,121434,1,8,0:0:0:0:
224,192,121579,1,4,0:0:0:0:
224,192,121868,1,0,0:0:0:0:
224,192,122013,1,8,0:0:0:0:
235,186,122158,1,0,0:0:0:0:
224,192,122303,1,8,0:0:0:0:
224,192,122376,1,0,0:0:0:0:
224,192,122448,1,0,0:0:0:0:
224,192,122593,1,0,0:0:0:0:
224,192,122738,1,12,0:0:0:0:
224,192,123028,1,12,0:0:0:0:
224,192,123173,1,12,0:0:0:0:
224,192,123463,1,0,0:0:0:0:
224,192,123752,1,0,0:0:0:0:
224,192,124042,1,12,0:0:0:0:
230,199,124187,1,0,0:0:0:0:
230,199,124260,1,0,0:0:0:0:
230,199,124332,1,8,0:0:0:0:
230,199,124477,1,8,0:0:0:0:
241,209,124550,1,8,0:0:0:0:
234,201,124622,1,0,0:0:0:0:
224,192,124694,1,0,0:0:0:0:
241,209,124767,1,8,0:0:0:0:
241,209,124912,1,0,0:0:0:0:
241,204,125057,1,8,0:0:0:0:
230,218,125129,1,8,0:0:0:0:
230,218,125202,1,0,0:0:0:0:
236,209,125347,1,8,0:0:0:0:
230,218,125492,1,0,0:0:0:0:
230,218,125564,1,0,0:0:0:0:
228,218,125636,1,8,0:0:0:0:
246,232,125709,1,0,0:0:0:0:
230,218,125781,1,8,0:0:0:0:
234,210,125926,1,0,0:0:0:0:
235,217,126071,1,8,0:0:0:0:
235,217,126216,1,0,0:0:0:0:
249,217,126361,1,8,0:0:0:0:
249,217,126434,1,8,0:0:0:0:
249,217,126506,1,0,0:0:0:0:
249,217,126579,1,0,0:0:0:0:
249,217,126651,1,8,0:0:0:0:
249,217,126796,1,8,0:0:0:0:
249,217,126868,1,8,0:0:0:0:
249,217,126941,1,0,0:0:0:0:
257,214,127086,1,8,0:0:0:0:
257,214,127231,1,0,0:0:0:0:
257,214,127376,1,8,0:0:0:0:
259,222,127448,1,0,0:1:0:0:
258,221,127521,1,8,0:1:0:0:
261,214,127665,1,0,0:0:0:0:
260,221,127810,1,8,0:0:0:0:
264,218,127955,1,0,0:0:0:0:
267,204,128100,1,8,0:0:0:0:
267,204,128173,1,0,0:0:0:0:
267,204,128245,1,0,0:0:0:0:
267,204,128318,1,0,0:0:0:0:
267,204,128390,1,8,0:0:0:0:
272,211,128535,1,0,0:0:0:0:
264,206,128680,1,8,0:0:0:0:
264,206,128825,1,0,0:0:0:0:
264,206,128897,1,0,0:0:0:0:
264,206,128970,1,8,0:0:0:0:
267,204,129042,1,0,0:0:0:0:
267,204,129115,1,8,0:0:0:0:
267,204,129260,1,0,0:0:0:0:
267,204,129405,1,8,0:0:0:0:
266,201,129477,1,8,0:0:0:0:
266,201,129550,1,0,0:0:0:0:
266,201,129622,1,0,0:0:0:0:
266,201,129694,1,8,0:0:0:0:
266,201,129767,1,0,0:0:0:0:
270,199,129839,1,8,0:0:0:0:
264,206,129984,1,0,0:0:0:0:
260,208,130129,1,8,0:0:0:0:
260,208,130202,1,0,0:0:0:0:
260,208,130274,1,0,0:0:0:0:
256,224,130347,1,0,0:0:0:0:
260,208,130419,1,8,0:0:0:0:
260,208,130564,1,0,0:0:0:0:
251,198,130636,1,0,0:0:0:0:
257,204,130709,1,8,0:0:0:0:
251,200,130781,1,0,0:0:0:0:
257,204,130854,1,8,0:0:0:0:
255,207,130999,1,0,0:0:0:0:
260,208,131071,1,0,0:0:0:0:
260,208,131144,1,0,0:0:0:0:
263,216,131289,1,8,0:0:0:0:
257,203,131434,1,0,0:0:0:0:
257,203,131506,1,0,0:0:0:0:
257,203,131579,1,8,0:0:0:0:
258,206,131651,1,8,0:0:0:0:
257,204,131723,1,0,0:0:0:0:
254,197,131868,1,0,0:0:0:0:
254,197,132013,1,8,0:0:0:0:
254,197,132086,1,0,0:0:0:0:
254,197,132158,1,0,0:0:0:0:
255,197,132303,1,0,0:0:0:0:
255,197,132448,1,8,0:0:0:0:
256,186,132593,1,8,0:0:0:0:
262,195,132665,1,0,0:0:0:0:
256,188,132738,1,8,0:0:0:0:
256,188,132810,1,8,0:0:0:0:
256,188,132883,1,0,0:0:0:0:
256,192,132955,1,0,0:0:0:0:
256,188,133028,1,8,0:0:0:0:
256,188,133173,1,0,0:0:0:0:
258,191,133318,1,8,0:0:0:0:
266,184,133390,1,8,0:1:0:0:
257,188,133463,1,8,0:0:0:0:
260,188,133535,1,8,0:0:0:0:
256,186,133607,1,0,0:0:0:0:
260,190,133752,1,0,0:0:0:0:
260,188,133897,1,8,0:0:0:0:
268,195,133970,1,8,0:1:0:0:
262,196,134042,1,0,0:0:0:0:
262,196,134187,1,0,0:0:0:0:
248,183,134332,1,0,0:1:0:0:
253,183,134405,1,0,0:1:0:0:
253,183,134477,1,8,0:1:0:0:
268,193,134622,1,0,0:0:0:0:
268,193,134767,1,8,0:0:0:0:
275,185,134839,1,8,0:0:0:0:
271,199,134912,1,0,0:0:0:0:
270,199,135057,1,8,0:0:0:0:
270,199,135202,1,0,0:0:0:0:
270,199,135274,1,0,0:0:0:0:
271,192,135347,1,8,0:0:0:0:
268,193,135419,1,0,0:0:0:0:
268,193,135492,1,0,0:0:0:0:
268,193,135636,1,8,0:0:0:0:
268,193,135709,1,8,0:0:0:0:
265,200,135781,1,0,0:0:0:0:
265,199,135854,1,0,0:0:0:0:
265,199,135926,1,8,0:0:0:0:
270,199,135999,1,0,0:0:0:0:
270,199,136071,1,8,0:0:0:0:
270,199,136144,1,8,0:0:0:0:
270,199,136216,1,0,0:0:0:0:
271,192,136361,1,8,0:0:0:0:
257,193,136434,1,8,0:0:0:0:
262,191,136506,1,0,0:0:0:0:
255,192,136651,1,0,0:0:0:0:
264,195,136796,1,8,0:0:0:0:
262,191,136941,1,8,0:0:0:0:
262,191,137086,1,0,0:0:0:0:
248,183,137231,1,0,0:0:0:0:
248,183,137376,1,8,0:0:0:0:
248,183,137448,1,0,0:0:0:0:
248,183,137521,1,0,0:0:0:0:
248,183,137593,1,0,0:0:0:0:
248,183,137665,1,8,0:0:0:0:
256,194,137810,1,0,0:0:0:0:
256,194,137955,1,8,0:0:0:0:
251,183,138100,1,0,0:0:0:0:
259,187,138173,1,0,0:0:0:0:
259,187,138245,1,8,0:0:0:0:
259,187,138318,1,0,0:0:0:0:
259,187,138390,1,8,0:0:0:0:
259,187,138463,1,8,0:0:0:0:
259,187,138535,1,0,0:0:0:0:
254,187,138680,1,0,0:0:0:0:
254,187,138825,1,8,0:0:0:0:
254,187,138970,1,0,0:0:0:0:
254,191,139115,1,0,0:1:0:0:
260,198,139187,1,0,0:0:0:0:
259,187,139260,1,0,0:0:0:0:
260,198,139332,1,0,0:0:0:0:
259,187,139405,1,8,0:0:0:0:
249,182,139550,1,0,0:0:0:0:
249,182,139694,1,8,0:0:0:0:
249,182,139767,1,8,0:0:0:0:
249,182,139839,1,0,0:0:0:0:
249,182,139912,1,0,0:0:0:0:
249,182,139984,1,8,0:0:0:0:
444,383,140057,1,8,0:1:0:0:
249,182,140129,1,0,0:0:0:0:
252,188,140274,1,8,0:0:0:0:
252,188,140419,1,0,0:0:0:0:
260,169,140492,1,0,0:0:0:0:
252,188,140564,1,0,0:0:0:0:
252,188,140709,1,8,0:0:0:0:
244,172,140854,1,0,0:0:0:0:
244,172,140999,1,8,0:0:0:0:
244,172,141144,1,0,0:0:0:0:
252,188,141216,1,0,0:0:0:0:
141,240,141289,1,8,0:0:0:0:
141,240,141361,1,0,0:0:0:0:
141,240,141434,1,8,0:0:0:0:
186,183,141579,1,0,0:0:0:0:
186,183,141723,1,8,0:0:0:0:
141,240,141868,1,8,0:0:0:0:
186,183,142013,1,0,0:0:0:0:
186,183,142158,1,0,0:0:0:0:
248,179,142303,1,8,0:0:0:0:
186,183,142448,1,0,0:0:0:0:
230,199,142593,1,8,0:0:0:0:
230,199,142738,1,0,0:0:0:0:
230,199,142810,1,0,0:0:0:0:
230,199,142883,1,8,0:0:0:0:
230,199,143028,1,8,0:0:0:0:
241,209,143100,1,8,0:0:0:0:
234,201,143173,1,0,0:0:0:0:
224,192,143245,1,0,0:0:0:0:
241,209,143318,1,8,0:0:0:0:
241,209,143463,1,0,0:0:0:0:
241,204,143607,1,8,0:0:0:0:
226,209,143680,1,0,0:0:0:0:
241,204,143752,1,0,0:0:0:0:
236,209,143897,1,8,0:0:0:0:
236,209,144042,1,0,0:0:0:0:
235,228,144115,1,0,0:0:0:0:
228,218,144187,1,8,0:0:0:0:
235,217,144332,1,0,0:0:0:0:
234,210,144477,1,0,0:0:0:0:
235,217,144622,1,8,0:0:0:0:
235,217,144767,1,0,0:0:0:0:
249,217,144912,1,8,0:0:0:0:
249,217,144984,1,8,0:0:0:0:
249,217,145057,1,0,0:0:0:0:
249,217,145129,1,0,0:0:0:0:
249,217,145202,1,8,0:0:0:0:
249,217,145347,1,8,0:0:0:0:
249,217,145419,1,8,0:0:0:0:
249,217,145492,1,0,0:0:0:0:
257,214,145636,1,8,0:0:0:0:
257,214,145781,1,0,0:0:0:0:
257,214,145926,1,8,0:0:0:0:
257,214,145999,1,8,0:0:0:0:
269,205,146071,1,8,0:0:0:0:
276,224,146144,1,8,0:0:0:0:
261,214,146216,1,0,0:0:0:0:
260,221,146361,1,8,0:0:0:0:
264,218,146506,1,0,0:0:0:0:
267,204,146651,1,8,0:0:0:0:
267,204,146723,1,0,0:0:0:0:
267,204,146796,1,0,0:0:0:0:
267,204,146868,1,0,0:0:0:0:
267,204,146941,1,8,0:0:0:0:
272,211,147086,1,0,0:0:0:0:
264,206,147231,1,8,0:0:0:0:
264,206,147376,1,0,0:0:0:0:
264,203,147448,1,0,0:1:0:0:
264,206,147521,1,8,0:0:0:0:
258,196,147665,1,0,0:1:0:0:
267,204,147810,1,8,0:1:0:0:
279,201,147883,1,8,0:0:0:0:
267,204,147955,1,8,0:0:0:0:
266,201,148028,1,8,0:0:0:0:
266,201,148100,1,0,0:0:0:0:
266,201,148173,1,0,0:0:0:0:
250,205,148245,1,8,0:1:0:0:
266,201,148318,1,0,0:0:0:0:
270,199,148390,1,8,0:0:0:0:
264,206,148535,1,0,0:0:0:0:
260,208,148680,1,8,0:0:0:0:
260,208,148752,1,0,0:0:0:0:
260,208,148825,1,0,0:0:0:0:
256,224,148897,1,0,0:0:0:0:
260,208,148970,1,8,0:0:0:0:
260,208,149115,1,0,0:0:0:0:
257,204,149260,1,8,0:0:0:0:
260,208,149332,1,8,0:1:0:0:
257,213,149405,1,0,0:1:0:0:
256,208,149550,1,8,0:1:0:0:
260,208,149622,1,0,0:0:0:0:
260,208,149694,1,0,0:0:0:0:
263,216,149839,1,8,0:0:0:0:
257,203,149984,1,0,0:0:0:0:
257,203,150057,1,0,0:0:0:0:
257,203,150129,1,8,0:0:0:0:
258,206,150202,1,8,0:0:0:0:
257,204,150274,1,0,0:0:0:0:
254,197,150419,1,0,0:0:0:0:
254,197,150564,1,8,0:0:0:0:
254,197,150709,1,0,0:0:0:0:
255,197,150854,1,0,0:0:0:0:
246,199,150926,1,0,0:1:0:0:
255,197,150999,1,8,0:0:0:0:
256,186,151144,1,8,0:0:0:0:
262,195,151216,1,0,0:0:0:0:
256,188,151289,1,8,0:0:0:0:
256,188,151361,1,8,0:0:0:0:
256,188,151434,1,0,0:0:0:0:
256,192,151506,1,0,0:0:0:0:
256,188,151579,1,8,0:0:0:0:
256,188,151723,1,0,0:0:0:0:
258,191,151868,1,8,0:0:0:0:
251,205,152013,1,0,0:1:0:0:
249,191,152086,1,0,0:1:0:0:
246,187,152158,1,8,0:1:0:0:
268,192,152303,1,8,0:1:0:0:
268,192,152448,1,0,0:1:0:0:
268,192,152593,1,8,0:1:0:0:
258,210,152665,1,8,0:1:0:0:
262,196,152738,1,0,0:0:0:0:
262,196,152883,1,8,0:0:0:0:
268,193,153028,1,0,0:0:0:0:
268,193,153173,1,0,0:0:0:0:
268,193,153318,1,8,0:0:0:0:
275,185,153390,1,8,0:0:0:0:
271,199,153463,1,0,0:0:0:0:
270,199,153607,1,8,0:0:0:0:
270,199,153752,1,0,0:0:0:0:
270,199,153825,1,0,0:0:0:0:
271,192,153897,1,8,0:0:0:0:
268,193,153970,1,0,0:0:0:0:
268,193,154042,1,0,0:0:0:0:
268,193,154187,1,8,0:0:0:0:
265,200,154332,1,0,0:0:0:0:
265,199,154405,1,0,0:0:0:0:
265,199,154477,1,8,0:0:0:0:
270,199,154550,1,0,0:0:0:0:
270,199,154622,1,8,0:0:0:0:
270,199,154694,1,8,0:0:0:0:
270,199,154767,1,0,0:0:0:0:
271,192,154912,1,8,0:0:0:0:
257,193,154984,1,8,0:0:0:0:
262,191,155057,1,0,0:0:0:0:
263,208,155202,1,8,0:1:0:0:
263,208,155347,1,0,0:1:0:0:
262,191,155492,1,8,0:0:0:0:
258,193,155564,1,0,0:1:0:0:
262,191,155636,1,0,0:0:0:0:
248,183,155781,1,0,0:0:0:0:
248,183,155926,1,8,0:0:0:0:
248,183,155999,1,0,0:0:0:0:
248,183,156071,1,0,0:0:0:0:
248,183,156144,1,0,0:0:0:0:
248,183,156216,1,8,0:0:0:0:
256,194,156361,1,0,0:0:0:0:
256,194,156506,1,8,0:0:0:0:
251,183,156651,1,0,0:0:0:0:
259,187,156723,1,0,0:0:0:0:
259,187,156796,1,8,0:0:0:0:
259,187,156941,1,8,0:0:0:0:
259,187,157086,1,0,0:0:0:0:
254,187,157231,1,0,0:0:0:0:
254,187,157376,1,8,0:0:0:0:
254,187,157448,1,0,0:0:0:0:
263,200,157521,1,0,0:1:0:0:
263,200,157593,1,0,0:1:0:0:
254,187,157665,1,8,0:0:0:0:
259,187,157810,1,0,0:0:0:0:
262,194,157883,1,0,0:0:0:0:
264,193,157955,1,0,0:1:0:0:
266,186,158100,1,8,0:1:0:0:
249,182,158245,1,8,0:0:0:0:
249,182,158390,1,0,0:0:0:0:
249,182,158463,1,0,0:0:0:0:
249,182,158535,1,8,0:0:0:0:
249,182,158607,1,0,0:0:0:0:
249,182,158680,1,0,0:0:0:0:
252,188,158825,1,8,0:0:0:0:
252,188,158970,1,0,0:0:0:0:
234,178,159042,1,0,0:0:0:0:
223,171,159115,1,0,0:0:0:0:
252,188,159260,1,8,0:0:0:0:
244,172,159405,1,0,0:0:0:0:
244,172,159550,1,8,0:0:0:0:
244,172,159694,1,0,0:0:0:0:
252,188,159767,1,0,0:0:0:0:
216,193,159839,1,8,0:1:0:0:
141,240,159912,1,0,0:0:0:0:
141,240,159984,1,8,0:0:0:0:
219,188,160129,1,12,0:1:0:0:
219,188,160274,1,12,0:1:0:0:
193,174,160419,1,0,0:1:0:0:
201,186,160492,1,0,0:1:0:0:
201,186,160564,1,8,0:1:0:0:
201,186,160709,1,8,0:1:0:0:
212,185,160999,1,4,0:0:0:0:
230,181,161289,1,0,0:0:0:0:
230,181,161434,1,8,0:0:0:0:
230,181,161579,1,8,0:0:0:0:
230,181,161651,1,0,0:0:0:0:
230,181,161723,1,8,0:0:0:0:
230,181,161868,1,0,0:0:0:0:
230,181,162013,1,8,0:0:0:0:
220,185,162158,1,8,0:0:0:0:
221,185,162448,1,0,0:0:0:0:
221,185,162593,1,8,0:0:0:0:
209,187,162738,1,8,0:0:0:0:
209,187,162810,1,8,0:0:0:0:
209,187,162883,1,0,0:0:0:0:
221,185,163028,1,8,0:0:0:0:
220,185,163173,1,8,0:0:0:0:
221,185,163318,1,0,0:0:0:0:
216,186,163607,1,0,0:0:0:0:
216,186,163752,1,8,0:0:0:0:
217,179,163897,1,0,0:0:0:0:
213,182,163970,1,0,0:0:0:0:
213,180,164042,1,0,0:0:0:0:
213,180,164187,1,8,0:0:0:0:
217,179,164332,1,0,0:0:0:0:
217,176,164477,1,8,0:0:0:0:
226,176,164767,1,8,0:0:0:0:
224,178,164912,1,0,0:0:0:0:
222,198,165057,1,0,0:0:0:0:
217,179,165129,1,0,0:0:0:0:
217,179,165202,1,8,0:0:0:0:
234,182,165347,1,0,0:0:0:0:
233,182,165492,1,8,0:0:0:0:
252,196,165636,1,8,0:0:0:0:
252,196,165926,1,0,0:0:0:0:
252,196,166071,1,8,0:0:0:0:
261,209,166216,1,8,0:0:0:0:
246,203,166289,1,0,0:0:0:0:
259,213,166361,1,0,0:0:0:0:
242,199,166506,1,0,0:0:0:0:
242,199,166651,1,8,0:0:0:0:
248,204,166796,1,8,0:0:0:0:
250,207,167086,1,0,0:0:0:0:
242,199,167231,1,8,0:0:0:0:
242,199,167376,1,0,0:0:0:0:
242,199,167448,1,0,0:0:0:0:
242,199,167521,1,8,0:0:0:0:
242,199,167665,1,8,0:0:0:0:
248,204,167810,1,8,0:0:0:0:
239,206,167955,1,0,0:0:0:0:
238,205,168245,1,0,0:0:0:0:
238,205,168390,1,8,0:0:0:0:
238,205,168535,1,0,0:0:0:0:
235,203,168607,1,8,0:0:0:0:
238,205,168680,1,8,0:0:0:0:
247,212,168825,1,0,0:0:0:0:
239,206,168970,1,12,0:0:0:0:
235,198,169115,1,8,0:0:0:0:
238,205,169187,1,8,0:0:0:0:
241,210,169260,1,0,0:0:0:0:
241,210,169332,1,0,0:0:0:0:
241,210,169405,1,8,0:0:0:0:
241,210,169477,1,0,0:0:0:0:
251,209,169550,1,8,0:0:0:0:
231,221,169622,1,0,0:0:0:0:
231,221,169694,1,8,0:0:0:0:
231,221,169767,1,8,0:0:0:0:
231,221,169839,1,0,0:0:0:0:
231,221,169912,1,0,0:0:0:0:
231,221,169984,1,8,0:0:0:0:
231,221,170057,1,0,0:0:0:0:
252,232,170129,1,8,0:0:0:0:
248,207,170274,1,4,0:0:0:0:
255,225,170564,1,4,0:0:0:0:
255,225,170709,1,4,0:0:0:0:
254,188,171868,1,8,0:0:0:0:
254,188,171941,1,8,0:0:0:0:
254,188,172013,1,0,0:0:0:0:
254,188,172086,1,0,0:0:0:0:
254,188,172158,1,8,0:0:0:0:
254,188,172231,1,0,0:0:0:0:
254,188,172303,1,0,0:0:0:0:
254,188,172376,1,0,0:0:0:0:
254,188,172448,1,8,0:0:0:0:
259,190,172593,1,4,0:0:0:0:
259,190,172883,1,4,0:0:0:0:
259,190,173028,1,4,0:0:0:0:
250,190,173897,1,8,0:0:0:0:
250,190,173994,1,8,0:0:0:0:
250,190,174091,1,0,0:0:0:0:
250,190,174187,1,8,0:0:0:0:
250,190,174284,1,0,0:0:0:0:
250,190,174380,1,0,0:0:0:0:
250,190,174477,1,8,0:0:0:0:
242,190,174622,1,8,0:0:0:0:
239,188,174767,1,0,0:0:0:0:
250,190,174912,1,12,0:0:0:0:
231,198,175202,1,8,0:0:0:0:
231,198,175347,1,0,0:0:0:0:
233,182,175492,1,0,0:0:0:0:
235,177,175564,1,0,0:0:0:0:
235,177,175636,1,8,0:0:0:0:
235,177,175781,1,0,0:0:0:0:
208,176,175926,1,0,0:0:0:0:
234,184,176071,1,8,0:0:0:0:
230,181,176361,1,8,0:0:0:0:
233,182,176506,1,0,0:0:0:0:
224,175,176651,1,0,0:0:0:0:
224,176,176796,1,8,0:0:0:0:
217,178,176868,1,0,0:0:0:0:
224,176,176941,1,0,0:0:0:0:
216,170,177086,1,0,0:0:0:0:
216,170,177231,1,8,0:0:0:0:
210,167,177521,1,0,0:0:0:0:
211,167,177665,1,8,0:0:0:0:
211,167,177810,1,0,0:0:0:0:
211,167,177883,1,0,0:0:0:0:
211,167,177955,1,8,0:0:0:0:
219,178,178100,1,0,0:0:0:0:
219,178,178245,1,0,0:0:0:0:
222,181,178390,1,8,0:0:0:0:
217,184,178680,1,0,0:0:0:0:
217,184,178752,1,0,0:0:0:0:
217,184,178825,1,8,0:0:0:0:
217,183,178970,1,0,0:0:0:0:
219,184,179115,1,8,0:0:0:0:
219,184,179260,1,8,0:0:0:0:
222,181,179405,1,8,0:0:0:0:
224,185,179550,1,4,0:0:0:0:
222,186,179839,1,0,0:0:0:0:
222,186,179984,1,8,0:0:0:0:
219,184,180129,1,0,0:0:0:0:
219,184,180202,1,0,0:0:0:0:
233,191,180274,1,8,0:0:0:0:
225,189,180419,1,0,0:0:0:0:
225,189,180564,1,8,0:0:0:0:
215,193,180709,1,8,0:0:0:0:
222,186,180999,1,8,0:0:0:0:
223,190,181144,1,0,0:0:0:0:
214,190,181289,1,0,0:0:0:0:
214,190,181434,1,8,0:0:0:0:
214,190,181506,1,0,0:0:0:0:
214,190,181579,1,8,0:0:0:0:
215,193,181651,1,8,0:0:0:0:
215,193,181723,1,0,0:0:0:0:
215,192,181868,1,8,0:0:0:0:
214,191,182158,1,8,0:0:0:0:
214,190,182303,1,0,0:0:0:0:
214,190,182448,1,0,0:0:0:0:
226,192,182521,1,0,0:0:0:0:
226,192,182593,1,8,0:0:0:0:
226,192,182738,1,8,0:0:0:0:
226,192,182883,1,0,0:0:0:0:
236,195,183028,1,8,0:0:0:0:
231,193,183100,1,8,0:0:0:0:
236,195,183173,1,0,0:0:0:0:
236,195,183318,1,8,0:0:0:0:
236,195,183463,1,0,0:0:0:0:
229,202,183535,1,0,0:0:0:0:
229,205,183607,1,0,0:0:0:0:
229,205,183752,1,8,0:0:0:0:
229,205,183897,1,0,0:0:0:0:
229,205,184042,1,0,0:0:0:0:
229,205,184187,1,8,0:0:0:0:
223,193,184622,1,0,0:0:0:0:
216,188,184767,1,0,0:0:0:0:
223,193,184912,1,8,0:0:0:0:
223,193,185202,1,0,0:0:0:0:
223,193,185347,1,8,0:0:0:0:
223,193,185419,1,8,0:0:0:0:
223,193,185492,1,0,0:0:0:0:
226,197,185781,1,0,0:0:0:0:
226,197,186071,1,8,0:0:0:0:
226,197,186361,1,0,0:0:0:0:
233,206,186651,1,8,0:0:0:0:
231,203,186723,1,0,0:0:0:0:
232,206,186796,1,0,0:0:0:0:
232,206,186868,1,0,0:0:0:0:
232,206,186941,1,8,0:0:0:0:
232,206,187086,1,0,0:0:0:0:
232,206,187231,1,8,0:0:0:0:
232,206,187303,1,0,0:0:0:0:
232,206,187376,1,8,0:0:0:0:
213,208,187448,1,0,0:0:0:0:
233,206,187521,1,0,0:0:0:0:
238,208,187593,1,0,0:0:0:0:
233,206,187665,1,12,0:0:0:0:
256,192,187810,12,0,188680,0:0:0:0:
188,132,188970,5,4,0:0:0:0:
188,132,189260,1,0,0:0:0:0:
188,132,189405,1,0,0:0:0:0:
188,132,189550,1,8,0:0:0:0:
173,94,189694,1,0,0:0:0:0:
188,132,189984,1,8,0:0:0:0:
188,132,190274,1,0,0:0:0:0:
214,163,190347,1,0,0:1:0:0:
188,132,190419,1,8,0:0:0:0:
188,132,190564,1,0,0:0:0:0:
188,132,190709,1,8,0:0:0:0:
156,133,190854,1,8,0:0:0:0:
173,94,190999,1,0,0:0:0:0:
188,132,191144,1,8,0:0:0:0:
188,132,191289,1,0,0:0:0:0:
188,132,191579,1,0,0:0:0:0:
188,132,191723,1,0,0:0:0:0:
188,132,191868,1,8,0:0:0:0:
173,94,192013,1,0,0:0:0:0:
130,114,192303,1,8,0:0:0:0:
130,114,192593,1,0,0:0:0:0:
130,114,192738,1,8,0:0:0:0:
130,114,192883,1,0,0:0:0:0:
130,114,193028,1,8,0:0:0:0:
186,186,193100,1,0,0:1:0:0:
130,114,193173,1,8,0:0:0:0:
186,186,193245,1,8,0:1:0:0:
176,109,193318,1,0,0:0:0:0:
130,114,193463,1,8,0:0:0:0:
172,146,193607,1,0,0:0:0:0:
188,132,193897,1,0,0:0:0:0:
188,132,194042,1,0,0:0:0:0:
188,132,194187,1,8,0:0:0:0:
172,146,194332,1,0,0:0:0:0:
167,109,194477,1,0,0:0:0:0:
188,132,194622,1,8,0:0:0:0:
188,132,194912,1,0,0:0:0:0:
188,132,195057,1,8,0:0:0:0:
188,132,195202,1,0,0:0:0:0:
188,132,195347,1,8,0:0:0:0:
156,133,195492,1,8,0:0:0:0:
188,132,195636,1,0,0:0:0:0:
233,181,195781,1,8,0:1:0:0:
130,114,195854,1,8,0:0:0:0:
188,132,195926,1,0,0:0:0:0:
173,138,196216,1,8,0:0:0:0:
188,132,196361,1,0,0:0:0:0:
188,132,196506,1,8,0:0:0:0:
166,119,196651,1,8,0:0:0:0:
173,138,196796,1,0,0:0:0:0:
130,114,196941,1,8,0:0:0:0:
166,119,197013,1,8,0:0:0:0:
123,69,197086,1,0,0:0:0:0:
222,154,197231,1,0,0:0:0:0:
130,114,197376,1,8,0:0:0:0:
207,128,197521,1,8,0:0:0:0:
207,128,197665,1,0,0:0:0:0:
207,128,197738,1,0,0:0:0:0:
175,133,197810,1,8,0:0:0:0:
175,133,197883,1,8,0:0:0:0:
175,133,197955,1,8,0:0:0:0:
175,133,198100,1,4,0:0:0:0:
246,199,198390,1,0,0:0:0:0:
234,199,198463,1,0,0:1:0:0:
246,199,198535,1,8,0:0:0:0:
246,199,198680,1,0,0:0:0:0:
246,199,198752,1,0,0:0:0:0:
246,199,198825,1,8,0:0:0:0:
245,182,198970,1,0,0:0:0:0:
247,203,199260,1,0,0:0:0:0:
247,203,199405,1,8,0:0:0:0:
247,203,199550,1,0,0:0:0:0:
247,203,199694,1,8,0:0:0:0:
247,203,199839,1,0,0:0:0:0:
247,203,199912,1,0,0:0:0:0:
247,203,199984,1,8,0:0:0:0:
247,203,200129,1,8,0:0:0:0:
247,203,200274,1,8,0:0:0:0:
247,203,200419,1,4,0:0:0:0:
247,203,200709,1,0,0:0:0:0:
247,203,200781,1,0,0:0:0:0:
247,203,200854,1,8,0:0:0:0:
247,203,200999,1,0,0:0:0:0:
247,203,201144,1,8,0:0:0:0:
247,203,201289,1,0,0:0:0:0:
238,191,201579,1,0,0:0:0:0:
235,192,201651,1,0,0:0:0:0:
235,192,201723,1,8,0:0:0:0:
235,192,201868,1,0,0:0:0:0:
235,192,202013,1,8,0:0:0:0:
235,192,202158,1,0,0:0:0:0:
235,192,202303,1,0,0:0:0:0:
238,191,202448,1,8,0:0:0:0:
238,191,202593,1,8,0:0:0:0:
230,196,202738,1,4,0:0:0:0:
248,186,203028,1,0,0:0:0:0:
248,186,203100,1,0,0:0:0:0:
236,173,203173,1,8,0:0:0:0:
236,173,203318,1,0,0:0:0:0:
236,173,203390,1,0,0:0:0:0:
236,173,203463,1,8,0:0:0:0:
244,182,203607,1,0,0:0:0:0:
247,170,203897,1,0,0:0:0:0:
247,170,204042,1,8,0:0:0:0:
247,170,204187,1,0,0:0:0:0:
247,170,204260,1,0,0:0:0:0:
247,170,204332,1,8,0:0:0:0:
247,170,204477,1,0,0:0:0:0:
247,170,204550,1,0,0:0:0:0:
247,170,204622,1,8,0:0:0:0:
246,162,204767,1,0,0:0:0:0:
246,162,204912,1,8,0:0:0:0:
247,170,205057,1,4,0:0:0:0:
241,167,205347,1,0,0:0:0:0:
247,154,205492,1,8,0:0:0:0:
255,178,205564,1,8,0:1:0:0:
247,154,205636,1,8,0:0:0:0:
258,179,205709,1,8,0:1:0:0:
246,154,205781,1,0,0:0:0:0:
246,154,205926,1,8,0:0:0:0:
246,162,205999,1,8,0:0:0:0:
246,154,206071,1,8,0:0:0:0:
246,154,206144,1,8,0:0:0:0:
242,151,206216,1,0,0:0:0:0:
247,176,206361,1,12,0:0:0:0:
247,176,206506,1,12,0:0:0:0:
259,168,206651,1,12,0:0:0:0:
258,170,206796,1,12,0:0:0:0:
265,193,206941,1,0,0:0:0:0:
261,188,207231,1,0,0:0:0:0:
256,192,207521,1,12,0:0:0:0:
230,199,207665,1,0,0:0:0:0:
230,199,207738,1,0,0:0:0:0:
230,199,207810,1,8,0:0:0:0:
230,199,207955,1,8,0:0:0:0:
241,209,208028,1,8,0:0:0:0:
234,201,208100,1,0,0:0:0:0:
224,192,208173,1,0,0:0:0:0:
241,209,208245,1,8,0:0:0:0:
241,209,208390,1,0,0:0:0:0:
226,217,208535,1,8,0:0:0:0:
241,225,208607,1,8,0:0:0:0:
240,224,208680,1,0,0:0:0:0:
236,209,208825,1,8,0:0:0:0:
236,209,208970,1,0,0:0:0:0:
240,224,209042,1,0,0:0:0:0:
240,224,209115,1,8,0:0:0:0:
223,203,209260,1,0,0:0:0:0:
234,210,209405,1,0,0:0:0:0:
256,221,209477,1,0,0:0:0:0:
235,217,209550,1,8,0:0:0:0:
235,217,209694,1,0,0:0:0:0:
249,217,209839,1,8,0:0:0:0:
249,217,209912,1,8,0:0:0:0:
249,217,209984,1,0,0:0:0:0:
249,217,210057,1,0,0:0:0:0:
249,217,210129,1,8,0:0:0:0:
249,217,210274,1,8,0:0:0:0:
249,217,210347,1,8,0:0:0:0:
249,217,210419,1,0,0:0:0:0:
257,214,210564,1,8,0:0:0:0:
257,214,210709,1,0,0:0:0:0:
257,214,210854,1,8,0:0:0:0:
259,222,210926,1,0,0:1:0:0:
258,221,210999,1,8,0:1:0:0:
249,217,211144,1,8,0:0:0:0:
249,217,211289,1,0,0:0:0:0:
264,218,211434,1,0,0:0:0:0:
267,204,211579,1,8,0:0:0:0:
267,204,211651,1,0,0:0:0:0:
267,204,211723,1,0,0:0:0:0:
267,204,211796,1,0,0:0:0:0:
267,204,211868,1,8,0:0:0:0:
272,211,212013,1,0,0:0:0:0:
264,206,212158,1,8,0:0:0:0:
264,206,212303,1,0,0:0:0:0:
264,206,212376,1,0,0:0:0:0:
264,206,212448,1,8,0:0:0:0:
267,204,212521,1,0,0:0:0:0:
267,204,212593,1,8,0:0:0:0:
267,204,212738,1,0,0:0:0:0:
267,204,212883,1,8,0:0:0:0:
266,201,212955,1,8,0:0:0:0:
266,201,213028,1,0,0:0:0:0:
266,201,213100,1,0,0:0:0:0:
266,201,213173,1,8,0:0:0:0:
266,201,213245,1,0,0:0:0:0:
270,199,213318,1,8,0:0:0:0:
264,206,213463,1,0,0:0:0:0:
260,208,213607,1,8,0:0:0:0:
260,208,213680,1,0,0:0:0:0:
260,208,213752,1,0,0:0:0:0:
256,224,213825,1,0,0:0:0:0:
260,208,213897,1,8,0:0:0:0:
260,208,214042,1,0,0:0:0:0:
257,204,214187,1,8,0:0:0:0:
257,204,214332,1,8,0:0:0:0:
255,207,214477,1,0,0:0:0:0:
260,208,214550,1,0,0:0:0:0:
260,208,214622,1,0,0:0:0:0:
263,216,214767,1,8,0:0:0:0:
257,203,214912,1,0,0:0:0:0:
257,203,214984,1,0,0:0:0:0:
257,203,215057,1,8,0:0:0:0:
258,206,215129,1,8,0:0:0:0:
257,204,215202,1,0,0:0:0:0:
254,197,215347,1,0,0:0:0:0:
254,197,215492,1,8,0:0:0:0:
254,197,215564,1,0,0:0:0:0:
254,197,215636,1,0,0:0:0:0:
255,197,215781,1,0,0:0:0:0:
255,197,215926,1,8,0:0:0:0:
256,186,216071,1,8,0:0:0:0:
262,195,216144,1,0,0:0:0:0:
256,188,216216,1,8,0:0:0:0:
256,188,216289,1,8,0:0:0:0:
256,188,216361,1,0,0:0:0:0:
256,192,216434,1,0,0:0:0:0:
256,188,216506,1,8,0:0:0:0:
256,188,216651,1,0,0:0:0:0:
258,191,216796,1,8,0:0:0:0:
266,184,216868,1,8,0:1:0:0:
257,188,216941,1,8,0:0:0:0:
260,188,217013,1,8,0:0:0:0:
256,186,217086,1,0,0:0:0:0:
260,190,217231,1,0,0:0:0:0:
260,188,217376,1,8,0:0:0:0:
268,195,217448,1,8,0:1:0:0:
262,196,217521,1,0,0:0:0:0:
262,196,217665,1,0,0:0:0:0:
248,183,217810,1,0,0:1:0:0:
253,183,217883,1,0,0:1:0:0:
253,183,217955,1,8,0:1:0:0:
268,193,218100,1,0,0:0:0:0:
268,193,218245,1,8,0:0:0:0:
275,185,218318,1,8,0:0:0:0:
271,199,218390,1,0,0:0:0:0:
270,199,218535,1,8,0:0:0:0:
270,199,218680,1,0,0:0:0:0:
270,199,218752,1,0,0:0:0:0:
271,192,218825,1,8,0:0:0:0:
268,193,218970,1,0,0:0:0:0:
268,193,219115,1,8,0:0:0:0:
262,201,219187,1,8,0:0:0:0:
265,200,219260,1,0,0:0:0:0:
265,199,219332,1,0,0:0:0:0:
265,199,219405,1,8,0:0:0:0:
270,199,219477,1,0,0:0:0:0:
270,199,219550,1,8,0:0:0:0:
270,199,219622,1,8,0:0:0:0:
270,199,219694,1,0,0:0:0:0:
271,192,219839,1,8,0:0:0:0:
257,193,219912,1,8,0:0:0:0:
262,191,219984,1,0,0:0:0:0:
255,192,220129,1,0,0:0:0:0:
264,195,220274,1,8,0:0:0:0:
262,191,220419,1,8,0:0:0:0:
262,191,220564,1,0,0:0:0:0:
248,183,220709,1,0,0:0:0:0:
248,183,220854,1,8,0:0:0:0:
248,183,220926,1,0,0:0:0:0:
248,183,220999,1,0,0:0:0:0:
248,183,221071,1,0,0:0:0:0:
248,183,221144,1,8,0:0:0:0:
256,194,221289,1,0,0:0:0:0:
256,194,221434,1,8,0:0:0:0:
251,183,221579,1,0,0:0:0:0:
259,187,221651,1,0,0:0:0:0:
259,187,221723,1,8,0:0:0:0:
259,187,221796,1,0,0:0:0:0:
259,187,221868,1,8,0:0:0:0:
259,187,221941,1,8,0:0:0:0:
259,187,222013,1,0,0:0:0:0:
254,187,222158,1,0,0:0:0:0:
254,187,222303,1,8,0:0:0:0:
254,187,222448,1,0,0:0:0:0:
234,195,222593,1,0,0:0:0:0:
250,186,222665,1,0,0:0:0:0:
259,187,222738,1,0,0:0:0:0:
234,193,222810,1,0,0:0:0:0:
259,187,222883,1,8,0:0:0:0:
249,182,223028,1,0,0:0:0:0:
249,182,223173,1,8,0:0:0:0:
249,182,223245,1,8,0:0:0:0:
249,182,223318,1,0,0:0:0:0:
249,182,223390,1,0,0:0:0:0:
249,182,223463,1,8,0:0:0:0:
444,383,223535,1,8,0:1:0:0:
249,182,223607,1,0,0:0:0:0:
252,188,223752,1,8,0:0:0:0:
252,188,223897,1,0,0:0:0:0:
260,169,223970,1,0,0:0:0:0:
252,188,224042,1,0,0:0:0:0:
252,188,224187,1,8,0:0:0:0:
244,172,224332,1,0,0:0:0:0:
244,172,224477,1,8,0:0:0:0:
244,172,224622,1,0,0:0:0:0:
252,188,224694,1,0,0:0:0:0:
141,240,224767,1,8,0:0:0:0:
141,240,224839,1,0,0:0:0:0:
141,240,224912,1,8,0:0:0:0:
229,183,225057,1,0,0:0:0:0:
229,183,225129,1,0,0:0:0:0:
186,183,225202,1,8,0:0:0:0:
141,240,225347,1,8,0:0:0:0:
244,183,225419,1,8,0:0:0:0:
186,183,225492,1,0,0:0:0:0:
186,183,225636,1,0,0:0:0:0:
248,179,225781,1,8,0:0:0:0:
186,183,225926,1,0,0:0:0:0:
230,199,226071,1,8,0:0:0:0:
230,199,226216,1,0,0:0:0:0:
230,199,226289,1,0,0:0:0:0:
230,199,226361,1,8,0:0:0:0:
230,199,226506,1,8,0:0:0:0:
241,209,226579,1,8,0:0:0:0:
234,201,226651,1,0,0:0:0:0:
224,192,226723,1,0,0:0:0:0:
241,209,226796,1,8,0:0:0:0:
241,209,226941,1,0,0:0:0:0:
241,204,227086,1,8,0:0:0:0:
226,209,227158,1,0,0:0:0:0:
241,204,227231,1,0,0:0:0:0:
236,209,227376,1,8,0:0:0:0:
236,209,227521,1,0,0:0:0:0:
235,228,227593,1,0,0:0:0:0:
228,218,227665,1,8,0:0:0:0:
235,217,227810,1,0,0:0:0:0:
234,210,227955,1,0,0:0:0:0:
235,217,228100,1,8,0:0:0:0:
235,217,228245,1,0,0:0:0:0:
249,217,228390,1,8,0:0:0:0:
249,217,228463,1,8,0:0:0:0:
249,217,228535,1,0,0:0:0:0:
249,217,228607,1,0,0:0:0:0:
249,217,228680,1,8,0:0:0:0:
249,217,228825,1,8,0:0:0:0:
249,217,228897,1,8,0:0:0:0:
249,217,228970,1,0,0:0:0:0:
257,214,229115,1,8,0:0:0:0:
257,214,229260,1,0,0:0:0:0:
257,214,229405,1,8,0:0:0:0:
257,214,229477,1,8,0:0:0:0:
269,205,229550,1,8,0:0:0:0:
258,209,229622,1,8,0:0:0:0:
261,214,229694,1,0,0:0:0:0:
260,221,229839,1,8,0:0:0:0:
264,218,229984,1,0,0:0:0:0:
267,204,230129,1,8,0:0:0:0:
267,204,230202,1,0,0:0:0:0:
267,204,230274,1,0,0:0:0:0:
267,204,230347,1,0,0:0:0:0:
267,204,230419,1,8,0:0:0:0:
272,211,230564,1,0,0:0:0:0:
264,206,230709,1,8,0:0:0:0:
264,206,230854,1,0,0:0:0:0:
264,203,230926,1,0,0:1:0:0:
264,206,230999,1,8,0:0:0:0:
258,196,231144,1,0,0:1:0:0:
267,204,231289,1,8,0:1:0:0:
253,213,231361,1,8,0:0:0:0:
267,204,231434,1,8,0:0:0:0:
266,201,231506,1,8,0:0:0:0:
266,201,231579,1,0,0:0:0:0:
266,201,231651,1,0,0:0:0:0:
250,205,231723,1,8,0:1:0:0:
266,201,231796,1,0,0:0:0:0:
270,199,231868,1,8,0:0:0:0:
264,206,232013,1,0,0:0:0:0:
260,208,232158,1,8,0:0:0:0:
260,208,232303,1,0,0:0:0:0:
256,224,232376,1,0,0:0:0:0:
260,208,232448,1,8,0:0:0:0:
260,208,232593,1,0,0:0:0:0:
257,204,232738,1,8,0:0:0:0:
260,208,232810,1,8,0:1:0:0:
257,213,232883,1,0,0:1:0:0:
256,208,233028,1,8,0:1:0:0:
260,208,233100,1,0,0:0:0:0:
260,208,233173,1,0,0:0:0:0:
263,216,233318,1,8,0:0:0:0:
257,203,233463,1,0,0:0:0:0:
257,203,233535,1,0,0:0:0:0:
257,203,233607,1,8,0:0:0:0:
258,206,233680,1,8,0:0:0:0:
257,204,233752,1,0,0:0:0:0:
254,197,233897,1,0,0:0:0:0:
254,197,234042,1,8,0:0:0:0:
254,197,234187,1,0,0:0:0:0:
255,197,234332,1,0,0:0:0:0:
246,199,234405,1,0,0:1:0:0:
255,197,234477,1,8,0:0:0:0:
256,186,234622,1,8,0:0:0:0:
262,195,234694,1,0,0:0:0:0:
256,188,234767,1,8,0:0:0:0:
256,188,234839,1,8,0:0:0:0:
256,188,234912,1,0,0:0:0:0:
256,192,234984,1,0,0:0:0:0:
256,188,235057,1,8,0:0:0:0:
256,188,235202,1,0,0:0:0:0:
258,191,235347,1,8,0:0:0:0:
251,205,235492,1,0,0:1:0:0:
249,191,235564,1,0,0:1:0:0:
246,187,235636,1,8,0:1:0:0:
268,192,235781,1,8,0:1:0:0:
268,192,235926,1,0,0:1:0:0:
268,192,236071,1,8,0:1:0:0:
258,210,236144,1,8,0:1:0:0:
262,196,236216,1,0,0:0:0:0:
262,196,236361,1,8,0:0:0:0:
268,193,236506,1,0,0:0:0:0:
268,193,236651,1,0,0:0:0:0:
268,193,236796,1,8,0:0:0:0:
271,199,236941,1,0,0:0:0:0:
269,203,237013,1,0,0:0:0:0:
270,199,237086,1,8,0:0:0:0:
270,199,237231,1,0,0:0:0:0:
270,199,237303,1,0,0:0:0:0:
271,192,237376,1,8,0:0:0:0:
268,193,237448,1,0,0:0:0:0:
268,193,237521,1,0,0:0:0:0:
268,193,237665,1,8,0:0:0:0:
265,200,237810,1,0,0:0:0:0:
265,199,237883,1,0,0:0:0:0:
265,199,237955,1,8,0:0:0:0:
270,199,238028,1,0,0:0:0:0:
270,199,238100,1,8,0:0:0:0:
270,199,238173,1,8,0:0:0:0:
270,199,238245,1,0,0:0:0:0:
271,192,238390,1,8,0:0:0:0:
257,193,238463,1,8,0:0:0:0:
262,191,238535,1,0,0:0:0:0:
263,208,238680,1,8,0:1:0:0:
263,208,238825,1,0,0:1:0:0:
251,190,238970,1,0,0:0:0:0:
251,217,239042,1,0,0:0:0:0:
246,197,239115,1,8,0:0:0:0:
248,183,239260,1,0,0:0:0:0:
248,183,239405,1,8,0:0:0:0:
248,183,239477,1,0,0:0:0:0:
248,183,239550,1,0,0:0:0:0:
248,183,239622,1,0,0:0:0:0:
248,183,239694,1,8,0:0:0:0:
256,194,239839,1,0,0:0:0:0:
256,194,239984,1,8,0:0:0:0:
251,183,240129,1,0,0:0:0:0:
259,187,240202,1,0,0:0:0:0:
259,187,240274,1,8,0:0:0:0:
259,187,240419,1,8,0:0:0:0:
259,187,240564,1,0,0:0:0:0:
254,187,240709,1,0,0:0:0:0:
254,187,240854,1,8,0:0:0:0:
254,187,240926,1,0,0:0:0:0:
263,200,240999,1,0,0:1:0:0:
263,200,241071,1,0,0:1:0:0:
253,198,241144,1,8,0:0:0:0:
249,185,241289,1,0,0:0:0:0:
264,193,241434,1,0,0:1:0:0:
266,186,241579,1,8,0:1:0:0:
249,182,241723,1,8,0:0:0:0:
249,182,241868,1,0,0:0:0:0:
249,182,241941,1,0,0:0:0:0:
249,182,242013,1,8,0:0:0:0:
249,182,242086,1,0,0:0:0:0:
249,182,242158,1,0,0:0:0:0:
252,188,242303,1,8,0:0:0:0:
238,168,242448,1,0,0:0:0:0:
233,179,242593,1,8,0:0:0:0:
236,181,242738,1,0,0:0:0:0:
238,168,242810,1,0,0:0:0:0:
224,183,242883,1,8,0:0:0:0:
238,168,243028,1,8,0:0:0:0:
235,168,243173,1,0,0:0:0:0:
238,168,243318,1,12,0:0:0:0:
239,181,243607,1,8,0:0:0:0:
239,181,243752,1,8,0:0:0:0:
242,188,243897,1,0,0:0:0:0:
242,188,243970,1,0,0:0:0:0:
242,188,244042,1,8,0:0:0:0:
242,188,244187,1,8,0:0:0:0:
237,185,244332,1,0,0:0:0:0:
227,192,244477,1,12,0:0:0:0:
242,188,244622,1,8,0:0:0:0:
246,199,244767,1,0,0:0:0:0:
246,199,244912,1,8,0:0:0:0:
247,207,244984,1,8,0:0:0:0:
247,207,245057,1,0,0:0:0:0:
247,207,245129,1,0,0:0:0:0:
247,207,245202,1,8,0:0:0:0:
249,207,245347,1,0,0:0:0:0:
257,209,245492,1,8,0:0:0:0:
249,206,245636,1,4,0:0:0:0:
246,199,245926,1,0,0:0:0:0:
246,199,245999,1,0,0:0:0:0:
246,199,246071,1,8,0:0:0:0:
246,199,246216,1,0,0:0:0:0:
238,374,246506,1,0,0:0:0:0:
240,329,246579,1,0,0:0:0:0:
242,285,246651,1,8,0:0:0:0:
246,196,246796,1,0,0:0:0:0:
246,199,247086,1,0,0:0:0:0:
246,199,247158,1,0,0:0:0:0:
246,199,247231,1,8,0:0:0:0:
246,196,247376,1,0,0:0:0:0:
246,196,247665,1,0,0:0:0:0:
246,196,247738,1,0,0:0:0:0:
246,196,247810,1,8,0:0:0:0:
246,199,247955,1,0,0:0:0:0:
241,203,248245,1,0,0:0:0:0:
241,203,248318,1,0,0:0:0:0:
241,203,248390,1,8,0:0:0:0:
241,203,248535,1,0,0:0:0:0:
249,207,248825,1,0,0:0:0:0:
246,199,248897,1,0,0:0:0:0:
256,233,248970,1,8,0:0:0:0:
241,203,249115,1,0,0:0:0:0:
241,203,249405,1,0,0:0:0:0:
241,203,249477,1,0,0:0:0:0:
241,203,249550,1,8,0:0:0:0:
249,207,249694,1,0,0:0:0:0:
260,205,249839,1,8,0:0:0:0:
250,198,249984,1,8,0:0:0:0:
250,198,250057,1,8,0:0:0:0:
250,198,250129,1,8,0:0:0:0:
254,202,250274,1,0,0:0:0:0:
246,199,250564,1,0,0:0:0:0:
246,199,250636,1,0,0:0:0:0:
246,199,250709,1,8,0:0:0:0:
246,199,250854,1,0,0:0:0:0:
238,374,251144,1,0,0:0:0:0:
240,329,251216,1,0,0:0:0:0:
242,285,251289,1,8,0:0:0:0:
246,196,251434,1,0,0:0:0:0:
246,199,251723,1,0,0:0:0:0:
246,199,251796,1,0,0:0:0:0:
246,199,251868,1,8,0:0:0:0:
246,196,252013,1,0,0:0:0:0:
246,196,252303,1,0,0:0:0:0:
246,196,252376,1,0,0:0:0:0:
246,196,252448,1,8,0:0:0:0:
246,199,252593,1,0,0:0:0:0:
241,203,252883,1,0,0:0:0:0:
241,203,252955,1,0,0:0:0:0:
241,203,253028,1,8,0:0:0:0:
241,203,253173,1,0,0:0:0:0:
249,207,253463,1,0,0:0:0:0:
246,199,253535,1,0,0:0:0:0:
256,233,253607,1,8,0:0:0:0:
241,203,253752,1,0,0:0:0:0:
241,203,254042,1,0,0:0:0:0:
241,203,254115,1,0,0:0:0:0:
241,203,254187,1,8,0:0:0:0:
249,207,254332,1,0,0:0:0:0:
260,205,254477,1,8,0:0:0:0:
251,198,254622,1,8,0:0:0:0:
245,198,254694,1,8,0:0:0:0:
251,198,254767,1,8,0:0:0:0:
249,197,254912,1,4,0:0:0:0:
253,203,255202,1,0,0:1:0:0:
253,203,255274,1,0,0:1:0:0:
256,224,255347,1,8,0:0:0:0:
253,203,255419,1,0,0:1:0:0:
253,190,255492,1,0,0:0:0:0:
253,190,255636,1,8,0:0:0:0:
251,213,255781,1,0,0:1:0:0:
249,197,255854,1,0,0:1:0:0:
224,192,255926,1,8,0:0:0:0:
224,192,255999,1,8,0:0:0:0:
266,227,256071,1,0,0:1:0:0:
256,210,256361,1,0,0:1:0:0:
224,224,256434,1,8,0:0:0:0:
244,203,256506,1,0,0:0:0:0:
249,189,256579,1,0,0:0:0:0:
254,213,256651,1,0,0:1:0:0:
266,210,256796,1,8,0:0:0:0:
242,207,256941,1,0,0:0:0:0:
256,192,257013,1,8,0:0:0:0:
241,212,257086,1,0,0:0:0:0:
236,200,257158,1,0,0:1:0:0:
256,192,257231,1,8,0:0:0:0:
239,178,257521,1,0,0:1:0:0:
256,192,257593,1,8,0:0:0:0:
241,187,257665,1,0,0:0:0:0:
240,178,257738,1,0,0:0:0:0:
256,192,257810,1,8,0:0:0:0:
253,172,257955,1,8,0:0:0:0:
260,195,258100,1,0,0:1:0:0:
224,192,258173,1,8,0:0:0:0:
251,198,258245,1,0,0:0:0:0:
254,198,258318,1,0,0:0:0:0:
254,198,258390,1,0,0:0:0:0:
258,195,258680,1,0,0:1:0:0:
258,195,258752,1,0,0:1:0:0:
224,192,258825,1,8,0:0:0:0:
258,195,258897,1,0,0:1:0:0:
258,195,258970,1,0,0:1:0:0:
251,193,259115,1,8,0:0:0:0:
251,198,259260,1,0,0:1:0:0:
254,198,259405,1,0,0:1:0:0:
250,198,259550,1,0,0:1:0:0:
256,192,259839,1,8,0:0:0:0:
251,198,259912,1,0,0:0:0:0:
238,200,259984,1,0,0:0:0:0:
251,198,260057,1,0,0:0:0:0:
231,207,260129,1,0,0:0:0:0:
236,200,260274,1,8,0:1:0:0:
251,198,260419,1,0,0:0:0:0:
251,198,260492,1,0,0:0:0:0:
250,198,260564,1,8,0:0:0:0:
251,198,260636,1,0,0:0:0:0:
251,198,260709,1,0,0:0:0:0:
256,192,260999,1,8,0:0:0:0:
255,207,261071,1,0,0:0:0:0:
256,224,261144,1,0,0:0:0:0:
256,192,261216,1,8,0:0:0:0:
255,207,261289,1,0,0:0:0:0:
251,198,261434,1,8,0:0:0:0:
266,220,261579,1,0,0:1:0:0:
256,192,261651,1,8,0:0:0:0:
256,192,261723,1,8,0:0:0:0:
259,215,261796,1,0,0:0:0:0:
265,201,261868,1,0,0:1:0:0:
266,194,262158,1,0,0:0:0:0:
266,196,262231,1,0,0:0:0:0:
256,192,262303,1,8,0:0:0:0:
256,192,262376,1,8,0:0:0:0:
266,196,262448,1,0,0:0:0:0:
266,196,262593,1,8,0:0:0:0:
256,192,262738,1,8,0:0:0:0:
256,192,262810,1,0,0:0:0:0:
256,224,262883,1,8,0:0:0:0:
256,192,262955,1,0,0:0:0:0:
244,211,263028,1,0,0:1:0:0:
261,217,263173,1,0,0:0:0:0:
261,217,263318,1,8,0:0:0:0:
280,209,263390,1,8,0:1:0:0:
261,217,263463,1,8,0:0:0:0:
261,217,263607,1,8,0:0:0:0:
262,219,263752,1,0,0:0:0:0:
264,219,263897,1,0,0:0:0:0:
266,220,264042,1,0,0:0:0:0:
266,220,264187,1,12,0:0:0:0:
256,192,264332,12,0,265202,0:0:0:0:
256,184,265492,5,8,0:0:0:0:
256,184,265564,1,8,0:0:0:0:
256,184,265636,1,0,0:0:0:0:
256,184,265709,1,0,0:0:0:0:
256,178,265781,1,0,0:0:0:0:
256,184,265926,1,8,0:0:0:0:
256,184,265999,1,8,0:0:0:0:
256,184,266071,1,0,0:0:0:0:
256,184,266144,1,0,0:0:0:0:
256,184,266216,1,8,0:0:0:0:
256,184,266289,1,0,0:0:0:0:
267,194,266361,1,8,0:0:0:0:
256,184,266506,1,8,0:0:0:0:
256,184,266579,1,8,0:0:0:0:
259,188,266651,1,0,0:0:0:0:
259,188,266723,1,0,0:0:0:0:
259,188,266796,1,8,0:0:0:0:
259,188,266868,1,0,0:0:0:0:
259,188,266941,1,8,0:0:0:0:
259,188,267013,1,8,0:0:0:0:
259,188,267086,1,0,0:0:0:0:
259,188,267158,1,0,0:0:0:0:
251,186,267231,1,8,0:0:0:0:
259,193,267303,1,0,0:0:0:0:
268,187,267376,1,0,0:0:0:0:
260,190,267448,1,0,0:0:0:0:
268,187,267521,1,8,0:0:0:0:
260,190,267593,1,8,0:0:0:0:
268,187,267665,1,0,0:0:0:0:
258,180,267738,1,0,0:0:0:0:
258,180,267810,1,8,0:0:0:0:
255,195,267883,1,0,0:0:0:0:
261,197,267955,1,0,0:0:0:0:
246,188,268028,1,0,0:0:0:0:
261,197,268100,1,8,0:0:0:0:
250,186,268173,1,8,0:0:0:0:
251,186,268245,1,0,0:0:0:0:
248,210,268318,1,0,0:0:0:0:
248,210,268390,1,8,0:0:0:0:
256,192,268463,1,8,0:0:0:0:
226,178,268535,1,8,0:0:0:0:
256,192,268607,1,0,0:0:0:0:
251,196,268680,1,8,0:0:0:0:
248,210,268752,1,0,0:0:0:0:
261,207,268825,1,0,0:0:0:0:
254,190,268897,1,0,0:0:0:0:
262,196,268970,1,8,0:0:0:0:
246,188,269042,1,8,0:0:0:0:
263,197,269115,1,0,0:0:0:0:
249,181,269187,1,0,0:0:0:0:
263,197,269260,1,8,0:0:0:0:
260,197,269332,1,0,0:0:0:0:
260,197,269405,1,0,0:0:0:0:
256,192,269477,1,0,0:0:0:0:
253,194,269550,1,8,0:0:0:0:
256,192,269622,1,8,0:0:0:0:
251,201,269694,1,8,0:0:0:0:
253,194,269767,1,0,0:0:0:0:
253,194,269839,1,8,0:0:0:0:
254,190,269912,1,8,0:0:0:0:
253,194,269984,1,0,0:0:0:0:
253,194,270057,1,0,0:0:0:0:
253,194,270129,1,8,0:0:0:0:
249,181,270202,1,8,0:0:0:0:
246,187,270274,1,0,0:0:0:0:
253,192,270347,1,0,0:0:0:0:
246,187,270419,1,8,0:0:0:0:
261,204,270492,1,0,0:0:0:0:
246,188,270564,1,0,0:0:0:0:
246,188,270636,1,0,0:0:0:0:
246,188,270709,1,8,0:0:0:0:
230,182,270781,1,0,0:0:0:0:
253,194,270854,1,8,0:0:0:0:
230,182,270926,1,0,0:0:0:0:
246,189,270999,1,8,0:0:0:0:
253,194,271144,1,12,0:0:0:0:
246,187,271434,1,0,0:0:0:0:
246,191,271506,1,0,0:0:0:0:
246,188,271579,1,8,0:0:0:0:
246,188,271723,1,0,0:0:0:0:
246,191,271868,1,0,0:0:0:0:
246,188,272013,1,8,0:0:0:0:
246,191,272158,1,0,0:0:0:0:
246,187,272303,1,8,0:0:0:0:
246,202,272593,1,8,0:0:0:0:
246,202,272665,1,8,0:0:0:0:
246,202,272738,1,0,0:0:0:0:
246,202,272883,1,8,0:0:0:0:
246,202,273028,1,0,0:0:0:0:
262,188,273173,5,8,0:0:0:0:
251,208,273245,1,8,0:0:0:0:
253,188,273318,1,0,0:0:0:0:
251,208,273390,1,0,0:0:0:0:
253,188,273463,1,8,0:0:0:0:
253,188,273607,1,8,0:0:0:0:
256,198,273752,1,0,0:0:0:0:
250,206,273825,1,0,0:0:0:0:
256,198,273897,1,8,0:0:0:0:
256,198,274042,1,8,0:0:0:0:
240,193,274187,1,0,0:0:0:0:
245,191,274260,1,0,0:0:0:0:
240,193,274332,1,0,0:0:0:0:
240,193,274477,1,8,0:0:0:0:
240,193,274622,1,0,0:0:0:0:
241,188,274912,1,8,0:0:0:0:
249,193,274984,1,8,0:0:0:0:
241,188,275057,1,0,0:0:0:0:
241,188,275202,1,8,0:0:0:0:
241,188,275347,1,0,0:0:0:0:
249,193,275419,1,0,0:0:0:0:
249,193,275492,1,8,0:0:0:0:
249,193,275636,1,0,0:0:0:0:
249,193,275781,1,12,0:0:0:0:
259,206,276071,5,0,0:0:0:0:
259,206,276144,1,0,0:0:0:0:
259,206,276216,1,8,0:0:0:0:
266,216,276289,1,0,0:0:0:0:
259,206,276361,1,0,0:0:0:0:
259,206,276434,1,0,0:0:0:0:
259,206,276506,1,8,0:0:0:0:
266,216,276579,1,8,0:0:0:0:
259,206,276651,1,0,0:0:0:0:
259,206,276723,1,0,0:0:0:0:
254,201,276796,1,8,0:0:0:0:
266,216,276868,1,0,0:0:0:0:
254,202,276941,1,0,0:0:0:0:
254,202,277013,1,0,0:0:0:0:
251,197,277086,1,8,0:0:0:0:
248,201,277158,1,8,0:0:0:0:
259,206,277231,1,0,0:0:0:0:
268,203,277303,1,0,0:0:0:0:
254,210,277376,1,8,0:0:0:0:
259,206,277448,1,8,0:0:0:0:
259,206,277521,1,0,0:0:0:0:
259,206,277593,1,0,0:0:0:0:
262,192,277665,1,8,0:0:0:0:
257,198,277738,1,0,0:0:0:0:
254,201,277810,1,0,0:0:0:0:
263,211,277883,1,0,0:0:0:0:
262,205,277955,1,8,0:0:0:0:
262,205,278100,1,8,0:0:0:0:
269,204,278245,1,0,0:0:0:0:
269,204,278390,1,8,0:0:0:0:
269,204,278535,1,0,0:0:0:0:
253,206,278680,1,8,0:0:0:0:
253,206,278752,1,8,0:0:0:0:
253,206,278825,1,0,0:0:0:0:
253,206,278970,1,8,0:0:0:0:
248,207,279115,1,0,0:0:0:0:
259,203,279187,1,0,0:0:0:0:
259,203,279260,1,8,0:0:0:0:
248,235,279332,1,0,0:0:0:0:
259,203,279405,1,0,0:0:0:0:
253,195,279550,1,8,0:0:0:0:
253,195,279694,1,8,0:0:0:0:
249,228,279767,1,8,0:0:0:0:
253,195,279839,1,0,0:0:0:0:
256,216,279984,1,8,0:0:0:0:
255,200,280129,1,0,0:0:0:0:
259,203,280202,1,0,0:0:0:0:
259,203,280274,1,8,0:0:0:0:
256,208,280419,1,12,0:0:0:0:
286,227,280709,1,8,0:0:0:0:
258,198,280781,1,8,0:0:0:0:
267,201,280854,1,0,0:0:0:0:
281,206,280999,1,8,0:0:0:0:
262,204,281144,1,0,0:0:0:0:
276,198,281289,1,0,0:0:0:0:
276,219,281434,1,8,0:0:0:0:
264,214,281530,1,8,0:0:0:0:
264,214,281627,1,8,0:0:0:0:
272,199,281723,1,0,0:0:0:0:
266,212,281868,1,0,0:0:0:0:
266,212,282013,1,8,0:0:0:0:
268,210,282158,1,8,0:0:0:0:
268,210,282303,1,0,0:0:0:0:
250,222,282448,1,8,0:0:0:0:
276,212,282593,1,0,0:0:0:0:
241,206,282738,1,8,0:0:0:0:
241,206,282810,1,8,0:0:0:0:
264,233,282883,1,0,0:0:0:0:
258,191,282979,1,8,0:0:0:0:
258,191,283076,1,8,0:0:0:0:
264,233,283173,1,0,0:0:0:0:
277,237,283318,1,0,0:0:0:0:
258,191,283463,1,8,0:0:0:0:
258,191,283607,1,0,0:0:0:0:
258,191,283752,1,8,0:0:0:0:
264,192,283897,1,8,0:0:0:0:
261,185,283970,1,8,0:0:0:0:
264,192,284042,1,0,0:0:0:0:
258,191,284187,1,8,0:0:0:0:
258,191,284332,1,0,0:0:0:0:
258,191,284477,1,8,0:0:0:0:
258,191,284550,1,8,0:0:0:0:
264,192,284622,1,0,0:0:0:0:
264,192,284694,1,0,0:0:0:0:
265,201,284767,1,8,0:0:0:0:
252,196,284839,1,0,0:0:0:0:
265,201,284912,1,8,0:0:0:0:
244,144,284984,1,8,0:0:0:0:
244,144,285057,1,8,0:0:0:0:
244,144,285129,1,0,0:0:0:0:
276,215,285202,1,8,0:0:0:0:
256,203,285274,1,8,0:0:0:0:
258,200,285347,1,0,0:0:0:0:
258,199,285419,1,0,0:0:0:0:
273,206,285492,1,8,0:0:0:0:
265,195,285564,1,8,0:0:0:0:
246,197,285636,1,8,0:0:0:0:
269,215,285709,1,0,0:1:0:0:
280,214,285781,1,8,0:1:0:0:
280,214,285854,1,8,0:1:0:0:
280,214,285926,1,0,0:1:0:0:
273,192,285999,1,0,0:0:0:0:
273,192,286071,1,8,0:0:0:0:
263,211,286144,1,0,0:0:0:0:
273,192,286216,1,0,0:0:0:0:
274,219,286289,1,0,0:0:0:0:
266,201,286361,1,8,0:0:0:0:
269,193,286434,1,8,0:0:0:0:
262,190,286506,1,0,0:0:0:0:
261,185,286579,1,0,0:0:0:0:
273,218,286651,1,8,0:0:0:0:
266,201,286723,1,0,0:0:0:0:
273,232,286796,1,0,0:0:0:0:
273,232,286868,1,0,0:0:0:0:
273,232,286941,1,8,0:0:0:0:
273,232,287013,1,8,0:0:0:0:
264,197,287086,1,0,0:0:0:0:
256,192,287158,1,0,0:0:0:0:
264,197,287231,1,8,0:0:0:0:
129,156,287303,1,0,0:0:0:0:
129,156,287376,1,8,0:0:0:0:
253,185,287448,1,0,0:0:0:0:
296,222,287521,1,8,0:1:0:0:
129,156,287593,1,8,0:0:0:0:
129,156,287665,1,0,0:0:0:0:
265,202,287738,1,0,0:0:0:0:
265,202,287810,1,8,0:0:0:0:
129,156,287883,1,8,0:0:0:0:
129,156,287955,1,8,0:0:0:0:
266,186,288028,1,0,0:0:0:0:
265,202,288100,1,8,0:0:0:0:
265,188,288173,1,8,0:0:0:0:
276,203,288245,1,0,0:0:0:0:
272,199,288318,1,0,0:0:0:0:
270,203,288390,1,8,0:0:0:0:
270,194,288463,1,0,0:0:0:0:
263,205,288535,1,0,0:0:0:0:
265,209,288607,1,0,0:0:0:0:
270,189,288680,1,8,0:0:0:0:
268,197,288752,1,8,0:0:0:0:
274,196,288825,1,0,0:0:0:0:
255,192,288897,1,0,0:0:0:0:
280,198,288970,1,8,0:0:0:0:
269,214,289042,1,0,0:0:0:0:
280,198,289115,1,0,0:0:0:0:
265,202,289187,1,0,0:0:0:0:
280,198,289260,1,8,0:0:0:0:
278,205,289332,1,8,0:0:0:0:
278,205,289405,1,0,0:0:0:0:
141,158,289477,1,8,0:0:0:0:
141,158,289550,1,0,0:0:0:0:
129,156,289622,1,0,0:0:0:0:
264,198,289694,1,8,0:0:0:0:
256,192,289767,1,0,0:0:0:0:
274,201,289839,1,8,0:0:0:0:
274,201,289912,1,8,0:0:0:0:
274,201,289984,1,0,0:0:0:0:
274,201,290057,1,0,0:0:0:0:
136,156,290129,1,8,0:0:0:0:
136,156,290202,1,8,0:0:0:0:
136,156,290274,1,8,0:0:0:0:
274,201,290347,1,0,0:0:0:0:
274,201,290419,1,8,0:0:0:0:
270,209,290492,1,8,0:0:0:0:
283,205,290564,1,0,0:0:0:0:
283,205,290636,1,0,0:0:0:0:
283,205,290709,1,8,0:0:0:0:
269,204,290781,1,0,0:0:0:0:
283,205,290854,1,0,0:0:0:0:
270,206,290926,1,0,0:0:0:0:
283,205,290999,1,8,0:0:0:0:
282,206,291071,1,8,0:0:0:0:
271,206,291144,1,0,0:0:0:0:
292,221,291216,1,0,0:0:0:0:
285,227,291289,1,8,0:1:0:0:
295,233,291361,1,0,0:0:0:0:
284,215,291434,1,0,0:0:0:0:
292,239,291506,1,0,0:0:0:0:
264,210,291579,1,8,0:0:0:0:
296,236,291651,1,8,0:0:0:0:
296,236,291723,1,0,0:0:0:0:
141,158,291796,1,0,0:0:0:0:
141,158,291868,1,8,0:0:0:0:
136,156,291941,1,0,0:0:0:0:
141,158,292013,1,8,0:0:0:0:
141,158,292086,1,0,0:0:0:0:
141,158,292158,1,8,0:0:0:0:
296,236,292231,1,8,0:0:0:0:
290,227,292303,1,0,0:0:0:0:
291,226,292376,1,0,0:0:0:0:
291,226,292448,1,8,0:0:0:0:
141,158,292521,1,8,0:0:0:0:
141,158,292593,1,8,0:0:0:0:
271,214,292665,1,0,0:0:0:0:
272,217,292738,1,8,0:1:0:0:
272,217,292810,1,8,0:1:0:0:
272,217,292883,1,0,0:1:0:0:
272,217,292955,1,0,0:1:0:0:
291,226,293028,1,8,0:0:0:0:
276,222,293100,1,0,0:0:0:0:
141,158,293173,1,8,0:0:0:0:
141,158,293245,1,8,0:0:0:0:
141,158,293318,1,0,0:0:0:0:
141,158,293390,1,0,0:0:0:0:
141,158,293463,1,8,0:0:0:0:
141,158,293535,1,8,0:0:0:0:
141,158,293607,1,0,0:0:0:0:
141,158,293680,1,0,0:0:0:0:
285,231,293752,1,0,0:0:0:0:
285,231,293825,1,0,0:0:0:0:
285,231,293897,1,8,0:0:0:0:
276,222,293970,1,8,0:0:0:0:
285,231,294042,1,0,0:0:0:0:
285,231,294115,1,0,0:0:0:0:
285,231,294187,1,8,0:0:0:0:
284,221,294332,1,12,0:0:0:0:
255,196,294477,1,8,0:0:0:0:
263,196,294550,1,8,0:0:0:0:
248,208,294622,1,0,0:0:0:0:
247,195,294694,1,0,0:0:0:0:
247,195,294767,1,8,0:0:0:0:
263,196,294839,1,0,0:0:0:0:
250,204,294912,1,0,0:0:0:0:
256,192,294984,1,0,0:0:0:0:
255,196,295057,1,8,0:0:0:0:
250,204,295129,1,0,0:0:0:0:
260,184,295202,1,8,0:0:0:0:
257,186,295274,1,0,0:0:0:0:
260,184,295347,1,0,0:0:0:0:
256,187,295419,1,0,0:0:0:0:
260,184,295492,1,8,0:0:0:0:
260,184,295564,1,0,0:0:0:0:
256,189,295636,1,8,0:0:0:0:
255,193,295709,1,8,0:0:0:0:
255,194,295781,1,0,0:0:0:0:
256,192,295854,1,0,0:0:0:0:
250,184,295926,1,8,0:0:0:0:
260,180,295999,1,0,0:0:0:0:
249,191,296071,1,8,0:0:0:0:
272,197,296144,1,0,0:0:0:0:
253,206,296216,1,0,0:0:0:0:
252,205,296289,1,0,0:0:0:0:
252,205,296361,1,8,0:0:0:0:
248,189,296434,1,0,0:0:0:0:
248,189,296506,1,8,0:0:0:0:
247,198,296651,1,12,0:0:0:0:
233,199,296796,1,8,0:0:0:0:
256,192,296868,1,0,0:0:0:0:
243,197,296941,1,0,0:0:0:0:
246,196,297013,1,0,0:0:0:0:
237,198,297086,1,8,0:0:0:0:
251,197,297158,1,8,0:0:0:0:
237,198,297231,1,0,0:0:0:0:
237,198,297303,1,0,0:0:0:0:
237,198,297376,1,8,0:0:0:0:
237,198,297448,1,0,0:0:0:0:
237,198,297521,1,8,0:0:0:0:
237,198,297593,1,0,0:0:0:0:
229,215,297665,1,0,0:0:0:0:
240,208,297810,1,12,0:0:0:0:
158,108,297955,1,8,0:0:0:0:
158,108,298028,1,8,0:0:0:0:
241,194,298100,1,0,0:0:0:0:
241,194,298173,1,0,0:0:0:0:
241,194,298245,1,8,0:0:0:0:
158,108,298318,1,0,0:0:0:0:
241,194,298390,1,0,0:0:0:0:
241,194,298463,1,0,0:0:0:0:
241,194,298535,1,8,0:0:0:0:
237,198,298607,1,0,0:0:0:0:
241,194,298680,1,8,0:0:0:0:
158,108,298752,1,8,0:0:0:0:
256,191,298825,1,0,0:0:0:0:
245,196,298970,1,12,0:0:0:0:
169,45,299260,1,8,0:0:0:0:
155,46,299332,1,8,0:0:0:0:
254,193,299405,1,0,0:0:0:0:
153,113,299550,1,8,0:0:0:0:
254,193,299694,1,0,0:0:0:0:
160,55,299767,1,0,0:0:0:0:
155,46,299839,1,8,0:0:0:0:
155,46,299984,1,0,0:0:0:0:
254,193,300129,1,12,0:0:0:0:
158,107,300419,1,8,0:0:0:0:
257,189,300492,1,8,0:0:0:0:
254,193,300564,1,0,0:0:0:0:
153,113,300709,1,8,0:0:0:0:
158,107,300854,1,0,0:0:0:0:
255,181,300999,1,8,0:0:0:0:
262,180,301071,1,8,0:0:0:0:
262,180,301144,1,0,0:0:0:0:
256,186,301289,1,12,0:0:0:0:
253,171,301579,1,8,0:0:0:0:
153,113,301651,1,8,0:0:0:0:
250,171,301723,1,0,0:0:0:0:
255,181,301868,1,8,0:0:0:0:
255,181,302013,1,0,0:0:0:0:
169,45,302086,1,0,0:0:0:0:
252,175,302158,1,8,0:0:0:0:
244,177,302303,1,0,0:0:0:0:
254,174,302448,1,12,0:0:0:0:
253,182,302738,1,0,0:0:0:0:
199,118,302810,1,0,0:0:0:0:
240,175,302883,1,8,0:0:0:0:
240,175,303028,1,8,0:0:0:0:
240,175,303173,1,0,0:0:0:0:
451,380,303318,1,8,0:0:0:0:
237,174,303390,1,8,0:0:0:0:
153,113,303463,1,0,0:0:0:0:
253,182,303607,1,12,0:0:0:0:
240,175,303897,1,0,0:0:0:0:
245,181,304042,1,8,0:0:0:0:
245,181,304187,1,8,0:0:0:0:
267,183,304260,1,0,0:0:0:0:
256,184,304332,1,0,0:0:0:0:
199,118,304477,1,0,0:0:0:0:
255,189,304622,1,8,0:0:0:0:
255,189,304767,1,0,0:0:0:0:
252,189,305057,1,0,0:0:0:0:
245,181,305202,1,8,0:0:0:0:
256,184,305347,1,0,0:0:0:0:
254,183,305492,1,8,0:0:0:0:
199,118,305564,1,0,0:0:0:0:
254,183,305636,1,0,0:0:0:0:
254,183,305781,1,8,0:0:0:0:
254,183,305926,1,8,0:0:0:0:
264,180,306071,1,0,0:0:0:0:
264,180,306144,1,8,0:0:0:0:
264,180,306216,1,8,0:0:0:0:
256,184,306289,1,8,0:0:0:0:
264,180,306361,1,0,0:0:0:0:
264,189,306506,1,0,0:0:0:0:
264,189,306651,1,8,0:0:0:0:
278,191,306844,1,0,0:0:0:0:
267,195,307037,1,0,0:0:0:0:
266,194,307231,1,8,0:0:0:0:
252,196,307521,1,8,0:0:0:0:
252,196,307665,1,8,0:0:0:0:
252,196,307810,1,0,0:0:0:0:
119,140,307883,1,0,0:0:0:0:
252,196,307955,1,8,0:0:0:0:
252,196,308100,1,8,0:0:0:0:
243,184,308245,1,4,0:0:0:0:
243,184,308535,1,0,0:0:0:0:
243,184,308680,1,8,0:0:0:0:
119,140,308825,1,0,0:0:0:0:
227,182,308970,1,8,0:0:0:0:
152,99,309042,1,8,0:0:0:0:
225,182,309115,1,0,0:0:0:0:
225,182,309260,1,8,0:0:0:0:
229,185,309405,1,0,0:0:0:0:
209,180,309694,1,0,0:0:0:0:
209,180,309839,1,8,0:0:0:0:
152,99,309984,1,0,0:0:0:0:
152,99,310129,1,8,0:0:0:0:
214,186,310202,1,0,0:0:0:0:
152,99,310274,1,0,0:0:0:0:
215,189,310419,1,8,0:0:0:0:
215,189,310564,1,0,0:0:0:0:
211,186,310709,1,8,0:0:0:0:
152,99,310854,1,8,0:0:0:0:
211,191,310926,1,8,0:0:0:0:
212,188,310999,1,0,0:0:0:0:
152,99,311144,1,8,0:0:0:0:
223,190,311289,1,0,0:0:0:0:
210,188,311361,1,0,0:0:0:0:
212,188,311434,1,8,0:0:0:0:
152,99,311579,1,0,0:0:0:0:
209,180,311723,1,12,0:0:0:0:
221,189,312013,1,12,0:0:0:0:
266,203,313028,1,8,0:0:0:0:
246,190,315347,1,0,0:0:0:0:
261,198,317665,1,8,0:0:0:0:
263,197,319984,1,8,0:0:0:0:
264,196,322303,1,0,0:0:0:0:
251,213,324622,1,8,0:0:0:0:
261,208,326941,1,0,0:0:0:0:
270,197,328100,1,8,0:0:0:0:
270,197,329260,1,8,0:0:0:0:
259,195,330274,1,0,0:0:0:0:
259,195,330347,1,0,0:0:0:0:
259,195,330419,1,12,0:0:0:0:
263,188,330636,1,12,0:0:0:0:
263,188,330854,1,12,0:0:0:0:
252,197,330999,1,0,0:0:0:0:
252,197,331289,1,0,0:0:0:0:
224,192,331579,1,12,0:0:0:0:
230,199,331723,1,0,0:0:0:0:
230,199,331796,1,0,0:0:0:0:
230,199,331868,1,8,0:0:0:0:
230,199,332013,1,8,0:0:0:0:
241,209,332086,1,8,0:0:0:0:
234,201,332158,1,0,0:0:0:0:
224,192,332231,1,0,0:0:0:0:
241,209,332303,1,8,0:0:0:0:
241,209,332448,1,0,0:0:0:0:
241,204,332593,1,8,0:0:0:0:
245,202,332665,1,8,0:0:0:0:
245,202,332738,1,0,0:0:0:0:
236,209,332883,1,8,0:0:0:0:
236,209,333028,1,0,0:0:0:0:
245,202,333100,1,0,0:0:0:0:
228,218,333173,1,8,0:0:0:0:
245,233,333245,1,0,0:0:0:0:
245,202,333318,1,8,0:0:0:0:
234,210,333463,1,0,0:0:0:0:
235,217,333607,1,8,0:0:0:0:
235,217,333752,1,0,0:0:0:0:
249,217,333897,1,8,0:0:0:0:
249,217,333970,1,8,0:0:0:0:
249,217,334042,1,0,0:0:0:0:
249,217,334115,1,0,0:0:0:0:
249,217,334187,1,8,0:0:0:0:
249,217,334332,1,8,0:0:0:0:
249,217,334405,1,8,0:0:0:0:
249,217,334477,1,0,0:0:0:0:
257,214,334622,1,8,0:0:0:0:
257,214,334767,1,0,0:0:0:0:
257,214,334912,1,8,0:0:0:0:
259,222,334984,1,0,0:1:0:0:
258,221,335057,1,8,0:1:0:0:
259,212,335129,1,8,0:0:0:0:
261,214,335202,1,0,0:0:0:0:
260,221,335347,1,8,0:0:0:0:
264,218,335492,1,0,0:0:0:0:
267,204,335636,1,8,0:0:0:0:
267,204,335709,1,0,0:0:0:0:
267,204,335781,1,0,0:0:0:0:
267,204,335854,1,0,0:0:0:0:
267,204,335926,1,8,0:0:0:0:
272,211,336071,1,0,0:0:0:0:
264,206,336216,1,8,0:0:0:0:
264,206,336361,1,0,0:0:0:0:
264,206,336434,1,0,0:0:0:0:
264,206,336506,1,8,0:0:0:0:
267,204,336579,1,0,0:0:0:0:
267,204,336651,1,8,0:0:0:0:
267,204,336796,1,0,0:0:0:0:
267,204,336941,1,8,0:0:0:0:
266,201,337013,1,8,0:0:0:0:
266,201,337086,1,0,0:0:0:0:
266,201,337158,1,0,0:0:0:0:
266,201,337231,1,8,0:0:0:0:
266,201,337303,1,0,0:0:0:0:
270,199,337376,1,8,0:0:0:0:
264,206,337521,1,0,0:0:0:0:
260,208,337665,1,8,0:0:0:0:
260,208,337738,1,0,0:0:0:0:
260,208,337810,1,0,0:0:0:0:
256,224,337883,1,0,0:0:0:0:
260,208,337955,1,8,0:0:0:0:
260,208,338100,1,0,0:0:0:0:
257,204,338245,1,8,0:0:0:0:
257,204,338390,1,8,0:0:0:0:
255,207,338535,1,0,0:0:0:0:
260,208,338607,1,0,0:0:0:0:
260,208,338680,1,0,0:0:0:0:
263,216,338825,1,8,0:0:0:0:
257,203,338970,1,0,0:0:0:0:
257,203,339042,1,0,0:0:0:0:
257,203,339115,1,8,0:0:0:0:
257,204,339260,1,0,0:0:0:0:
254,197,339405,1,0,0:0:0:0:
273,199,339477,1,0,0:0:0:0:
254,197,339550,1,8,0:0:0:0:
254,197,339622,1,0,0:0:0:0:
273,199,339694,1,8,0:0:0:0:
255,197,339839,1,0,0:0:0:0:
255,197,339984,1,8,0:0:0:0:
256,186,340129,1,8,0:0:0:0:
262,195,340202,1,0,0:0:0:0:
256,188,340274,1,8,0:0:0:0:
256,188,340347,1,8,0:0:0:0:
256,188,340419,1,0,0:0:0:0:
256,192,340492,1,0,0:0:0:0:
256,188,340564,1,8,0:0:0:0:
256,188,340709,1,0,0:0:0:0:
258,191,340854,1,8,0:0:0:0:
270,182,340999,1,0,0:0:0:0:
265,183,341071,1,0,0:0:0:0:
265,183,341144,1,8,0:0:0:0:
261,180,341289,1,8,0:0:0:0:
266,191,341361,1,8,0:0:0:0:
261,181,341434,1,0,0:0:0:0:
260,186,341506,1,0,0:0:0:0:
256,188,341579,1,8,0:0:0:0:
266,191,341651,1,0,0:0:0:0:
262,196,341723,1,0,0:0:0:0:
248,183,341868,1,0,0:1:0:0:
253,183,342013,1,8,0:1:0:0:
256,203,342086,1,8,0:0:0:0:
268,193,342158,1,0,0:0:0:0:
268,193,342303,1,8,0:0:0:0:
271,199,342448,1,0,0:0:0:0:
256,190,342521,1,0,0:0:0:0:
270,199,342593,1,8,0:0:0:0:
270,199,342738,1,0,0:0:0:0:
271,192,342883,1,8,0:0:0:0:
268,193,342955,1,0,0:0:0:0:
268,193,343028,1,0,0:0:0:0:
268,193,343173,1,8,0:0:0:0:
265,200,343318,1,0,0:0:0:0:
265,199,343390,1,0,0:0:0:0:
265,199,343463,1,8,0:0:0:0:
270,199,343607,1,8,0:0:0:0:
270,199,343680,1,0,0:0:0:0:
270,199,343752,1,0,0:0:0:0:
266,198,343825,1,0,0:0:0:0:
271,192,343897,1,8,0:0:0:0:
257,193,343970,1,8,0:0:0:0:
262,191,344042,1,0,0:0:0:0:
255,192,344187,1,0,0:0:0:0:
264,195,344332,1,8,0:0:0:0:
263,192,344405,1,8,0:0:0:0:
262,191,344477,1,8,0:0:0:0:
262,191,344622,1,0,0:0:0:0:
248,183,344767,1,0,0:0:0:0:
248,183,344912,1,8,0:0:0:0:
248,183,344984,1,0,0:0:0:0:
248,183,345057,1,0,0:0:0:0:
248,183,345129,1,0,0:0:0:0:
248,183,345202,1,8,0:0:0:0:
256,194,345347,1,0,0:0:0:0:
256,194,345492,1,8,0:0:0:0:
251,183,345636,1,0,0:0:0:0:
250,196,345709,1,0,0:0:0:0:
259,187,345781,1,8,0:0:0:0:
259,187,345926,1,8,0:0:0:0:
259,187,346071,1,0,0:0:0:0:
248,183,346144,1,0,0:0:0:0:
254,187,346216,1,0,0:0:0:0:
254,187,346361,1,8,0:0:0:0:
254,187,346506,1,0,0:0:0:0:
255,178,346651,1,8,0:0:0:0:
255,178,346723,1,8,0:0:0:0:
256,179,346796,1,0,0:0:0:0:
249,198,346868,1,8,0:0:0:0:
251,191,346941,1,0,0:0:0:0:
251,196,347086,1,8,0:0:0:0:
254,187,347231,1,0,0:0:0:0:
254,187,347376,1,8,0:0:0:0:
249,182,347448,1,0,0:0:0:0:
249,182,347521,1,8,0:0:0:0:
444,383,347593,1,8,0:1:0:0:
249,182,347665,1,0,0:0:0:0:
252,188,347810,1,8,0:0:0:0:
252,188,347955,1,0,0:0:0:0:
260,169,348028,1,0,0:0:0:0:
252,188,348100,1,0,0:0:0:0:
252,188,348245,1,8,0:0:0:0:
244,172,348390,1,0,0:0:0:0:
244,172,348535,1,8,0:0:0:0:
244,172,348680,1,0,0:0:0:0:
252,188,348752,1,0,0:0:0:0:
141,240,348825,1,8,0:0:0:0:
141,240,348897,1,0,0:0:0:0:
141,240,348970,1,8,0:0:0:0:
246,186,349115,1,8,0:0:0:0:
235,196,349260,1,0,0:0:0:0:
235,196,349332,1,0,0:0:0:0:
141,240,349405,1,8,0:0:0:0:
186,183,349550,1,0,0:0:0:0:
219,193,349694,1,8,0:0:0:0:
248,179,349839,1,8,0:0:0:0:
186,183,349984,1,0,0:0:0:0:
230,199,350129,1,8,0:0:0:0:
230,199,350274,1,0,0:0:0:0:
230,199,350347,1,0,0:0:0:0:
230,199,350419,1,8,0:0:0:0:
230,199,350564,1,8,0:0:0:0:
241,209,350636,1,8,0:0:0:0:
234,201,350709,1,0,0:0:0:0:
224,192,350781,1,0,0:0:0:0:
241,209,350854,1,8,0:0:0:0:
241,209,350999,1,0,0:0:0:0:
241,204,351144,1,8,0:0:0:0:
226,209,351216,1,0,0:0:0:0:
241,204,351289,1,0,0:0:0:0:
236,209,351434,1,8,0:0:0:0:
236,209,351579,1,0,0:0:0:0:
231,213,351723,1,0,0:0:0:0:
250,222,351796,1,0,0:0:0:0:
235,217,351868,1,0,0:0:0:0:
234,210,352013,1,0,0:0:0:0:
235,217,352158,1,8,0:0:0:0:
235,217,352303,1,0,0:0:0:0:
249,217,352448,1,8,0:0:0:0:
249,217,352521,1,8,0:0:0:0:
249,217,352593,1,0,0:0:0:0:
249,217,352665,1,0,0:0:0:0:
249,217,352738,1,8,0:0:0:0:
249,217,352883,1,8,0:0:0:0:
249,217,352955,1,8,0:0:0:0:
249,217,353028,1,0,0:0:0:0:
257,214,353173,1,8,0:0:0:0:
257,214,353318,1,0,0:0:0:0:
257,214,353463,1,8,0:0:0:0:
257,214,353535,1,8,0:0:0:0:
269,205,353607,1,8,0:0:0:0:
261,214,353752,1,0,0:0:0:0:
260,221,353897,1,8,0:0:0:0:
264,218,354042,1,0,0:0:0:0:
267,204,354187,1,8,0:0:0:0:
267,204,354260,1,0,0:0:0:0:
267,204,354332,1,0,0:0:0:0:
267,204,354405,1,0,0:0:0:0:
267,204,354477,1,8,0:0:0:0:
272,211,354622,1,0,0:0:0:0:
264,206,354767,1,8,0:0:0:0:
264,206,354912,1,0,0:0:0:0:
264,203,354984,1,0,0:1:0:0:
264,206,355057,1,8,0:0:0:0:
258,196,355202,1,0,0:1:0:0:
267,204,355347,1,8,0:1:0:0:
257,213,355419,1,8,0:0:0:0:
267,204,355492,1,8,0:0:0:0:
266,201,355564,1,8,0:0:0:0:
266,201,355636,1,0,0:0:0:0:
266,201,355709,1,0,0:0:0:0:
250,205,355781,1,8,0:1:0:0:
266,201,355854,1,0,0:0:0:0:
270,199,355926,1,8,0:0:0:0:
264,206,356071,1,0,0:0:0:0:
260,208,356216,1,8,0:0:0:0:
260,208,356289,1,0,0:0:0:0:
260,208,356361,1,0,0:0:0:0:
256,224,356434,1,0,0:0:0:0:
260,208,356506,1,8,0:0:0:0:
260,208,356651,1,0,0:0:0:0:
257,204,356796,1,8,0:0:0:0:
260,208,356868,1,8,0:1:0:0:
257,213,356941,1,0,0:1:0:0:
256,208,357086,1,8,0:1:0:0:
260,208,357158,1,0,0:0:0:0:
260,208,357231,1,0,0:0:0:0:
263,216,357376,1,8,0:0:0:0:
257,203,357521,1,0,0:0:0:0:
257,203,357593,1,0,0:0:0:0:
257,203,357665,1,8,0:0:0:0:
258,206,357738,1,8,0:0:0:0:
257,204,357810,1,0,0:0:0:0:
254,197,357955,1,0,0:0:0:0:
254,197,358100,1,8,0:0:0:0:
254,197,358245,1,0,0:0:0:0:
255,197,358390,1,0,0:0:0:0:
246,199,358463,1,0,0:1:0:0:
255,197,358535,1,8,0:0:0:0:
256,186,358680,1,8,0:0:0:0:
262,195,358752,1,0,0:0:0:0:
256,188,358825,1,8,0:0:0:0:
256,188,358897,1,8,0:0:0:0:
256,188,358970,1,0,0:0:0:0:
256,192,359042,1,0,0:0:0:0:
256,188,359115,1,8,0:0:0:0:
256,188,359260,1,0,0:0:0:0:
256,188,359405,1,12,0:0:0:0:
251,205,359550,1,0,0:1:0:0:
249,191,359622,1,0,0:1:0:0:
246,187,359694,1,8,0:1:0:0:
268,192,359839,1,8,0:1:0:0:
268,192,359984,1,0,0:1:0:0:
268,192,360129,1,8,0:1:0:0:
258,210,360202,1,8,0:1:0:0:
262,196,360274,1,0,0:0:0:0:
262,196,360419,1,8,0:0:0:0:
268,193,360564,1,0,0:0:0:0:
268,193,360709,1,0,0:0:0:0:
268,193,360854,1,8,0:0:0:0:
275,185,360926,1,8,0:0:0:0:
271,199,360999,1,0,0:0:0:0:
270,199,361144,1,8,0:0:0:0:
270,199,361289,1,0,0:0:0:0:
270,199,361361,1,0,0:0:0:0:
271,192,361434,1,8,0:0:0:0:
268,193,361506,1,0,0:0:0:0:
268,193,361579,1,0,0:0:0:0:
268,193,361723,1,8,0:0:0:0:
265,200,361868,1,0,0:0:0:0:
265,199,361941,1,0,0:0:0:0:
265,199,362013,1,8,0:0:0:0:
270,199,362086,1,0,0:0:0:0:
270,199,362158,1,8,0:0:0:0:
270,199,362231,1,8,0:0:0:0:
270,199,362303,1,0,0:0:0:0:
271,192,362448,1,8,0:0:0:0:
257,193,362521,1,8,0:0:0:0:
262,191,362593,1,0,0:0:0:0:
263,208,362738,1,8,0:1:0:0:
263,208,362883,1,0,0:1:0:0:
262,191,363028,1,8,0:0:0:0:
258,193,363100,1,0,0:1:0:0:
262,191,363173,1,0,0:0:0:0:
248,183,363318,1,0,0:0:0:0:
248,183,363463,1,8,0:0:0:0:
248,183,363535,1,0,0:0:0:0:
248,183,363607,1,0,0:0:0:0:
248,183,363680,1,0,0:0:0:0:
248,183,363752,1,8,0:0:0:0:
256,194,363897,1,0,0:0:0:0:
256,194,364042,1,8,0:0:0:0:
251,183,364187,1,0,0:0:0:0:
259,187,364260,1,0,0:0:0:0:
259,187,364332,1,8,0:0:0:0:
259,187,364477,1,8,0:0:0:0:
259,187,364622,1,0,0:0:0:0:
254,187,364767,1,0,0:0:0:0:
254,187,364912,1,8,0:0:0:0:
254,187,364984,1,0,0:0:0:0:
263,200,365057,1,0,0:1:0:0:
263,200,365129,1,0,0:1:0:0:
254,187,365202,1,8,0:0:0:0:
259,187,365347,1,0,0:0:0:0:
264,193,365492,1,0,0:1:0:0:
266,186,365636,1,8,0:1:0:0:
249,182,365781,1,8,0:0:0:0:
249,182,365926,1,0,0:0:0:0:
249,182,365999,1,0,0:0:0:0:
249,182,366071,1,8,0:0:0:0:
249,182,366216,1,0,0:0:0:0:
252,188,366361,1,8,0:0:0:0:
252,175,366506,1,0,0:0:0:0:
238,168,366651,1,8,0:0:0:0:
238,168,366796,1,0,0:0:0:0:
238,168,366868,1,0,0:0:0:0:
238,168,366941,1,8,0:0:0:0:
238,168,367086,1,8,0:0:0:0:
238,168,367231,1,8,0:0:0:0:
238,168,367376,1,0,0:0:0:0:
244,157,367521,1,8,0:0:0:0:
245,166,367593,1,0,0:0:0:0:
245,166,367665,1,8,0:0:0:0:
245,166,367738,1,8,0:0:0:0:
245,166,367810,1,0,0:0:0:0:
245,166,367883,1,0,0:0:0:0:
245,166,367955,1,8,0:0:0:0:
245,166,368028,1,8,0:0:0:0:
245,166,368100,1,0,0:0:0:0:
245,166,368173,1,8,0:0:0:0:
245,166,368245,1,0,0:0:0:0:
245,166,368318,1,0,0:0:0:0:
245,166,368390,1,8,0:0:0:0:
245,166,368463,1,8,0:0:0:0:
245,166,368535,1,0,0:0:0:0:
245,166,368680,1,0,0:0:0:0:
245,166,368825,1,0,0:0:0:0:
245,166,368970,1,8,0:0:0:0:
245,166,369115,1,0,0:0:0:0:
250,176,369405,1,0,0:0:0:0:
250,176,369550,1,8,0:0:0:0:
243,181,369839,1,0,0:0:0:0:
243,181,369984,1,0,0:0:0:0:
243,181,370129,1,8,0:0:0:0:
243,181,370274,1,0,0:0:0:0:
243,181,370564,1,0,0:0:0:0:
243,181,370709,1,8,0:0:0:0:
245,169,370999,1,0,0:0:0:0:
245,169,371289,1,8,0:0:0:0:
254,169,371434,1,0,0:0:0:0:
254,169,371579,1,0,0:0:0:0:
254,169,371723,1,0,0:0:0:0:
254,169,371868,1,8,0:0:0:0:
266,174,372013,1,0,0:0:0:0:
267,174,372086,1,0,0:0:0:0:
266,174,372158,1,8,0:0:0:0:
266,174,372231,1,8,0:0:0:0:
266,174,372303,1,0,0:0:0:0:
266,174,372376,1,0,0:0:0:0:
266,174,372448,1,8,0:0:0:0:
266,174,372521,1,0,0:0:0:0:
266,174,372593,1,8,0:0:0:0:
266,174,372665,1,8,0:0:0:0:
266,174,372738,1,0,0:0:0:0:
266,174,372810,1,0,0:0:0:0:
266,174,372883,1,8,0:0:0:0:
266,174,372955,1,0,0:0:0:0:
266,174,373028,1,8,0:0:0:0:
267,174,373100,1,8,0:0:0:0:
266,174,373173,1,0,0:0:0:0:
266,174,373245,1,0,0:0:0:0:
274,178,373318,1,8,0:0:0:0:
256,175,373463,1,8,0:0:0:0:
266,189,373752,1,0,0:0:0:0:
258,181,373825,1,0,0:0:0:0:
258,181,373897,1,8,0:0:0:0:
258,181,374042,1,8,0:0:0:0:
266,189,374332,1,0,0:0:0:0:
266,189,374405,1,0,0:0:0:0:
266,189,374477,1,8,0:0:0:0:
261,196,374622,1,8,0:0:0:0:
261,196,374912,1,0,0:0:0:0:
261,196,374984,1,0,0:0:0:0:
261,196,375057,1,8,0:0:0:0:
261,196,375202,1,0,0:0:0:0:
266,196,375347,1,8,0:0:0:0:
266,196,375636,1,4,0:0:0:0:
266,196,375926,1,4,0:0:0:0:
252,195,376216,1,4,0:0:0:0:
254,197,376361,1,4,0:0:0:0:
255,197,376506,1,4,0:0:0:0:
255,197,376651,1,4,0:0:0:0:
244,189,377810,1,4,0:0:0:0:
230,181,378100,1,0,0:0:0:0:
230,181,378245,1,8,0:0:0:0:
215,182,378318,1,0,0:0:0:0:
233,185,378390,1,0,0:0:0:0:
230,181,378535,1,8,0:0:0:0:
230,181,378680,1,0,0:0:0:0:
251,208,378825,1,0,0:0:0:0:
220,185,378970,1,8,0:0:0:0:
221,185,379260,1,0,0:0:0:0:
221,185,379405,1,8,0:0:0:0:
209,187,379550,1,8,0:0:0:0:
206,185,379622,1,0,0:0:0:0:
209,187,379694,1,0,0:0:0:0:
221,185,379839,1,8,0:0:0:0:
220,185,379984,1,8,0:0:0:0:
221,185,380129,1,0,0:0:0:0:
216,186,380419,1,0,0:0:0:0:
216,186,380564,1,8,0:0:0:0:
222,186,380636,1,8,0:0:0:0:
217,179,380709,1,0,0:0:0:0:
211,196,380854,1,8,0:0:0:0:
205,183,380999,1,0,0:0:0:0:
217,179,381144,1,0,0:0:0:0:
217,176,381289,1,8,0:0:0:0:
216,176,381579,1,0,0:0:0:0:
221,181,381723,1,8,0:0:0:0:
222,198,381868,1,0,0:0:0:0:
217,179,381941,1,0,0:0:0:0:
217,179,382013,1,8,0:0:0:0:
234,182,382158,1,0,0:0:0:0:
233,182,382303,1,8,0:0:0:0:
252,196,382448,1,8,0:0:0:0:
258,188,382738,5,0,0:0:0:0:
258,188,382883,1,8,0:0:0:0:
253,194,382955,1,8,0:0:0:0:
258,201,383028,1,8,0:0:0:0:
258,188,383173,1,0,0:0:0:0:
258,188,383318,1,0,0:0:0:0:
258,188,383463,1,8,0:0:0:0:
258,188,383607,1,0,0:0:0:0:
262,185,383897,1,0,0:0:0:0:
262,185,384042,1,8,0:0:0:0:
259,193,384187,1,8,0:0:0:0:
262,185,384260,1,8,0:0:0:0:
262,185,384332,1,0,0:0:0:0:
262,185,384477,1,0,0:0:0:0:
262,185,384622,1,8,0:0:0:0:
262,185,384767,1,0,0:0:0:0:
265,192,384839,1,0,0:0:0:0:
261,203,384912,1,0,0:0:0:0:
262,185,385057,1,0,0:0:0:0:
262,185,385202,1,8,0:0:0:0:
262,185,385347,1,0,0:0:0:0:
262,185,385419,1,0,0:0:0:0:
262,185,385492,1,8,0:0:0:0:
262,185,385636,1,0,0:0:0:0:
262,185,385781,1,8,0:0:0:0:
270,186,385926,1,8,0:0:0:0:
269,186,385999,1,8,0:0:0:0:
269,186,386071,1,0,0:0:0:0:
269,186,386144,1,0,0:0:0:0:
269,186,386216,1,8,0:0:0:0:
269,186,386289,1,0,0:0:0:0:
269,186,386361,1,8,0:0:0:0:
269,186,386434,1,8,0:0:0:0:
274,195,386506,1,0,0:0:0:0:
274,195,386579,1,0,0:0:0:0:
274,195,386651,1,8,0:0:0:0:
274,195,386723,1,0,0:0:0:0:
274,195,386796,1,8,0:0:0:0:
274,195,386868,1,8,0:0:0:0:
274,195,386941,1,0,0:0:0:0:
279,210,387013,1,0,0:0:0:0:
279,210,387086,1,8,0:0:0:0:
270,207,387376,1,0,0:0:0:0:
270,207,387448,1,0,0:0:0:0:
270,207,387521,1,8,0:0:0:0:
273,211,387665,1,0,0:0:0:0:
273,211,387738,1,0,0:0:0:0:
273,211,387810,1,8,0:0:0:0:
273,211,387955,1,0,0:0:0:0:
273,211,388100,1,8,0:0:0:0:
270,207,388245,1,0,0:0:0:0:
270,207,388390,1,8,0:0:0:0:
270,207,388535,1,0,0:0:0:0:
273,211,388607,1,0,0:0:0:0:
273,211,388680,1,8,0:0:0:0:
273,211,388825,1,0,0:0:0:0:
273,211,388970,1,8,0:0:0:0:
273,211,389115,1,0,0:0:0:0:
270,207,389260,1,8,0:0:0:0:
274,217,389405,1,12,0:0:0:0:
256,202,389694,1,0,0:0:0:0:
257,205,389839,1,8,0:0:0:0:
267,206,389984,1,0,0:0:0:0:
267,206,390057,1,0,0:0:0:0:
267,206,390129,1,8,0:0:0:0:
270,207,390274,1,0,0:0:0:0:
270,207,390419,1,8,0:0:0:0:
263,224,390564,1,0,0:0:0:0:
263,223,390709,1,0,0:0:0:0:
263,223,390854,1,0,0:0:0:0:
267,206,390999,1,8,0:0:0:0:
264,219,391144,1,0,0:0:0:0:
264,219,391216,1,0,0:0:0:0:
264,219,391289,1,8,0:0:0:0:
264,219,391434,1,0,0:0:0:0:
263,224,391579,1,8,0:0:0:0:
271,229,391723,1,4,0:0:0:0:
245,226,392013,1,0,0:0:0:0:
245,226,392086,1,0,0:0:0:0:
245,226,392158,1,8,0:0:0:0:
245,226,392303,1,0,0:0:0:0:
245,226,392448,1,8,0:0:0:0:
252,225,392738,1,8,0:0:0:0:
252,225,392883,1,0,0:0:0:0:
244,213,393028,1,8,0:0:0:0:
244,213,393173,1,0,0:0:0:0:
244,213,393318,1,8,0:0:0:0:
244,213,393463,1,0,0:0:0:0:
244,213,393535,1,0,0:0:0:0:
252,225,393607,1,8,0:0:0:0:
252,225,393752,1,0,0:0:0:0:
252,225,393897,1,8,0:0:0:0:
259,227,394042,1,12,0:0:0:0:
242,225,394332,1,0,0:0:0:0:
242,225,394405,1,0,0:0:0:0:
242,225,394477,1,8,0:0:0:0:
225,214,394622,1,0,0:0:0:0:
225,214,394694,1,0,0:0:0:0:
225,214,394767,1,8,0:0:0:0:
224,214,394912,1,0,0:0:0:0:
224,214,395057,1,8,0:0:0:0:
256,191,395202,1,0,0:0:0:0:
256,191,395347,1,8,0:0:0:0:
256,191,395419,1,8,0:0:0:0:
256,191,395492,1,0,0:0:0:0:
256,191,395564,1,0,0:0:0:0:
256,191,395636,1,8,0:0:0:0:
256,191,395709,1,0,0:0:0:0:
256,191,395781,1,8,0:0:0:0:
256,191,395854,1,8,0:0:0:0:
256,191,395926,1,0,0:0:0:0:
256,191,396071,1,0,0:0:0:0:
256,191,396144,1,0,0:0:0:0:
256,191,396216,1,8,0:0:0:0:
256,191,396361,1,0,0:0:0:0:
256,191,396506,1,12,0:0:0:0:
