osu file format v14

[General]
AudioFilename: audio.mp3
AudioLeadIn: 0
PreviewTime: 17571
Countdown: 1
SampleSet: Normal
StackLeniency: 0.7
Mode: 0
LetterboxInBreaks: 0
WidescreenStoryboard: 0

[Editor]
Bookmarks: 17716,18875,55977,60614,65107,74527
DistanceSpacing: 1.5
BeatDivisor: 4
GridSize: 16
TimelineZoom: 1.2

[Metadata]
Title:AugOEidEs (TV Size)
TitleUnicode:∧ugΦEidEs (TV Size)
Artist:DystopiaGround
ArtistUnicode:DystopiaGround
Creator:- raspy
Version:meme
Source:
Tags:
BeatmapID:1881556
BeatmapSetID:901047

[Difficulty]
HPDrainRate:5
CircleSize:4
OverallDifficulty:8.3
ApproachRate:9.3
SliderMultiplier:1.9
SliderTickRate:1

[Events]
//Background and Video events
//Break Periods
//Storyboard Layer 0 (Background)
//Storyboard Layer 1 (Fail)
//Storyboard Layer 2 (Pass)
//Storyboard Layer 3 (Foreground)
//Storyboard Layer 4 (Overlay)
//Storyboard Sound Samples

[TimingPoints]
325,289.855072463768,4,1,0,100,1,0
325,-166.666666666667,4,2,0,65,0,0
17571,-166.666666666667,4,1,0,80,0,0
18296,-200,4,1,0,80,0,0
18875,-83.3333333333333,4,1,0,80,0,1
18893,-83.3333333333333,4,1,0,80,0,0
37426,-83.3333333333333,4,1,0,80,0,1
37444,-83.3333333333333,4,1,0,80,0,0
53658,-100,4,1,0,80,0,0
55977,-83.3333333333333,4,1,0,80,0,0
65107,-83.3333333333333,4,1,0,80,0,1
74527,-83.3333333333333,4,1,0,80,0,0

[HitObjects]
124,74,325,6,0,P|174:51|228:69,1,113.999996520996
274,127,759,2,0,P|324:150|378:132,1,113.999996520996
423,10,1339,2,0,B|391:98|488:73|432:193,1,170.999994781494
393,284,2064,5,0,0:0:0:0:
377,132,2353,1,0,0:0:0:0:
264,254,2643,6,0,P|217:222|162:231,1,113.999996520996
90,284,3078,2,0,P|72:231|95:180,1,113.999996520996
186,97,3658,2,0,B|222:122|222:122|352:119,1,170.999994781494
427,114,4382,5,0,0:0:0:0:
290,49,4672,1,0,0:0:0:0:
291,202,4962,6,0,L|181:237,1,113.999996520996,2|0,0:0|0:0,0:0:0:0:
26,123,5397,2,0,P|80:135|117:177,1,113.999996520996
191,332,5977,2,0,P|271:340|357:274,1,170.999994781494
379,145,6701,1,0,0:0:0:0:
344,293,6991,1,0,0:0:0:0:
379,145,7281,6,0,P|336:181|266:173,1,113.999996520996,2|0,0:0|0:0,0:0:0:0:
217,127,7716,2,0,P|133:107|210:191,1,284.999991302491,2|0,0:0|0:0,0:0:0:0:
317,204,9020,5,0,0:0:0:0:
210,208,9310,1,0,0:0:0:0:
264,263,9600,6,0,P|214:286|160:268,1,113.999996520996,2|0,0:0|0:0,0:0:0:0:
155,152,10034,2,0,P|205:129|259:147,1,113.999996520996
369,274,10614,2,0,P|424:289|392:215,1,170.999994781494
264,263,11339,1,0,0:0:0:0:
349,137,11629,1,0,0:0:0:0:
317,370,11919,6,0,P|361:336|371:282,1,113.999996520996,2|0,0:0|0:0,0:0:0:0:
261,158,12353,2,0,P|242:211|263:262,1,113.999996520996
503,233,12933,2,0,B|467:208|467:208|337:211,1,170.999994781494
191,217,13658,5,0,0:0:0:0:
162,217,13948,1,0,0:0:0:0:
133,217,14238,2,0,B|48:216|37:77|158:71|187:132|187:132|227:172|291:132,1,341.999989562989,2|0,0:0|0:0,0:0:0:0:
354,51,15397,6,0,B|335:83|335:83|364:123|351:169,1,113.999996520996,2|0,0:0|0:0,0:0:0:0:
316,260,15977,2,0,B|285:251|273:223|273:223|254:248|221:253,1,113.999996520996,2|0,0:0|0:0,0:0:0:0:
131,288,16556,2,0,P|80:236|94:195,1,113.999996520996,6|0,0:0|0:0,0:0:0:0:
124,168,16991,2,0,B|182:207|223:121|309:171,1,170.999994781494
141,57,17571,5,2,0:0:0:0:
141,57,17643,1,2,0:0:0:0:
141,57,17716,1,4,0:0:0:0:
365,96,17909,5,4,0:0:0:0:
220,271,18102,5,4,0:0:0:0:
231,286,18296,2,0,P|269:289|286:292,1,47.5
358,341,18585,2,0,P|396:338|413:335,1,47.5
469,126,18875,6,0,P|399:93|328:112,1,113.999996520996,4|0,0:0|0:0,0:0:0:0:
482,208,19165,1,0,0:0:0:0:
374,1,19310,2,0,P|301:27|264:90,1,113.999996520996
247,217,19600,2,0,P|334:203|385:254,1,113.999996520996
221,304,19890,2,0,P|158:241|212:123,1,227.999993041992
302,136,20324,5,0,0:0:0:0:
301,282,20469,1,0,0:0:0:0:
262,61,20614,5,0,0:0:0:0:
307,298,20759,1,0,0:0:0:0:
346,63,20904,5,0,0:0:0:0:
290,295,21049,1,0,0:0:0:0:
117,130,21194,6,0,B|151:156|193:99|241:142,1,113.999996520996,4|0,0:0|0:0,0:0:0:0:
221,304,21484,1,0,0:0:0:0:
61,207,21629,2,0,P|130:234|182:226,1,113.999996520996
300,50,21919,2,0,P|242:96|223:145,1,113.999996520996
273,359,22209,2,0,P|337:379|273:310,1,227.999993041992
147,320,22643,5,0,0:0:0:0:
294,289,22788,1,0,0:0:0:0:
90,269,22933,5,0,0:0:0:0:
323,223,23078,1,0,0:0:0:0:
75,344,23223,5,0,0:0:0:0:
352,157,23368,1,0,0:0:0:0:
18,293,23513,6,0,P|67:268|138:302,1,113.999996520996,4|0,0:0|0:0,0:0:0:0:
227,362,23803,1,0,0:0:0:0:
400,228,23948,2,0,P|351:203|280:237,1,113.999996520996
157,316,24238,2,0,P|132:267|166:196,1,113.999996520996
341,287,24527,2,0,P|429:310|478:191,1,227.999993041992
400,228,24962,5,0,0:0:0:0:
252,304,25107,1,0,0:0:0:0:
271,145,25252,5,0,0:0:0:0:
410,235,25397,1,0,0:0:0:0:
242,309,25542,5,0,0:0:0:0:
273,133,25687,1,0,0:0:0:0:
361,345,25832,6,0,B|330:277|330:277|282:243,1,113.999996520996,4|0,0:0|0:0,0:0:0:0:
386,139,26122,1,0,0:0:0:0:
167,313,26267,2,0,P|72:227|198:248,1,341.999989562989,4|0,0:0|0:0,0:0:0:0:
198,248,26846,1,0,0:0:0:0:
217,123,26991,5,0,0:0:0:0:
241,313,27136,1,0,0:0:0:0:
304,22,27281,5,0,0:0:0:0:
276,248,27426,1,0,0:0:0:0:
365,150,27571,5,0,0:0:0:0:
355,341,27716,1,0,0:0:0:0:
468,65,27861,5,0,0:0:0:0:
401,283,28006,1,0,0:0:0:0:
280,161,28151,6,0,P|216:140|150:170,1,113.999996520996,4|0,0:0|0:0,0:0:0:0:
328,272,28440,1,0,0:0:0:0:
137,257,28585,2,0,P|89:226|67:175,1,113.999996520996
183,37,28875,2,0,P|230:67|252:118,1,113.999996520996
221,345,29165,2,0,P|236:271|386:224,1,227.999993041992
337,333,29600,5,0,0:0:0:0:
332,130,29745,1,0,0:0:0:0:
247,322,29890,5,0,0:0:0:0:
252,119,30035,1,0,0:0:0:0:
335,320,30180,5,0,0:0:0:0:
330,117,30325,1,0,0:0:0:0:
245,335,30469,6,0,P|179:335|140:272,1,113.999996520996,4|0,0:0|0:0,0:0:0:0:
132,183,30759,1,0,0:0:0:0:
369,198,30904,2,0,L|237:191,1,113.999996520996
440,254,31194,2,0,P|452:163|423:120,1,113.999996520996
356,66,31484,2,0,B|284:22|210:117|129:54,1,227.999993041992
309,155,31919,5,0,0:0:0:0:
132,183,32064,1,0,0:0:0:0:
295,231,32209,5,0,0:0:0:0:
118,203,32354,1,0,0:0:0:0:
368,206,32498,5,0,0:0:0:0:
100,184,32643,1,0,0:0:0:0:
398,135,32788,6,0,P|445:207|411:271,1,113.999996520996,4|0,0:0|0:0,0:0:0:0:
368,339,33078,5,0,0:0:0:0:
295,231,33223,1,0,0:0:0:0:
295,314,33368,5,0,0:0:0:0:
368,206,33513,1,0,0:0:0:0:
222,289,33658,5,0,0:0:0:0:
441,181,33803,1,0,0:0:0:0:
208,196,33948,6,0,L|77:197,1,113.999996520996,4|0,0:0|0:0,0:0:0:0:
21,197,34238,1,0,0:0:0:0:
194,124,34382,6,0,L|325:125,1,113.999996520996,0|4,0:0|0:0,0:0:0:0:
381,125,34672,1,0,0:0:0:0:
117,119,34817,5,0,0:0:0:0:
286,199,34962,1,0,0:0:0:0:
140,308,35107,2,0,B|162:268|162:268|374:283,1,227.999993041992,4|0,0:0|0:0,0:0:0:0:
415,283,35542,2,0,P|446:283|360:210,1,341.999989562989,4|0,0:0|0:0,0:0:0:0:
471,359,36122,5,0,0:0:0:0:
363,63,36267,5,4,0:0:0:0:
352,354,36411,1,0,0:0:0:0:
352,354,36484,1,0,0:0:0:0:
352,354,36556,1,0,0:0:0:0:
286,199,36701,1,0,0:0:0:0:
128,205,36846,5,2,0:0:0:0:
147,121,36991,1,2,0:0:0:0:
230,140,37136,1,2,0:0:0:0:
211,224,37281,1,2,0:0:0:0:
52,232,37426,6,0,B|20:199|20:199|54:83,1,113.999996520996,4|0,0:0|0:0,0:0:0:0:
155,286,37716,1,0,0:0:0:0:
208,54,37861,2,0,P|259:115|299:117,1,113.999996520996
442,121,38151,2,0,P|367:148|351:184,1,113.999996520996
336,325,38440,2,0,P|420:336|353:262,1,227.999993041992
246,306,38875,5,0,0:0:0:0:
288,118,39020,1,0,0:0:0:0:
155,273,39165,5,0,0:0:0:0:
197,85,39310,1,0,0:0:0:0:
55,304,39455,5,0,0:0:0:0:
97,116,39600,1,0,0:0:0:0:
324,266,39745,6,0,P|283:228|228:221,1,113.999996520996,4|0,0:0|0:0,0:0:0:0:
246,306,40035,1,0,0:0:0:0:
433,253,40180,2,0,P|417:199|372:165,1,113.999996520996
201,135,40469,2,0,P|145:142|96:115,1,113.999996520996
204,53,40759,2,0,P|263:78|232:212,1,227.999993041992
74,201,41194,5,0,0:0:0:0:
272,272,41339,1,0,0:0:0:0:
83,273,41484,5,0,0:0:0:0:
344,263,41629,1,0,0:0:0:0:
92,345,41774,5,0,0:0:0:0:
301,202,41919,1,0,0:0:0:0:
314,338,42064,6,0,P|410:336|470:359,1,113.999996520996,4|0,0:0|0:0,0:0:0:0:
426,340,42354,1,0,0:0:0:0:
426,340,42498,1,0,0:0:0:0:
330,175,42643,6,0,P|283:259|233:299,1,113.999996520996,2|0,0:0|0:0,0:0:0:0:
271,271,42933,1,0,0:0:0:0:
271,271,43077,1,0,0:0:0:0:
463,270,43223,6,0,P|413:187|403:124,1,113.999996520996,4|0,0:0|0:0,0:0:0:0:
409,171,43513,1,0,0:0:0:0:
409,171,43657,1,0,0:0:0:0:
237,335,43803,6,0,P|103:315|226:251,1,341.999989562989,2|0,0:0|0:0,0:0:0:0:
314,338,44382,2,0,B|453:366|453:366|401:351|355:276,1,227.999993041992,4|0,0:0|0:0,0:0:0:0:
298,233,44817,2,0,B|261:188|266:152|266:152|261:38|130:-7|17:73|58:203,1,455.999986083985,4|0,0:0|0:0,0:0:0:0:
157,148,45542,5,4,0:0:0:0:
125,335,45687,1,0,0:0:0:0:
125,335,45759,1,0,0:0:0:0:
125,335,45832,1,0,0:0:0:0:
200,245,45977,1,0,0:0:0:0:
261,333,46122,6,0,P|292:342|331:346,1,56.9999982604981,2|0,0:0|0:0,0:0:0:0:
369,277,46267,2,0,P|338:268|299:264,1,56.9999982604981,2|0,0:0|0:0,0:0:0:0:
267,327,46411,6,0,P|298:336|337:340,1,56.9999982604981,2|0,0:0|0:0,0:0:0:0:
375,271,46556,2,0,P|344:262|305:258,1,56.9999982604981,2|0,0:0|0:0,0:0:0:0:
125,335,46701,6,0,P|91:279|112:216,1,113.999996520996,4|0,0:0|0:0,0:0:0:0:
162,161,46991,1,0,0:0:0:0:
200,245,47136,6,0,P|255:251|301:219,1,113.999996520996
303,40,47426,6,0,P|296:95|328:141,1,113.999996520996
385,207,47716,2,0,P|378:289|246:346,1,227.999993041992
149,318,48151,5,0,0:0:0:0:
281,238,48296,1,0,0:0:0:0:
84,198,48440,5,0,0:0:0:0:
216,278,48585,1,0,0:0:0:0:
20,319,48730,5,0,0:0:0:0:
152,239,48875,1,0,0:0:0:0:
281,312,49020,6,0,B|313:325|313:325|396:309,1,113.999996520996,4|0,0:0|0:0,0:0:0:0:
468,290,49310,1,0,0:0:0:0:
149,318,49455,5,0,0:0:0:0:
179,81,49745,1,0,0:0:0:0:
281,312,50035,2,0,P|316:338|296:250,1,227.999993041992
149,318,50469,5,0,0:0:0:0:
228,151,50614,1,0,0:0:0:0:
251,331,50759,5,0,0:0:0:0:
330,164,50904,1,0,0:0:0:0:
353,344,51049,5,0,0:0:0:0:
432,177,51194,1,0,0:0:0:0:
251,331,51339,6,0,L|138:315,1,113.999996520996,4|0,0:0|0:0,0:0:0:0:
0,297,51629,1,0,0:0:0:0:
81,184,51774,1,0,0:0:0:0:
57,364,51919,1,0,0:0:0:0:
9,220,52064,1,0,0:0:0:0:
201,253,52209,2,0,L|313:268,1,113.999996520996
138,315,52498,6,0,P|120:184|192:155,1,227.999993041992,4|0,0:0|0:0,0:0:0:0:
252,92,52933,2,0,P|270:223|198:252,1,227.999993041992
189,154,53368,2,0,P|300:239|306:273,1,113.999996520996
326,335,53658,6,0,L|117:339,1,190,4|0,0:0|0:0,0:0:0:0:
34,208,54093,1,0,0:0:0:0:
34,208,54165,1,0,0:0:0:0:
34,208,54238,2,0,P|94:249|150:253,1,95
201,246,54527,1,0,0:0:0:0:
155,177,54672,1,0,0:0:0:0:
161,321,54817,1,0,0:0:0:0:
236,174,54962,5,0,0:0:0:0:
236,174,55035,1,0,0:0:0:0:
236,174,55107,2,0,L|344:171,1,95
436,256,55397,2,0,L|341:253,3,95,2|2|2|2,0:0|0:0|0:0|0:0,0:0:0:0:
436,152,55977,6,0,P|373:73|313:67,1,113.999996520996,4|0,0:0|0:0,0:0:0:0:
341,253,56267,1,0,0:0:0:0:
330,171,56411,1,0,0:0:0:0:
274,307,56556,1,0,0:0:0:0:
263,225,56700,1,0,0:0:0:0:
204,359,56846,2,0,P|129:355|62:316,1,113.999996520996
37,190,57136,6,0,L|269:225,1,227.999993041992,4|0,0:0|0:0,0:0:0:0:
274,307,57571,2,0,L|48:272,1,227.999993041992
37,190,58006,2,0,L|182:212,1,113.999996520996
356,320,58296,6,0,P|349:256|266:222,1,113.999996520996,4|0,0:0|0:0,0:0:0:0:
149,207,58585,1,0,0:0:0:0:
373,145,58730,2,0,P|319:127|264:139,1,113.999996520996
216,342,59020,1,0,0:0:0:0:
175,119,59165,1,0,0:0:0:0:
313,225,59310,2,0,P|445:218|461:108,1,227.999993041992
375,56,59745,6,0,L|255:30,1,113.999996520996
152,163,60035,2,0,L|264:139,1,113.999996520996
111,23,60324,2,0,P|54:51|26:112,1,113.999996520996
64,178,60614,6,0,L|50:293,1,113.999996520996,4|0,0:0|0:0,0:0:0:0:
168,294,61049,1,0,0:0:0:0:
168,294,61122,1,0,0:0:0:0:
168,294,61194,2,0,P|228:282|275:203,1,113.999996520996
268,105,61629,5,0,0:0:0:0:
268,105,61702,1,0,0:0:0:0:
268,105,61774,2,0,P|328:117|375:196,1,113.999996520996
359,294,62209,1,0,0:0:0:0:
359,294,62282,1,0,0:0:0:0:
359,294,62353,2,0,P|299:282|252:203,1,113.999996520996
287,104,62643,2,0,P|347:116|394:195,1,113.999996520996
248,336,62933,5,4,0:0:0:0:
248,336,63006,1,0,0:0:0:0:
248,336,63078,1,0,0:0:0:0:
157,282,63223,5,4,0:0:0:0:
157,282,63296,1,0,0:0:0:0:
157,282,63368,1,0,0:0:0:0:
128,136,63513,5,4,0:0:0:0:
169,368,63658,1,4,0:0:0:0:
207,104,63803,5,4,0:0:0:0:
248,336,63948,1,4,0:0:0:0:
452,48,65107,6,0,L|199:63,1,227.999993041992,4|4,0:0|0:0,0:0:0:0:
61,348,65542,5,4,0:0:0:0:
46,61,65687,1,0,0:0:0:0:
139,312,65832,5,4,0:0:0:0:
144,24,65977,1,0,0:0:0:0:
143,384,66122,5,4,0:0:0:0:
234,61,66267,1,0,0:0:0:0:
215,351,66412,5,4,0:0:0:0:
61,61,66557,1,0,0:0:0:0:
81,348,66701,5,4,0:0:0:0:
160,112,66846,1,0,0:0:0:0:
220,351,66991,5,4,0:0:0:0:
163,190,67136,1,0,0:0:0:0:
330,221,67281,1,4,0:0:0:0:
68,251,67426,6,0,L|339:292,1,227.999993041992,4|0,0:0|0:0,0:0:0:0:
454,308,67861,5,4,0:0:0:0:
451,43,68006,1,0,0:0:0:0:
388,365,68151,5,4,0:0:0:0:
385,100,68296,1,0,0:0:0:0:
363,289,68440,5,4,0:0:0:0:
460,120,68585,1,0,0:0:0:0:
439,308,68730,5,4,0:0:0:0:
359,24,68875,1,0,0:0:0:0:
298,347,69020,5,4,0:0:0:0:
395,174,69165,1,0,0:0:0:0:
348,289,69310,5,4,0:0:0:0:
251,116,69455,1,0,0:0:0:0:
293,347,69600,1,4,0:0:0:0:
376,32,69745,6,0,L|137:49,1,227.999993041992,4|0,0:0|0:0,0:0:0:0:
201,271,70180,5,4,0:0:0:0:
251,116,70324,1,0,0:0:0:0:
260,323,70469,5,4,0:0:0:0:
251,112,70613,1,0,0:0:0:0:
187,349,70759,5,4,0:0:0:0:
251,108,70904,1,0,0:0:0:0:
333,349,71049,5,4,0:0:0:0:
251,104,71194,1,0,0:0:0:0:
187,349,71339,5,4,0:0:0:0:
172,99,71484,1,0,0:0:0:0:
311,344,71629,5,4,0:0:0:0:
326,94,71774,1,0,0:0:0:0:
249,250,71919,1,4,0:0:0:0:
481,188,72064,6,0,L|247:172,1,227.999993041992,4|0,0:0|0:0,0:0:0:0:
118,162,72498,5,4,0:0:0:0:
196,113,72643,1,0,0:0:0:0:
168,221,72788,5,4,0:0:0:0:
281,112,72933,1,0,0:0:0:0:
218,280,73078,5,4,0:0:0:0:
366,111,73223,1,0,0:0:0:0:
142,295,73368,5,4,0:0:0:0:
243,207,73513,1,0,0:0:0:0:
168,221,73658,5,4,0:0:0:0:
271,205,73803,1,0,0:0:0:0:
192,145,73948,5,4,0:0:0:0:
269,177,74093,1,4,0:0:0:0:
261,96,74238,5,4,0:0:0:0:
192,145,74382,1,4,0:0:0:0:
341,206,74527,1,6,0:0:0:0:
256,192,74600,12,4,77353,0:0:0:0:
