osu file format v14

[General]
AudioFilename: audio.mp3
AudioLeadIn: 0
PreviewTime: -1
Countdown: 0
SampleSet: None
StackLeniency: 0.7
Mode: 0
LetterboxInBreaks: 0
WidescreenStoryboard: 0

[Editor]
Bookmarks: 56,1699,14850,27179,34749,35829,38589
DistanceSpacing: 1
BeatDivisor: 4
GridSize: 16
TimelineZoom: 1.94

[Metadata]
Title:Rohypnol
TitleUnicode:Rohypnol
Artist:Dying Fetus
ArtistUnicode:Dying Fetus
Creator:Zedriv
Version:lil bit hard
Source:
Tags:
BeatmapID:1456136
BeatmapSetID:688039

[Difficulty]
HPDrainRate:7
CircleSize:4
OverallDifficulty:7
ApproachRate:9.3
SliderMultiplier:2
SliderTickRate:1

[Events]
//Background and Video events
0,0,"noice m8t.jpg",0,0
//Break Periods
//Storyboard Layer 0 (Background)
//Storyboard Layer 1 (Fail)
//Storyboard Layer 2 (Pass)
//Storyboard Layer 3 (Foreground)
//Storyboard Sound Samples

[TimingPoints]
56,410.958904109589,4,1,0,100,1,0
30158,-100,4,1,0,5,0,0
30189,240,4,1,0,100,1,0

[HitObjects]
35,276,56,5,0,0:0:0:0:
76,249,158,1,0,0:0:0:0:
118,222,261,1,0,0:0:0:0:
160,195,364,1,0,0:0:0:0:
170,243,466,5,0,0:0:0:0:
212,216,569,1,0,0:0:0:0:
222,264,672,5,0,0:0:0:0:
264,237,775,1,0,0:0:0:0:
306,211,877,1,0,0:0:0:0:
349,186,980,1,0,0:0:0:0:
357,235,1083,5,0,0:0:0:0:
399,209,1186,1,0,0:0:0:0:
433,173,1288,1,0,0:0:0:0:
450,125,1391,1,0,0:0:0:0:
430,78,1494,1,0,0:0:0:0:
386,52,1597,1,0,0:0:0:0:
336,48,1699,5,0,0:0:0:0:
83,122,1905,1,0,0:0:0:0:
332,221,2110,2,0,P|386:280|285:319,1,200
90,251,2727,1,0,0:0:0:0:
320,37,2932,1,0,0:0:0:0:
294,342,3138,1,0,0:0:0:0:
152,51,3343,5,0,0:0:0:0:
417,169,3549,1,0,0:0:0:0:
141,233,3754,1,0,0:0:0:0:
417,169,3960,1,0,0:0:0:0:
152,51,4165,1,0,0:0:0:0:
242,89,4576,5,0,0:0:0:0:
362,143,4884,1,0,0:0:0:0:
417,169,4987,1,0,0:0:0:0:
155,312,5192,1,0,0:0:0:0:
273,33,5398,1,0,0:0:0:0:
396,316,5809,5,0,0:0:0:0:
106,58,6014,1,0,0:0:0:0:
418,60,6220,1,0,0:0:0:0:
129,307,6425,1,0,0:0:0:0:
427,208,6631,5,0,0:0:0:0:
226,38,6836,1,0,0:0:0:0:
288,280,7042,1,0,0:0:0:0:
87,110,7247,1,0,0:0:0:0:
149,352,7453,1,0,0:0:0:0:
195,164,7658,5,0,0:0:0:0:
221,121,7761,1,0,0:0:0:0:
265,97,7864,1,0,0:0:0:0:
314,90,7966,1,0,0:0:0:0:
358,113,8069,1,0,0:0:0:0:
391,150,8172,1,0,0:0:0:0:
397,199,8275,5,0,0:0:0:0:
206,346,8480,1,0,0:0:0:0:
236,112,8686,1,0,0:0:0:0:
112,311,9097,5,0,0:0:0:0:
394,102,9302,1,0,0:0:0:0:
112,311,9508,1,0,0:0:0:0:
394,102,9713,1,0,0:0:0:0:
100,258,9919,5,0,0:0:0:0:
119,188,10124,1,0,0:0:0:0:
188,114,10329,1,0,0:0:0:0:
332,81,10535,1,0,0:0:0:0:
479,160,10740,1,0,0:0:0:0:
225,310,11151,5,0,0:0:0:0:
166,128,11460,1,0,0:0:0:0:
148,77,11562,1,0,0:0:0:0:
365,240,11768,1,0,0:0:0:0:
103,221,11973,1,0,0:0:0:0:
384,288,12384,5,0,0:0:0:0:
384,80,12590,1,0,0:0:0:0:
160,80,12795,5,0,0:0:0:0:
384,80,13001,1,0,0:0:0:0:
160,80,13206,5,0,0:0:0:0:
160,288,13412,1,0,0:0:0:0:
194,323,13514,1,0,0:0:0:0:
243,331,13617,1,0,0:0:0:0:
290,314,13720,1,0,0:0:0:0:
325,279,13823,2,0,P|344:250|348:230,1,50
350,185,14028,1,0,0:0:0:0:
325,141,14131,1,0,0:0:0:0:
276,130,14234,1,0,0:0:0:0:
242,93,14336,1,0,0:0:0:0:
253,44,14439,1,0,0:0:0:0:
301,31,14542,1,0,0:0:0:0:
346,52,14645,1,0,0:0:0:0:
353,101,14747,1,0,0:0:0:0:
325,141,14850,5,0,0:0:0:0:
79,264,15055,1,0,0:0:0:0:
365,315,15261,1,0,0:0:0:0:
302,151,15672,5,0,0:0:0:0:
243,230,15877,1,0,0:0:0:0:
407,286,16083,5,0,0:0:0:0:
145,91,16288,1,0,0:0:0:0:
315,50,16494,5,0,0:0:0:0:
140,291,16699,1,0,0:0:0:0:
421,212,16905,1,0,0:0:0:0:
123,101,17110,1,0,0:0:0:0:
323,332,17316,1,0,0:0:0:0:
334,92,17727,5,0,0:0:0:0:
181,167,18035,1,0,0:0:0:0:
135,190,18138,1,0,0:0:0:0:
397,198,18343,1,0,0:0:0:0:
191,309,18549,1,0,0:0:0:0:
135,97,18960,5,0,0:0:0:0:
135,97,19165,1,0,0:0:0:0:
135,97,19371,1,0,0:0:0:0:
135,97,19576,1,0,0:0:0:0:
135,97,19782,5,0,0:0:0:0:
364,181,19987,1,0,0:0:0:0:
163,327,20192,1,0,0:0:0:0:
135,97,20398,1,0,0:0:0:0:
364,181,20603,5,0,0:0:0:0:
400,214,20706,1,0,0:0:0:0:
405,263,20809,1,0,0:0:0:0:
377,305,20912,1,0,0:0:0:0:
330,323,21014,1,0,0:0:0:0:
279,323,21117,1,0,0:0:0:0:
236,296,21220,1,0,0:0:0:0:
206,255,21323,1,0,0:0:0:0:
186,209,21425,5,0,0:0:0:0:
194,26,21631,1,0,0:0:0:0:
316,164,21836,1,0,0:0:0:0:
103,93,22247,5,0,0:0:0:0:
424,317,22453,1,0,0:0:0:0:
450,282,22658,5,0,0:0:0:0:
129,58,22864,1,0,0:0:0:0:
338,79,23069,5,0,0:0:0:0:
157,338,23275,1,0,0:0:0:0:
219,35,23480,1,0,0:0:0:0:
267,335,23686,1,0,0:0:0:0:
105,68,23891,1,0,0:0:0:0:
330,260,24302,5,0,0:0:0:0:
235,206,24610,1,0,0:0:0:0:
192,182,24713,1,0,0:0:0:0:
413,93,24919,1,0,0:0:0:0:
332,317,25124,1,0,0:0:0:0:
232,49,25535,5,0,0:0:0:0:
146,297,25740,1,0,0:0:0:0:
363,133,25946,1,0,0:0:0:0:
104,151,26151,1,0,0:0:0:0:
325,293,26357,5,0,0:0:0:0:
232,49,26562,1,0,0:0:0:0:
146,297,26768,1,0,0:0:0:0:
363,133,26973,1,0,0:0:0:0:
104,151,27179,1,0,0:0:0:0:
256,192,27282,12,0,30158,0:0:0:0:
296,289,30189,5,0,0:0:0:0:
343,272,30249,1,0,0:0:0:0:
376,234,30309,1,0,0:0:0:0:
376,184,30369,1,0,0:0:0:0:
347,142,30429,1,0,0:0:0:0:
297,141,30489,1,0,0:0:0:0:
254,167,30549,1,0,0:0:0:0:
227,209,30609,1,0,0:0:0:0:
185,236,30669,1,0,0:0:0:0:
139,216,30729,1,0,0:0:0:0:
117,170,30789,1,0,0:0:0:0:
142,126,30849,1,0,0:0:0:0:
188,107,30909,1,0,0:0:0:0:
236,118,30969,1,0,0:0:0:0:
263,159,31029,1,0,0:0:0:0:
306,183,31089,1,0,0:0:0:0:
355,174,31149,5,0,0:0:0:0:
320,137,31209,1,0,0:0:0:0:
284,101,31269,1,0,0:0:0:0:
249,64,31329,1,0,0:0:0:0:
210,31,31389,1,0,0:0:0:0:
207,80,31449,1,0,0:0:0:0:
204,129,31509,1,0,0:0:0:0:
201,178,31569,1,0,0:0:0:0:
199,227,31629,1,0,0:0:0:0:
197,276,31689,1,0,0:0:0:0:
195,325,31749,1,0,0:0:0:0:
227,286,31809,1,0,0:0:0:0:
259,248,31869,1,0,0:0:0:0:
291,210,31929,1,0,0:0:0:0:
323,172,31989,1,0,0:0:0:0:
356,134,32049,1,0,0:0:0:0:
385,93,32109,5,0,0:0:0:0:
337,78,32169,1,0,0:0:0:0:
288,88,32229,1,0,0:0:0:0:
245,114,32289,1,0,0:0:0:0:
224,159,32349,1,0,0:0:0:0:
228,208,32409,1,0,0:0:0:0:
255,249,32469,1,0,0:0:0:0:
294,279,32529,1,0,0:0:0:0:
343,284,32589,1,0,0:0:0:0:
383,254,32649,1,0,0:0:0:0:
387,204,32709,1,0,0:0:0:0:
338,190,32769,1,0,0:0:0:0:
304,226,32829,1,0,0:0:0:0:
267,259,32889,1,0,0:0:0:0:
220,278,32949,1,0,0:0:0:0:
174,257,33009,1,0,0:0:0:0:
142,217,33069,1,0,0:0:0:0:
132,167,33129,1,0,0:0:0:0:
156,123,33189,1,0,0:0:0:0:
202,104,33249,1,0,0:0:0:0:
190,152,33309,5,0,0:0:0:0:
239,148,33369,1,0,0:0:0:0:
283,170,33429,1,0,0:0:0:0:
291,219,33489,1,0,0:0:0:0:
267,263,33549,1,0,0:0:0:0:
276,312,33609,1,0,0:0:0:0:
314,343,33669,1,0,0:0:0:0:
363,340,33729,1,0,0:0:0:0:
388,297,33789,1,0,0:0:0:0:
377,248,33849,1,0,0:0:0:0:
329,232,33909,1,0,0:0:0:0:
281,217,33969,1,0,0:0:0:0:
257,172,34029,1,0,0:0:0:0:
264,122,34089,1,0,0:0:0:0:
304,92,34149,1,0,0:0:0:0:
345,111,34209,1,0,0:0:0:0:
354,160,34269,1,0,0:0:0:0:
328,202,34329,1,0,0:0:0:0:
278,194,34389,1,0,0:0:0:0:
264,151,34449,1,0,0:0:0:0:
241,106,34509,1,0,0:0:0:0:
191,98,34569,1,0,0:0:0:0:
142,110,34629,1,0,0:0:0:0:
109,147,34689,1,0,0:0:0:0:
97,195,34749,5,0,0:0:0:0:
119,185,34809,1,0,0:0:0:0:
141,175,34869,1,0,0:0:0:0:
163,165,34929,1,0,0:0:0:0:
185,155,34989,1,0,0:0:0:0:
208,145,35049,1,0,0:0:0:0:
231,135,35109,1,0,0:0:0:0:
254,125,35169,1,0,0:0:0:0:
277,115,35229,1,0,0:0:0:0:
300,105,35289,1,0,0:0:0:0:
323,95,35349,1,0,0:0:0:0:
346,85,35409,1,0,0:0:0:0:
369,75,35469,1,0,0:0:0:0:
392,65,35529,1,0,0:0:0:0:
415,55,35589,1,0,0:0:0:0:
438,46,35649,1,0,0:0:0:0:
461,37,35709,1,0,0:0:0:0:
484,28,35769,1,0,0:0:0:0:
471,76,35829,5,0,0:0:0:0:
445,119,35889,1,0,0:0:0:0:
413,157,35949,1,0,0:0:0:0:
371,184,36009,1,0,0:0:0:0:
323,199,36069,1,0,0:0:0:0:
273,206,36129,1,0,0:0:0:0:
223,199,36189,1,0,0:0:0:0:
177,179,36249,1,0,0:0:0:0:
146,139,36309,1,0,0:0:0:0:
158,90,36369,1,0,0:0:0:0:
206,78,36429,1,0,0:0:0:0:
234,118,36489,1,0,0:0:0:0:
228,167,36549,1,0,0:0:0:0:
235,216,36609,1,0,0:0:0:0:
266,254,36669,1,0,0:0:0:0:
313,270,36729,1,0,0:0:0:0:
362,261,36789,1,0,0:0:0:0:
400,229,36849,1,0,0:0:0:0:
409,179,36909,1,0,0:0:0:0:
378,139,36969,1,0,0:0:0:0:
330,123,37029,1,0,0:0:0:0:
280,131,37089,1,0,0:0:0:0:
241,163,37149,1,0,0:0:0:0:
231,212,37209,1,0,0:0:0:0:
261,251,37269,1,0,0:0:0:0:
310,260,37329,1,0,0:0:0:0:
348,228,37389,1,0,0:0:0:0:
339,178,37449,1,0,0:0:0:0:
292,159,37509,1,0,0:0:0:0:
251,187,37569,1,0,0:0:0:0:
262,235,37629,1,0,0:0:0:0:
311,231,37689,1,0,0:0:0:0:
331,185,37749,1,0,0:0:0:0:
333,135,37809,1,0,0:0:0:0:
300,97,37869,1,0,0:0:0:0:
251,83,37929,1,0,0:0:0:0:
201,85,37989,1,0,0:0:0:0:
160,114,38049,1,0,0:0:0:0:
146,162,38109,1,0,0:0:0:0:
172,204,38169,1,0,0:0:0:0:
221,206,38229,1,0,0:0:0:0:
265,184,38289,1,0,0:0:0:0:
297,145,38349,1,0,0:0:0:0:
339,118,38409,1,0,0:0:0:0:
389,118,38469,1,0,0:0:0:0:
426,151,38529,5,0,0:0:0:0:
