osu file format v14

[General]
AudioFilename: audio.mp3
AudioLeadIn: 0
PreviewTime: 13033
Countdown: 1
SampleSet: Normal
StackLeniency: 0.2
Mode: 0
LetterboxInBreaks: 0
WidescreenStoryboard: 0

[Editor]
Bookmarks: 708,15913,64489
DistanceSpacing: 1
BeatDivisor: 8
GridSize: 4
TimelineZoom: 2.4

[Metadata]
Title:Unknown Artist and Title
TitleUnicode:Unknown Artist and Title
Artist:Dx2 Op
ArtistUnicode:Dx2 Op
Creator:HakuNoKaemi
Version:Insane
Source:
Tags:
BeatmapID:1543975
BeatmapSetID:731665

[Difficulty]
HPDrainRate:7
CircleSize:5
OverallDifficulty:7
ApproachRate:8
SliderMultiplier:1.6
SliderTickRate:2

[Events]
//Background and Video events
Video,0,"Dx2Op.mp4"
0,0,"BG1080.jpg",0,0
//Break Periods
//Storyboard Layer 0 (Background)
//Storyboard Layer 1 (Fail)
//Storyboard Layer 2 (Pass)
//Storyboard Layer 3 (Foreground)
//Storyboard Sound Samples

[TimingPoints]
120,397.350993377483,4,1,0,60,1,0
716,-100,4,2,0,80,0,0
1709,-100,4,1,0,60,0,0
2206,-100,4,2,0,80,0,0
3298,-100,4,1,0,60,0,0
3894,-100,4,2,0,80,0,0
4888,-100,4,1,0,60,0,0
6080,397.350993377483,4,1,0,60,1,0
6080,-320,4,1,0,60,0,0
6676,-100,4,1,0,60,0,1
6676,-100,4,1,0,60,0,0
6874,-100,4,1,0,60,0,0
7073,-100,4,2,0,80,0,0
8066,-100,4,1,0,60,0,0
8662,-100,4,1,0,8,0,0
8861,-100,4,1,0,16,0,0
9060,-100,4,1,0,24,0,0
9258,-100,4,1,0,32,0,0
9457,-100,4,1,0,40,0,0
9656,-100,4,1,0,60,0,0
10053,-100,4,1,0,20,0,0
10252,-100,4,1,0,28,0,0
10450,-100,4,1,0,36,0,0
10649,-100,4,1,0,44,0,0
10848,-100,4,1,0,52,0,0
11046,-100,4,1,0,60,0,0
11245,-100,4,1,0,40,0,0
12040,-100,4,2,0,80,0,0
13033,397.350993377483,4,1,0,100,1,1
16211,-200,4,1,0,100,0,1
16609,-100,4,1,0,100,0,1
20185,-133.333333333333,4,1,0,100,0,1
20582,-100,4,1,0,100,0,1
20980,-133.333333333333,4,1,0,100,0,1
21377,-100,4,1,0,100,0,1
22569,-133.333333333333,4,1,0,100,0,1
22966,-100,4,1,0,100,0,1
25350,-200,4,1,0,100,0,1
25748,-100,4,1,0,100,0,1
28927,-200,4,1,0,100,0,1
29324,-100,4,1,0,100,0,1
31708,-200,4,1,0,100,0,1
32105,-100,4,1,0,100,0,1
33695,-100,4,1,0,100,0,1
34092,-100,4,1,0,100,0,1
35284,-133.333333333333,4,1,0,100,0,1
35682,-100,4,1,0,100,0,1
38562,-133.333333333333,4,2,0,100,0,0
39258,-100,4,2,0,100,0,0
39556,-133.333333333333,4,2,0,100,0,0
40648,-266.666666666666,4,2,0,100,0,0
41443,-133.333333333333,4,2,0,100,0,0
42436,-100,4,2,0,100,0,0
42734,-133.333333333333,4,2,0,100,0,0
43827,-266.666666666666,4,2,0,100,0,0
44622,-133.333333333333,4,2,0,100,0,0
45615,-100,4,2,0,100,0,0
46013,-133.333333333333,4,2,0,100,0,0
46211,-166.666666666667,4,2,0,100,0,0
46609,-133.333333333333,4,2,0,100,0,0
47403,-133.333333333333,4,2,0,100,0,0
47999,-100,4,2,0,100,0,0
48794,-133.333333333333,4,2,0,100,0,0
49092,-100,4,2,0,100,0,0
49390,-166.666666666667,4,2,0,100,0,0
49887,-100,4,2,0,100,0,0
50284,-400,4,2,0,100,0,0
51178,-100,4,1,0,60,0,0
51278,-100,4,2,0,100,0,0
51973,-133.333333333333,4,2,0,100,0,0
52271,-100,4,2,0,100,0,0
52569,-166.666666666667,4,2,0,100,0,0
52966,-100,4,2,0,100,0,0
53364,-200,4,2,0,100,0,0
54357,-100,4,2,0,100,0,0
55152,-133.333333333333,4,2,0,100,0,0
55450,-100,4,2,0,100,0,0
55748,-166.666666666667,4,2,0,100,0,0
56145,-100,4,2,0,100,0,0
56542,-200,4,2,0,100,0,0
57536,-100,4,2,0,100,0,0
58927,-133.333333333333,4,2,0,100,0,0
59324,-100,4,2,0,100,0,0
60119,-166.666666666667,4,2,0,100,0,0
60715,-100,4,2,0,100,0,0
62900,-400,4,2,0,100,0,0
63893,-100,4,1,0,100,0,1
64092,-100,4,2,0,100,0,0
66079,-500,4,2,0,100,0,0
67072,-100,4,2,0,100,0,0
69258,-500,4,2,0,100,0,0
70251,-100,4,2,0,100,0,0
76609,-100,4,1,0,100,0,1
87734,-100,4,1,0,100,0,0

[HitObjects]
256,192,120,5,0,0:0:0:0:
256,192,318,1,0,0:0:0:0:
306,220,716,1,0,0:0:0:0:
284,242,815,1,0,0:0:0:0:
256,249,914,1,0,0:0:0:0:
227,242,1014,1,0,0:0:0:0:
205,220,1113,1,0,0:0:0:0:
198,192,1212,1,0,0:0:0:0:
205,163,1312,1,0,0:0:0:0:
227,141,1411,1,0,0:0:0:0:
256,134,1510,1,0,0:0:0:0:
284,141,1610,1,0,0:0:0:0:
306,163,1709,5,0,0:0:0:0:
256,272,1908,1,0,0:0:0:0:
152,156,2106,1,0,0:0:0:0:
196,92,2305,1,0,0:0:0:0:
223,80,2404,1,0,0:0:0:0:
254,76,2504,1,0,0:0:0:0:
283,80,2603,1,0,0:0:0:0:
311,90,2702,1,0,0:0:0:0:
335,108,2802,1,0,0:0:0:0:
354,132,2901,1,0,0:0:0:0:
366,159,3000,1,0,0:0:0:0:
370,189,3100,1,0,0:0:0:0:
366,219,3199,1,0,0:0:0:0:
356,247,3298,5,0,0:0:0:0:
281,325,3497,1,0,0:0:0:0:
85,218,3894,1,0,0:0:0:0:
83,188,3994,1,0,0:0:0:0:
86,158,4093,1,0,0:0:0:0:
94,130,4192,1,0,0:0:0:0:
108,103,4292,1,0,0:0:0:0:
125,77,4391,1,0,0:0:0:0:
147,57,4490,1,0,0:0:0:0:
172,41,4590,1,0,0:0:0:0:
199,28,4689,1,0,0:0:0:0:
228,21,4788,1,0,0:0:0:0:
258,19,4888,5,0,0:0:0:0:
308,112,5086,1,0,0:0:0:0:
180,212,5285,1,0,0:0:0:0:
256,304,5682,1,0,0:0:0:0:
256,304,6080,2,0,P|284:308|332:300,1,75,0|4,0:0|0:0,0:0:0:0:
424,232,7073,5,0,0:0:0:0:
436,204,7172,1,0,0:0:0:0:
440,176,7272,1,0,0:0:0:0:
436,148,7371,1,0,0:0:0:0:
424,120,7470,1,0,0:0:0:0:
400,100,7570,1,0,0:0:0:0:
376,80,7669,1,0,0:0:0:0:
356,104,7768,1,0,0:0:0:0:
328,120,7868,1,0,0:0:0:0:
300,120,7967,1,0,0:0:0:0:
272,108,8066,5,0,0:0:0:0:
104,236,8265,1,0,0:0:0:0:
300,316,8464,1,0,0:0:0:0:
208,352,8662,1,0,0:0:0:0:
199,323,8762,1,0,0:0:0:0:
200,293,8861,1,0,0:0:0:0:
211,264,8960,1,0,0:0:0:0:
229,241,9060,1,0,0:0:0:0:
254,224,9159,1,0,0:0:0:0:
283,216,9258,1,0,0:0:0:0:
313,217,9358,1,0,0:0:0:0:
341,227,9457,1,0,0:0:0:0:
365,246,9556,1,0,0:0:0:0:
381,270,9656,5,0,0:0:0:0:
131,114,9854,1,0,0:0:0:0:
220,80,10053,1,0,0:0:0:0:
229,109,10153,1,0,0:0:0:0:
228,139,10252,1,0,0:0:0:0:
217,168,10351,1,0,0:0:0:0:
199,191,10451,1,0,0:0:0:0:
174,208,10550,1,0,0:0:0:0:
145,216,10649,1,0,0:0:0:0:
115,215,10749,1,0,0:0:0:0:
87,205,10848,1,0,0:0:0:0:
63,186,10947,1,0,0:0:0:0:
47,162,11047,1,0,0:0:0:0:
44,136,11146,1,0,0:0:0:0:
48,112,11245,2,0,P|36:112|24:108,2,20
64,76,11444,2,0,P|92:52|132:40,1,80
176,112,12040,2,0,P|212:128|256:128,1,80
296,84,12437,2,0,P|252:132|272:296,1,240,0|4,0:0|0:0,0:0:0:0:
364,284,13430,5,0,0:0:0:0:
392,256,13529,1,0,0:0:0:0:
408,220,13629,2,0,P|412:172|404:140,1,80
328,100,14026,1,0,0:0:0:0:
292,288,14225,1,0,0:0:0:0:
264,260,14324,1,0,0:0:0:0:
247,223,14424,2,0,P|242:183|250:144,1,80
328,100,14821,1,0,0:0:0:0:
260,60,15019,6,0,P|220:40|168:32,1,80
404,141,15417,2,0,P|444:161|496:169,1,80
394,63,15814,2,0,P|434:43|486:35,1,80
250,144,16212,2,0,P|210:164|158:172,1,80
256,248,16807,5,0,0:0:0:0:
340,300,17006,2,0,P|364:268|408:236,1,80
256,340,17403,1,0,0:0:0:0:
256,340,17602,1,0,0:0:0:0:
171,299,17801,2,0,P|148:268|116:243,1,80
256,192,18198,5,0,0:0:0:0:
300,56,18397,1,0,0:0:0:0:
336,68,18496,1,0,0:0:0:0:
372,88,18595,1,0,0:0:0:0:
404,116,18695,1,0,0:0:0:0:
428,148,18794,1,0,0:0:0:0:
444,184,18893,1,0,0:0:0:0:
440,224,18993,2,0,L|424:316,1,80
248,228,19390,2,0,L|260:148,1,80
248,228,19787,6,0,L|240:280,3,40
236,296,20185,2,0,L|224:364,1,60.0000022888184
160,312,20582,1,0,0:0:0:0:
336,280,20781,1,0,0:0:0:0:
200,160,20980,2,0,L|140:124,1,60.0000022888184
392,104,21377,6,0,L|464:148,1,80
256,32,21774,1,0,0:0:0:0:
180,52,21973,1,0,0:0:0:0:
88,128,22172,1,0,0:0:0:0:
120,288,22370,1,0,0:0:0:0:
348,336,22569,2,0,P|408:316|464:280,1,120.000004577637
472,248,23066,5,0,0:0:0:0:
472,208,23165,2,0,P|440:180|404:156,1,80
332,184,23562,1,0,0:0:0:0:
180,184,23761,1,0,0:0:0:0:
102,158,23960,2,0,P|69:181|40:208,1,80
168,100,24357,1,0,0:0:0:0:
168,100,24556,6,0,P|176:60|180:16,1,80
288,172,24953,2,0,P|336:148|368:124,1,80
256,292,25350,2,0,P|288:328|328:348,1,80,0|4,0:0|0:0,0:0:0:0:
188,208,26145,5,0,0:0:0:0:
160,240,26244,1,0,0:0:0:0:
144,276,26344,1,0,0:0:0:0:
324,176,26542,2,0,P|352:140|368:104,1,80
304,240,26940,1,0,0:0:0:0:
311,281,27039,1,0,0:0:0:0:
306,320,27139,1,0,0:0:0:0:
203,142,27337,2,0,P|197:96|202:57,1,80
128,184,27734,6,0,P|96:160|72:124,1,80
228,252,28132,2,0,P|260:276|284:312,1,80
95,332,28529,2,0,P|126:308|149:275,1,80
265,114,28927,2,0,P|234:138|212:172,1,80
324,228,29523,5,0,0:0:0:0:
188,92,29721,2,0,L|128:32,1,80
144,268,30119,1,0,0:0:0:0:
324,228,30317,1,0,0:0:0:0:
188,92,30516,2,0,L|244:148,1,80
376,48,30913,5,0,0:0:0:0:
374,198,31112,1,0,0:0:0:0:
381,231,31211,1,0,0:0:0:0:
368,265,31311,1,0,0:0:0:0:
336,284,31410,1,0,0:0:0:0:
301,280,31509,1,0,0:0:0:0:
428,108,31708,2,0,P|392:128|376:164,1,80,0|4,0:0|0:0,0:0:0:0:
252,104,32304,5,0,0:0:0:0:
252,104,32503,1,0,0:0:0:0:
236,140,32602,1,0,0:0:0:0:
228,180,32701,1,0,0:0:0:0:
236,220,32801,1,0,0:0:0:0:
252,256,32900,1,0,0:0:0:0:
328,280,33099,1,0,0:0:0:0:
400,248,33297,5,0,0:0:0:0:
228,180,33496,1,0,0:0:0:0:
280,344,33695,2,0,L|192:368,1,80
232,40,34092,6,0,L|311:20,1,80
384,48,34489,1,0,0:0:0:0:
456,136,34688,1,0,0:0:0:0:
392,288,34887,1,0,0:0:0:0:
202,365,35085,1,0,0:0:0:0:
80,176,35284,2,0,P|72:112|88:60,1,120.000004577637
120,36,35781,5,0,0:0:0:0:
160,28,35880,1,0,0:0:0:0:
224,144,36079,2,0,P|272:144|304:164,1,80
176,236,36476,2,0,P|136:236|96:216,1,80
380,88,36874,2,0,P|416:112|440:148,1,80
76,308,37271,5,0,0:0:0:0:
40,292,37370,1,0,0:0:0:0:
16,260,37470,1,0,0:0:0:0:
4,224,37569,1,0,0:0:0:0:
4,184,37668,1,0,0:0:0:0:
16,144,37768,1,0,0:0:0:0:
32,108,37867,1,0,0:0:0:0:
64,84,37966,1,0,0:0:0:0:
104,72,38066,1,0,0:0:0:0:
144,68,38165,1,0,0:0:0:0:
184,72,38264,1,0,0:0:0:0:
216,96,38364,1,0,0:0:0:0:
236,128,38463,1,4,0:0:0:0:
144,208,38860,5,0,0:0:0:0:
256,256,39258,2,0,P|312:232|360:164,1,120
256,92,39887,1,0,0:0:0:0:
156,328,40251,1,0,0:0:0:0:
384,300,40648,2,0,P|419:252|474:229,1,120.000004577637
368,176,42039,5,0,0:0:0:0:
256,128,42437,2,0,P|200:152|160:200,1,120
256,292,43033,1,0,0:0:0:0:
356,56,43430,1,0,0:0:0:0:
128,84,43827,2,0,P|93:131|38:154,1,120.000004577637
24,40,44821,1,4,0:0:0:0:
256,192,45218,5,0,0:0:0:0:
312,260,45615,2,0,P|256:279|200:260,1,120
200,124,46211,2,0,P|256:105|312:124,1,120
297,242,46956,2,0,P|256:256|214:242,1,90.0000034332277
340,290,47403,2,0,P|257:320|173:291,1,180.000006866455
256,152,48397,5,0,0:0:0:0:
384,56,48794,2,0,P|364:92|368:144,1,90.0000034332277
200,232,49390,2,0,P|256:252|312:232,1,119.999996337891
128,56,50284,2,0,P|148:92|144:144,1,90.0000034332277,0|4,0:0|0:0,0:0:0:0:
132,300,51576,5,0,0:0:0:0:
208,208,51774,1,0,0:0:0:0:
208,208,51973,2,0,P|248:192|296:196,1,90.0000034332277
312,304,52569,2,0,P|272:320|216:316,1,95.9999970703126
152,152,53364,2,0,P|238:117|342:126,1,200
343,126,54754,5,0,0:0:0:0:
267,218,54953,1,0,0:0:0:0:
267,218,55152,2,0,P|227:234|179:230,1,90.0000034332277
163,122,55748,2,0,P|203:106|259:110,1,95.9999970703126
323,274,56542,2,0,P|236:308|132:299,1,200,0|4,0:0|0:0,0:0:0:0:
256,192,57933,5,0,0:0:0:0:
188,152,58132,1,0,0:0:0:0:
188,152,58331,2,0,P|120:140|80:108,1,120
324,152,58927,2,0,P|392:140|432:108,1,120
198,296,59672,2,0,B|255:313|255:313|312:296,1,120
187,237,60119,2,0,B|255:215|255:215|323:237,1,143.999995605469,0|4,0:0|0:0,0:0:0:0:
136,108,61112,6,0,P|112:184|132:260,1,160
131,259,61708,1,0,0:0:0:0:
376,108,62155,6,0,P|399:183|380:259,1,160
256,192,62900,2,0,L|256:112,1,80
256,112,63893,1,4,0:0:0:0:
120,68,64191,6,0,P|128:44|140:24,1,40
388,196,64489,2,0,P|397:178|403:159,1,40
360,208,64688,2,0,P|350:225|344:244,1,40
344,176,64887,2,0,P|301:160|268:160,1,80
132,156,65284,2,0,P|168:170|208:171,1,80
192,64,65582,5,0,0:0:0:0:
192,64,65632,1,0,0:0:0:0:
192,64,65682,2,0,L|268:24,1,80
320,320,66079,2,2,L|249:357,1,80,2|6,0:0|0:0,0:0:0:0:
392,316,67370,6,0,P|388:340|380:360,1,40
124,188,67668,2,0,P|114:205|108:224,1,40
152,176,67867,2,0,P|161:158|167:139,1,40
168,208,68066,2,0,P|211:224|244:224,1,80
380,228,68463,2,0,P|343:213|303:212,1,80
320,320,68761,5,0,0:0:0:0:
320,320,68811,1,0,0:0:0:0:
320,320,68861,2,0,L|244:360,1,80
192,64,69258,2,2,L|262:26,1,80,2|6,0:0|0:0,0:0:0:0:
