osu file format v14

[General]
AudioFilename: Suspicious Minds.mp3
AudioLeadIn: 2000
PreviewTime: 39157
Countdown: 0
SampleSet: Soft
StackLeniency: 0.7
Mode: 0
LetterboxInBreaks: 0
WidescreenStoryboard: 1

[Editor]
Bookmarks: 191481
DistanceSpacing: 1.1
BeatDivisor: 4
GridSize: 4
TimelineZoom: 0.8

[Metadata]
Title:Suspicious Minds
TitleUnicode:Suspicious Minds
Artist:Dwight Yoakam
ArtistUnicode:Dwight Yoakam
Creator:ezek
Version:Suspicious Minds
Source:Honeymoon in Vegas
Tags:Elvis Presley Mark James Cover Country
BeatmapID:755610
BeatmapSetID:169746

[Difficulty]
HPDrainRate:6
CircleSize:4
OverallDifficulty:7
ApproachRate:7.5
SliderMultiplier:2
SliderTickRate:1

[Events]
//Background and Video events
0,0,"WBG.jpg",0,0
Video,1298,"Suspy.avi"
//Break Periods
2,66502,68870
2,101378,108129
//Storyboard Layer 0 (Background)
//Storyboard Layer 1 (Fail)
//Storyboard Layer 2 (Pass)
//Storyboard Layer 3 (Foreground)
//Storyboard Sound Samples

[TimingPoints]
390,484.652665589661,4,2,1,80,1,0
39162,-100,4,2,1,80,0,1
54671,-100,4,2,1,80,0,0
85670,484.652665589661,4,2,1,80,1,1
101192,368.098159509202,3,2,1,80,1,0
107850,368.098159509202,3,2,1,80,1,0
108218,-133.333333333333,3,2,1,80,0,0
125560,487.80487804878,4,2,1,80,1,0
129462,-100,4,2,1,80,0,0
129931,484.652665589661,4,2,1,80,1,0
131384,484.652665589661,4,2,1,80,1,0

[Colours]
Combo1 : 160,158,158
Combo2 : 255,130,4
Combo3 : 255,0,0
Combo4 : 173,102,22

[HitObjects]
200,340,390,5,2,0:0:0:0:
312,340,632,1,0,0:0:0:0:
348,236,874,2,0,B|316:204|256:192|196:204|164:236,1,200,8|2,0:0|0:0,0:0:0:0:
80,308,1601,1,0,0:0:0:0:
44,204,1843,2,0,L|40:104,1,100,8|0,0:0|0:0,0:0:0:0:
180,40,2328,5,2,0:0:0:0:
256,116,2570,1,0,0:0:0:0:
360,80,2813,2,0,P|368:160|280:228,1,200,8|2,0:0|0:0,0:0:0:0:
172,204,3540,2,0,P|120:200|80:224,2,100,0|8|0,0:0|0:0|0:0,0:0:0:0:
288,304,4267,6,0,P|320:340|368:352,1,100,2|0,0:0|0:0,0:0:0:0:
472,312,4751,2,0,B|500:260|464:220|464:220|428:180|460:124,1,200,8|2,0:0|0:0,0:0:0:0:
504,28,5478,1,0,0:0:0:0:
404,76,5721,1,8,0:0:0:0:
504,28,5963,1,0,0:0:0:0:
404,76,6205,5,2,0:0:0:0:
296,60,6448,1,0,0:0:0:0:
268,164,6690,2,0,B|228:168|228:168|120:196|120:196|72:200,1,200,8|2,0:0|0:0,0:0:0:0:
28,100,7417,1,0,0:0:0:0:
120,40,7659,1,8,0:0:0:0:
148,188,7902,1,0,0:0:0:0:
172,336,8144,1,4,0:0:0:0:
176,332,8629,5,8,0:0:0:0:
256,260,8871,1,0,0:0:0:0:
364,272,9113,2,0,B|416:268|416:268|460:248,1,100,2|0,0:0|0:0,0:0:0:0:
460,136,9598,2,0,B|416:116|416:116|364:112,1,100,8|0,0:0|0:0,0:0:0:0:
220,156,10083,5,2,0:0:0:0:
180,56,10325,1,0,0:0:0:0:
72,84,10567,2,0,B|76:136|76:136|112:200|112:200|116:276,1,200,8|2,0:0|0:0,0:0:0:0:
216,324,11294,1,0,0:0:0:0:
256,220,11537,1,8,0:0:0:0:
256,220,11779,1,0,0:0:0:0:
364,324,12021,6,0,P|416:324|456:300,1,100,2|0,0:0|0:0,0:0:0:0:
380,220,12506,2,0,B|340:172|368:128|368:128|400:80|364:36,1,200,8|2,0:0|0:0,0:0:0:0:
256,64,13233,1,0,0:0:0:0:
148,36,13475,6,0,B|112:80|144:128|144:128|172:172|132:220,2,200,8|2|8,0:0|0:0|0:0,0:0:0:0:
360,248,14929,2,0,P|408:232|456:236,2,100,2|0|8,0:0|0:0|0:0,0:0:0:0:
256,284,15656,1,0,0:0:0:0:
152,320,15898,6,0,P|64:316|12:224,1,200,2|8,0:0|0:0,0:0:0:0:
64,128,16625,1,0,0:0:0:0:
160,76,16868,2,0,B|208:60|256:88|256:88|304:60|352:76,1,200,2|8,0:0|0:0,0:0:0:0:
448,128,17595,1,0,0:0:0:0:
352,184,17837,2,0,B|304:200|256:172|256:172|208:200|160:184,2,200,2|8|2,0:0|0:0|0:0,0:0:0:0:
448,128,19049,1,0,0:0:0:0:
388,264,19291,6,0,L|300:312,1,100,8|0,0:0|0:0,0:0:0:0:
200,264,19776,2,0,L|112:312,1,100,2|0,0:0|0:0,0:0:0:0:
36,232,20260,2,0,P|84:148|180:132,1,200,8|2,0:0|0:0,0:0:0:0:
284,160,20987,1,0,0:0:0:0:
388,200,21230,1,8,0:0:0:0:
300,264,21472,1,0,0:0:0:0:
356,128,21714,6,0,P|312:88|264:84,1,100,2|0,0:0|0:0,0:0:0:0:
164,108,22199,2,0,L|156:308,1,200,8|2,0:0|0:0,0:0:0:0:
256,360,22926,1,0,0:0:0:0:
300,264,23168,1,8,0:0:0:0:
448,288,23411,1,0,0:0:0:0:
396,148,23653,6,0,L|300:120,1,100,4|0,0:0|0:0,0:0:0:0:
200,164,24137,2,0,L|8:104,1,200,8|2,0:0|0:0,0:0:0:0:
108,60,24864,1,0,0:0:0:0:
60,200,25107,1,8,0:0:0:0:
60,200,25349,1,0,0:0:0:0:
116,340,25591,6,0,L|216:352,1,100,2|0,0:0|0:0,0:0:0:0:
324,356,26076,2,0,B|408:348|408:348|500:276,1,200,8|2,0:0|0:0,0:0:0:0:
512,168,26803,1,0,0:0:0:0:
440,88,27045,2,0,P|388:80|340:88,1,100,8|0,0:0|0:0,0:0:0:0:
212,164,27530,6,0,P|160:172|112:164,1,100,2|0,0:0|0:0,0:0:0:0:
160,64,28015,2,0,L|160:264,1,200,8|2,0:0|0:0,0:0:0:0:
232,348,28742,1,0,0:0:0:0:
324,292,28984,1,8,0:0:0:0:
420,348,29226,1,0,0:0:0:0:
464,204,29469,6,0,B|468:152|444:108,1,100,2|0,0:0|0:0,0:0:0:0:
380,20,29953,2,0,B|352:40|340:80|340:80|216:56,1,200,8|2,0:0|0:0,0:0:0:0:
108,32,30680,1,0,0:0:0:0:
92,140,30923,1,8,0:0:0:0:
240,164,31165,1,0,0:0:0:0:
136,272,31407,1,2,0:0:0:0:
136,276,31892,6,0,P|184:304|228:312,1,100,8|0,0:0|0:0,0:0:0:0:
336,308,32377,2,0,P|416:256|448:156,1,200,2|8,0:0|0:0,0:0:0:0:
428,52,33104,1,0,0:0:0:0:
328,96,33346,2,0,B|284:136|296:184|296:184|256:212|256:272,2,200,2|8|2,0:0|0:0|0:0,0:0:0:0:
256,12,34558,1,0,0:0:0:0:
184,96,34800,2,0,B|228:136|216:184|216:184|256:212|256:272,1,200,8|2,0:0|0:0,0:0:0:0:
32,68,35769,5,8,0:0:0:0:
128,268,36254,1,2,0:0:0:0:
204,60,36738,1,8,0:0:0:0:
20,184,37223,1,2,0:0:0:0:
244,188,37708,1,8,0:0:0:0:
264,24,38192,5,2,0:0:0:0:
412,48,38435,1,0,0:0:0:0:
312,160,38677,1,8,0:0:0:0:
308,180,38798,1,8,0:0:0:0:
304,200,38919,1,0,0:0:0:0:
260,344,39162,6,0,B|200:332|200:332|132:344|132:344|64:332,1,200,4|8,0:0|0:0,0:0:0:0:
16,232,39889,1,0,0:0:0:0:
152,168,40131,2,0,L|252:176,2,100,2|0|8,0:0|0:0|0:0,0:0:0:0:
72,92,40858,1,0,0:0:0:0:
176,64,41100,2,0,L|376:80,1,200,2|8,0:0|0:0,0:0:0:0:
484,92,41827,1,0,0:0:0:0:
496,200,42070,2,0,P|488:248|456:288,1,100,2|0,0:0|0:0,0:0:0:0:
352,248,42554,2,0,P|360:200|392:160,1,100,8|0,0:0|0:0,0:0:0:0:
484,92,43039,6,0,L|284:76,1,200,2|8,0:0|0:0,0:0:0:0:
176,64,43766,1,0,0:0:0:0:
68,56,44008,2,0,P|48:104|48:152,1,100,2|0,0:0|0:0,0:0:0:0:
112,240,44493,2,0,P|111:289|91:335,1,100,8|0,0:0|0:0,0:0:0:0:
36,240,44978,2,0,P|96:168|180:208,1,200,2|8,0:0|0:0,0:0:0:0:
220,308,45705,1,0,0:0:0:0:
324,336,45947,2,0,L|424:340,2,100,2|0|8,0:0|0:0|0:0,0:0:0:0:
220,308,46674,1,0,0:0:0:0:
80,256,46916,6,0,B|92:192|92:192|136:136|136:136|148:68,1,200,4|8,0:0|0:0,0:0:0:0:
240,16,47643,1,0,0:0:0:0:
336,68,47885,2,0,P|392:76|432:100,2,100,2|0|8,0:0|0:0|0:0,0:0:0:0:
352,176,48612,1,0,0:0:0:0:
364,284,48855,2,0,P|284:328|164:328,1,200,2|8,0:0|0:0,0:0:0:0:
76,284,49582,5,0,0:0:0:0:
72,280,49824,1,2,0:0:0:0:
96,172,50066,1,0,0:0:0:0:
204,148,50309,1,8,0:0:0:0:
248,248,50551,1,0,0:0:0:0:
176,332,50793,1,2,0:0:0:0:
256,36,51278,5,8,0:0:0:0:
212,180,51520,1,0,0:0:0:0:
324,92,51763,1,2,0:0:0:0:
188,92,52005,1,0,0:0:0:0:
300,180,52247,1,8,0:0:0:0:
188,92,52490,6,0,L|88:92,1,100,0|2,0:0|0:0,0:0:0:0:
324,92,52974,2,0,L|424:92,1,100,0|8,0:0|0:0,0:0:0:0:
212,180,53459,2,0,L|160:268,1,100,0|2,0:0|0:0,0:0:0:0:
300,180,53944,2,0,L|352:268,1,100,8|8,0:0|0:0,0:0:0:0:
412,356,54428,1,2,0:0:0:0:
412,356,54671,1,4,0:0:0:0:
448,212,54913,5,0,0:0:0:0:
368,140,55155,2,0,L|268:128,1,100,8|0,0:0|0:0,0:0:0:0:
160,112,55640,2,0,P|68:124|40:220,1,200,2|8,0:0|0:0,0:0:0:0:
84,316,56367,1,0,0:0:0:0:
184,272,56609,6,0,P|236:264|284:284,1,100,2|0,0:0|0:0,0:0:0:0:
372,336,57094,2,0,P|436:296|472:180,1,200,8|2,0:0|0:0,0:0:0:0:
444,76,57821,1,0,0:0:0:0:
444,76,58063,1,8,0:0:0:0:
300,40,58305,1,0,0:0:0:0:
344,184,58548,6,0,B|276:200|276:200|144:208,1,200,4|8,0:0|0:0,0:0:0:0:
36,212,59275,1,0,0:0:0:0:
72,108,59517,2,0,P|124:92|172:104,2,100,2|0|8,0:0|0:0|0:0,0:0:0:0:
36,212,60244,1,0,0:0:0:0:
148,312,60486,6,0,B|180:316|180:316|212:328|212:328|248:332,1,100,2|0,0:0|0:0,0:0:0:0:
356,336,60971,2,0,P|408:296|376:176,1,200,8|2,0:0|0:0,0:0:0:0:
288,120,61698,1,0,0:0:0:0:
376,52,61940,1,8,0:0:0:0:
228,40,62183,1,0,0:0:0:0:
80,28,62425,1,4,0:0:0:0:
256,192,62910,12,4,66302,0:0:0:0:
132,116,69695,5,8,0:0:0:0:
256,32,69937,1,0,0:0:0:0:
380,116,70179,1,4,0:0:0:0:
68,152,70664,6,0,P|108:184|156:184,1,100,8|0,0:0|0:0,0:0:0:0:
260,148,71149,2,0,P|368:164|420:232,1,200,2|8,0:0|0:0,0:0:0:0:
452,336,71876,1,0,0:0:0:0:
452,336,72118,6,0,L|460:236,1,100,2|0,0:0|0:0,0:0:0:0:
468,128,72603,2,0,P|392:72|296:96,1,200,8|2,0:0|0:0,0:0:0:0:
256,200,73330,1,0,0:0:0:0:
200,296,73572,1,8,0:0:0:0:
108,176,73814,1,0,0:0:0:0:
208,64,74057,6,0,B|268:44|268:44|404:56,1,200,4|8,0:0|0:0,0:0:0:0:
504,100,74784,1,0,0:0:0:0:
428,180,75026,2,0,L|328:172,2,100,2|0|8,0:0|0:0|0:0,0:0:0:0:
484,276,75753,1,0,0:0:0:0:
336,264,75995,6,0,L|236:256,1,100,2|0,0:0|0:0,0:0:0:0:
128,244,76480,1,8,0:0:0:0:
128,244,76965,1,2,0:0:0:0:
68,152,77207,1,0,0:0:0:0:
132,60,77449,1,8,0:0:0:0:
280,84,77692,1,0,0:0:0:0:
428,104,77934,6,0,B|472:168|472:168|496:288,1,200,4|8,0:0|0:0,0:0:0:0:
408,352,78661,2,0,L|388:252,1,100,0|2,0:0|0:0,0:0:0:0:
364,148,79146,1,0,0:0:0:0:
313,245,79388,2,0,P|233:297|141:265,2,200,8|2|8,0:0|0:0|0:0,0:0:0:0:
222,182,80600,1,0,0:0:0:0:
222,182,80842,2,0,L|210:78,1,100,2|0,0:0|0:0,0:0:0:0:
198,1,81326,1,8,0:0:0:0:
291,117,81569,1,0,0:0:0:0:
141,136,81811,5,2,0:0:0:0:
135,138,82296,1,8,0:0:0:0:
60,228,82538,1,0,0:0:0:0:
112,324,82780,2,0,L|212:320,1,100,2|0,0:0|0:0,0:0:0:0:
320,340,83265,2,0,L|420:336,1,100,8|0,0:0|0:0,0:0:0:0:
464,236,83750,2,0,B|480:180|480:180|456:104|456:104|472:40,1,200,2|8,0:0|0:0,0:0:0:0:
304,52,84719,2,0,P|252:32|204:36,1,100,2|0,0:0|0:0,0:0:0:0:
224,152,85204,2,0,P|269:171|319:169,1,100,8|0,0:0|0:0,0:0:0:0:
384,56,85670,6,0,L|412:256,1,200,4|8,0:0|0:0,0:0:0:0:
428,364,86396,1,0,0:0:0:0:
492,276,86639,2,0,L|476:176,2,100,2|0|8,0:0|0:0|0:0,0:0:0:0:
428,364,87366,1,0,0:0:0:0:
320,336,87608,2,0,L|120:320,1,200,2|8,0:0|0:0,0:0:0:0:
16,288,88335,1,0,0:0:0:0:
24,176,88577,2,0,P|32:128|64:88,1,100,2|0,0:0|0:0,0:0:0:0:
164,136,89062,2,0,P|156:184|124:224,1,100,8|0,0:0|0:0,0:0:0:0:
16,288,89547,6,0,L|216:304,1,200,2|8,0:0|0:0,0:0:0:0:
324,316,90274,1,0,0:0:0:0:
420,264,90516,2,0,P|436:216|428:168,1,100,2|0,0:0|0:0,0:0:0:0:
327,84,91001,2,0,P|312:131|320:180,1,100,8|0,0:0|0:0,0:0:0:0:
424,68,91485,2,0,L|220:52,1,200,2|8,0:0|0:0,0:0:0:0:
116,44,92212,1,0,0:0:0:0:
172,140,92455,2,0,L|272:148,2,100,2|0|8,0:0|0:0|0:0,0:0:0:0:
64,128,93182,1,0,0:0:0:0:
136,260,93424,6,0,B|192:268|192:268|264:288|264:288|332:296,1,200,4|8,0:0|0:0,0:0:0:0:
440,308,94151,1,0,0:0:0:0:
400,204,94393,2,0,P|452:196|496:212,2,100,2|0|8,0:0|0:0|0:0,0:0:0:0:
320,280,95120,1,0,0:0:0:0:
212,268,95363,2,0,L|12:280,1,200,2|8,0:0|0:0,0:0:0:0:
12,279,96332,6,0,P|16:224|44:191,1,100,2|0,0:0|0:0,0:0:0:0:
152,172,96817,2,0,P|148:227|120:260,1,100,8|0,0:0|0:0,0:0:0:0:
12,279,97301,1,2,0:0:0:0:
256,192,97543,12,4,101178,0:0:0:0:
76,148,108954,5,8,0:0:0:0:
256,40,109322,1,2,0:0:0:0:
436,148,109690,1,2,0:0:0:0:
256,256,110058,6,0,P|188:276|132:228,2,150.000005722046,4|2|2,0:0|0:0|0:0,0:0:0:0:
152,128,111162,2,0,P|220:108|276:156,2,150.000005722046,8|2|2,0:0|0:0|0:0,0:0:0:0:
32,240,112267,5,2,0:0:0:0:
168,332,112635,1,2,0:0:0:0:
256,192,113003,1,2,0:0:0:0:
344,332,113371,1,8,0:0:0:0:
480,240,113739,1,2,0:0:0:0:
404,92,114107,1,2,0:0:0:0:
244,48,114475,6,0,L|92:36,1,150.000005722046,2|2,0:0|0:0,0:0:0:0:
180,176,115211,2,0,L|332:188,1,150.000005722046,2|8,0:0|0:0,0:0:0:0:
420,324,115948,2,0,L|268:312,1,150.000005722046,2|2,0:0|0:0,0:0:0:0:
104,296,116684,5,2,0:0:0:0:
72,136,117052,1,2,0:0:0:0:
232,100,117420,1,2,0:0:0:0:
272,260,117788,1,8,0:0:0:0:
272,260,118524,5,2,0:0:0:0:
232,100,118892,1,2,0:0:0:0:
388,156,119261,2,0,P|436:216|432:288,1,150.000005722046,2|2,0:0|0:0,0:0:0:0:
276,340,119997,2,0,L|120:348,1,150.000005722046,8|4,0:0|0:0,0:0:0:0:
32,144,120733,1,4,0:0:0:0:
256,160,121101,1,4,0:0:0:0:
396,244,121469,6,0,P|432:184|408:112,1,150.000005722046,2|2,0:0|0:0,0:0:0:0:
268,28,122205,2,0,P|232:88|256:160,1,150.000005722046,8|2,0:0|0:0,0:0:0:0:
400,244,122942,2,0,L|244:272,1,150.000005722046,2|2,0:0|0:0,0:0:0:0:
92,300,123678,5,2,0:0:0:0:
192,168,124046,1,2,0:0:0:0:
28,164,124414,1,8,0:0:0:0:
148,52,124782,2,0,B|216:32|216:32|296:36,1,150.000005722046,2|2,0:0|0:0,0:0:0:0:
236,200,125560,5,8,0:0:0:0:
384,52,126047,2,0,B|392:104|392:104|380:152,1,100,8|0,0:0|0:0,0:0:0:0:
236,200,126535,2,0,B|228:148|228:148|240:100,1,100,8|0,0:0|0:0,0:0:0:0:
384,52,127023,2,0,L|488:64,1,100,8|0,0:0|0:0,0:0:0:0:
416,200,127511,2,0,L|312:188,1,100,8|0,0:0|0:0,0:0:0:0:
164,172,127999,1,8,0:0:0:0:
164,172,128242,1,0,0:0:0:0:
232,312,128486,5,8,0:0:0:0:
248,316,128608,1,8,0:0:0:0:
264,320,128730,1,0,0:0:0:0:
384,340,128974,1,8,0:0:0:0:
336,228,129218,1,8,0:0:0:0:
440,160,129462,5,4,0:0:0:0:
440,160,129931,1,8,0:0:0:0:
432,52,130173,1,0,0:0:0:0:
324,80,130415,2,0,L|224:68,1,100,2|0,0:0|0:0,0:0:0:0:
136,128,130900,2,0,L|36:116,1,100,8|0,0:0|0:0,0:0:0:0:
152,212,131384,6,0,P|196:192|220:148,1,100,2|0,0:0|0:0,0:0:0:0:
236,40,131869,2,0,L|276:236,1,200,8|2,0:0|0:0,0:0:0:0:
300,344,132596,1,0,0:0:0:0:
408,336,132838,1,8,0:0:0:0:
440,188,133081,1,0,0:0:0:0:
476,44,133323,1,4,0:0:0:0:
300,176,133808,6,0,P|252:188|204:176,1,100,8|0,0:0|0:0,0:0:0:0:
160,76,134292,2,0,P|100:140|120:248,1,200,2|8,0:0|0:0,0:0:0:0:
192,324,135019,1,0,0:0:0:0:
340,352,135262,2,0,P|392:360|440:348,1,100,2|0,0:0|0:0,0:0:0:0:
388,252,135746,2,0,L|388:52,1,200,8|2,0:0|0:0,0:0:0:0:
296,116,136473,1,0,0:0:0:0:
240,20,136716,1,8,0:0:0:0:
152,136,136958,1,0,0:0:0:0:
64,256,137200,1,4,0:0:0:0:
159,200,137685,5,8,0:0:0:0:
64,256,137927,1,0,0:0:0:0:
160,308,138170,2,0,B|208:324|256:296|256:296|304:324|352:308,1,200,2|8,0:0|0:0,0:0:0:0:
448,256,138897,1,0,0:0:0:0:
352,200,139139,2,0,B|304:184|256:212|256:212|208:184|160:200,2,200,2|8|2,0:0|0:0|0:0,0:0:0:0:
448,256,140351,1,0,0:0:0:0:
388,120,140593,6,0,L|300:72,1,100,8|0,0:0|0:0,0:0:0:0:
200,120,141078,2,0,L|112:72,1,100,2|0,0:0|0:0,0:0:0:0:
36,152,141562,2,0,P|84:236|180:252,1,200,8|2,0:0|0:0,0:0:0:0:
284,224,142289,1,0,0:0:0:0:
388,184,142531,1,8,0:0:0:0:
300,120,142774,1,0,0:0:0:0:
352,260,143016,6,0,P|312:296|264:300,1,100,2|0,0:0|0:0,0:0:0:0:
164,276,143501,2,0,L|156:76,1,200,8|2,0:0|0:0,0:0:0:0:
256,24,144228,1,0,0:0:0:0:
300,120,144470,1,8,0:0:0:0:
387,53,144712,1,0,0:0:0:0:
300,120,144955,6,0,L|292:220,1,100,4|0,0:0|0:0,0:0:0:0:
280,328,145439,2,0,L|76:320,1,200,8|2,0:0|0:0,0:0:0:0:
24,224,146166,1,0,0:0:0:0:
124,176,146409,1,8,0:0:0:0:
32,116,146651,1,0,0:0:0:0:
116,44,146893,6,0,L|216:32,1,100,2|0,0:0|0:0,0:0:0:0:
324,28,147378,2,0,B|408:36|408:36|500:108,1,200,8|2,0:0|0:0,0:0:0:0:
512,216,148105,1,0,0:0:0:0:
440,296,148347,2,0,P|388:304|340:296,1,100,8|0,0:0|0:0,0:0:0:0:
212,220,148832,6,0,P|160:212|112:220,1,100,2|0,0:0|0:0,0:0:0:0:
160,320,149317,2,0,L|160:120,1,200,8|2,0:0|0:0,0:0:0:0:
232,36,150044,1,0,0:0:0:0:
324,92,150286,1,8,0:0:0:0:
420,36,150528,1,0,0:0:0:0:
464,180,150771,6,0,B|468:232|444:276,1,100,2|0,0:0|0:0,0:0:0:0:
380,364,151255,2,0,B|352:344|340:304|340:304|216:328,1,200,8|2,0:0|0:0,0:0:0:0:
108,352,151982,1,0,0:0:0:0:
92,244,152225,1,8,0:0:0:0:
240,220,152467,1,0,0:0:0:0:
388,196,152709,1,4,0:0:0:0:
388,196,153194,6,0,P|384:148|348:104,1,100,8|0,0:0|0:0,0:0:0:0:
252,68,153678,2,0,P|160:92|128:184,1,200,2|8,0:0|0:0,0:0:0:0:
172,284,154405,1,0,0:0:0:0:
268,336,154648,2,0,P|320:348|368:340,1,100,2|0,0:0|0:0,0:0:0:0:
452,272,155132,2,0,L|480:72,2,200,8|2|8,0:0|0:0|0:0,0:0:0:0:
372,348,156344,1,0,0:0:0:0:
260,248,156586,6,0,P|208:248|164:264,1,100,2|0,0:0|0:0,0:0:0:0:
76,332,157071,2,0,P|52:260|120:164,1,200,8|2,0:0|0:0,0:0:0:0:
224,140,157798,2,0,L|328:132,1,100,0|8,0:0|0:0,0:0:0:0:
432,120,158283,1,0,0:0:0:0:
432,120,158525,5,2,0:0:0:0:
444,228,158767,1,0,0:0:0:0:
452,340,159010,2,0,B|400:340|360:300|360:300|264:308,1,200,8|8,0:0|0:0,0:0:0:0:
112,328,159737,1,8,0:0:0:0:
156,188,159979,1,8,0:0:0:0:
160,172,160100,1,8,0:0:0:0:
164,156,160221,1,0,0:0:0:0:
204,12,160464,1,4,0:0:0:0:
272,96,160706,5,0,0:0:0:0:
380,100,160948,2,0,P|432:120|460:156,1,100,8|0,0:0|0:0,0:0:0:0:
408,252,161433,2,0,P|364:244|324:208,1,100,2|0,0:0|0:0,0:0:0:0:
276,108,161918,1,8,0:0:0:0:
184,168,162160,1,0,0:0:0:0:
72,268,162402,6,0,P|116:304|160:316,1,100,2|0,0:0|0:0,0:0:0:0:
268,324,162887,2,0,P|372:312|444:252,1,200,8|2,0:0|0:0,0:0:0:0:
488,152,163614,1,0,0:0:0:0:
436,56,163856,1,8,0:0:0:0:
316,148,164099,1,0,0:0:0:0:
208,44,164341,1,4,0:0:0:0:
212,48,164825,6,0,L|176:244,1,200,8|2,0:0|0:0,0:0:0:0:
152,352,165552,1,0,0:0:0:0:
88,264,165795,2,0,L|108:160,1,100,8|0,0:0|0:0,0:0:0:0:
200,108,166279,2,0,L|180:212,1,100,2|0,0:0|0:0,0:0:0:0:
160,316,166764,2,0,B|220:352|220:352|352:360,1,200,8|2,0:0|0:0,0:0:0:0:
460,360,167491,1,0,0:0:0:0:
464,252,167733,1,8,0:0:0:0:
468,140,167976,1,0,0:0:0:0:
468,256,168218,6,0,B|328:244|328:244|272:224,1,200,4|8,0:0|0:0,0:0:0:0:
176,172,168945,1,0,0:0:0:0:
76,128,169187,2,0,P|156:72|252:92,1,200,2|8,0:0|0:0,0:0:0:0:
308,184,169914,1,0,0:0:0:0:
352,284,170157,2,0,B|404:260|416:212|416:212|508:252,2,200,2|8|2,0:0|0:0|0:0,0:0:0:0:
244,308,171368,1,0,0:0:0:0:
136,328,171611,2,0,B|112:288|112:288|104:232,1,100,8|0,0:0|0:0,0:0:0:0:
92,84,172095,5,2,0:0:0:0:
200,68,172338,1,0,0:0:0:0:
264,156,172580,2,0,P|360:188|448:152,1,200,8|2,0:0|0:0,0:0:0:0:
400,52,173307,2,0,L|300:52,2,100,0|8|0,0:0|0:0|0:0,0:0:0:0:
460,184,174034,5,8,0:0:0:0:
356,220,174276,1,2,0:0:0:0:
316,116,174519,1,2,0:0:0:0:
416,76,174761,1,8,0:0:0:0:
460,184,175003,1,2,0:0:0:0:
504,284,175246,1,2,0:0:0:0:
400,316,175488,1,8,0:0:0:0:
504,284,175730,1,2,0:0:0:0:
308,344,175973,6,0,B|228:348|228:348|160:352|120:308,1,200,4|8,0:0|0:0,0:0:0:0:
52,220,176699,2,0,P|32:176|40:124,1,100,0|2,0:0|0:0,0:0:0:0:
128,60,177183,2,0,P|144:108|128:156,1,100,0|8,0:0|0:0,0:0:0:0:
52,220,177668,1,0,0:0:0:0:
129,153,177911,6,0,L|233:165,1,100,2|0,0:0|0:0,0:0:0:0:
276,264,178396,2,0,B|320:288|320:288|388:300|468:284,1,200,8|2,0:0|0:0,0:0:0:0:
504,180,179123,1,0,0:0:0:0:
440,92,179365,1,8,0:0:0:0:
292,72,179607,1,0,0:0:0:0:
144,52,179850,1,2,0:0:0:0:
144,52,180334,6,0,B|88:160|88:160|100:240,1,200,8|2,0:0|0:0,0:0:0:0:
148,336,181061,1,0,0:0:0:0:
256,352,181304,2,0,L|356:348,1,100,8|0,0:0|0:0,0:0:0:0:
412,252,181788,6,0,L|512:248,2,100,2|0|8,0:0|0:0|0:0,0:0:0:0:
304,260,182514,1,0,0:0:0:0:
296,260,182758,1,2,0:0:0:0:
232,168,183000,1,0,0:0:0:0:
288,72,183242,1,8,0:0:0:0:
392,108,183485,1,0,0:0:0:0:
400,216,183727,1,4,0:0:0:0:
432,244,184212,6,0,P|408:296|368:320,1,100,8|0,0:0|0:0,0:0:0:0:
268,288,184696,2,0,L|68:296,1,200,2|8,0:0|0:0,0:0:0:0:
56,188,185423,1,0,0:0:0:0:
56,188,185666,2,0,L|256:180,1,200,2|8,0:0|0:0,0:0:0:0:
364,172,186393,1,0,0:0:0:0:
460,116,186635,6,0,P|460:68|440:20,2,100,2|0|8,0:0|0:0|0:0,0:0:0:0:
364,172,187362,2,0,P|344:217|344:267,2,100,0|2|0,0:0|0:0|0:0,0:0:0:0:
460,116,188089,1,8,0:0:0:0:
240,104,188573,1,2,0:0:0:0:
20,92,189058,1,8,0:0:0:0:
256,192,189300,12,4,191481,1:0:0:0:
