osu file format v14

[General]
AudioFilename: Suspicious Minds.mp3
AudioLeadIn: 2000
PreviewTime: 39157
Countdown: 0
SampleSet: Soft
StackLeniency: 0.7
Mode: 0
LetterboxInBreaks: 0
WidescreenStoryboard: 1

[Editor]
DistanceSpacing: 1.1
BeatDivisor: 4
GridSize: 4
TimelineZoom: 0.8

[Metadata]
Title:Suspicious Minds
TitleUnicode:Suspicious Minds
Artist:Dwight Yoakam
ArtistUnicode:Dwight Yoakam
Creator:ezek
Version:Normal Minds
Source:Honeymoon in Vegas
Tags:Elvis Presley Mark James Cover Country
BeatmapID:411046
BeatmapSetID:169746

[Difficulty]
HPDrainRate:3
CircleSize:3.5
OverallDifficulty:3
ApproachRate:4
SliderMultiplier:1.4
SliderTickRate:1

[Events]
//Background and Video events
0,0,"WBG.jpg",0,0
Video,1298,"Suspy.avi"
//Break Periods
2,66502,68859
2,101378,107634
//Storyboard Layer 0 (Background)
//Storyboard Layer 1 (Fail)
//Storyboard Layer 2 (Pass)
//Storyboard Layer 3 (Foreground)
//Storyboard Sound Samples

[TimingPoints]
390,484.652665589661,4,2,1,80,1,0
39162,-100,4,2,1,80,0,1
54671,-100,4,2,1,80,0,0
85670,484.652665589661,4,2,1,80,1,1
101192,368.098159509202,3,2,1,80,1,0
107850,368.098159509202,3,2,1,80,1,0
108218,-133.333333333333,3,2,1,80,0,0
125560,487.80487804878,4,2,1,80,1,0
129462,-100,4,2,1,80,0,0
129931,484.652665589661,4,2,1,80,1,0
131384,484.652665589661,4,2,1,80,1,0

[Colours]
Combo1 : 160,158,158
Combo2 : 255,130,4
Combo3 : 255,0,0
Combo4 : 173,102,22

[HitObjects]
56,144,390,6,0,P|104:92|168:96,1,140,2|8,0:0|0:0,0:0:0:0:
280,96,1359,2,0,P|328:148|392:144,1,140,2|8,0:0|0:0,0:0:0:0:
484,208,2328,2,0,L|364:280,1,140,2|8,0:0|0:0,0:0:0:0:
264,328,3297,1,2,0:0:0:0:
168,272,3782,2,0,L|100:284,1,70,8|0,0:0|0:0,0:0:0:0:
44,296,4267,1,2,0:0:0:0:
72,192,4751,5,8,0:0:0:0:
148,108,5236,1,2,0:0:0:0:
256,80,5721,1,8,0:0:0:0:
364,108,6205,1,2,0:0:0:0:
436,192,6690,2,0,L|420:332,1,140,8|2,0:0|0:0,0:0:0:0:
320,276,7659,2,0,L|312:348,2,70,8|0|4,0:0|0:0|0:0,0:0:0:0:
300,164,8629,6,0,P|256:112|188:96,1,140,8|2,0:0|0:0,0:0:0:0:
76,88,9598,1,8,0:0:0:0:
36,128,9840,1,0,0:0:0:0:
28,184,10083,1,0,0:0:0:0:
68,288,10567,2,0,P|132:332|192:340,2,140,8|2|8,0:0|0:0|0:0,0:0:0:0:
116,188,12021,6,0,P|192:200|240:240,1,140,2|8,0:0|0:0,0:0:0:0:
364,292,12990,2,0,P|424:256|464:200,1,140,2|8,0:0|0:0,0:0:0:0:
452,88,13960,1,2,0:0:0:0:
348,44,14444,1,8,0:0:0:0:
236,60,14929,2,0,P|200:124|20:100,1,280,2|2,0:0|0:0,0:0:0:0:
120,36,16383,6,0,P|152:128|28:232,1,280,8|8,0:0|0:0,0:0:0:0:
96,320,17837,2,0,P|160:288|228:288,1,140,2|8,0:0|0:0,0:0:0:0:
332,328,18806,1,2,0:0:0:0:
332,328,19049,1,0,0:0:0:0:
436,276,19533,2,0,L|444:204,1,70,0|2,0:0|0:0,0:0:0:0:
388,112,20260,5,8,0:0:0:0:
288,60,20745,1,2,0:0:0:0:
176,60,21230,1,8,0:0:0:0:
72,96,21714,2,0,P|72:168|92:232,1,140,2|8,0:0|0:0,0:0:0:0:
184,296,22684,1,2,0:0:0:0:
296,316,23168,2,0,L|312:384,2,70,8|0|4,0:0|0:0|0:0,0:0:0:0:
268,212,24137,1,8,0:0:0:0:
296,316,24622,6,0,P|364:236|288:100,1,280,2|2,0:0|0:0,0:0:0:0:
192,64,26076,1,8,0:0:0:0:
288,100,26561,2,0,P|368:104|416:72,2,140,2|8|2,0:0|0:0|0:0,0:0:0:0:
192,64,28015,5,8,0:0:0:0:
84,100,28499,2,0,L|48:240,1,140,2|8,0:0|0:0,0:0:0:0:
156,276,29469,2,0,L|140:344,2,70,2|0|8,0:0|0:0|0:0,0:0:0:0:
260,228,30438,2,0,B|336:232|384:288|384:288|412:224|480:192,1,280,2|2,0:0|0:0,0:0:0:0:
460,80,31892,6,0,P|388:96|324:80,1,140,8|2,0:0|0:0,0:0:0:0:
216,48,32861,1,8,0:0:0:0:
216,48,33104,2,0,P|120:32|48:108,1,210,0|8,0:0|0:0,0:0:0:0:
88,212,34315,1,2,0:0:0:0:
128,316,34800,2,0,L|60:340,2,70,8|0|2,0:0|0:0|0:0,0:0:0:0:
240,324,35769,5,8,0:0:0:0:
348,292,36254,1,2,0:0:0:0:
340,180,36738,1,8,0:0:0:0:
228,152,37223,1,2,0:0:0:0:
164,244,37708,1,8,0:0:0:0:
132,136,38192,2,0,P|176:72|232:52,1,140,2|8,0:0|0:0,0:0:0:0:
344,44,39162,6,0,B|400:40|400:40|448:40|480:68,1,140,4|8,0:0|0:0,0:0:0:0:
416,160,40131,1,2,0:0:0:0:
480,252,40616,2,0,P|428:312|372:324,1,140,8|2,0:0|0:0,0:0:0:0:
260,320,41585,5,8,0:0:0:0:
152,296,42070,2,0,L|100:344,2,70,2|0|8,0:0|0:0|0:0,0:0:0:0:
80,212,43039,1,2,0:0:0:0:
112,104,43524,6,0,P|216:56|340:144,1,280,8|8,0:0|0:0,0:0:0:0:
336,200,44735,1,0,0:0:0:0:
316,252,44978,2,0,P|212:300|88:212,1,280,2|2,0:0|0:0,0:0:0:0:
48,100,46432,1,8,0:0:0:0:
140,36,46916,1,4,0:0:0:0:
356,64,47885,6,0,P|384:132|436:172,1,140,2|8,0:0|0:0,0:0:0:0:
468,280,48855,2,0,L|344:344,1,140,2|8,0:0|0:0,0:0:0:0:
232,340,49824,2,0,L|256:272,1,70,2|0,0:0|0:0,0:0:0:0:
304,244,50309,1,8,0:0:0:0:
256,144,50793,5,2,0:0:0:0:
184,232,51278,1,8,0:0:0:0:
256,316,51763,1,2,0:0:0:0:
328,232,52247,1,8,0:0:0:0:
440,228,52732,2,4,P|256:53|72:228,1,560
80,336,55155,6,0,P|152:300|184:252,1,140,8|2,0:0|0:0,0:0:0:0:
256,168,56125,1,8,0:0:0:0:
328,252,56609,2,0,P|368:308|432:336,1,140,2|8,0:0|0:0,0:0:0:0:
452,224,57579,2,0,P|480:200|492:168,2,70,2|0|8,0:0|0:0|0:0,0:0:0:0:
372,136,58548,5,4,0:0:0:0:
328,32,59032,2,0,B|272:64|264:116|264:116|236:132,1,140,8|2,0:0|0:0,0:0:0:0:
132,172,60002,1,8,0:0:0:0:
124,60,60486,2,0,P|52:96|24:148,1,140,2|8,0:0|0:0,0:0:0:0:
72,248,61456,2,0,L|32:308,2,70,2|0|8,0:0|0:0|0:0,0:0:0:0:
180,280,62425,1,4,0:0:0:0:
284,236,62910,6,0,P|244:188|172:164,2,140,8|2|8,0:0|0:0|0:0,0:0:0:0:
324,340,64364,1,2,0:0:0:0:
428,296,64848,1,8,0:0:0:0:
392,188,65333,2,0,L|412:120,2,70,2|0|8,0:0|0:0|0:0,0:0:0:0:
428,296,66302,1,4,0:0:0:0:
188,44,70179,6,0,P|256:60|324:44,2,140,4|8|2,0:0|0:0|0:0,0:0:0:0:
80,76,71633,2,0,P|44:136|48:204,1,140,8|2,0:0|0:0,0:0:0:0:
108,300,72603,1,8,0:0:0:0:
220,300,73087,2,0,P|240:328|268:352,2,70,2|0|8,0:0|0:0|0:0,0:0:0:0:
160,220,74057,5,4,0:0:0:0:
272,212,74541,2,0,P|352:304|484:256,1,280,8|8,0:0|0:0,0:0:0:0:
384,204,75995,1,2,0:0:0:0:
296,136,76480,2,0,P|212:44|80:92,1,280,8|8,0:0|0:0,0:0:0:0:
180,140,77934,6,0,P|136:192|68:204,1,140,4|8,0:0|0:0,0:0:0:0:
40,312,78903,1,2,0:0:0:0:
148,344,79388,1,8,0:0:0:0:
256,312,79873,1,2,0:0:0:0:
364,344,80357,1,8,0:0:0:0:
472,312,80842,2,0,B|456:268|472:244|488:220|472:172,2,140,2|8|2,0:0|0:0|0:0,0:0:0:0:
364,344,82296,1,8,0:0:0:0:
256,192,82780,12,4,85670,0:0:0:0:
60,248,86639,5,2,0:0:0:0:
28,140,87123,2,0,P|80:80|136:68,1,140,8|2,0:0|0:0,0:0:0:0:
136,180,88093,1,8,0:0:0:0:
236,132,88577,2,0,L|288:84,2,70,2|0|8,0:0|0:0|0:0,0:0:0:0:
216,244,89547,6,0,P|232:308|296:344,1,140,2|8,0:0|0:0,0:0:0:0:
328,236,90516,2,0,P|364:180|432:168,2,140,2|8|2,0:0|0:0|0:0,0:0:0:0:
432,280,91970,1,8,0:0:0:0:
512,188,92455,2,0,P|496:124|432:88,2,140,2|8|4,0:0|0:0|0:0,0:0:0:0:
216,192,94393,6,0,B|172:208|128:192|128:192|80:208,2,140,2|8|2,0:0|0:0|0:0,0:0:0:0:
172,88,95847,1,8,0:0:0:0:
280,68,96332,1,2,0:0:0:0:
388,88,96817,2,0,L|456:72,2,70,8|0|2,0:0|0:0|0:0,0:0:0:0:
428,192,97786,5,8,0:0:0:0:
460,300,98270,1,2,0:0:0:0:
352,272,98755,1,8,0:0:0:0:
256,332,99240,2,0,P|128:304|304:96,1,560,4|4,0:0|0:0,0:0:0:0:
352,88,108954,5,8,0:0:0:0:
460,132,109322,1,2,0:0:0:0:
460,252,109690,1,2,0:0:0:0:
352,296,110058,1,4,0:0:0:0:
240,272,110426,2,0,P|188:268|144:240,1,105.000004005432,2|2,0:0|0:0,0:0:0:0:
80,184,111162,6,0,P|96:136|136:100,1,105.000004005432,8|0,0:0|0:0,0:0:0:0:
204,44,111899,1,2,0:0:0:0:
220,128,112267,2,0,B|276:112|288:60|288:60|396:72,1,210.000008010865,2|0,0:0|0:0,0:0:0:0:
480,84,113371,1,8,0:0:0:0:
456,164,113739,1,0,0:0:0:0:
432,244,114107,1,0,0:0:0:0:
404,324,114475,6,0,B|352:352|304:316|304:316|256:344|208:316|208:316|160:352|108:324,1,315.000012016297,2|8,0:0|0:0,0:0:0:0:
48,264,115948,1,0,0:0:0:0:
48,264,116316,1,0,0:0:0:0:
108,204,116684,2,0,B|160:176|208:212|208:212|256:184|304:212|304:212|352:176|404:204,1,315.000012016297,2|8,0:0|0:0,0:0:0:0:
472,52,118524,5,2,0:0:0:0:
412,112,118892,2,0,P|348:112|312:92,1,105.000004005432,2|0,0:0|0:0,0:0:0:0:
236,60,119629,2,0,P|188:36|136:36,1,105.000004005432,0|8,0:0|0:0,0:0:0:0:
76,92,120365,2,0,L|44:192,2,105.000004005432,4|4|4,0:0|0:0|0:0,0:0:0:0:
224,192,121837,1,0,0:0:0:0:
296,236,122205,6,0,P|308:184|288:136,2,105.000004005432,8|2|2,0:0|0:0|0:0,0:0:0:0:
220,272,123310,1,2,0:0:0:0:
136,288,123678,2,0,P|160:332|208:356,2,105.000004005432,2|2|8,0:0|0:0|0:0,0:0:0:0:
256,68,125560,5,8,0:0:0:0:
288,176,126047,1,8,0:0:0:0:
396,208,126535,1,8,0:0:0:0:
368,100,127023,2,0,L|424:48,2,70,8|2|8,0:0|0:0|0:0,0:0:0:0:
256,192,127999,12,4,129462,0:0:0:0:
256,56,130415,5,2,0:0:0:0:
256,168,130900,2,0,L|256:240,2,70,8|2|2,0:0|0:0|0:0,0:0:0:0:
160,112,131869,1,8,0:0:0:0:
100,208,132354,1,2,0:0:0:0:
112,320,132838,2,0,L|180:336,1,70,8|0,0:0|0:0,0:0:0:0:
236,344,133323,2,0,L|376:344,1,140,2|8,0:0|0:0,0:0:0:0:
468,280,134292,5,2,0:0:0:0:
364,236,134777,2,0,P|404:188|476:168,2,140,8|2|8,0:0|0:0|0:0,0:0:0:0:
256,212,136231,2,0,L|256:140,2,70,2|0|8,0:0|0:0|0:0,0:0:0:0:
160,156,137200,6,0,P|120:104|48:96,1,140,4|8,0:0|0:0,0:0:0:0:
56,208,138170,1,2,0:0:0:0:
152,264,138654,2,0,P|132:296|100:316,2,70,8|0|2,0:0|0:0|0:0,0:0:0:0:
256,220,139624,1,8,0:0:0:0:
256,332,140108,2,0,L|328:336,1,70,2|0,0:0|0:0,0:0:0:0:
424,284,140835,1,0,0:0:0:0:
424,284,141078,2,0,L|444:144,1,140,2|8,0:0|0:0,0:0:0:0:
364,64,142047,5,2,0:0:0:0:
256,92,142531,2,0,L|256:164,2,70,8|0|2,0:0|0:0|0:0,0:0:0:0:
148,64,143501,2,0,P|88:100|68:164,1,140,8|2,0:0|0:0,0:0:0:0:
184,164,144470,1,8,0:0:0:0:
200,276,144955,6,0,B|232:288|256:316|256:316|276:288|312:276,1,140,4|8,0:0|0:0,0:0:0:0:
416,236,145924,1,2,0:0:0:0:
412,124,146409,2,0,P|452:128|480:144,2,70,8|0|2,0:0|0:0|0:0,0:0:0:0:
340,40,147378,2,0,B|264:40|220:100,1,140,8|2,0:0|0:0,0:0:0:0:
112,132,148347,2,0,L|40:132,2,70,8|0|2,0:0|0:0|0:0,0:0:0:0:
204,200,149317,1,8,0:0:0:0:
284,280,149801,1,2,0:0:0:0:
376,344,150286,2,0,L|448:344,2,70,8|0|2,0:0|0:0|0:0,0:0:0:0:
384,232,151255,6,0,P|416:168|476:136,1,140,8|2,0:0|0:0,0:0:0:0:
492,248,152225,2,0,L|496:320,2,70,8|0|4,0:0|0:0|0:0,0:0:0:0:
420,164,153194,2,0,P|348:128|316:80,1,140,8|2,0:0|0:0,0:0:0:0:
256,172,154163,2,0,L|256:248,2,70,8|0|2,0:0|0:0|0:0,0:0:0:0:
196,76,155132,2,0,P|128:108|100:164,1,140,8|2,0:0|0:0,0:0:0:0:
68,272,156102,2,0,L|0:260,2,70,8|0|2,0:0|0:0|0:0,0:0:0:0:
176,300,157071,6,0,B|224:336|244:312|264:288|308:312,1,140,8|2,0:0|0:0,0:0:0:0:
408,260,158040,1,8,0:0:0:0:
420,204,158283,1,0,0:0:0:0:
432,148,158525,1,2,0:0:0:0:
460,40,159010,1,8,0:0:0:0:
352,72,159494,2,0,L|276:76,1,70,8|2,0:0|0:0,0:0:0:0:
228,84,159979,2,0,L|152:72,1,70,8|8,0:0|0:0,0:0:0:0:
104,68,160464,6,0,P|68:120|56:196,1,140,4|8,0:0|0:0,0:0:0:0:
84,304,161433,1,2,0:0:0:0:
196,308,161918,2,0,P|240:308|268:316,1,70,8|0,0:0|0:0,0:0:0:0:
316,336,162402,2,0,P|388:344|452:324,1,140,2|8,0:0|0:0,0:0:0:0:
376,244,163372,1,2,0:0:0:0:
348,136,163856,2,0,L|416:120,2,70,8|0|2,0:0|0:0|0:0,0:0:0:0:
248,84,164825,6,0,P|208:48|124:40,1,140,8|2,0:0|0:0,0:0:0:0:
148,148,165795,2,0,P|108:196|36:216,2,140,8|2|8,0:0|0:0|0:0,0:0:0:0:
256,172,167249,2,0,L|256:244,2,70,2|0|8,0:0|0:0|0:0,0:0:0:0:
352,228,168218,6,0,P|392:280|464:288,1,140,4|8,0:0|0:0,0:0:0:0:
456,176,169187,1,2,0:0:0:0:
360,120,169672,2,0,P|380:88|412:68,2,70,8|0|2,0:0|0:0|0:0,0:0:0:0:
256,164,170641,1,8,0:0:0:0:
256,52,171126,2,0,L|184:48,1,70,2|0,0:0|0:0,0:0:0:0:
88,100,171853,1,0,0:0:0:0:
88,100,172095,2,0,L|68:240,1,140,2|8,0:0|0:0,0:0:0:0:
120,352,173065,5,2,0:0:0:0:
136,240,173549,1,8,0:0:0:0:
244,268,174034,2,0,P|484:264|392:48,1,560,8|4,0:0|0:0,0:0:0:0:
280,68,176457,5,8,0:0:0:0:
172,44,176942,1,2,0:0:0:0:
80,104,177426,2,0,P|64:64|64:36,2,70,8|0|2,0:0|0:0|0:0,0:0:0:0:
188,132,178396,2,0,P|192:196|148:260,1,140,8|2,0:0|0:0,0:0:0:0:
72,336,179365,2,0,L|2:332,2,70,8|0|2,0:0|0:0|0:0,0:0:0:0:
184,332,180334,1,8,0:0:0:0:
284,284,180819,5,2,0:0:0:0:
388,236,181304,2,0,L|400:312,2,70,8|0|2,0:0|0:0|0:0,0:0:0:0:
436,136,182273,2,0,P|380:96|312:96,1,140,8|2,0:0|0:0,0:0:0:0:
204,124,183242,2,0,P|136:124|80:84,1,140,8|2,0:0|0:0,0:0:0:0:
40,188,184212,6,0,L|60:328,1,140,8|2,0:0|0:0,0:0:0:0:
172,340,185181,2,0,L|244:332,1,70,8|0,0:0|0:0,0:0:0:0:
296,344,185666,2,0,L|436:332,1,140,2|8,0:0|0:0,0:0:0:0:
456,220,186635,1,2,0:0:0:0:
456,220,186877,1,0,0:0:0:0:
428,112,187362,1,0,0:0:0:0:
428,112,187604,2,0,P|360:68|304:68,1,140,2|8,0:0|0:0,0:0:0:0:
200,108,188573,1,2,0:0:0:0:
256,192,189058,12,4,191481,1:0:0:0:
