osu file format v14

[General]
AudioFilename: audio.mp3
AudioLeadIn: 0
PreviewTime: -1
Countdown: 1
SampleSet: Normal
StackLeniency: 0.7
Mode: 0
LetterboxInBreaks: 0
WidescreenStoryboard: 1

[Editor]
DistanceSpacing: 1
BeatDivisor: 2
GridSize: 16
TimelineZoom: 2.4

[Metadata]
Title:Blood - C
TitleUnicode:Blood - C
Artist:Dustz Spiral
ArtistUnicode:Dustz Spiral
Creator:FixFlash13
Version:Normal
Source:
Tags:
BeatmapID:1250940
BeatmapSetID:590573

[Difficulty]
HPDrainRate:5
CircleSize:5
OverallDifficulty:5
ApproachRate:5
SliderMultiplier:1.2
SliderTickRate:1

[Events]
//Background and Video events
Video,0,"81207b1168.720.mp4"
//Break Periods
//Storyboard Layer 0 (Background)
//Storyboard Layer 1 (Fail)
//Storyboard Layer 2 (Pass)
//Storyboard Layer 3 (Foreground)
//Storyboard Sound Samples

[TimingPoints]
89.9704142011799,352.929585798816,4,1,0,100,1,0

[HitObjects]
144,64,442,6,0,B|224:128|272:96|272:64,1,120
368,80,1148,1,0,0:0:0:0:
368,80,1678,1,0,0:0:0:0:
368,80,2913,2,0,L|448:112,1,60
416,192,3266,2,0,P|320:240|288:224,1,120
192,240,3972,1,0,0:0:0:0:
176,208,4501,1,0,0:0:0:0:
144,176,5207,1,0,0:0:0:0:
160,96,6089,2,0,B|224:144|304:112|304:128,1,120
384,80,6795,1,0,0:0:0:0:
416,112,7325,1,0,0:0:0:0:
384,80,8560,2,0,L|448:112,1,60
416,208,8913,2,0,B|336:256|288:208|304:192,1,120
192,224,9619,1,0,0:0:0:0:
192,224,10324,2,0,L|128:176,8,60
368,208,12266,2,0,L|320:288,4,60
400,96,13324,1,0,0:0:0:0:
288,96,13677,1,0,0:0:0:0:
176,128,14030,1,0,0:0:0:0:
80,192,14383,2,0,L|144:256,1,60
240,256,15089,2,0,L|320:288,4,60
144,192,16148,1,0,0:0:0:0:
32,144,16501,1,0,0:0:0:0:
0,80,16854,1,0,0:0:0:0:
128,80,17207,6,0,L|240:80,1,60
368,80,17912,2,0,L|272:80,4,60
496,80,18971,1,0,0:0:0:0:
432,208,19324,1,0,0:0:0:0:
368,304,19677,1,0,0:0:0:0:
256,288,20030,1,0,0:0:0:0:
128,96,20912,2,0,L|384:144,2,240
96,272,23030,2,0,L|192:272,1,60
224,96,23736,2,0,L|304:128,3,60
400,80,24618,1,0,0:0:0:0:
432,192,24971,1,0,0:0:0:0:
336,256,25324,1,0,0:0:0:0:
256,128,25677,2,0,L|368:128,1,60
144,96,26383,2,0,L|80:160,4,60
256,48,27442,1,0,0:0:0:0:
320,144,27794,1,0,0:0:0:0:
416,208,28147,1,0,0:0:0:0:
368,96,28500,2,0,L|416:32,1,60
288,64,29206,2,0,L|208:64,4,60
400,80,30265,1,0,0:0:0:0:
352,192,30618,1,0,0:0:0:0:
240,208,30971,1,0,0:0:0:0:
112,80,31324,2,0,L|176:96,1,60
112,240,32206,2,0,L|352:256,2,240
288,80,34500,2,0,L|352:112,3,60
304,224,35382,2,0,L|240:288,3,60
144,256,36265,1,0,0:0:0:0:
208,112,37324,2,0,L|272:112,8,60
96,112,39088,1,0,0:0:0:0:
128,80,39971,2,0,L|416:112,4,240
128,80,43676,2,0,L|240:32,1,120
224,80,45617,2,0,L|352:96,1,120
384,144,46323,2,0,L|448:272,1,120
400,304,47029,2,0,L|240:336,1,120
224,304,47735,2,0,L|112:208,1,120
48,144,48441,1,0,0:0:0:0:
96,112,48970,2,0,L|192:64,1,60
336,64,49676,2,0,L|368:144,1,60
320,224,50382,2,0,P|288:256|240:304,1,60
128,80,51264,2,0,L|272:112,7,120
352,160,54088,1,0,0:0:0:0:
288,352,54617,2,0,L|192:304,1,60
176,160,55499,1,0,0:0:0:0:
288,64,56029,2,0,L|368:96,1,60
112,128,56911,1,0,0:0:0:0:
96,240,57264,2,0,L|160:272,1,60
256,320,57793,2,0,L|416:240,1,120
336,144,59205,2,0,L|256:112,3,60
160,96,60087,2,0,L|96:32,1,60
16,128,60617,1,0,0:0:0:0:
32,240,60970,1,0,0:0:0:0:
160,96,62205,2,0,L|304:96,1,120
400,112,63087,2,0,L|432:208,1,60
272,272,63793,2,0,L|160:240,1,60
64,160,64499,2,0,L|112:96,1,60
320,64,65381,2,0,L|432:128,7,120
416,240,68205,1,0,0:0:0:0:
304,240,68734,2,0,L|224:224,1,60
160,144,69440,2,0,L|96:64,1,60
240,64,70146,2,0,L|336:64,1,60
320,160,71028,2,0,L|288:288,8,120
160,80,74381,2,0,L|112:144,1,60
80,208,75087,2,0,L|128:288,1,60
192,288,75793,2,0,L|288:272,1,60
432,256,76675,1,0,0:0:0:0:
416,208,77028,2,0,L|368:128,1,60
272,96,77558,1,0,0:0:0:0:
272,96,77910,1,0,0:0:0:0:
80,144,78969,2,0,L|128:96,3,60
256,64,79852,2,0,L|320:80,1,60
384,176,80381,2,0,L|336:288,1,120
176,304,81969,2,0,L|112:160,1,120
144,96,82851,2,0,L|256:64,1,60
384,64,83557,2,0,L|471:65,1,60
384,208,84263,2,0,B|288:144|336:224,1,60
176,48,85146,6,0,B|320:-48|416:-32|544:0|640:80|624:272|448:368|240:336|128:288|96:192|80:160,1,960
