osu file format v14

[General]
AudioFilename: audio.mp3
AudioLeadIn: 0
PreviewTime: 238893
Countdown: 0
SampleSet: Drum
StackLeniency: 0.7
Mode: 2
LetterboxInBreaks: 0
WidescreenStoryboard: 0

[Editor]
Bookmarks: 10262,15314,30472,38051,40578,50683,69630,70893,86051,91104,101209,106893,111314,121420,131525,137841,139104,146683,149209,151735,159314,169420,179525,189630,199735,217420,219946,231314,237630,240157,250262,260367,270472,280578,290683,300788,310893,320999,331104,336788
DistanceSpacing: 2
BeatDivisor: 8
GridSize: 32
TimelineZoom: 3.999999

[Metadata]
Title:FireLight (Neokontrol Remix)
TitleUnicode:FireLight (Neokontrol Remix)
Artist:Dustvoxx, Laur
ArtistUnicode:Dustvoxx, Laur
Creator:-MomoX
Version:Shogun
Source:
Tags:AxS 6th Edition Ro16 Round of 16 Sixteen TB Tie Breaker Tiebreaker Ciyus Miapah Fort HAUNT Electronic Instrumental Psytrance Hardtek Psychadelic Pumpcore Tribecore Tribal
BeatmapID:2786115
BeatmapSetID:1345281

[Difficulty]
HPDrainRate:6
CircleSize:4
OverallDifficulty:9.6
ApproachRate:9.6
SliderMultiplier:1.93
SliderTickRate:2

[Events]
//Background and Video events
0,0,"80082867_p0 cropped.jpg",0,0
//Break Periods
//Storyboard Layer 0 (Background)
//Storyboard Layer 1 (Fail)
//Storyboard Layer 2 (Pass)
//Storyboard Layer 3 (Foreground)
//Storyboard Layer 4 (Overlay)
//Storyboard Sound Samples

[TimingPoints]
157,315.789473684211,4,3,1,80,1,0
10262,-100,4,2,1,80,0,0
15314,-100,4,2,1,60,0,0
15946,-100,4,2,1,60,0,0
16578,-100,4,2,1,80,0,0
18472,-100,4,2,1,90,0,0
22104,-100,4,2,1,80,0,0
29841,-66.6666666666667,4,2,1,80,0,0
30157,-100,4,2,1,80,0,0
30788,-66.6666666666667,4,2,1,80,0,0
31420,-100,4,2,1,80,0,0
33314,-66.6666666666667,4,2,1,80,0,0
33630,-66.6666666666667,4,2,1,90,0,0
33946,-100,4,2,1,90,0,0
37420,-66.6666666666667,4,2,1,100,0,0
38051,-100,4,2,1,100,0,0
40045,-100,4,2,1,100,0,0
40262,-100,4,2,1,100,0,0
40578,-83.3333333333333,4,2,1,70,0,0
45314,-83.3333333333333,4,2,1,90,0,0
45630,-83.3333333333333,4,2,1,70,0,0
50683,-83.3333333333333,4,2,1,80,0,0
70893,-71.4285714285714,4,1,1,80,0,0
86683,-100,4,1,1,80,0,0
88262,-100,4,2,1,90,0,0
89841,-71.4285714285714,4,2,1,90,0,0
91104,-71.4285714285714,4,2,1,90,0,1
91262,-71.4285714285714,4,2,1,80,0,1
95525,-71.4285714285714,4,2,1,80,0,0
96157,-71.4285714285714,4,2,1,80,0,1
98051,-71.4285714285714,4,2,1,80,0,0
98683,-71.4285714285714,4,2,1,80,0,1
99946,-71.4285714285714,4,2,1,80,0,0
101209,-71.4285714285714,4,2,1,100,0,1
101525,-71.4285714285714,4,2,1,80,0,1
110683,-71.4285714285714,4,2,1,80,0,0
111314,-71.4285714285714,4,2,1,80,0,1
128999,-71.4285714285714,4,2,1,70,0,0
130262,-71.4285714285714,4,2,1,90,0,0
131525,-71.4285714285714,4,2,1,100,0,1
139104,-71.4285714285714,4,2,1,80,0,1
149209,-71.4285714285714,4,2,1,80,0,0
150472,-71.4285714285714,4,2,1,80,0,0
151104,-83.3333333333333,4,2,1,80,0,0
151735,-76.9230769230769,4,2,1,80,0,1
155525,-76.9230769230769,4,2,1,60,0,1
156157,-76.9230769230769,4,2,1,40,0,1
156788,-100,4,2,1,40,0,0
157104,-100,4,2,1,60,0,0
158051,-100,4,2,1,80,0,1
158683,-66.6666666666667,4,2,1,80,0,0
159314,-76.9230769230769,4,2,1,100,0,1
159420,-76.9230769230769,4,2,1,100,0,0
179209,-71.4285714285714,4,2,1,100,0,0
179525,-71.4285714285714,4,2,1,100,0,0
199735,-66.6666666666667,4,2,1,100,0,1
216157,-66.6666666666667,4,2,1,80,0,1
216788,-66.6666666666667,4,2,1,60,0,1
217420,-76.9230769230769,4,2,1,60,0,0
219630,-76.9230769230769,4,2,1,80,0,0
219946,-100,4,2,1,100,0,0
221209,-100,4,2,1,70,0,0
230051,-100,4,2,1,50,0,0
231314,-100,4,2,1,60,0,0
231946,-100,4,2,1,70,0,0
232578,-100,4,2,1,80,0,0
234472,-100,4,2,1,90,0,0
235104,-100,4,2,1,100,0,0
240157,-100,4,2,1,80,0,0
259104,-66.6666666666667,4,2,1,80,0,0
259735,-66.6666666666667,4,2,1,100,0,0
260367,-71.4285714285714,4,1,1,90,0,1
279314,-71.4285714285714,4,1,1,90,0,0
280578,-71.4285714285714,4,1,1,90,0,1
290683,-71.4285714285714,4,1,1,100,0,1
320999,-100,4,2,1,80,0,0
331735,-100,4,2,1,70,0,0
332367,-100,4,2,1,40,0,0
332999,-100,4,2,1,20,0,0

[Colours]
Combo1 : 82,82,82
Combo2 : 204,0,0
Combo3 : 144,144,144
Combo4 : 255,62,62

[HitObjects]
293,254,157,6,0,L|432:253,1,96.5,2|0,0:0|0:0,0:0:0:0:
235,174,472,2,0,L|100:174,2,96.5,8|0|0,0:0|0:0|0:0,0:0:0:0:
390,103,946,2,0,L|389:231,1,96.5,8|0,0:0|0:0,0:0:0:0:
292,203,1262,1,8,0:0:0:0:
65,119,1420,6,0,L|163:119,2,96.5,2|0|8,0:0|0:0|0:0,0:0:0:0:
220,170,1893,1,0,0:0:0:0:
65,119,2051,1,4,0:0:0:0:
279,113,2367,2,0,L|279:179,1,48.25,8|0,0:0|0:0,0:0:0:0:
196,192,2525,2,0,L|196:251,1,48.25,0|0,0:0|0:0,0:0:0:0:
382,250,2683,6,0,L|500:250,1,96.5,2|0,0:0|0:0,0:0:0:0:
323,150,2999,2,0,L|419:150,2,96.5,8|0|0,0:0|0:0|0:0,0:0:0:0:
168,127,3472,2,0,L|168:237,1,96.5,8|0,0:0|0:0,0:0:0:0:
265,221,3788,1,8,0:0:0:0:
487,276,3946,6,0,L|487:158,1,96.5,2|0,0:0|0:0,0:0:0:0:
390,276,4262,1,8,0:0:0:0:
235,209,4420,1,0,0:0:0:0:
398,246,4578,2,0,P|445:199|390:154,1,144.75,4|0,0:0|0:0,0:0:0:0:
229,143,4893,2,8,L|342:143,1,96.5,8|2,0:0|0:0,0:0:0:0:
101,228,5209,6,0,L|101:110,1,96.5,2|0,0:0|0:0,0:0:0:0:
256,85,5525,2,0,L|142:85,2,96.5,8|0|0,0:0|0:0|0:0,0:0:0:0:
411,98,5999,2,0,L|411:226,1,96.5,8|0,0:0|0:0,0:0:0:0:
314,194,6314,1,8,0:0:0:0:
91,154,6472,6,0,L|224:154,2,96.5,2|0|8,0:0|0:0|0:0,0:0:0:0:
246,113,6946,1,0,0:0:0:0:
23,152,7104,1,4,0:0:0:0:
300,158,7420,1,8,0:0:0:0:
322,206,7498,1,0,0:0:0:0:
289,254,7577,1,0,0:0:0:0:
235,262,7656,1,0,0:0:0:0:
58,254,7735,6,0,L|166:254,1,96.5,2|0,0:0|0:0,0:0:0:0:
310,100,8051,2,0,L|180:100,2,96.5,8|0|0,0:0|0:0|0:0,0:0:0:0:
155,179,8525,1,8,0:0:0:0:
251,179,8682,1,0,0:0:0:0:
348,178,8840,1,8,0:0:0:0:
123,222,8999,5,2,0:0:0:0:
63,233,9077,1,0,0:0:0:0:
47,277,9156,1,0,0:0:0:0:
85,189,9196,1,0,0:0:0:0:
123,222,9235,1,0,0:0:0:0:
271,157,9314,1,8,0:0:0:0:
271,157,9472,1,0,0:0:0:0:
126,135,9630,1,4,0:0:0:0:
271,157,9788,1,0,0:0:0:0:
49,230,9946,1,8,0:0:0:0:
194,252,10104,1,2,0:0:0:0:
445,218,10262,6,0,P|492:174|385:126,1,193,2|0,0:0|0:0,0:0:0:0:
263,112,10735,2,0,L|142:112,2,96.5,0|0|0,0:0|0:0|0:0,0:0:0:0:
108,226,11209,2,0,L|237:226,1,96.5,0|0,0:0|0:0,0:0:0:0:
428,139,11525,6,0,L|428:266,1,96.5,0|0,0:0|0:0,0:0:0:0:
271,224,11841,2,0,L|129:224,1,96.5,0|4,0:0|0:0,0:0:0:0:
243,164,12078,1,4,0:0:0:0:
407,94,12157,1,0,0:0:0:0:
195,268,12472,1,4,0:0:0:0:
195,268,12630,1,0,0:0:0:0:
485,127,12788,6,0,L|485:231,1,96.5,2|0,0:0|0:0,0:0:0:0:
319,274,13104,1,0,0:0:0:0:
416,273,13262,2,0,L|416:155,1,96.5,0|0,0:0|0:0,0:0:0:0:
261,118,13578,2,0,L|374:118,2,96.5,0|0|0,0:0|0:0|0:0,0:0:0:0:
483,133,14051,6,0,L|370:133,2,96.5,0|0|0,0:0|0:0|0:0,0:0:0:0:
318,211,14525,1,4,0:1:0:0:
372,177,14604,1,4,0:1:0:0:
426,145,14683,1,2,0:0:0:0:
233,103,14999,1,2,0:0:0:0:
387,103,15157,1,4,0:0:0:0:
166,160,15314,6,0,L|59:160,1,96.5,2|0,0:0|0:0,0:0:0:0:
235,270,15630,2,0,L|116:270,1,96.5,2|0,0:0|0:0,0:0:0:0:
304,327,15946,2,0,L|415:327,1,96.5,2|0,0:0|0:0,0:0:0:0:
235,218,16262,2,0,L|124:218,1,96.5,2|0,0:0|0:0,0:0:0:0:
362,294,16578,6,0,L|362:181,1,96.5,6|0,0:0|0:0,0:0:0:0:
265,204,16893,1,2,0:0:0:0:
111,167,17051,2,0,L|174:167,1,48.25,4|0,0:1|0:0,0:0:0:0:
316,77,17209,2,0,L|316:186,1,96.5,2|0,0:0|0:0,0:0:0:0:
151,251,17525,2,0,L|260:251,1,96.5,2|0,0:0|0:0,0:0:0:0:
24,62,17841,6,0,L|24:177,1,96.5,2|0,0:0|0:0,0:0:0:0:
189,194,18157,2,0,L|189:309,1,96.5,2|0,0:0|0:0,0:0:0:0:
353,208,18472,2,0,L|244:208,1,96.5,2|0,0:0|0:0,0:0:0:0:
91,102,18788,2,0,L|200:102,1,96.5,2|0,0:0|0:0,0:0:0:0:
412,151,19104,6,0,L|306:151,2,96.5,2|0|2,0:0|0:0|0:0,0:0:0:0:
247,200,19578,2,0,L|129:200,2,96.5,0|2|4,0:0|0:0|0:1,0:0:0:0:
305,199,19972,1,4,0:1:0:0:
155,90,20051,1,2,0:0:0:0:
301,64,20209,1,4,0:0:0:0:
77,69,20367,6,0,L|77:180,1,96.5,2|0,0:0|0:0,0:0:0:0:
242,268,20683,2,0,L|125:268,1,96.5,0|0,0:0|0:0,0:0:0:0:
311,305,20999,2,0,L|311:194,1,96.5,0|0,0:0|0:0,0:0:0:0:
146,106,21315,2,0,L|263:106,1,96.5,0|0,0:0|0:0,0:0:0:0:
19,57,21630,6,0,L|20:171,1,96.5,0|0,0:0|0:0,0:0:0:0:
185,220,21946,2,0,L|296:220,1,96.5,0|4,0:0|0:1,0:0:0:0:
227,177,22183,1,4,0:1:0:0:
79,59,22262,2,0,L|79:171,1,96.5,2|0,0:0|0:0,0:0:0:0:
245,97,22578,2,0,L|245:208,1,96.5,2|0,0:0|0:0,0:0:0:0:
468,310,22893,6,0,L|468:203,1,96.5,2|0,0:0|0:0,0:0:0:0:
303,157,23209,2,0,L|422:157,1,96.5,0|0,0:0|0:0,0:0:0:0:
234,270,23525,2,0,L|115:270,1,96.5,0|0,0:0|0:0,0:0:0:0:
362,193,23841,1,6,0:0:0:0:
197,164,23999,1,0,0:0:0:0:
419,253,24157,6,0,L|419:112,1,96.5,0|0,0:0|0:0,0:0:0:0:
255,29,24472,2,0,L|255:170,1,96.5,0|4,0:0|0:1,0:0:0:0:
314,122,24709,1,4,0:1:0:0:
469,122,24788,2,0,P|425:220|404:217,1,144.75,2|0,0:0|0:0,0:0:0:0:
260,215,25104,1,2,0:0:0:0:
405,151,25262,1,4,0:0:0:0:
183,71,25420,6,0,L|183:193,1,96.5,2|0,0:0|0:0,0:0:0:0:
347,173,25735,2,0,L|229:173,1,96.5,2|0,0:0|0:0,0:0:0:0:
416,290,26051,2,0,L|298:290,1,96.5,0|0,0:0|0:0,0:0:0:0:
96,206,26367,1,6,0:0:0:0:
259,215,26525,1,0,0:0:0:0:
37,91,26683,5,2,0:0:0:0:
201,168,26841,2,0,L|82:168,2,96.5,0|0|4,0:0|0:0|0:1,0:0:0:0:
272,168,27235,1,4,0:1:0:0:
116,315,27314,2,0,L|5:315,1,96.5,2|0,0:0|0:0,0:0:0:0:
185,206,27630,2,0,L|185:93,1,96.5,2|4,0:0|0:0,0:0:0:0:
409,60,27946,6,0,L|409:166,1,96.5,2|0,0:0|0:0,0:0:0:0:
244,166,28262,1,2,0:0:0:0:
408,190,28420,2,0,L|299:190,2,96.5,0|2|0,0:0|0:0|0:0,0:0:0:0:
186,89,28893,1,6,0:0:0:0:
350,120,29051,1,0,0:0:0:0:
128,122,29209,6,0,L|128:228,1,96.5,2|0,0:0|0:0,0:0:0:0:
293,322,29525,2,0,L|181:322,1,96.5,2|4,0:0|0:1,0:0:0:0:
265,258,29762,1,4,0:1:0:0:
421,191,29841,2,0,L|421:102,1,72.3750027608873,2|0,0:0|0:0,0:0:0:0:
384,184,29959,1,0,0:0:0:0:
348,194,29999,2,0,L|256:194,1,72.3750027608873,4|4,0:1|0:1,0:0:0:0:
119,113,30157,1,2,0:0:0:0:
282,88,30314,1,4,0:0:0:0:
60,263,30472,6,0,L|164:263,1,96.5,2|0,0:0|0:0,0:0:0:0:
230,261,30709,1,0,0:0:0:0:
411,201,30788,2,0,L|411:114,1,72.3750027608873,0|0,0:0|0:0,0:0:0:0:
338,211,30946,2,0,L|233:210,1,72.3750027608873,0|0,0:0|0:0,0:0:0:0:
82,216,31104,2,0,L|82:120,1,72.3750027608873,0|0,0:0|0:0,0:0:0:0:
155,226,31262,2,0,L|260:225,1,72.3750027608873,0|0,0:0|0:0,0:0:0:0:
379,186,31420,1,6,0:0:0:0:
224,83,31578,1,0,0:0:0:0:
446,147,31735,6,0,L|329:147,1,96.5,2|0,0:0|0:0,0:0:0:0:
184,226,32051,2,0,L|291:226,1,96.5,2|4,0:0|0:1,0:0:0:0:
212,184,32288,1,4,0:1:0:0:
55,185,32367,2,0,L|55:80,1,96.5,2|0,0:0|0:0,0:0:0:0:
220,80,32683,2,0,L|336:80,1,96.5,2|0,0:0|0:0,0:0:0:0:
86,209,32999,5,2,0:0:0:0:
72,255,33077,1,0,0:0:0:0:
91,299,33156,1,0,0:0:0:0:
136,314,33235,1,0,0:0:0:0:
319,309,33314,2,0,L|319:213,1,72.3750027608873,0|0,0:0|0:0,0:0:0:0:
246,319,33472,2,0,L|141:318,1,72.3750027608873,0|0,0:0|0:0,0:0:0:0:
357,174,33630,2,0,L|268:148,1,72.3750027608873,0|0,0:0|0:0,0:0:0:0:
221,135,33788,1,0,0:0:0:0:
364,116,33946,1,2,0:0:0:0:
217,20,34104,1,0,0:0:0:0:
440,206,34262,5,2,0:0:0:0:
286,151,34420,2,0,L|286:269,1,96.5,0|2,0:0|0:0,0:0:0:0:
440,206,34735,1,0,0:0:0:0:
218,321,34893,2,0,L|218:204,1,96.5,6|0,0:0|0:0,0:0:0:0:
383,212,35209,2,0,L|383:105,1,96.5,2|0,0:0|0:0,0:0:0:0:
159,86,35525,6,0,L|41:86,1,96.5,6|0,0:0|0:0,0:0:0:0:
286,312,35841,2,0,L|286:199,1,96.5,2|0,0:0|0:0,0:0:0:0:
121,201,36157,2,0,L|121:314,1,96.5,2|0,0:0|0:0,0:0:0:0:
285,151,36472,2,0,L|381:151,1,96.5,2|0,0:0|0:0,0:0:0:0:
158,139,36788,6,0,P|91:189|162:238,1,193,2|2,0:0|0:0,0:0:0:0:
321,280,37262,1,0,0:0:0:0:
99,299,37420,2,0,L|70:270,2,36.1875013804436,2|0|0,0:0|0:0|0:0,0:0:0:0:
172,309,37578,2,0,L|244:308,1,72.3750027608873,2|2,0:0|0:0,0:0:0:0:
490,259,37736,1,2,0:0:0:0:
335,156,37894,1,2,0:0:0:0:
99,299,38051,5,2,0:0:0:0:
243,211,38209,1,0,0:0:0:0:
151,161,38367,1,0,0:0:0:0:
151,161,38525,1,0,0:0:0:0:
315,104,38683,2,0,P|361:157|309:190,1,144.75,0|0,0:0|0:0,0:0:0:0:
238,286,38999,2,0,P|192:233|244:200,1,144.75,0|0,0:0|0:0,0:0:0:0:
314,121,39314,5,0,0:0:0:0:
379,101,39433,2,0,L|404:72,2,24.125,0|0|0,0:0|0:0|0:0,0:0:0:0:
314,121,39551,1,0,0:0:0:0:
237,146,39630,1,0,0:0:0:0:
169,172,39709,1,0,0:0:0:0:
237,146,39788,1,0,0:0:0:0:
82,173,39946,6,0,L|54:203,1,32.1666666666667
82,173,40051,2,0,L|210:237,1,128.666666666667
237,176,40314,1,0,0:0:0:0:
130,273,40420,1,0,0:0:0:0:
427,193,40578,5,2,0:0:0:0:
477,170,40656,1,0,0:0:0:0:
476,116,40735,1,0,0:0:0:0:
426,94,40814,1,0,0:0:0:0:
271,97,40893,2,0,L|199:97,1,57.8999982330323,2|0,0:0|0:0,0:0:0:0:
357,155,41051,1,0,0:0:0:0:
368,210,41129,1,0,0:0:0:0:
341,259,41208,1,2,0:0:0:0:
288,279,41287,1,0,0:0:0:0:
124,259,41367,2,0,L|214:259,1,57.8999982330323,0|0,0:0|0:0,0:0:0:0:
347,210,41525,2,0,L|347:289,1,57.8999982330323,2|0,0:0|0:0,0:0:0:0:
259,279,41683,2,0,L|259:355,1,57.8999982330323,0|0,0:0|0:0,0:0:0:0:
423,337,41841,6,0,L|495:337,1,57.8999982330323,2|0,0:0|0:0,0:0:0:0:
316,329,41999,1,0,0:0:0:0:
250,298,42077,1,0,0:0:0:0:
253,225,42156,1,2,0:0:0:0:
322,202,42235,1,0,0:0:0:0:
463,198,42314,2,0,L|463:106,1,57.8999982330323,0|0,0:0|0:0,0:0:0:0:
274,42,42472,1,2,0:0:0:0:
231,89,42550,1,0,0:0:0:0:
246,147,42629,1,0,0:0:0:0:
298,179,42708,1,0,0:0:0:0:
386,171,42788,1,2,0:0:0:0:
435,176,42866,1,0,0:0:0:0:
472,230,42945,1,0,0:0:0:0:
462,285,43024,1,0,0:0:0:0:
249,330,43104,5,2,0:0:0:0:
199,306,43182,1,0,0:0:0:0:
199,251,43261,1,0,0:0:0:0:
248,227,43340,1,0,0:0:0:0:
413,241,43420,2,0,L|482:242,1,57.8999982330323,2|0,0:0|0:0,0:0:0:0:
306,321,43578,1,0,0:0:0:0:
251,306,43656,1,0,0:0:0:0:
224,257,43735,1,2,0:0:0:0:
240,204,43814,1,0,0:0:0:0:
403,156,43893,2,0,L|315:156,1,57.8999982330323,0|0,0:0|0:0,0:0:0:0:
181,53,44051,2,0,L|181:157,1,57.8999982330323,2|0,0:0|0:0,0:0:0:0:
269,111,44209,2,0,L|269:212,1,57.8999982330323,0|0,0:0|0:0,0:0:0:0:
105,253,44367,6,0,L|30:253,1,57.8999982330323,2|0,0:0|0:0,0:0:0:0:
186,191,44525,2,0,L|259:191,1,57.8999982330323,0|0,0:0|0:0,0:0:0:0:
406,171,44683,1,2,0:0:0:0:
454,196,44761,1,0,0:0:0:0:
454,252,44840,1,0,0:0:0:0:
405,277,44919,1,0,0:0:0:0:
316,309,44999,1,2,0:0:0:0:
261,294,45077,1,0,0:0:0:0:
234,244,45156,1,0,0:0:0:0:
249,190,45235,1,0,0:0:0:0:
418,202,45314,1,2,0:0:0:0:
358,226,45392,1,0,0:0:0:0:
297,247,45471,1,0,0:0:0:0:
236,268,45550,1,0,0:0:0:0:
401,333,45630,5,2,0:0:0:0:
443,297,45708,1,0,0:0:0:0:
431,243,45787,1,0,0:0:0:0:
378,229,45866,1,0,0:0:0:0:
215,232,45946,2,0,L|112:231,1,57.8999982330323,2|0,0:0|0:0,0:0:0:0:
322,206,46104,1,0,0:0:0:0:
342,153,46182,1,0,0:0:0:0:
314,104,46262,1,2,0:0:0:0:
259,95,46340,1,0,0:0:0:0:
95,93,46420,2,0,L|163:93,1,57.8999982330323,0|0,0:0|0:0,0:0:0:0:
317,188,46578,2,0,L|317:281,1,57.8999982330323,2|0,0:0|0:0,0:0:0:0:
230,263,46735,2,0,L|125:263,1,57.8999982330323,0|0,0:0|0:0,0:0:0:0:
337,95,46893,6,0,L|416:95,1,57.8999982330323,2|0,0:0|0:0,0:0:0:0:
230,159,47051,1,0,0:0:0:0:
163,189,47129,1,0,0:0:0:0:
165,262,47208,1,2,0:0:0:0:
232,290,47287,1,0,0:0:0:0:
397,293,47367,1,0,0:0:0:0:
257,288,47446,1,0,0:0:0:0:
117,285,47525,1,2,0:0:0:0:
108,228,47603,1,0,0:0:0:0:
138,180,47682,1,0,0:0:0:0:
191,160,47761,1,0,0:0:0:0:
280,71,47841,1,2,0:0:0:0:
328,97,47919,1,0,0:0:0:0:
329,152,47998,1,0,0:0:0:0:
281,180,48077,1,0,0:0:0:0:
116,243,48157,6,0,L|195:243,3,57.8999982330323,2|0|0|0,0:0|0:0|0:0|0:0,0:0:0:0:
314,245,48472,2,0,L|314:178,1,57.8999982330323,2|0,0:0|0:0,0:0:0:0:
230,181,48630,2,0,L|160:180,1,57.8999982330323,0|0,0:0|0:0,0:0:0:0:
338,77,48788,1,2,0:0:0:0:
388,97,48866,1,0,0:0:0:0:
389,151,48945,1,0,0:0:0:0:
339,172,49024,1,0,0:0:0:0:
196,173,49104,2,0,L|196:270,1,57.8999982330323,2|0,0:0|0:0,0:0:0:0:
284,321,49262,2,0,L|284:228,1,57.8999982330323,0|0,0:0|0:0,0:0:0:0:
119,273,49420,6,0,L|198:273,3,57.8999982330323,2|0|0|0,0:0|0:0|0:0|0:0,0:0:0:0:
317,275,49735,2,0,L|232:275,1,57.8999982330323,2|0,0:0|0:0,0:0:0:0:
176,273,49893,2,0,L|100:273,1,57.8999982330323,0|0,0:0|0:0,0:0:0:0:
283,215,50051,1,2,0:0:0:0:
330,187,50129,1,0,0:0:0:0:
330,132,50208,1,4,0:1:0:0:
282,105,50287,1,4,0:1:0:0:
141,100,50367,2,0,L|64:101,1,57.8999982330323,2|0,0:0|0:0,0:0:0:0:
253,162,50525,2,0,L|330:161,1,57.8999982330323,6|6,0:1|0:1,0:0:0:0:
468,236,50683,5,6,0:0:0:0:
478,180,50761,1,0,0:0:0:0:
448,131,50840,1,0,0:0:0:0:
394,115,50919,1,0,0:0:0:0:
251,123,50999,1,6,0:0:0:0:
240,178,51077,1,0,0:0:0:0:
270,227,51156,1,0,0:0:0:0:
324,243,51235,1,0,0:0:0:0:
184,201,51314,1,6,0:0:0:0:
173,256,51392,1,0,0:0:0:0:
203,305,51471,1,0,0:0:0:0:
257,321,51550,1,0,0:0:0:0:
398,185,51630,1,6,0:0:0:0:
409,130,51709,1,0,0:0:0:0:
379,81,51787,1,0,0:0:0:0:
325,65,51866,1,0,0:0:0:0:
184,104,51946,5,6,0:0:0:0:
133,123,52024,1,0,0:0:0:0:
133,177,52103,1,0,0:0:0:0:
184,197,52182,1,0,0:0:0:0:
325,279,52262,1,6,0:0:0:0:
375,259,52340,1,0,0:0:0:0:
375,205,52419,1,0,0:0:0:0:
324,185,52498,1,0,0:0:0:0:
181,187,52578,1,6,0:0:0:0:
125,194,52656,1,0,0:0:0:0:
90,239,52735,1,0,0:0:0:0:
98,294,52814,1,0,0:0:0:0:
260,302,52893,1,6,0:0:0:0:
200,278,52971,1,4,0:0:0:0:
139,257,53050,1,4,0:0:0:0:
78,236,53129,1,4,0:0:0:0:
254,233,53209,5,6,0:0:0:0:
303,210,53287,1,0,0:0:0:0:
304,155,53366,1,0,0:0:0:0:
254,131,53445,1,0,0:0:0:0:
397,265,53525,1,6,0:0:0:0:
446,242,53603,1,0,0:0:0:0:
447,187,53682,1,0,0:0:0:0:
397,163,53761,1,0,0:0:0:0:
217,166,53841,1,6,0:0:0:0:
192,216,53919,1,0,0:0:0:0:
216,267,53998,1,0,0:0:0:0:
270,282,54077,1,0,0:0:0:0:
433,180,54157,1,6,0:0:0:0:
457,129,54235,1,0,0:0:0:0:
433,78,54314,1,0,0:0:0:0:
379,63,54393,1,0,0:0:0:0:
216,80,54472,5,6,0:0:0:0:
192,131,54550,1,0,0:0:0:0:
216,182,54629,1,0,0:0:0:0:
270,197,54708,1,0,0:0:0:0:
127,192,54788,1,6,0:0:0:0:
103,243,54866,1,0,0:0:0:0:
127,294,54945,1,0,0:0:0:0:
181,309,55024,1,0,0:0:0:0:
324,328,55104,1,6,0:0:0:0:
373,305,55182,1,0,0:0:0:0:
374,250,55261,1,0,0:0:0:0:
324,226,55340,1,0,0:0:0:0:
148,197,55420,1,6,0:0:0:0:
208,155,55499,2,0,L|207:238,1,57.8999982330323,4|4,0:0|0:0,0:0:0:0:
148,197,55657,1,4,0:0:0:0:
308,261,55735,5,6,0:0:0:0:
332,210,55813,1,0,0:0:0:0:
308,159,55892,1,0,0:0:0:0:
254,144,55971,1,0,0:0:0:0:
108,208,56051,1,6,0:0:0:0:
84,157,56129,1,0,0:0:0:0:
108,106,56208,1,0,0:0:0:0:
162,91,56287,1,0,0:0:0:0:
331,84,56367,1,6,0:0:0:0:
380,109,56445,1,0,0:0:0:0:
381,164,56524,1,0,0:0:0:0:
333,191,56603,1,0,0:0:0:0:
134,296,56683,1,6,0:0:0:0:
110,245,56761,1,0,0:0:0:0:
134,194,56840,1,0,0:0:0:0:
188,179,56919,1,0,0:0:0:0:
352,274,56999,5,6,0:0:0:0:
376,223,57077,1,0,0:0:0:0:
352,172,57156,1,0,0:0:0:0:
298,157,57235,1,0,0:0:0:0:
443,163,57314,1,6,0:0:0:0:
467,112,57392,1,0,0:0:0:0:
443,61,57471,1,0,0:0:0:0:
389,46,57550,1,0,0:0:0:0:
225,44,57630,1,6,0:0:0:0:
171,59,57709,1,0,0:0:0:0:
147,110,57788,1,0,0:0:0:0:
171,161,57866,1,0,0:0:0:0:
360,257,57946,1,6,0:0:0:0:
300,233,58024,1,4,0:0:0:0:
239,212,58103,1,4,0:0:0:0:
178,191,58182,1,4,0:0:0:0:
331,118,58262,5,6,0:0:0:0:
270,112,58341,1,0,0:0:0:0:
331,118,58420,1,0,0:0:0:0:
392,125,58499,1,0,0:0:0:0:
250,320,58578,1,6,0:0:0:0:
194,311,58656,1,0,0:0:0:0:
170,261,58735,1,0,0:0:0:0:
198,213,58814,1,0,0:0:0:0:
361,193,58893,2,0,L|361:123,1,57.8999982330323,6|0,0:0|0:0,0:0:0:0:
273,37,59051,2,0,L|274:119,1,57.8999982330323,0|0,0:0|0:0,0:0:0:0:
421,291,59209,1,6,0:0:0:0:
445,240,59287,1,0,0:0:0:0:
421,189,59366,1,0,0:0:0:0:
367,174,59445,1,0,0:0:0:0:
203,115,59525,5,6,0:0:0:0:
264,109,59604,1,0,0:0:0:0:
203,115,59683,1,0,0:0:0:0:
142,122,59762,1,0,0:0:0:0:
284,317,59841,1,6,0:0:0:0:
340,308,59919,1,0,0:0:0:0:
364,258,59998,1,0,0:0:0:0:
336,210,60077,1,0,0:0:0:0:
191,168,60157,1,6,0:0:0:0:
139,186,60235,1,0,0:0:0:0:
136,241,60314,1,0,0:0:0:0:
185,265,60393,1,0,0:0:0:0:
327,88,60472,2,0,L|327:185,1,57.8999982330323,6|4,0:0|0:0,0:0:0:0:
239,162,60630,2,0,L|239:252,1,57.8999982330323,4|4,0:0|0:0,0:0:0:0:
429,284,60788,5,6,0:0:0:0:
477,258,60866,1,0,0:0:0:0:
477,203,60945,1,0,0:0:0:0:
427,178,61024,1,0,0:0:0:0:
262,147,61104,1,6,0:0:0:0:
231,192,61182,1,0,0:0:0:0:
249,245,61261,1,0,0:0:0:0:
302,261,61340,1,0,0:0:0:0:
138,193,61420,1,6,0:0:0:0:
106,238,61498,1,0,0:0:0:0:
124,291,61577,1,0,0:0:0:0:
177,307,61656,1,0,0:0:0:0:
340,308,61735,1,6,0:0:0:0:
388,282,61813,1,0,0:0:0:0:
388,227,61892,1,0,0:0:0:0:
338,202,61971,1,0,0:0:0:0:
174,54,62051,5,6,0:0:0:0:
126,80,62129,1,0,0:0:0:0:
126,135,62208,1,0,0:0:0:0:
176,160,62287,1,0,0:0:0:0:
340,152,62367,2,0,L|410:152,1,57.8999982330323,6|0,0:0|0:0,0:0:0:0:
340,152,62525,1,0,0:0:0:0:
201,198,62604,1,0,0:0:0:0:
62,203,62683,1,6,0:0:0:0:
41,254,62761,1,0,0:0:0:0:
69,302,62840,1,0,0:0:0:0:
125,309,62919,1,0,0:0:0:0:
290,296,62999,1,6,0:0:0:0:
230,272,63077,1,4,0:0:0:0:
169,251,63156,1,4,0:0:0:0:
108,230,63235,1,4,0:0:0:0:
270,214,63314,5,6,0:0:0:0:
319,188,63392,1,0,0:0:0:0:
319,133,63471,1,0,0:0:0:0:
270,108,63550,1,0,0:0:0:0:
106,106,63630,1,6,0:0:0:0:
77,153,63708,1,0,0:0:0:0:
102,202,63787,1,0,0:0:0:0:
157,207,63866,1,0,0:0:0:0:
322,284,63946,1,6,0:0:0:0:
350,236,64024,1,0,0:0:0:0:
325,187,64103,1,0,0:0:0:0:
270,182,64182,1,0,0:0:0:0:
434,173,64262,1,6,0:0:0:0:
494,174,64340,1,0,0:0:0:0:
434,173,64419,1,0,0:0:0:0:
373,171,64498,1,0,0:0:0:0:
206,171,64578,5,6,0:0:0:0:
142,169,64657,1,0,0:0:0:0:
79,164,64735,1,0,0:0:0:0:
142,169,64814,1,0,0:0:0:0:
305,260,64893,1,6,0:0:0:0:
355,238,64971,1,0,0:0:0:0:
354,183,65050,1,0,0:0:0:0:
304,163,65129,1,0,0:0:0:0:
140,95,65209,1,6,0:0:0:0:
89,116,65287,1,0,0:0:0:0:
90,171,65366,1,0,0:0:0:0:
140,191,65445,1,0,0:0:0:0:
303,284,65525,2,0,L|376:284,1,57.8999982330323,6|0,0:0|0:0,0:0:0:0:
219,202,65683,2,0,L|136:202,1,57.8999982330323,4|0,0:0|0:0,0:0:0:0:
337,246,65841,5,6,0:0:0:0:
387,224,65919,1,0,0:0:0:0:
385,170,65998,1,0,0:0:0:0:
334,151,66077,1,0,0:0:0:0:
194,59,66157,2,0,L|194:134,1,57.8999982330323,6|0,0:0|0:0,0:0:0:0:
281,117,66314,2,0,L|281:198,1,57.8999982330323,0|0,0:0|0:0,0:0:0:0:
140,191,66472,1,6,0:0:0:0:
89,212,66550,1,0,0:0:0:0:
91,266,66629,1,0,0:0:0:0:
142,285,66708,1,0,0:0:0:0:
285,262,66788,2,0,L|374:262,1,57.8999982330323,6|0,0:0|0:0,0:0:0:0:
277,219,66946,1,0,0:0:0:0:
211,220,67025,1,0,0:0:0:0:
352,91,67104,5,6,0:0:0:0:
373,142,67182,1,0,0:0:0:0:
349,193,67261,1,0,0:0:0:0:
295,209,67340,1,0,0:0:0:0:
436,214,67420,1,6,0:0:0:0:
457,265,67498,1,0,0:0:0:0:
433,316,67577,1,0,0:0:0:0:
379,332,67656,1,0,0:0:0:0:
217,328,67735,1,6,0:0:0:0:
168,301,67813,1,0,0:0:0:0:
169,245,67892,1,0,0:0:0:0:
217,219,67971,1,0,0:0:0:0:
382,98,68051,1,6,0:0:0:0:
430,124,68129,1,4,0:0:0:0:
429,180,68208,1,4,0:0:0:0:
381,206,68287,1,4,0:0:0:0:
221,157,68367,6,0,L|330:158,1,57.8999982330323,6|0,0:0|0:0,0:0:0:0:
221,157,68525,2,0,L|138:157,1,57.8999982330323,0|0,0:0|0:0,0:0:0:0:
329,259,68683,1,6,0:0:0:0:
335,203,68761,1,0,0:0:0:0:
299,160,68840,1,0,0:0:0:0:
243,158,68919,1,0,0:0:0:0:
408,190,68999,1,6,0:0:0:0:
459,172,69077,1,0,0:0:0:0:
459,118,69156,1,0,0:0:0:0:
408,101,69235,1,0,0:0:0:0:
245,83,69314,2,0,L|150:83,1,57.8999982330323,6|0,0:0|0:0,0:0:0:0:
328,142,69472,2,0,L|431:142,1,57.8999982330323,0|0,0:0|0:0,0:0:0:0:
225,247,69630,5,2,0:0:0:0:
365,249,69788,1,0,0:0:0:0:
225,247,69946,1,2,0:0:0:0:
365,250,70104,1,0,0:0:0:0:
132,301,70262,2,0,L|132:171,1,115.799996466065,2|0,0:0|0:0,0:0:0:0:
281,154,70578,2,0,L|133:153,1,115.799996466065,2|2,0:0|0:0,0:0:0:0:
252,215,70814,1,2,0:0:0:0:
414,309,70893,5,2,0:0:0:0:
413,242,70971,1,0,0:0:0:0:
369,192,71050,1,0,0:0:0:0:
304,182,71129,1,0,0:0:0:0:
140,213,71209,2,0,L|73:213,1,67.5499979385377,2|0,0:0|0:0,0:0:0:0:
140,213,71367,2,0,L|207:213,1,67.5499979385377,0|0,0:0|0:0,0:0:0:0:
372,112,71525,2,0,L|271:111,1,67.5499979385377,2|0,0:0|0:0,0:0:0:0:
236,116,71683,2,0,L|161:117,1,67.5499979385377,0|0,0:0|0:0,0:0:0:0:
319,187,71841,2,0,L|319:277,1,67.5499979385377,2|0,0:0|0:0,0:0:0:0:
230,337,71999,2,0,L|230:235,1,67.5499979385377,0|0,0:0|0:0,0:0:0:0:
394,99,72157,6,0,L|394:200,1,67.5499979385377,2|0,0:0|0:0,0:0:0:0:
307,249,72314,2,0,L|403:249,1,67.5499979385377,0|0,0:0|0:0,0:0:0:0:
143,203,72472,2,0,L|53:203,2,67.5499979385377,2|0|0,0:0|0:0|0:0,0:0:0:0:
294,204,72709,1,0,0:0:0:0:
443,131,72788,2,0,L|443:215,1,67.5499979385377,2|0,0:0|0:0,0:0:0:0:
354,277,72946,2,0,L|266:253,1,67.5499979385377,0|0,0:0|0:0,0:0:0:0:
448,279,73104,2,0,L|448:179,1,67.5499979385377,2|0,0:0|0:0,0:0:0:0:
380,210,73262,2,0,L|499:211,1,67.5499979385377,0|0,0:0|0:0,0:0:0:0:
283,288,73420,6,0,L|170:288,1,67.5499979385377,2|0,0:0|0:0,0:0:0:0:
283,288,73578,2,0,L|395:289,1,67.5499979385377,0|0,0:0|0:0,0:0:0:0:
201,106,73735,2,0,L|201:215,1,67.5499979385377,2|0,0:0|0:0,0:0:0:0:
352,173,73893,2,0,L|430:173,1,67.5499979385377,0|0,0:0|0:0,0:0:0:0:
268,248,74051,2,0,L|268:169,1,67.5499979385377,2|0,0:0|0:0,0:0:0:0:
357,246,74209,2,0,L|357:355,1,67.5499979385377,0|0,0:0|0:0,0:0:0:0:
185,237,74367,2,0,L|109:237,1,67.5499979385377,2|0,0:0|0:0,0:0:0:0:
268,180,74525,2,0,L|368:180,1,67.5499979385377,0|0,0:0|0:0,0:0:0:0:
171,68,74683,6,0,L|171:185,1,67.5499979385377,2|0,0:0|0:0,0:0:0:0:
260,135,74841,2,0,L|260:219,1,67.5499979385377,0|0,0:0|0:0,0:0:0:0:
109,222,74999,2,0,L|38:222,2,67.5499979385377,2|0|0,0:0|0:0|0:0,0:0:0:0:
259,228,75235,1,0,0:0:0:0:
409,230,75314,1,2,0:0:0:0:
464,196,75392,1,0,0:0:0:0:
462,132,75471,1,0,0:0:0:0:
406,101,75550,1,0,0:0:0:0:
242,69,75630,1,2,0:0:0:0:
186,102,75708,1,0,0:0:0:0:
188,166,75787,1,0,0:0:0:0:
244,197,75866,1,0,0:0:0:0:
414,309,75946,5,2,0:0:0:0:
413,242,76024,1,0,0:0:0:0:
369,192,76103,1,0,0:0:0:0:
304,182,76182,1,0,0:0:0:0:
153,165,76262,1,2,0:0:0:0:
154,232,76340,1,0,0:0:0:0:
198,282,76419,1,0,0:0:0:0:
263,292,76498,1,0,0:0:0:0:
427,125,76578,2,0,L|326:124,1,67.5499979385377,2|0,0:0|0:0,0:0:0:0:
291,129,76736,2,0,L|216:130,1,67.5499979385377,0|0,0:0|0:0,0:0:0:0:
374,200,76894,2,8,L|459:200,1,67.5499979385377,2|0,0:0|0:0,0:0:0:0:
374,200,77052,2,0,L|277:200,1,67.5499979385377,0|0,0:0|0:0,0:0:0:0:
151,291,77209,6,0,L|151:223,1,67.5499979385377,2|0,0:0|0:0,0:0:0:0:
212,263,77367,2,0,L|151:291,1,67.5499979385377
304,224,77525,1,2,0:0:0:0:
366,205,77603,1,0,0:0:0:0:
389,144,77682,1,0,0:0:0:0:
355,89,77761,1,0,0:0:0:0:
205,251,77841,2,0,L|137:251,1,67.5499979385377,2|0,0:0|0:0,0:0:0:0:
220,122,77999,2,0,L|290:122,1,67.5499979385377,0|0,0:0|0:0,0:0:0:0:
122,305,78157,1,2,0:0:0:0:
66,271,78235,1,0,0:0:0:0:
63,207,78314,1,0,0:0:0:0:
115,169,78393,1,0,0:0:0:0:
279,296,78472,6,0,L|392:296,1,67.5499979385377,2|0,0:0|0:0,0:0:0:0:
279,296,78630,2,0,L|167:297,1,67.5499979385377,0|0,0:0|0:0,0:0:0:0:
361,114,78788,2,0,L|361:223,1,67.5499979385377,2|0,0:0|0:0,0:0:0:0:
210,181,78946,2,0,L|132:181,1,67.5499979385377,0|0,0:0|0:0,0:0:0:0:
294,256,79104,2,0,L|294:177,1,67.5499979385377,2|0,0:0|0:0,0:0:0:0:
205,254,79262,2,0,L|205:363,1,67.5499979385377,0|0,0:0|0:0,0:0:0:0:
377,245,79420,2,0,L|453:245,1,67.5499979385377,2|0,0:0|0:0,0:0:0:0:
272,254,79578,2,0,L|172:254,1,67.5499979385377,0|0,0:0|0:0,0:0:0:0:
391,76,79735,6,0,L|391:193,1,67.5499979385377,2|0,0:0|0:0,0:0:0:0:
302,143,79893,2,0,L|302:227,1,67.5499979385377,0|0,0:0|0:0,0:0:0:0:
453,230,80051,1,2,0:0:0:0:
487,174,80130,1,0,0:0:0:0:
463,113,80209,1,0,0:0:0:0:
401,96,80288,1,0,0:0:0:0:
222,296,80367,1,2,0:0:0:0:
167,262,80446,1,0,0:0:0:0:
169,198,80525,1,0,0:0:0:0:
225,167,80604,1,0,0:0:0:0:
389,135,80683,1,2,0:0:0:0:
444,167,80762,1,0,0:0:0:0:
443,232,80841,1,0,0:0:0:0:
387,263,80920,1,0,0:0:0:0:
231,219,80999,5,2,0:0:0:0:
166,229,81078,1,0,0:0:0:0:
166,229,81156,1,0,0:0:0:0:
231,219,81235,1,0,0:0:0:0:
401,241,81315,2,0,L|468:241,1,67.5499979385377,2|0,0:0|0:0,0:0:0:0:
401,241,81472,1,0,0:0:0:0:
329,241,81551,1,0,0:0:0:0:
164,127,81631,2,0,L|63:126,1,67.5499979385377,2|0,0:0|0:0,0:0:0:0:
28,131,81789,2,0,L|110:129,1,67.5499979385377,0|0,0:0|0:0,0:0:0:0:
282,160,81947,1,2,0:0:0:0:
338,190,82025,1,0,0:0:0:0:
338,254,82104,1,0,0:0:0:0:
280,283,82183,1,0,0:0:0:0:
114,213,82262,6,0,L|114:309,1,67.5499979385377,2|0,0:0|0:0,0:0:0:0:
294,251,82420,1,0,0:0:0:0:
351,221,82498,1,0,0:0:0:0:
350,157,82577,1,2,0:0:0:0:
292,129,82656,1,0,0:0:0:0:
143,108,82735,2,0,L|59:108,1,67.5499979385377,0|0,0:0|0:0,0:0:0:0:
261,89,82893,1,2,0:0:0:0:
318,117,82971,1,0,0:0:0:0:
320,181,83050,1,0,0:0:0:0:
263,212,83129,1,0,0:0:0:0:
112,319,83209,1,2,0:0:0:0:
47,313,83287,1,0,0:0:0:0:
21,255,83366,1,0,0:0:0:0:
59,203,83445,1,0,0:0:0:0:
229,288,83525,6,0,L|342:288,1,67.5499979385377,2|0,0:0|0:0,0:0:0:0:
229,288,83683,2,0,L|117:289,1,67.5499979385377,0|0,0:0|0:0,0:0:0:0:
311,106,83841,2,0,L|311:215,1,67.5499979385377,2|0,0:0|0:0,0:0:0:0:
160,173,83999,2,0,L|82:173,1,67.5499979385377,0|0,0:0|0:0,0:0:0:0:
244,248,84157,2,0,L|244:169,1,67.5499979385377,2|0,0:0|0:0,0:0:0:0:
155,246,84314,2,0,L|155:355,1,67.5499979385377,0|0,0:0|0:0,0:0:0:0:
327,237,84472,2,0,L|403:237,1,67.5499979385377,2|0,0:0|0:0,0:0:0:0:
222,313,84630,2,0,L|122:313,1,67.5499979385377,0|0,0:0|0:0,0:0:0:0:
341,68,84788,6,0,L|341:185,1,67.5499979385377,2|0,0:0|0:0,0:0:0:0:
252,135,84946,2,0,L|252:219,1,67.5499979385377,0|0,0:0|0:0,0:0:0:0:
403,222,85104,2,0,L|474:222,2,67.5499979385377,2|0|0,0:0|0:0|0:0,0:0:0:0:
253,228,85341,1,0,0:0:0:0:
103,230,85420,1,2,0:0:0:0:
48,196,85499,1,0,0:0:0:0:
50,132,85578,1,0,0:0:0:0:
106,101,85657,1,0,0:0:0:0:
270,69,85735,1,2,0:0:0:0:
326,102,85814,1,0,0:0:0:0:
324,166,85893,1,0,0:0:0:0:
268,197,85972,1,0,0:0:0:0:
110,200,86051,6,0,L|16:197,1,67.5499979385377,2|0,0:0|0:0,0:0:0:0:
110,200,86209,2,0,L|205:202,1,67.5499979385377,0|0,0:0|0:0,0:0:0:0:
329,209,86367,1,2,0:0:0:0:
385,179,86446,1,0,0:0:0:0:
383,116,86524,1,0,0:0:0:0:
324,91,86603,1,0,0:0:0:0:
184,123,86683,2,0,L|76:123,1,96.5,2|0,0:0|0:0,0:0:0:0:
225,193,86999,2,0,L|225:306,1,96.5,2|0,0:0|0:0,0:0:0:0:
360,140,87314,6,0,L|360:266,1,96.5,2|0,0:0|0:0,0:0:0:0:
225,193,87630,2,0,L|128:193,1,96.5,2|0,0:0|0:0,0:0:0:0:
265,46,87946,2,0,L|265:160,1,96.5,2|0,0:0|0:0,0:0:0:0:
400,154,88262,2,0,L|496:154,1,96.5,2|0,0:0|0:0,0:0:0:0:
362,69,88578,6,0,L|362:184,1,96.5,2|0,0:0|0:0,0:0:0:0:
276,277,88893,2,0,L|276:164,1,96.5,2|0,0:0|0:0,0:0:0:0:
362,166,89209,2,0,L|362:271,1,96.5,2|0,0:0|0:0,0:0:0:0:
275,139,89525,2,0,L|388:139,1,96.5,2|0,0:0|0:0,0:0:0:0:
140,268,89841,6,2,L|307:268,1,135.099995877075,2|0,0:0|0:0,0:0:0:0:
275,268,90038,1,0,0:0:0:0:
275,268,90078,1,0,0:0:0:0:
118,168,90157,2,2,L|275:168,1,135.099995877075,2|0,0:0|0:0,0:0:0:0:
254,168,90354,1,0,0:0:0:0:
254,168,90393,1,0,0:0:0:0:
98,138,90472,1,2,0:0:0:0:
97,131,91104,5,2,0:0:0:0:
157,152,91182,1,0,0:0:0:0:
218,174,91262,1,0,0:0:0:0:
278,193,91340,1,0,0:0:0:0:
137,245,91420,1,8,0:0:0:0:
101,191,91498,1,0,0:0:0:0:
126,131,91577,1,0,0:0:0:0:
189,117,91656,1,0,0:0:0:0:
49,321,91735,2,0,L|152:321,1,67.5499979385377,2|0,0:0|0:0,0:0:0:0:
188,241,91893,2,0,L|188:369,1,67.5499979385377,0|0,0:0|0:0,0:0:0:0:
44,226,92051,2,0,L|144:226,1,67.5499979385377,8|0,0:0|0:0,0:0:0:0:
267,230,92209,2,0,L|367:230,1,67.5499979385377,0|0,0:0|0:0,0:0:0:0:
189,309,92367,5,2,0:0:0:0:
132,279,92445,1,0,0:0:0:0:
137,216,92524,1,0,0:0:0:0:
197,195,92603,1,0,0:0:0:0:
362,190,92683,1,8,0:0:0:0:
398,136,92761,1,0,0:0:0:0:
373,76,92840,1,0,0:0:0:0:
310,62,92919,1,0,0:0:0:0:
131,124,92999,2,0,L|236:124,1,67.5499979385377,2|0,0:0|0:0,0:0:0:0:
267,124,93157,2,0,L|345:124,1,67.5499979385377,0|0,0:0|0:0,0:0:0:0:
171,221,93314,2,0,L|172:293,1,67.5499979385377,8|0,0:0|0:0,0:0:0:0:
336,301,93472,2,0,L|217:301,1,67.5499979385377,0|0,0:0|0:0,0:0:0:0:
433,329,93630,5,2,0:0:0:0:
481,287,93708,1,0,0:0:0:0:
467,224,93787,1,0,0:0:0:0:
405,207,93866,1,0,0:0:0:0:
244,156,93946,1,8,0:0:0:0:
184,179,94024,1,0,0:0:0:0:
180,242,94103,1,0,0:0:0:0:
236,273,94182,1,0,0:0:0:0:
389,239,94262,2,0,L|262:239,1,67.5499979385377,2|0,0:0|0:0,0:0:0:0:
251,273,94420,2,0,L|378:273,1,67.5499979385377,0|0,0:0|0:0,0:0:0:0:
466,97,94578,2,0,L|369:97,1,67.5499979385377,8|0,0:0|0:0,0:0:0:0:
250,94,94735,2,0,L|149:94,1,67.5499979385377,0|0,0:0|0:0,0:0:0:0:
335,170,94893,5,2,0:0:0:0:
388,205,94971,1,0,0:0:0:0:
388,270,95050,1,0,0:0:0:0:
334,305,95129,1,0,0:0:0:0:
183,176,95209,1,8,0:0:0:0:
124,202,95287,1,0,0:0:0:0:
124,266,95366,1,0,0:0:0:0:
181,295,95445,1,0,0:0:0:0:
340,252,95525,1,2,0:0:0:0:
368,193,95603,1,0,0:0:0:0:
338,136,95682,1,0,0:0:0:0:
270,129,95761,1,0,0:0:0:0:
201,138,95841,1,8,0:0:0:0:
172,196,95919,1,0,0:0:0:0:
202,253,95998,1,0,0:0:0:0:
266,262,96077,1,0,0:0:0:0:
430,270,96157,5,2,0:0:0:0:
484,236,96235,1,0,0:0:0:0:
476,172,96314,1,0,0:0:0:0:
416,152,96393,1,0,0:0:0:0:
266,155,96472,1,8,0:0:0:0:
202,171,96550,1,0,0:0:0:0:
177,231,96629,1,0,0:0:0:0:
207,289,96708,1,0,0:0:0:0:
359,331,96788,1,2,0:0:0:0:
414,299,96866,1,0,0:0:0:0:
412,235,96945,1,0,0:0:0:0:
353,209,97024,1,0,0:0:0:0:
199,203,97104,1,8,0:0:0:0:
134,212,97182,1,0,0:0:0:0:
102,268,97261,1,0,0:0:0:0:
128,328,97340,1,0,0:0:0:0:
299,316,97420,5,2,0:0:0:0:
354,284,97498,1,0,0:0:0:0:
350,220,97577,1,0,0:0:0:0:
291,197,97656,1,0,0:0:0:0:
142,182,97735,2,0,L|57:182,1,67.5499979385377,8|0,0:0|0:0,0:0:0:0:
237,86,97893,1,0,0:0:0:0:
282,133,97971,1,0,0:0:0:0:
284,199,98050,1,2,0:0:0:0:
241,250,98129,1,0,0:0:0:0:
158,258,98209,2,0,L|158:349,1,67.5499979385377,0|0,0:0|0:0,0:0:0:0:
241,250,98367,1,8,0:0:0:0:
304,234,98445,1,0,0:0:0:0:
328,174,98524,1,0,0:0:0:0:
292,120,98603,1,0,0:0:0:0:
142,133,98683,6,0,L|59:133,1,67.5499979385377,2|0,0:0|0:0,0:0:0:0:
239,159,98841,2,0,L|240:250,1,67.5499979385377,0|0,0:0|0:0,0:0:0:0:
151,234,98999,2,0,L|151:328,1,67.5499979385377,8|0,0:0|0:0,0:0:0:0:
239,159,99157,2,0,L|240:77,1,67.5499979385377,0|0,0:0|0:0,0:0:0:0:
88,87,99314,1,2,0:0:0:0:
30,114,99392,1,0,0:0:0:0:
32,178,99471,1,0,0:0:0:0:
91,202,99550,1,0,0:0:0:0:
243,317,99630,1,8,0:0:0:0:
300,289,99708,1,0,0:0:0:0:
298,225,99787,1,0,0:0:0:0:
239,201,99866,1,0,0:0:0:0:
97,173,99946,6,0,L|190:166,1,67.5499979385377,2|0,0:0|0:0,0:0:0:0:
232,166,100104,2,0,L|334:161,1,67.5499979385377,0|0,0:0|0:0,0:0:0:0:
145,95,100262,2,0,L|69:95,1,67.5499979385377,8|0,0:0|0:0,0:0:0:0:
229,120,100420,2,0,L|228:227,1,67.5499979385377,0|0,0:0|0:0,0:0:0:0:
78,287,100578,1,2,0:0:0:0:
19,261,100656,1,0,0:0:0:0:
19,197,100735,1,0,0:0:0:0:
78,171,100814,1,0,0:0:0:0:
232,106,100893,2,0,L|232:195,1,67.5499979385377,8|0,0:0|0:0,0:0:0:0:
142,283,101051,2,0,L|142:194,1,67.5499979385377,0|0,0:0|0:0,0:0:0:0:
306,149,101209,5,2,0:0:0:0:
363,178,101287,1,0,0:0:0:0:
363,242,101366,1,0,0:0:0:0:
306,271,101445,1,0,0:0:0:0:
153,204,101525,1,8,0:0:0:0:
95,233,101603,1,0,0:0:0:0:
95,297,101682,1,4,0:0:0:0:
152,326,101761,1,0,0:0:0:0:
306,271,101841,1,2,0:0:0:0:
369,258,101919,1,0,0:0:0:0:
387,197,101998,1,4,0:0:0:0:
340,152,102077,1,0,0:0:0:0:
182,272,102157,1,8,0:0:0:0:
117,259,102235,1,0,0:0:0:0:
88,201,102314,1,4,0:0:0:0:
115,141,102393,1,0,0:0:0:0:
264,93,102472,5,2,0:0:0:0:
207,129,102550,1,0,0:0:0:0:
150,166,102629,1,4,0:0:0:0:
93,202,102708,1,0,0:0:0:0:
253,329,102788,1,8,0:0:0:0:
196,293,102866,1,0,0:0:0:0:
139,256,102945,1,4,0:0:0:0:
82,220,103024,1,0,0:0:0:0:
245,281,103104,1,2,0:0:0:0:
271,220,103182,1,0,0:0:0:0:
243,161,103261,1,4,0:0:0:0:
180,143,103340,1,0,0:0:0:0:
349,123,103420,1,8,0:0:0:0:
412,140,103498,1,0,0:0:0:0:
437,199,103577,1,4,0:0:0:0:
407,257,103656,1,0,0:0:0:0:
223,96,103735,5,2,0:0:0:0:
280,132,103813,1,0,0:0:0:0:
337,169,103892,1,4,0:0:0:0:
394,205,103971,1,0,0:0:0:0:
228,281,104051,1,8,0:0:0:0:
171,245,104129,1,0,0:0:0:0:
114,208,104208,1,4,0:0:0:0:
57,172,104287,1,0,0:0:0:0:
225,158,104367,1,2,0:0:0:0:
289,149,104445,1,0,0:0:0:0:
321,92,104524,1,4,0:0:0:0:
295,32,104603,1,0,0:0:0:0:
140,57,104683,1,8,0:0:0:0:
77,74,104761,1,0,0:0:0:0:
56,136,104840,1,4,0:0:0:0:
95,188,104919,1,0,0:0:0:0:
251,163,104999,5,2,0:0:0:0:
270,225,105077,1,0,0:0:0:0:
237,281,105156,1,4,0:0:0:0:
173,294,105235,1,0,0:0:0:0:
335,244,105314,1,8,0:0:0:0:
393,219,105392,1,0,0:0:0:0:
393,156,105471,1,4,0:0:0:0:
333,133,105550,1,0,0:0:0:0:
179,107,105630,1,2,0:0:0:0:
160,169,105708,1,0,0:0:0:0:
193,225,105787,1,4,0:0:0:0:
257,238,105866,1,0,0:0:0:0:
105,176,105946,1,8,0:0:0:0:
51,212,106024,1,0,0:0:0:0:
49,277,106103,1,4,0:0:0:0:
100,317,106182,1,0,0:0:0:0:
257,311,106262,5,2,0:0:0:0:
313,280,106340,1,0,0:0:0:0:
311,216,106419,1,4,0:0:0:0:
254,189,106498,1,0,0:0:0:0:
102,166,106578,1,8,0:0:0:0:
45,195,106656,1,0,0:0:0:0:
45,259,106735,1,4,0:0:0:0:
103,287,106814,1,0,0:0:0:0:
257,68,106893,1,2,0:0:0:0:
313,98,106971,1,0,0:0:0:0:
311,162,107050,1,4,0:0:0:0:
254,189,107129,1,0,0:0:0:0:
102,212,107209,1,8,0:0:0:0:
69,155,107287,1,0,0:0:0:0:
95,95,107366,1,4,0:0:0:0:
158,79,107445,1,0,0:0:0:0:
316,265,107525,5,2,0:0:0:0:
262,222,107603,1,0,0:0:0:0:
209,180,107682,1,4,0:0:0:0:
156,138,107761,1,0,0:0:0:0:
310,91,107841,1,8,0:0:0:0:
372,109,107919,1,0,0:0:0:0:
394,171,107998,1,4,0:0:0:0:
358,225,108077,1,0,0:0:0:0:
202,298,108157,1,2,0:0:0:0:
143,273,108235,1,0,0:0:0:0:
140,209,108314,1,4,0:0:0:0:
197,180,108393,1,0,0:0:0:0:
360,240,108472,1,8,0:0:0:0:
422,219,108550,1,0,0:0:0:0:
444,158,108629,1,4,0:0:0:0:
411,102,108708,1,0,0:0:0:0:
241,348,108788,5,2,0:0:0:0:
187,310,108866,1,0,0:0:0:0:
184,244,108945,1,4,0:0:0:0:
233,201,109024,1,0,0:0:0:0:
385,77,109104,2,0,L|386:188,1,67.5499979385377,8|0,0:0|0:0,0:0:0:0:
232,97,109262,1,4,0:0:0:0:
283,109,109340,1,0,0:0:0:0:
318,149,109419,1,2,0:0:0:0:
322,202,109498,1,0,0:0:0:0:
294,247,109577,1,4,0:0:0:0:
245,267,109656,1,0,0:0:0:0:
398,268,109735,1,8,0:0:0:0:
453,236,109813,1,0,0:0:0:0:
451,172,109892,1,4,0:0:0:0:
393,144,109971,1,0,0:0:0:0:
228,117,110051,6,0,L|225:241,1,67.5499979385377,2|0,0:0|0:0,0:0:0:0:
313,194,110209,2,0,L|408:197,1,67.5499979385377,4|0,0:0|0:0,0:0:0:0:
223,274,110367,1,8,0:0:0:0:
168,241,110445,1,0,0:0:0:0:
170,177,110524,1,4,0:0:0:0:
228,148,110603,1,0,0:0:0:0:
399,30,110683,1,2,0:0:0:0:
448,76,110761,1,0,0:0:0:0:
476,137,110840,1,4,0:0:0:0:
480,204,110919,1,0,0:0:0:0:
458,267,110998,1,8,0:0:0:0:
415,318,111077,1,0,0:0:0:0:
355,350,111156,1,4,0:0:0:0:
288,357,111235,1,0,0:0:0:0:
125,314,111314,5,2,0:0:0:0:
90,258,111392,1,0,0:0:0:0:
111,196,111471,1,4,0:0:0:0:
172,173,111550,1,0,0:0:0:0:
351,148,111630,2,0,L|351:247,1,67.5499979385377,8|0,0:0|0:0,0:0:0:0:
211,211,111788,2,0,L|211:310,1,67.5499979385377,4|0,0:0|0:0,0:0:0:0:
382,67,111946,2,0,L|382:166,1,67.5499979385377,2|0,0:0|0:0,0:0:0:0:
244,126,112104,2,0,L|244:225,1,67.5499979385377,4|0,0:0|0:0,0:0:0:0:
106,229,112262,2,0,L|106:328,1,67.5499979385377,8|0,0:0|0:0,0:0:0:0:
244,126,112420,2,0,L|332:126,1,67.5499979385377,4|0,0:0|0:0,0:0:0:0:
133,291,112578,6,0,L|133:186,1,67.5499979385377,2|0,0:0|0:0,0:0:0:0:
282,184,112735,2,0,L|325:175,2,33.7749989692688,4|0|0,0:0|0:0|0:0,0:0:0:0:
128,193,112893,1,8,0:0:0:0:
94,193,112932,1,0,0:0:0:0:
60,193,112971,1,0,0:0:0:0:
212,279,113051,2,0,L|211:238,2,33.7749989692688,4|0|0,0:0|0:0|0:0,0:0:0:0:
362,213,113209,5,2,0:0:0:0:
396,184,113248,1,0,0:0:0:0:
408,142,113287,1,0,0:0:0:0:
388,102,113327,1,0,0:0:0:0:
350,77,113366,1,4,0:0:0:0:
307,66,113406,1,0,0:0:0:0:
262,66,113445,1,0,0:0:0:0:
412,90,113525,1,8,0:0:0:0:
450,94,113564,1,0,0:0:0:0:
481,119,113603,1,0,0:0:0:0:
494,155,113643,1,0,0:0:0:0:
487,193,113682,1,4,0:0:0:0:
460,222,113722,1,0,0:0:0:0:
423,233,113761,1,0,0:0:0:0:
234,208,113841,5,2,0:0:0:0:
178,240,113919,1,0,0:0:0:0:
179,304,113998,1,4,0:0:0:0:
237,333,114077,1,0,0:0:0:0:
395,106,114157,2,0,L|395:180,1,67.5499979385377,8|0,0:0|0:0,0:0:0:0:
239,187,114314,2,0,L|239:261,1,67.5499979385377,4|0,0:0|0:0,0:0:0:0:
81,193,114472,2,0,L|81:108,1,67.5499979385377,2|0,0:0|0:0,0:0:0:0:
156,206,114630,2,0,L|156:300,1,67.5499979385377,4|0,0:0|0:0,0:0:0:0:
313,212,114788,2,0,L|204:212,1,67.5499979385377,8|0,0:0|0:0,0:0:0:0:
88,206,114946,2,0,L|178:205,1,67.5499979385377,4|0,0:0|0:0,0:0:0:0:
340,117,115104,6,0,L|340:224,1,67.5499979385377,2|0,0:0|0:0,0:0:0:0:
182,157,115262,1,4,0:0:0:0:
216,157,115301,1,0,0:0:0:0:
250,157,115340,1,0,0:0:0:0:
408,261,115420,2,0,L|446:261,2,33.7749989692688,8|0|0,0:0|0:0|0:0,0:0:0:0:
232,218,115578,2,0,L|194:218,2,33.7749989692688,4|0|0,0:0|0:0|0:0,0:0:0:0:
390,129,115735,5,2,0:0:0:0:
429,149,115774,1,0,0:0:0:0:
454,186,115813,1,0,0:0:0:0:
458,230,115853,1,0,0:0:0:0:
440,271,115892,1,4,0:0:0:0:
404,297,115932,1,0,0:0:0:0:
360,303,115971,1,0,0:0:0:0:
198,305,116051,1,8,0:0:0:0:
153,298,116090,1,0,0:0:0:0:
115,276,116129,1,0,0:0:0:0:
88,240,116169,1,0,0:0:0:0:
78,196,116208,1,4,0:0:0:0:
85,152,116248,1,0,0:0:0:0:
108,114,116287,1,0,0:0:0:0:
287,86,116367,5,2,0:0:0:0:
347,109,116445,1,0,0:0:0:0:
365,172,116524,1,4,0:0:0:0:
326,224,116603,1,0,0:0:0:0:
168,235,116683,2,0,L|92:235,1,67.5499979385377,8|0,0:0|0:0,0:0:0:0:
258,145,116841,2,0,L|336:145,1,67.5499979385377,4|0,0:0|0:0,0:0:0:0:
167,69,116999,2,0,L|167:156,1,67.5499979385377,2|0,0:0|0:0,0:0:0:0:
240,133,117157,2,0,L|240:217,1,67.5499979385377,4|0,0:0|0:0,0:0:0:0:
62,161,117314,2,0,L|62:247,1,67.5499979385377,8|0,0:0|0:0,0:0:0:0:
220,266,117472,2,0,L|305:266,1,67.5499979385377,4|0,0:0|0:0,0:0:0:0:
125,171,117630,6,0,L|125:246,1,67.5499979385377,2|0,0:0|0:0,0:0:0:0:
290,274,117788,1,4,0:0:0:0:
324,274,117827,1,0,0:0:0:0:
358,274,117866,1,0,0:0:0:0:
201,136,117946,2,0,L|201:99,2,33.7749989692688,8|0|0,0:0|0:0|0:0,0:0:0:0:
44,130,118104,2,0,L|44:88,2,33.7749989692688,4|0|0,0:0|0:0|0:0,0:0:0:0:
248,249,118262,5,2,0:0:0:0:
279,238,118301,1,0,0:0:0:0:
302,213,118340,1,0,0:0:0:0:
309,181,118380,1,0,0:0:0:0:
299,149,118419,1,4,0:0:0:0:
275,126,118459,1,0,0:0:0:0:
242,118,118498,1,0,0:0:0:0:
83,162,118578,1,8,0:0:0:0:
52,173,118617,1,0,0:0:0:0:
29,198,118656,1,0,0:0:0:0:
22,230,118696,1,0,0:0:0:0:
32,262,118735,1,4,0:0:0:0:
56,285,118775,1,0,0:0:0:0:
89,293,118814,1,0,0:0:0:0:
286,315,118893,5,2,0:0:0:0:
342,285,118971,1,0,0:0:0:0:
343,220,119050,1,4,0:0:0:0:
286,190,119129,1,0,0:0:0:0:
128,67,119209,2,0,L|128:167,1,67.5499979385377,8|0,0:0|0:0,0:0:0:0:
286,190,119367,2,0,L|286:290,1,67.5499979385377,4|0,0:0|0:0,0:0:0:0:
128,288,119525,1,2,0:0:0:0:
79,229,119603,1,0,0:0:0:0:
98,156,119682,1,4,0:0:0:0:
170,130,119761,1,0,0:0:0:0:
330,128,119841,1,8,0:0:0:0:
402,154,119920,1,0,0:0:0:0:
421,227,119999,1,4,0:0:0:0:
372,286,120077,1,0,0:0:0:0:
194,197,120157,5,2,0:0:0:0:
135,222,120235,1,0,0:0:0:0:
136,286,120314,1,4,0:0:0:0:
195,310,120393,1,0,0:0:0:0:
345,324,120472,2,0,L|413:292,1,67.5499979385377,8|0,0:0|0:0,0:0:0:0:
255,168,120630,2,0,L|187:200,1,67.5499979385377,4|0,0:0|0:0,0:0:0:0:
336,264,120788,1,2,0:0:0:0:
367,206,120866,1,0,0:0:0:0:
342,146,120945,1,4,0:0:0:0:
279,129,121024,1,0,0:0:0:0:
135,144,121104,2,0,L|135:235,1,67.5499979385377,8|0,0:0|0:0,0:0:0:0:
294,235,121262,2,0,L|215:235,1,67.5499979385377,4|0,0:0|0:0,0:0:0:0:
43,158,121420,5,2,0:0:0:0:
39,224,121498,1,0,0:0:0:0:
75,279,121577,1,4,0:0:0:0:
138,301,121656,1,0,0:0:0:0:
296,303,121735,2,0,L|296:205,1,67.5499979385377,8|0,0:0|0:0,0:0:0:0:
137,202,121893,2,0,L|137:104,1,67.5499979385377,4|0,0:0|0:0,0:0:0:0:
296,66,122051,1,2,0:0:0:0:
350,100,122129,1,0,0:0:0:0:
348,164,122208,1,4,0:0:0:0:
291,195,122287,1,0,0:0:0:0:
134,219,122367,2,0,L|226:219,1,67.5499979385377,8|0,0:0|0:0,0:0:0:0:
363,235,122525,2,0,L|271:235,1,67.5499979385377,4|0,0:0|0:0,0:0:0:0:
133,93,122683,6,0,L|133:198,1,67.5499979385377,2|0,0:0|0:0,0:0:0:0:
282,200,122841,2,0,L|325:209,2,33.7749989692688,4|0|0,0:0|0:0|0:0,0:0:0:0:
128,191,122999,1,8,0:0:0:0:
94,191,123037,1,0,0:0:0:0:
60,191,123078,1,0,0:0:0:0:
212,105,123157,2,0,L|211:146,2,33.7749989692688,4|0|0,0:0|0:0|0:0,0:0:0:0:
370,293,123314,5,2,0:0:0:0:
405,285,123353,1,0,0:0:0:0:
431,260,123392,1,0,0:0:0:0:
441,225,123432,1,0,0:0:0:0:
431,191,123471,1,4,0:0:0:0:
405,166,123511,1,0,0:0:0:0:
370,158,123550,1,0,0:0:0:0:
212,105,123630,1,8,0:0:0:0:
177,113,123669,1,0,0:0:0:0:
151,138,123708,1,0,0:0:0:0:
141,173,123748,1,0,0:0:0:0:
151,207,123787,1,4,0:0:0:0:
177,232,123827,1,0,0:0:0:0:
212,240,123866,1,0,0:0:0:0:
385,148,123946,6,0,L|385:255,1,67.5499979385377,2|0,0:0|0:0,0:0:0:0:
227,188,124104,1,4,0:0:0:0:
261,188,124143,1,0,0:0:0:0:
295,188,124182,1,0,0:0:0:0:
453,292,124262,2,0,L|491:292,2,33.7749989692688,8|0|0,0:0|0:0|0:0,0:0:0:0:
277,249,124420,2,0,L|239:249,2,33.7749989692688,4|0|0,0:0|0:0|0:0,0:0:0:0:
465,248,124578,5,2,0:0:0:0:
486,214,124617,1,0,0:0:0:0:
492,176,124656,1,0,0:0:0:0:
482,138,124696,1,0,0:0:0:0:
457,107,124735,1,4,0:0:0:0:
423,89,124775,1,0,0:0:0:0:
384,86,124814,1,0,0:0:0:0:
226,288,124893,5,8,0:0:0:0:
187,285,124932,1,0,0:0:0:0:
153,267,124972,1,0,0:0:0:0:
128,236,125011,1,0,0:0:0:0:
118,198,125051,1,4,0:0:0:0:
124,160,125090,1,0,0:0:0:0:
146,127,125129,1,0,0:0:0:0:
363,155,125209,6,0,L|363:230,1,67.5499979385377,2|0,0:0|0:0,0:0:0:0:
198,258,125367,1,4,0:0:0:0:
164,258,125406,1,0,0:0:0:0:
130,258,125445,1,0,0:0:0:0:
293,155,125525,2,0,L|309:123,2,33.7749989692688,8|0|0,0:0|0:0|0:0,0:0:0:0:
138,171,125683,2,0,L|122:139,2,33.7749989692688,4|0|0,0:0|0:0|0:0,0:0:0:0:
368,272,125841,6,0,L|378:243,1,16.8874994846344,2|0,0:0|0:0,0:0:0:0:
415,183,125920,2,0,L|411:163,1,16.8874994846344,0|0,0:0|0:0,0:0:0:0:
388,89,125999,2,0,L|365:72,1,16.8874994846344,4|0,0:0|0:0,0:0:0:0:
305,44,126078,2,0,L|289:43,1,16.8874994846344,0|0,0:0|0:0,0:0:0:0:
182,72,126157,2,0,L|166:72,1,16.8874994846344,8|0,0:0|0:0,0:0:0:0:
218,113,126235,2,0,L|235:113,1,16.8874994846344
182,146,126314,2,0,L|166:146,1,16.8874994846344,4|0,0:0|0:0,0:0:0:0:
220,187,126393,2,0,L|236:188,1,16.8874994846344,0|0,0:0|0:0,0:0:0:0:
74,194,126472,6,0,L|54:265,3,67.5499979385377,2|0|4|0,0:0|0:0|0:0|0:0,0:0:0:0:
220,98,126788,2,0,L|200:169,3,67.5499979385377,8|0|4|0,0:0|0:0|0:0|0:0,0:0:0:0:
391,201,127104,2,0,L|411:130,3,67.5499979385377,2|0|4|0,0:0|0:0|0:0|0:0,0:0:0:0:
211,314,127420,2,0,L|231:243,3,67.5499979385377,8|0|4|0,0:0|0:0|0:0|0:0,0:0:0:0:
419,257,127735,5,2,0:0:0:0:
429,191,127813,1,0,0:0:0:0:
391,138,127892,1,4,0:0:0:0:
326,126,127971,1,0,0:0:0:0:
119,126,128051,1,8,0:0:0:0:
108,191,128129,1,0,0:0:0:0:
146,244,128208,1,4,0:0:0:0:
211,256,128287,1,0,0:0:0:0:
403,258,128367,1,2,0:0:0:0:
459,227,128445,1,0,0:0:0:0:
459,163,128524,1,4,0:0:0:0:
402,134,128603,1,0,0:0:0:0:
172,157,128683,1,8,0:0:0:0:
115,187,128761,1,0,0:0:0:0:
115,251,128840,1,4,0:0:0:0:
172,280,128919,1,0,0:0:0:0:
358,263,128999,5,2,0:0:0:0:
254,201,129157,1,4,0:0:0:0:
377,151,129314,1,8,0:0:0:0:
226,95,129472,1,4,0:0:0:0:
390,72,129630,1,2,0:0:0:0:
483,147,129787,1,4,0:0:0:0:
483,147,129945,1,8,0:0:0:0:
390,72,130103,1,4,0:0:0:0:
143,62,130262,5,2,0:0:0:0:
103,83,130301,1,0,0:0:0:0:
79,120,130340,1,0,0:0:0:0:
76,164,130380,1,0,0:0:0:0:
95,205,130419,1,0,0:0:0:0:
132,230,130459,1,0,0:0:0:0:
176,235,130498,1,0,0:0:0:0:
344,223,130578,1,8,0:0:0:0:
209,168,130735,1,0,0:0:0:0:
473,116,130893,2,0,L|376:116,2,67.5499979385377,2|0|0,0:0|0:0|0:0,0:0:0:0:
227,173,131209,2,0,P|194:243|244:248,1,135.099995877075,8|0,0:0|0:0,0:0:0:0:
294,254,131446,1,0,0:0:0:0:
138,222,131525,6,0,L|61:221,1,67.5499979385377,2|0,0:0|0:0,0:0:0:0:
221,196,131683,2,0,L|220:98,1,67.5499979385377,4|0,0:0|0:0,0:0:0:0:
61,291,131841,1,8,0:0:0:0:
16,244,131919,1,0,0:0:0:0:
32,181,131998,1,4,0:0:0:0:
93,162,132077,1,0,0:0:0:0:
251,108,132157,2,0,L|250:218,1,67.5499979385377,2|0,0:0|0:0,0:0:0:0:
101,191,132314,2,0,L|101:276,1,67.5499979385377,4|0,0:0|0:0,0:0:0:0:
266,288,132472,2,0,L|266:200,1,67.5499979385377,8|0,0:0|0:0,0:0:0:0:
112,147,132630,2,0,L|208:147,1,67.5499979385377,4|0,0:0|0:0,0:0:0:0:
360,128,132788,6,0,L|360:223,1,67.5499979385377,2|0,0:0|0:0,0:0:0:0:
203,186,132946,2,0,L|204:296,1,67.5499979385377,4|0,0:0|0:0,0:0:0:0:
365,272,133104,1,8,0:0:0:0:
423,206,133182,1,0,0:0:0:0:
415,119,133261,1,4,0:0:0:0:
353,69,133340,1,0,0:0:0:0:
194,57,133420,2,0,L|111:57,1,67.5499979385377,2|0,0:0|0:0,0:0:0:0:
279,135,133578,2,0,L|279:221,1,67.5499979385377,4|0,0:0|0:0,0:0:0:0:
432,170,133735,2,0,L|432:274,1,67.5499979385377,8|0,0:0|0:0,0:0:0:0:
288,330,133893,2,0,L|388:329,1,67.5499979385377,4|0,0:0|0:0,0:0:0:0:
190,105,134051,6,0,L|114:105,1,67.5499979385377,2|0,0:0|0:0,0:0:0:0:
270,183,134209,2,0,L|270:281,1,67.5499979385377,4|0,0:0|0:0,0:0:0:0:
99,324,134367,1,8,0:0:0:0:
37,263,134445,1,0,0:0:0:0:
57,179,134524,1,4,0:0:0:0:
137,151,134603,1,0,0:0:0:0:
299,69,134683,2,0,L|299:165,1,67.5499979385377,2|0,0:0|0:0,0:0:0:0:
152,199,134841,2,0,L|152:297,1,67.5499979385377,4|0,0:0|0:0,0:0:0:0:
318,242,134999,2,0,L|320:338,1,67.5499979385377,8|0,0:0|0:0,0:0:0:0:
161,235,135157,2,0,L|38:235,1,67.5499979385377,4|0,0:0|0:0,0:0:0:0:
246,68,135314,6,0,L|325:68,1,67.5499979385377,2|0,0:0|0:0,0:0:0:0:
172,137,135472,2,0,L|172:235,1,67.5499979385377,4|0,0:0|0:0,0:0:0:0:
333,295,135630,1,8,0:0:0:0:
391,268,135708,1,0,0:0:0:0:
392,204,135787,1,4,0:0:0:0:
336,173,135866,1,0,0:0:0:0:
165,69,135946,2,0,L|74:69,1,67.5499979385377,2|0,0:0|0:0,0:0:0:0:
247,148,136104,2,0,L|247:241,1,67.5499979385377,4|0,0:0|0:0,0:0:0:0:
83,255,136262,1,8,0:0:0:0:
150,260,136341,2,0,L|150:364,1,67.5499979385377,0|4,0:0|0:0,0:0:0:0:
83,255,136499,1,0,0:0:0:0:
246,99,136578,6,0,L|334:99,1,67.5499979385377,2|0,0:0|0:0,0:0:0:0:
164,189,136735,2,0,L|253:190,1,67.5499979385377,4|0,0:0|0:0,0:0:0:0:
380,292,136893,1,8,0:0:0:0:
450,242,136971,1,0,0:0:0:0:
447,155,137050,1,4,0:0:0:0:
373,111,137129,1,0,0:0:0:0:
212,94,137209,2,0,L|213:202,1,67.5499979385377,2|0,0:0|0:0,0:0:0:0:
352,193,137367,2,0,L|352:299,1,67.5499979385377,4|0,0:0|0:0,0:0:0:0:
193,244,137525,2,0,L|102:245,1,67.5499979385377,8|0,0:0|0:0,0:0:0:0:
291,166,137683,2,0,L|292:73,1,67.5499979385377,4|0,0:0|0:0,0:0:0:0:
107,137,137841,6,0,L|12:137,1,67.5499979385377,2|0,0:0|0:0,0:0:0:0:
110,78,137999,1,4,0:0:0:0:
182,76,138078,1,0,0:0:0:0:
343,86,138157,2,0,L|343:173,1,67.5499979385377,8|0,0:0|0:0,0:0:0:0:
204,245,138314,2,0,L|298:246,1,67.5499979385377,4|0,0:0|0:0,0:0:0:0:
439,114,138472,2,0,L|439:201,1,67.5499979385377,2|0,0:0|0:0,0:0:0:0:
296,314,138630,2,0,L|296:200,1,67.5499979385377,4|0,0:0|0:0,0:0:0:0:
150,248,138788,1,8,0:0:0:0:
93,217,138866,1,0,0:0:0:0:
95,153,138945,1,4,0:0:0:0:
152,125,139024,1,0,0:0:0:0:
332,102,139104,6,0,L|332:197,1,67.5499979385377,2|0,0:0|0:0,0:0:0:0:
173,172,139262,1,4,0:0:0:0:
140,179,139301,1,0,0:0:0:0:
116,202,139340,1,0,0:0:0:0:
108,234,139380,1,0,0:0:0:0:
117,266,139419,1,8,0:0:0:0:
142,288,139459,1,0,0:0:0:0:
175,294,139498,1,0,0:0:0:0:
336,104,139578,1,4,0:0:0:0:
369,104,139617,1,0,0:0:0:0:
403,104,139656,1,0,0:0:0:0:
254,169,139735,5,2,0:0:0:0:
220,173,139774,1,0,0:0:0:0:
193,192,139813,1,0,0:0:0:0:
177,221,139853,1,0,0:0:0:0:
177,255,139892,1,4,0:0:0:0:
193,284,139932,1,0,0:0:0:0:
220,304,139971,1,0,0:0:0:0:
385,314,140051,1,8,0:0:0:0:
408,290,140090,1,0,0:0:0:0:
420,258,140129,1,0,0:0:0:0:
417,225,140169,1,0,0:0:0:0:
401,196,140208,1,4,0:0:0:0:
374,176,140248,1,0,0:0:0:0:
342,169,140287,1,0,0:0:0:0:
164,130,140367,6,0,L|164:239,1,67.5499979385377,2|0,0:0|0:0,0:0:0:0:
315,286,140525,1,4,0:0:0:0:
357,274,140564,1,0,0:0:0:0:
388,242,140603,1,0,0:0:0:0:
396,198,140643,1,0,0:0:0:0:
379,157,140682,1,8,0:0:0:0:
343,131,140722,1,0,0:0:0:0:
299,129,140761,1,0,0:0:0:0:
146,158,140841,2,0,L|85:156,2,33.7749989692688,4|0|0,0:0|0:0|0:0,0:0:0:0:
299,129,140999,5,2,0:0:0:0:
326,156,141038,1,0,0:0:0:0:
337,194,141077,1,0,0:0:0:0:
330,232,141117,1,0,0:0:0:0:
306,263,141156,1,4,0:0:0:0:
270,279,141196,1,0,0:0:0:0:
231,276,141235,1,0,0:0:0:0:
389,53,141314,1,8,0:0:0:0:
416,80,141353,1,0,0:0:0:0:
427,118,141392,1,0,0:0:0:0:
420,156,141432,1,0,0:0:0:0:
396,187,141471,1,4,0:0:0:0:
360,203,141511,1,0,0:0:0:0:
321,200,141550,1,0,0:0:0:0:
149,180,141630,6,0,L|149:260,1,67.5499979385377,2|0,0:0|0:0,0:0:0:0:
309,324,141788,1,4,0:0:0:0:
332,285,141827,1,0,0:0:0:0:
338,241,141866,1,0,0:0:0:0:
325,198,141906,1,0,0:0:0:0:
297,164,141945,1,8,0:0:0:0:
257,143,141985,1,0,0:0:0:0:
212,141,142024,1,0,0:0:0:0:
377,94,142104,2,0,L|417:94,2,33.7749989692688,4|0|0,0:0|0:0|0:0,0:0:0:0:
198,102,142262,5,2,0:0:0:0:
165,109,142301,1,0,0:0:0:0:
141,132,142340,1,0,0:0:0:0:
132,164,142380,1,0,0:0:0:0:
140,196,142419,1,4,0:0:0:0:
164,220,142459,1,0,0:0:0:0:
196,228,142498,1,0,0:0:0:0:
357,337,142578,1,8,0:0:0:0:
389,329,142617,1,0,0:0:0:0:
413,306,142656,1,0,0:0:0:0:
422,274,142696,1,0,0:0:0:0:
414,242,142735,1,4,0:0:0:0:
390,218,142775,1,0,0:0:0:0:
358,210,142814,1,0,0:0:0:0:
190,130,142893,6,0,L|190:214,1,67.5499979385377,2|0,0:0|0:0,0:0:0:0:
348,107,143051,1,4,0:0:0:0:
387,107,143090,1,0,0:0:0:0:
422,123,143129,1,0,0:0:0:0:
449,152,143169,1,0,0:0:0:0:
463,188,143208,1,8,0:0:0:0:
462,227,143248,1,0,0:0:0:0:
446,263,143287,1,0,0:0:0:0:
288,289,143367,2,0,L|288:233,2,33.7749989692688,4|0|0,0:0|0:0|0:0,0:0:0:0:
130,282,143525,5,2,0:0:0:0:
114,246,143564,1,0,0:0:0:0:
112,206,143603,1,0,0:0:0:0:
125,169,143643,1,0,0:0:0:0:
150,139,143682,1,4,0:0:0:0:
184,120,143722,1,0,0:0:0:0:
223,115,143761,1,0,0:0:0:0:
58,227,143841,1,8,0:0:0:0:
42,191,143880,1,0,0:0:0:0:
40,151,143919,1,0,0:0:0:0:
53,114,143959,1,0,0:0:0:0:
78,84,143998,1,4,0:0:0:0:
112,65,144038,1,0,0:0:0:0:
151,60,144077,1,0,0:0:0:0:
318,71,144157,6,0,L|318:151,1,67.5499979385377,2|0,0:0|0:0,0:0:0:0:
161,189,144314,1,4,0:0:0:0:
194,189,144353,1,0,0:0:0:0:
228,189,144392,1,0,0:0:0:0:
387,225,144472,2,0,L|425:224,2,33.7749989692688,8|0|0,0:0|0:0|0:0,0:0:0:0:
226,274,144630,2,0,L|188:273,2,33.7749989692688,4|0|0,0:0|0:0|0:0,0:0:0:0:
412,262,144788,5,2,0:0:0:0:
441,228,144827,1,0,0:0:0:0:
453,185,144866,1,0,0:0:0:0:
445,141,144906,1,0,0:0:0:0:
418,105,144945,1,4,0:0:0:0:
379,83,144985,1,0,0:0:0:0:
334,81,145024,1,0,0:0:0:0:
175,93,145104,1,8,0:0:0:0:
135,92,145143,1,0,0:0:0:0:
100,109,145182,1,0,0:0:0:0:
76,139,145222,1,0,0:0:0:0:
67,177,145261,1,4,0:0:0:0:
75,215,145301,1,0,0:0:0:0:
100,246,145340,1,0,0:0:0:0:
275,235,145420,6,0,L|275:311,1,67.5499979385377,2|0,0:0|0:0,0:0:0:0:
118,312,145578,1,4,0:0:0:0:
84,311,145617,1,0,0:0:0:0:
50,311,145656,1,0,0:0:0:0:
210,199,145735,2,0,L|252:199,2,33.7749989692688,8|0|0,0:0|0:0|0:0,0:0:0:0:
54,178,145893,2,0,L|19:178,2,33.7749989692688,4|0|0,0:0|0:0|0:0,0:0:0:0:
199,124,146051,5,2,0:0:0:0:
231,132,146090,1,0,0:0:0:0:
255,155,146129,1,0,0:0:0:0:
263,187,146169,1,0,0:0:0:0:
254,219,146208,1,4,0:0:0:0:
231,243,146248,1,0,0:0:0:0:
198,251,146287,1,0,0:0:0:0:
351,42,146367,1,8,0:0:0:0:
383,50,146406,1,0,0:0:0:0:
407,73,146445,1,0,0:0:0:0:
415,105,146485,1,0,0:0:0:0:
406,137,146524,1,4,0:0:0:0:
383,161,146564,1,0,0:0:0:0:
350,169,146603,1,0,0:0:0:0:
163,171,146683,5,2,0:0:0:0:
96,204,146761,1,0,0:0:0:0:
97,278,146840,1,4,0:0:0:0:
166,308,146919,1,0,0:0:0:0:
319,171,146999,2,0,L|319:263,1,67.5499979385377,8|0,0:0|0:0,0:0:0:0:
240,248,147157,2,0,L|239:344,1,67.5499979385377,4|0,0:0|0:0,0:0:0:0:
399,240,147314,1,2,0:0:0:0:
452,203,147392,1,0,0:0:0:0:
450,139,147471,1,4,0:0:0:0:
394,105,147550,1,0,0:0:0:0:
239,75,147630,1,8,0:0:0:0:
185,111,147708,1,0,0:0:0:0:
187,175,147787,1,4,0:0:0:0:
243,209,147866,1,0,0:0:0:0:
424,208,147946,6,0,L|424:304,1,67.5499979385377,2|0,0:0|0:0,0:0:0:0:
348,297,148104,2,0,L|269:297,1,67.5499979385377,4|0,0:0|0:0,0:0:0:0:
454,91,148262,2,0,L|454:187,1,67.5499979385377,8|0,0:0|0:0,0:0:0:0:
378,180,148420,2,0,L|299:180,1,67.5499979385377,4|0,0:0|0:0,0:0:0:0:
153,65,148578,2,0,L|153:150,1,67.5499979385377,2|0,0:0|0:0,0:0:0:0:
231,151,148735,2,0,L|231:229,1,67.5499979385377,4|0,0:0|0:0,0:0:0:0:
69,307,148893,1,8,0:0:0:0:
49,244,148971,1,0,0:0:0:0:
81,186,149050,1,4,0:0:0:0:
144,168,149129,1,0,0:0:0:0:
326,277,149209,5,2,0:0:0:0:
385,253,149287,1,0,0:0:0:0:
387,190,149367,1,0,0:0:0:0:
329,163,149445,1,0,0:0:0:0:
179,78,149525,2,0,L|179:194,1,67.5499979385377,8|0,0:0|0:0,0:0:0:0:
275,141,149683,2,0,L|276:247,1,67.5499979385377,0|0,0:0|0:0,0:0:0:0:
125,270,149841,1,2,0:0:0:0:
68,240,149919,1,0,0:0:0:0:
69,176,149998,1,0,0:0:0:0:
127,149,150077,1,0,0:0:0:0:
279,317,150157,2,0,L|279:208,1,67.5499979385377,8|0,0:0|0:0,0:0:0:0:
184,227,150314,2,0,L|184:132,1,67.5499979385377,0|0,0:0|0:0,0:0:0:0:
324,180,150472,6,0,L|420:180,1,67.5499979385377,2|0,0:0|0:0,0:0:0:0:
324,180,150630,2,0,L|230:180,1,67.5499979385377,0|0,0:0|0:0,0:0:0:0:
405,80,150788,2,0,L|499:80,1,67.5499979385377,8|0,0:0|0:0,0:0:0:0:
405,80,150946,2,0,L|305:80,1,67.5499979385377,0|0,0:0|0:0,0:0:0:0:
119,68,151104,2,0,L|119:155,1,57.8999982330323,2|0,0:0|0:0,0:0:0:0:
260,158,151262,2,0,L|260:248,1,57.8999982330323,0|0,0:0|0:0,0:0:0:0:
401,256,151420,2,0,L|401:352,1,57.8999982330323,8|0,0:0|0:0,0:0:0:0:
260,273,151578,2,0,L|260:180,1,57.8999982330323,0|0,0:0|0:0,0:0:0:0:
417,105,151735,5,2,0:0:0:0:
457,149,151813,1,0,0:0:0:0:
444,208,151892,1,4,0:0:0:0:
389,232,151971,1,0,0:0:0:0:
243,247,152051,1,8,0:0:0:0:
187,220,152129,1,0,0:0:0:0:
187,160,152208,1,4,0:0:0:0:
243,133,152287,1,0,0:0:0:0:
419,277,152367,1,2,0:0:0:0:
456,217,152445,1,0,0:0:0:0:
431,151,152524,1,4,0:0:0:0:
363,131,152603,1,0,0:0:0:0:
209,91,152683,2,0,L|209:161,1,62.7249971286775,8|0,0:0|0:0,0:0:0:0:
362,189,152841,2,0,L|362:278,1,62.7249971286775,4|0,0:0|0:0,0:0:0:0:
194,322,152999,5,2,0:0:0:0:
135,267,153077,1,0,0:0:0:0:
155,190,153156,1,4,0:0:0:0:
232,169,153235,1,0,0:0:0:0:
412,153,153314,2,0,L|412:243,1,62.7249971286775,8|0,0:0|0:0,0:0:0:0:
265,248,153472,2,0,L|182:247,1,62.7249971286775,4|0,0:0|0:0,0:0:0:0:
38,256,153630,1,2,0:0:0:0:
37,194,153708,1,0,0:0:0:0:
75,146,153787,1,4,0:0:0:0:
136,134,153866,1,0,0:0:0:0:
282,113,153946,1,8,0:0:0:0:
331,147,154024,1,0,0:0:0:0:
332,208,154103,1,4,0:0:0:0:
284,244,154182,1,0,0:0:0:0:
136,240,154262,6,0,L|57:242,1,62.7249971286775,2|0,0:0|0:0,0:0:0:0:
136,240,154420,2,0,L|214:240,1,62.7249971286775,4|0,0:0|0:0,0:0:0:0:
342,122,154578,2,0,L|421:124,1,62.7249971286775,8|0,0:0|0:0,0:0:0:0:
342,122,154736,2,0,L|264:122,1,62.7249971286775,4|0,0:0|0:0,0:0:0:0:
441,248,154893,1,2,0:0:0:0:
465,192,154971,1,0,0:0:0:0:
436,139,155050,1,4,0:0:0:0:
376,130,155129,1,0,0:0:0:0:
225,162,155209,1,0,0:0:0:0:
201,217,155287,1,0,0:0:0:0:
230,270,155366,1,4,0:0:0:0:
290,279,155445,1,0,0:0:0:0:
449,311,155525,5,0,0:0:0:0:
465,251,155603,1,0,0:0:0:0:
444,192,155682,1,4,0:0:0:0:
395,155,155761,1,0,0:0:0:0:
253,136,155841,1,0,0:0:0:0:
236,195,155919,1,0,0:0:0:0:
257,254,155998,1,4,0:0:0:0:
306,291,156077,1,0,0:0:0:0:
117,324,156157,1,0,0:0:0:0:
65,288,156235,1,0,0:0:0:0:
68,206,156314,1,0,0:0:0:0:
124,178,156393,1,0,0:0:0:0:
192,173,156472,1,0,0:0:0:0:
249,147,156551,1,0,0:0:0:0:
252,64,156630,1,0,0:0:0:0:
197,30,156709,1,0,0:0:0:0:
36,40,156788,5,0,0:0:0:0:
256,192,156867,12,0,157735,0:0:0:0:
256,268,158051,6,0,L|320:266,1,48.25,0|0,0:0|0:0,0:0:0:0:
144,143,158209,2,0,L|80:141,1,48.25,0|0,0:0|0:0,0:0:0:0:
284,64,158367,1,0,0:0:0:0:
346,93,158445,1,0,0:0:0:0:
347,161,158524,1,0,0:0:0:0:
286,193,158603,1,0,0:0:0:0:
85,267,158683,2,0,L|305:224,2,193.000007362366,8|8|8,0:0|0:0|0:0,0:0:0:0:
392,200,159314,6,0,L|490:200,2,83.6333295049033,2|0|0,0:1|0:0|0:0,0:0:0:0:
282,215,159630,2,0,L|282:325,1,83.6333295049033,2|0,0:1|0:0,0:0:0:0:
368,300,159841,1,0,0:0:0:0:
260,233,159946,2,0,L|162:233,2,83.6333295049033,2|0|0,0:1|0:0|0:0,0:0:0:0:
369,233,160262,2,0,L|369:123,1,83.6333295049033,2|0,0:1|0:0,0:0:0:0:
283,148,160473,1,0,0:0:0:0:
391,174,160578,6,0,L|391:64,1,83.6333295049033,2|0,0:1|0:0,0:0:0:0:
305,89,160789,1,0,0:0:0:0:
130,84,160893,2,0,L|226:126,2,83.6333295049033,6|4|4,0:1|0:1|0:1,0:0:0:0:
315,291,161209,1,2,0:1:0:0:
231,290,161314,1,0,0:0:0:0:
147,290,161419,1,0,0:0:0:0:
257,212,161525,1,2,0:1:0:0:
341,211,161630,1,0,0:0:0:0:
425,211,161735,1,0,0:0:0:0:
239,155,161841,6,0,L|239:265,1,83.6333295049033,2|0,0:1|0:0,0:0:0:0:
323,257,162051,1,0,0:0:0:0:
434,200,162157,2,0,L|434:90,1,83.6333295049033,2|0,0:1|0:0,0:0:0:0:
350,98,162367,1,0,0:0:0:0:
170,84,162472,2,0,L|73:84,2,83.6333295049033,2|0|0,0:3|0:0|0:0,0:0:0:0:
351,163,162788,2,0,L|448:163,2,83.6333295049033,2|0|0,0:3|0:0|0:0,0:0:0:0:
168,180,163104,6,0,L|168:280,1,83.6333295049033,2|0,0:3|0:0,0:0:0:0:
277,332,163314,2,0,L|277:205,1,83.6333295049033,2|2,0:3|0:1,0:0:0:0:
168,180,163525,2,0,L|275:180,1,83.6333295049033,2|2,0:3|0:3,0:0:0:0:
65,226,163735,2,0,L|65:333,1,83.6333295049033,2|0,0:1|0:0,0:0:0:0:
175,330,163946,2,0,L|175:199,1,83.6333295049033,2|2,0:3|0:1,0:0:0:0:
286,154,164157,2,0,L|168:154,1,83.6333295049033,2|2,0:3|0:3,0:0:0:0:
401,133,164367,6,0,L|401:251,1,83.6333295049033,2|0,0:1|0:0,0:0:0:0:
317,213,164578,1,0,0:0:0:0:
207,176,164683,1,2,0:1:0:0:
274,226,164788,1,0,0:0:0:0:
340,277,164893,1,0,0:0:0:0:
230,276,164999,2,0,L|126:276,2,83.6333295049033,2|0|0,0:1|0:0|0:0,0:0:0:0:
409,184,165314,2,0,L|316:145,2,83.6333295049033,2|4|4,0:1|0:1|0:1,0:0:0:0:
228,92,165630,6,0,L|228:210,1,83.6333295049033,2|0,0:1|0:0,0:0:0:0:
312,180,165841,1,0,0:0:0:0:
423,216,165946,2,0,L|314:170,2,83.6333295049033,2|4|4,0:1|0:1|0:1,0:0:0:0:
164,128,166262,2,0,L|164:267,1,83.6333295049033,2|0,0:1|0:0,0:0:0:0:
248,211,166472,1,0,0:0:0:0:
359,225,166578,2,0,L|359:338,1,83.6333295049033,2|4,0:1|0:1,0:0:0:0:
275,316,166788,1,4,0:1:0:0:
95,304,166893,6,0,L|12:266,2,83.6333295049033,2|0|0,0:1|0:0|0:0,0:0:0:0:
205,89,167209,2,0,L|205:192,1,83.6333295049033,2|0,0:1|0:0,0:0:0:0:
323,257,167420,2,0,L|424:212,2,83.6333295049033,0|2|0,0:0|0:1|0:0,0:0:0:0:
124,309,167735,1,2,0:3:0:0:
54,270,167840,1,2,0:1:0:0:
56,190,167945,1,0,0:0:0:0:
127,155,168050,1,0,0:0:0:0:
309,77,168157,6,0,L|309:189,1,83.6333295049033,2|0,0:3|0:0,0:0:0:0:
200,181,168367,2,0,L|200:282,1,83.6333295049033,2|2,0:3|0:1,0:0:0:0:
310,292,168578,2,0,L|208:292,1,83.6333295049033,4|4,0:1|0:1,0:0:0:0:
406,227,168788,1,2,0:1:0:0:
306,224,168893,1,0,0:0:0:0:
206,227,168999,1,4,0:1:0:0:
306,224,169104,1,2,0:1:0:0:
406,218,169209,1,2,0:1:0:0:
306,224,169314,1,2,0:1:0:0:
487,73,169420,6,0,L|487:199,1,83.6333295049033,2|0,0:1|0:0,0:0:0:0:
403,169,169630,1,0,0:0:0:0:
293,184,169735,2,0,L|170:186,2,83.6333295049033,2|0|0,0:1|0:0|0:0,0:0:0:0:
183,256,170051,2,0,L|183:355,1,83.6333295049033,2|0,0:1|0:0,0:0:0:0:
267,344,170262,1,0,0:0:0:0:
446,260,170367,2,0,L|354:218,2,83.6333295049033,2|4|4,0:1|0:1|0:1,0:0:0:0:
259,186,170683,6,0,L|152:186,2,83.6333295049033,2|0|0,0:1|0:0|0:0,0:0:0:0:
369,86,170999,2,0,L|262:86,2,83.6333295049033,2|4|4,0:1|0:1|0:1,0:0:0:0:
186,123,171314,2,0,L|186:249,1,83.6333295049033,2|0,0:1|0:0,0:0:0:0:
270,204,171525,1,0,0:0:0:0:
452,291,171630,2,0,L|452:165,1,83.6333295049033,2|0,0:1|0:0,0:0:0:0:
368,210,171841,1,0,0:0:0:0:
189,235,171946,5,2,0:1:0:0:
105,122,172051,2,0,L|105:240,1,83.6333295049033,0|0,0:0|0:0,0:0:0:0:
217,100,172262,2,0,L|217:243,1,83.6333295049033,2|0,0:1|0:0,0:0:0:0:
134,189,172472,1,0,0:0:0:0:
315,246,172578,2,0,L|426:246,2,83.6333295049033,2|0|0,0:1|0:0|0:0,0:0:0:0:
135,148,172893,2,0,L|24:148,2,83.6333295049033,2|0|0,0:1|0:0|0:0,0:0:0:0:
324,134,173209,6,0,L|412:175,1,83.6333295049033,2|0,0:3|0:0,0:0:0:0:
290,233,173420,2,0,L|289:344,1,83.6333295049033,2|2,0:3|0:1,0:0:0:0:
181,142,173630,2,0,L|309:142,1,83.6333295049033,4|4,0:1|0:1,0:0:0:0:
80,289,173841,2,0,P|27:226|120:206,1,167.266659009807,2|0,0:1|0:0,0:0:0:0:
260,167,174157,2,0,L|70:166,1,167.266659009807,2|0,0:1|0:0,0:0:0:0:
314,252,174472,6,0,L|432:227,2,83.6333295049033,2|0|0,0:1|0:0|0:0,0:0:0:0:
204,298,174788,2,0,L|204:138,1,83.6333295049033,2|0,0:1|0:0,0:0:0:0:
289,185,174999,1,0,0:0:0:0:
180,127,175104,2,0,L|62:102,2,83.6333295049033,2|0|0,0:1|0:0|0:0,0:0:0:0:
365,140,175420,2,0,L|365:280,1,83.6333295049033,2|0,0:1|0:0,0:0:0:0:
282,230,175630,1,0,0:0:0:0:
99,267,175735,6,0,L|18:238,2,83.6333295049033,2|0|0,0:1|0:0|0:0,0:0:0:0:
281,290,176051,2,0,L|183:246,2,83.6333295049033,2|4|4,0:1|0:1|0:1,0:0:0:0:
100,114,176367,2,0,L|100:250,1,83.6333295049033,2|0,0:1|0:0,0:0:0:0:
184,201,176578,1,0,0:0:0:0:
365,165,176683,1,10,0:0:0:0:
281,165,176788,1,0,0:0:0:0:
197,165,176893,1,0,0:0:0:0:
368,290,176999,6,0,L|368:153,1,83.6333295049033,2|0,0:1|0:0,0:0:0:0:
278,212,177209,1,0,0:0:0:0:
368,206,177314,1,2,0:1:0:0:
273,89,177420,2,0,L|273:212,1,83.6333295049033,0|0,0:3|0:0,0:0:0:0:
382,148,177630,2,0,L|382:267,1,83.6333295049033,2|2,0:1|0:0,0:0:0:0:
297,265,177841,1,2,0:0:0:0:
406,236,177946,2,0,L|510:278,2,83.6333295049033,2|0|2,0:1|0:0|0:0,0:0:0:0:
223,118,178262,6,0,L|141:163,1,83.6333295049033,2|0,0:1|0:0,0:0:0:0:
259,231,178472,2,0,L|341:276,1,83.6333295049033,4|2,0:1|0:1,0:0:0:0:
222,307,178683,2,0,L|370:307,1,83.6333295049033,4|4,0:1|0:1,0:0:0:0:
122,125,178893,2,0,L|-10:124,2,83.6333295049033,2|0|0,0:1|0:0|0:0,0:0:0:0:
303,169,179209,2,0,L|180:231,2,90.0666639180502,2|2|2,0:1|0:0|0:0,0:0:0:0:
121,232,179525,6,0,L|121:361,1,90.0666639180502,2|0,0:1|0:0,0:0:0:0:
207,324,179735,1,0,0:0:0:0:
393,238,179841,2,0,L|521:200,2,90.0666639180502,8|0|0,0:1|0:0|0:0,0:0:0:0:
283,247,180157,2,0,L|283:377,1,90.0666639180502,2|0,0:1|0:0,0:0:0:0:
368,336,180367,1,0,0:0:0:0:
188,264,180472,2,0,L|60:226,2,90.0666639180502,8|0|0,0:1|0:0|0:0,0:0:0:0:
371,153,180788,6,0,L|371:291,1,90.0666639180502,2|0,0:1|0:0,0:0:0:0:
290,255,180999,1,0,0:0:0:0:
109,165,181104,2,0,L|224:213,2,90.0666639180502,8|0|0,0:1|0:0|0:0,0:0:0:0:
219,106,181420,1,2,0:1:0:0:
300,126,181525,2,0,L|300:235,1,90.0666639180502,0|0,0:0|0:0,0:0:0:0:
119,246,181735,2,0,L|19:246,2,90.0666639180502,8|0|0,0:1|0:0|0:0,0:0:0:0:
300,138,182051,6,0,L|300:258,1,90.0666639180502,2|0,0:1|0:0,0:0:0:0:
218,245,182262,1,0,0:0:0:0:
401,215,182367,2,0,L|401:335,1,90.0666639180502,8|0,0:1|0:0,0:0:0:0:
319,322,182578,1,0,0:0:0:0:
211,314,182683,1,2,0:1:0:0:
282,259,182788,1,0,0:0:0:0:
353,204,182893,1,0,0:0:0:0:
172,177,182999,2,0,L|72:177,2,90.0666639180502,8|0|0,0:1|0:0|0:0,0:0:0:0:
353,114,183314,6,0,L|353:229,1,90.0666639180502,2|0,0:3|0:0,0:0:0:0:
244,242,183525,1,2,0:3:0:0:
425,295,183630,2,0,L|325:241,2,90.0666639180502,8|2|2,0:1|0:3|0:3,0:0:0:0:
233,191,183946,2,0,L|233:341,1,90.0666639180502,2|0,0:1|0:0,0:0:0:0:
315,301,184157,1,0,0:0:0:0:
496,240,184262,2,0,L|496:90,1,90.0666639180502,8|0,0:1|0:0,0:0:0:0:
414,130,184473,1,0,0:0:0:0:
233,122,184578,5,2,0:1:0:0:
151,157,184683,2,0,L|151:322,1,90.0666639180502
332,240,184893,2,0,L|433:240,2,90.0666639180502,8|0|0,0:1|0:3|0:0,0:0:0:0:
223,164,185209,2,0,L|224:320,1,90.0666639180502,2|0,0:1|0:0,0:0:0:0:
305,258,185420,1,0,0:0:0:0:
123,238,185525,2,0,L|5:238,2,90.0666639180502,8|0|0,0:1|0:0|0:0,0:0:0:0:
305,167,185841,6,0,L|305:311,1,90.0666639180502,2|0,0:3|0:0,0:0:0:0:
223,263,186051,1,2,0:3:0:0:
38,280,186157,2,0,L|163:226,2,90.0666639180502,8|2|2,0:1|0:3|0:3,0:0:0:0:
146,144,186472,2,0,L|146:250,1,90.0666639180502,2|0,0:1|0:0,0:0:0:0:
64,240,186683,1,0,0:0:0:0:
247,44,186788,2,0,L|247:150,1,90.0666639180502,8|2,0:1|0:3,0:0:0:0:
165,140,186999,1,2,0:3:0:0:
351,195,187104,5,2,0:1:0:0:
432,256,187209,2,0,L|432:127,1,90.0666639180502,0|0,0:0|0:0,0:0:0:0:
248,211,187420,2,0,L|112:212,2,90.0666639180502,8|0|0,0:1|0:0|0:0,0:0:0:0:
356,221,187735,2,0,L|356:327,1,90.0666639180502,2|0,0:1|0:0,0:0:0:0:
264,315,187946,1,0,0:0:0:0:
83,313,188051,2,0,L|83:160,1,90.0666639180502,8|0,0:1|0:0,0:0:0:0:
165,208,188262,1,0,0:0:0:0:
348,184,188367,6,0,L|472:184,2,90.0666639180502,2|0|2,0:3|0:0|0:3,0:0:0:0:
164,168,188683,2,0,L|278:226,2,90.0666639180502,8|2|2,0:1|0:3|0:3,0:0:0:0:
349,75,188999,2,0,L|348:222,1,90.0666639180502,2|0,0:1|0:0,0:0:0:0:
267,197,189209,1,2,0:1:0:0:
448,281,189314,2,0,L|355:242,2,90.0666639180502,8|8|8,0:0|0:0|0:0,0:0:0:0:
266,212,189630,6,0,L|266:342,1,90.0666639180502,2|0,0:1|0:0,0:0:0:0:
348,308,189841,1,4,0:0:0:0:
166,229,189946,2,0,L|4:229,2,90.0666639180502,8|0|4,0:1|0:0|0:0,0:0:0:0:
275,129,190262,1,2,0:1:0:0:
356,157,190367,2,0,L|356:287,1,90.0666639180502,0|4,0:0|0:0,0:0:0:0:
168,176,190578,2,0,L|168:305,1,90.0666639180502,8|0,0:1|0:0,0:0:0:0:
250,315,190788,1,4,0:0:0:0:
431,186,190893,6,0,L|431:328,1,90.0666639180502,2|0,0:1|0:0,0:0:0:0:
349,309,191104,1,4,0:0:0:0:
166,233,191209,2,0,L|275:184,2,90.0666639180502,8|0|4,0:1|0:0|0:0,0:0:0:0:
336,88,191525,1,2,0:1:0:0:
254,204,191630,2,0,L|254:91,1,90.0666639180502,0|4,0:0|0:0,0:0:0:0:
437,138,191841,2,0,L|328:195,2,90.0666639180502,8|0|4,0:1|0:0|0:0,0:0:0:0:
254,202,192157,5,2,0:1:0:0:
335,234,192262,2,0,L|335:363,1,90.0666639180502,0|4,0:0|0:0,0:0:0:0:
154,311,192472,1,8,0:1:0:0:
73,279,192577,2,0,L|73:150,1,90.0666639180502,0|4,0:0|0:0,0:0:0:0:
183,140,192788,2,0,L|315:213,2,90.0666639180502,2|0|4,0:1|0:0|0:0,0:0:0:0:
367,53,193104,2,0,L|367:197,1,90.0666639180502,8|0,0:1|0:0,0:0:0:0:
286,171,193314,1,4,0:0:0:0:
103,93,193420,6,0,L|103:235,1,90.0666639180502,2|0,0:1|0:0,0:0:0:0:
211,211,193630,1,4,0:0:0:0:
29,255,193735,2,0,L|137:197,2,90.0666639180502,8|4|4,0:1|0:1|0:0,0:0:0:0:
221,326,194051,1,2,0:1:0:0:
130,326,194156,1,0,0:0:0:0:
40,326,194261,1,0,0:0:0:0:
225,180,194367,1,8,0:2:0:0:
134,180,194472,1,0,0:0:0:0:
225,180,194577,1,0,0:0:0:0:
418,169,194683,6,0,L|418:293,1,90.0666639180502,2|0,0:1|0:0,0:0:0:0:
337,262,194893,1,4,0:0:0:0:
156,247,194999,1,8,0:1:0:0:
238,109,195104,2,0,L|238:260,1,90.0666639180502,0|4,0:0|0:0,0:0:0:0:
129,204,195314,2,0,L|241:204,1,90.0666639180502,2|0,0:1|0:0,0:0:0:0:
310,203,195525,1,4,0:0:0:0:
141,119,195630,2,0,L|59:156,2,90.0666639180502,8|0|4,0:1|0:0|0:0,0:0:0:0:
393,96,195946,5,2,0:1:0:0:
474,136,196051,2,0,L|474:254,1,90.0666639180502,0|4,0:0|0:0,0:0:0:0:
288,266,196262,2,0,L|403:208,2,90.0666639180502,8|0|4,0:1|0:0|0:0,0:0:0:0:
474,135,196578,2,0,L|474:269,1,90.0666639180502,2|0,0:1|0:0,0:0:0:0:
393,257,196788,1,4,0:0:0:0:
212,196,196893,1,8,0:1:0:0:
285,144,196998,1,0,0:0:0:0:
359,92,197103,1,4,0:0:0:0:
171,92,197209,6,0,L|58:153,2,90.0666639180502,2|0|4,0:1|0:0|0:0,0:0:0:0:
358,53,197525,2,0,L|358:218,1,90.0666639180502,8|0,0:1|0:0,0:0:0:0:
277,182,197735,1,4,0:0:0:0:
387,240,197841,2,0,L|387:101,1,90.0666639180502,2|0,0:1|0:0,0:0:0:0:
278,135,198051,1,4,0:0:0:0:
465,81,198157,2,0,L|465:248,1,90.0666639180502,8|0,0:1|0:0,0:0:0:0:
384,191,198367,1,4,0:0:0:0:
197,175,198472,6,0,L|197:330,1,90.0666639180502,2|0,0:1|0:0,0:0:0:0:
306,130,198683,1,4,0:0:0:0:
126,323,198788,2,0,L|126:189,1,90.0666639180502,8|0,0:1|0:0,0:0:0:0:
17,129,198999,1,4,0:0:0:0:
198,346,199104,2,0,P|240:251|164:247,1,180.1333278361,2|0,0:1|0:0,0:0:0:0:
380,204,199420,2,0,L|254:263,2,90.0666639180502,8|0|0,0:1|0:0|0:0,0:0:0:0:
172,284,199735,6,0,L|280:229,2,96.500003681183,2|4|4,0:1|1:0|2:0,0:0:0:0:
343,155,200051,1,8,0:1:0:0:
246,155,200156,1,4,1:0:0:0:
150,155,200261,1,4,0:0:0:0:
320,44,200367,2,0,L|320:186,1,96.500003681183,2|4,0:1|1:0,0:0:0:0:
222,194,200578,1,4,0:0:0:0:
390,169,200683,2,0,L|508:169,2,96.500003681183,8|4|4,0:1|1:0|0:0,0:0:0:0:
219,213,200999,5,2,0:1:0:0:
315,113,201104,2,0,L|315:263,1,96.500003681183,4|4,1:0|0:0,0:0:0:0:
147,164,201314,1,8,0:1:0:0:
243,164,201419,1,0,0:0:0:0:
340,164,201524,1,4,0:0:0:0:
170,57,201630,2,0,L|284:115,2,96.500003681183,2|4|4,0:1|1:0|0:0,0:0:0:0:
344,88,201946,2,0,L|344:238,1,96.500003681183,8|4,0:1|1:0,0:0:0:0:
246,222,202157,1,4,0:0:0:0:
439,290,202262,6,0,L|315:220,2,96.500003681183,2|4|4,0:1|1:0|0:0,0:0:0:0:
268,208,202578,1,8,0:1:0:0:
364,104,202683,2,0,L|364:240,1,96.500003681183,4|4,1:0|0:0,0:0:0:0:
196,246,202893,2,0,L|315:192,2,96.500003681183,2|4|4,0:1|1:0|0:0,0:0:0:0:
366,48,203209,2,0,L|365:188,1,96.500003681183,8|4,0:1|1:0,0:0:0:0:
268,160,203420,1,4,0:0:0:0:
72,210,203525,6,0,L|189:271,2,96.500003681183,2|4|4,0:1|1:0|0:0,0:0:0:0:
242,91,203841,1,8,0:1:0:0:
145,91,203946,1,4,1:0:0:0:
242,91,204051,1,4,0:0:0:0:
415,166,204157,1,2,0:1:0:0:
318,166,204262,1,4,1:0:0:0:
222,166,204367,1,4,0:0:0:0:
394,77,204472,2,0,L|508:77,2,96.500003681183,8|0|4,0:1|0:0|0:0,0:0:0:0:
198,305,204788,6,0,L|320:238,2,96.500003681183,2|4|4,0:1|1:0|0:0,0:0:0:0:
368,219,205104,1,8,0:1:0:0:
271,219,205209,1,4,1:0:0:0:
175,219,205314,1,4,0:0:0:0:
348,89,205420,1,2,0:1:0:0:
252,96,205525,2,0,L|252:230,1,96.500003681183,4|4,1:0|0:0,0:0:0:0:
421,200,205735,2,0,L|303:140,2,96.500003681183,8|4|4,0:1|1:0|0:0,0:0:0:0:
250,229,206051,5,2,0:1:0:0:
152,332,206157,2,0,L|152:209,1,96.500003681183,4|4,1:0|0:0,0:0:0:0:
321,181,206367,1,8,0:1:0:0:
417,69,206472,2,0,L|417:218,1,96.500003681183,4|4,1:0|0:0,0:0:0:0:
246,121,206683,2,0,L|352:180,2,96.500003681183,2|4|4,0:1|1:0|0:0,0:0:0:0:
419,50,206999,1,8,0:1:0:0:
322,50,207104,1,4,1:0:0:0:
226,50,207209,1,4,0:0:0:0:
426,128,207314,6,0,L|426:258,1,96.500003681183,2|4,0:1|1:0,0:0:0:0:
329,262,207525,1,4,0:0:0:0:
159,195,207630,1,8,0:1:0:0:
255,195,207735,1,4,1:0:0:0:
352,195,207840,1,4,0:0:0:0:
180,307,207946,2,0,L|311:229,2,96.500003681183,2|4|4,0:1|1:0|0:0,0:0:0:0:
351,117,208262,1,8,0:1:0:0:
254,117,208367,1,4,1:0:0:0:
158,117,208472,1,4,0:0:0:0:
360,188,208578,6,0,L|360:314,1,96.500003681183,2|4,0:1|1:0,0:0:0:0:
264,302,208788,1,4,0:0:0:0:
435,75,208893,2,0,L|435:228,1,96.500003681183,8|0,0:1|0:0,0:0:0:0:
338,193,209104,1,4,0:0:0:0:
168,287,209209,1,2,0:1:0:0:
71,277,209315,2,0,L|71:180,1,96.500003681183,4|4,1:0|0:0,0:0:0:0:
240,184,209525,2,0,L|240:50,1,96.500003681183,8|4,0:1|1:0,0:0:0:0:
337,78,209736,1,4,0:0:0:0:
138,225,209841,6,0,L|239:287,2,96.500003681183,2|4|4,0:1|1:0|0:0,0:0:0:0:
310,112,210157,1,8,0:1:0:0:
214,132,210262,2,0,L|214:249,1,96.500003681183,4|4,1:0|0:0,0:0:0:0:
383,222,210472,2,0,L|272:151,2,96.500003681183,2|4|4,0:1|1:0|0:0,0:0:0:0:
212,133,210788,1,8,0:1:0:0:
308,133,210893,1,4,1:0:0:0:
405,133,210998,1,4,0:0:0:0:
202,66,211104,6,0,L|202:245,1,96.500003681183,2|4,0:1|1:0,0:0:0:0:
298,181,211314,1,4,0:0:0:0:
127,230,211420,2,0,L|-15:230,2,96.500003681183,8|4|4,0:1|1:0|0:0,0:0:0:0:
290,326,211735,1,2,0:1:0:0:
388,294,211841,2,0,L|388:185,1,96.500003681183,4|4,1:0|0:0,0:0:0:0:
218,134,212051,2,0,L|94:134,2,96.500003681183,8|4|4,0:1|1:0|0:0,0:0:0:0:
419,78,212367,6,0,L|278:150,2,96.500003681183,2|4|4,0:1|1:0|0:0,0:0:0:0:
249,196,212683,2,0,L|101:196,2,96.500003681183,8|4|4,0:1|1:0|0:0,0:0:0:0:
419,275,212999,2,0,L|272:201,2,96.500003681183,2|4|4,0:1|1:0|0:0,0:0:0:0:
251,146,213314,1,8,0:1:0:0:
154,171,213420,2,0,L|154:332,1,96.500003681183,4|4,1:0|0:0,0:0:0:0:
348,152,213630,6,0,L|348:280,1,96.500003681183,2|4,0:1|1:0,0:0:0:0:
251,266,213841,1,4,0:0:0:0:
419,118,213946,1,8,0:1:0:0:
322,118,214051,1,4,1:0:0:0:
226,118,214156,1,4,0:0:0:0:
398,258,214262,2,0,L|261:344,2,96.500003681183,2|4|4,0:1|1:0|0:0,0:0:0:0:
228,193,214578,2,0,L|72:193,2,96.500003681183,8|4|4,0:1|1:0|0:0,0:0:0:0:
425,138,214893,6,0,L|265:55,2,96.500003681183,2|4|4,0:1|1:0|0:0,0:0:0:0:
254,159,215209,2,0,L|254:310,1,96.500003681183,8|4,0:1|1:0,0:0:0:0:
352,256,215420,1,4,0:0:0:0:
182,190,215525,1,2,0:1:0:0:
84,189,215630,2,0,L|84:38,1,96.500003681183,4|4,1:0|0:0,0:0:0:0:
252,39,215841,1,8,0:1:0:0:
155,39,215946,1,0,0:0:0:0:
59,39,216051,1,4,0:0:0:0:
265,235,216157,6,0,L|169:317,2,96.500003681183,2|0|0,0:1|0:0|0:0,0:0:0:0:
97,271,216472,1,8,0:1:0:0:
171,209,216577,1,0,0:0:0:0:
246,148,216682,1,0,0:0:0:0:
74,191,216788,2,0,L|170:273,2,96.500003681183,2|0|0,0:1|0:0|0:0,0:0:0:0:
242,227,217103,1,8,0:1:0:0:
167,165,217208,1,0,0:0:0:0:
92,104,217313,1,0,0:0:0:0:
277,106,217420,6,0,L|374:61,2,83.6333295049033
176,146,217735,2,0,L|176:263,1,83.6333295049033,0|0,0:0|0:0,0:0:0:0:
261,259,217946,1,0,0:0:0:0:
362,256,218051,2,0,L|459:211,2,83.6333295049033,0|0|0,0:0|0:0|0:0,0:0:0:0:
181,122,218367,1,0,0:0:0:0:
289,133,218472,2,0,L|289:260,1,83.6333295049033,0|0,0:0|0:0,0:0:0:0:
108,203,218683,6,0,L|108:316,1,83.6333295049033,0|0,0:0|0:0,0:0:0:0:
210,254,218893,2,0,L|210:364,1,83.6333295049033,0|0,0:0|0:0,0:0:0:0:
108,203,219104,2,0,L|6:203,1,83.6333295049033,0|0,0:0|0:0,0:0:0:0:
241,145,219314,1,0,0:0:0:0:
16,53,219630,1,0,0:0:0:0:
444,7,219946,6,0,B|474:47|525:117|522:195|495:259|402:301|424:269|357:210|285:204|251:305|272:424|297:425|354:429|412:427|514:404|497:314|470:260|414:243|414:243|177:76|177:76|414:243,1,1351,2|4,0:0|0:0,0:0:0:0:
272,171,222314,1,4,0:0:0:0:
496,74,222472,6,0,P|475:174|380:205,1,193,2|0,0:0|0:0,0:0:0:0:
253,248,222946,1,0,0:0:0:0:
360,109,223104,2,0,L|360:240,1,96.5,0|0,0:0|0:0,0:0:0:0:
214,266,223420,1,0,0:0:0:0:
436,318,223578,6,0,P|476:263|393:144,1,193,0|0,0:0|0:0,0:0:0:0:
316,87,224051,1,0,0:0:0:0:
461,152,224209,1,4,0:1:0:0:
403,177,224288,1,0,0:0:0:0:
229,258,224367,1,6,0:1:0:0:
461,152,224683,1,2,0:3:0:0:
229,108,224999,6,0,P|172:149|247:233,1,193,2|0,0:0|0:0,0:0:0:0:
374,276,225472,1,0,0:0:0:0:
277,204,225630,2,0,L|277:328,1,96.5,0|0,0:0|0:0,0:0:0:0:
423,191,225946,1,0,0:0:0:0:
200,106,226104,6,0,P|136:168|209:224,1,193,0|0,0:0|0:0,0:0:0:0:
314,231,226578,1,0,0:0:0:0:
170,184,226735,2,0,L|100:184,1,48.25,4|0,0:1|0:0,0:0:0:0:
278,149,226893,1,4,0:1:0:0:
47,104,227209,2,0,L|47:240,1,96.5,2|0,0:3|0:0,0:0:0:0:
272,316,227525,6,0,P|352:280|309:168,1,193,2|0,0:0|0:0,0:0:0:0:
195,171,227999,1,0,0:0:0:0:
98,40,228157,2,0,L|98:175,1,96.5,0|0,0:0|0:0,0:0:0:0:
243,235,228472,1,0,0:0:0:0:
20,128,228630,1,0,0:0:0:0:
243,235,228788,6,0,L|243:110,1,96.5,2|0,0:3|0:0,0:0:0:0:
144,103,229104,1,0,0:0:0:0:
289,102,229262,2,0,L|370:102,1,48.25,2|0,0:3|0:0,0:0:0:0:
169,181,229420,1,0,0:0:0:0:
401,231,229735,1,2,0:3:0:0:
257,185,229893,1,4,0:1:0:0:
480,72,230051,6,0,L|480:206,1,96.5,4|0,0:1|0:0,0:0:0:0:
383,184,230367,1,0,0:0:0:0:
242,130,230525,2,0,L|129:130,2,96.5,0|0|0,0:0|0:0|0:0,0:0:0:0:
383,184,230999,1,0,0:0:0:0:
161,231,231157,1,0,0:0:0:0:
305,308,231314,6,0,L|305:179,1,96.5,2|0,0:0|0:0,0:0:0:0:
161,231,231630,2,0,L|161:102,1,96.5,2|0,0:0|0:0,0:0:0:0:
16,169,231946,2,0,L|16:36,1,96.5,2|0,0:0|0:0,0:0:0:0:
162,83,232262,1,2,0:0:0:0:
17,57,232420,1,0,0:0:0:0:
240,145,232578,6,0,L|364:145,2,96.5,2|0|2,0:0|0:0|0:0,0:0:0:0:
95,175,233051,2,0,L|95:303,1,96.5,0|2,0:0|0:0,0:0:0:0:
192,298,233367,1,0,0:0:0:0:
337,278,233525,1,2,0:0:0:0:
115,131,233683,1,0,0:0:0:0:
260,84,233841,6,0,L|260:222,1,96.5,2|0,0:0|0:0,0:0:0:0:
113,246,234157,2,0,L|234:246,1,96.5,2|0,0:0|0:0,0:0:0:0:
274,248,234393,1,0,0:0:0:0:
433,181,234472,2,0,L|433:321,1,96.5,2|0,0:0|0:0,0:0:0:0:
287,206,234788,2,0,L|287:66,1,96.5,2|0,0:0|0:0,0:0:0:0:
62,45,235104,6,0,L|62:169,1,96.5,2|0,0:0|0:0,0:0:0:0:
159,175,235420,1,2,0:0:0:0:
304,237,235578,2,0,L|435:237,2,96.5,0|2|0,0:0|0:0|0:0,0:0:0:0:
160,280,236051,1,2,0:0:0:0:
383,108,236209,1,0,0:0:0:0:
238,109,236367,6,0,L|238:231,1,96.5,2|0,0:0|0:0,0:0:0:0:
384,218,236683,2,0,L|384:336,1,96.5,2|0,0:0|0:0,0:0:0:0:
319,318,236920,1,0,0:0:0:0:
155,242,236999,2,0,L|35:242,1,96.5,2|0,0:0|0:0,0:0:0:0:
280,145,237314,2,0,L|400:145,1,96.5,2|0,0:0|0:0,0:0:0:0:
124,108,237630,5,2,0:0:0:0:
256,192,237709,12,0,238893,0:0:0:0:
447,143,240157,5,2,0:0:0:0:
471,201,240235,1,0,0:0:0:0:
460,264,240314,1,0,0:0:0:0:
416,310,240393,1,0,0:0:0:0:
263,338,240472,1,2,0:0:0:0:
238,279,240550,1,0,0:0:0:0:
249,216,240629,1,0,0:0:0:0:
292,170,240708,1,0,0:0:0:0:
445,195,240788,1,2,0:0:0:0:
463,134,240866,1,0,0:0:0:0:
442,74,240945,1,0,0:0:0:0:
390,38,241024,1,0,0:0:0:0:
234,68,241104,1,2,0:0:0:0:
215,128,241182,1,0,0:0:0:0:
236,188,241261,1,0,0:0:0:0:
288,224,241340,1,0,0:0:0:0:
130,327,241420,5,2,0:0:0:0:
92,299,241498,1,0,0:0:0:0:
92,253,241577,1,0,0:0:0:0:
130,227,241656,1,0,0:0:0:0:
304,226,241735,1,2,0:0:0:0:
341,198,241813,1,0,0:0:0:0:
341,152,241892,1,0,0:0:0:0:
303,126,241971,1,0,0:0:0:0:
156,90,242051,2,0,L|156:185,1,48.25,2|0,0:0|0:0,0:0:0:0:
309,173,242209,2,0,L|375:173,1,48.25,0|0,0:0|0:0,0:0:0:0:
179,195,242367,2,0,L|179:277,1,48.25,2|0,0:0|0:0,0:0:0:0:
328,314,242525,2,0,L|328:230,1,48.25,0|0,0:0|0:0,0:0:0:0:
477,263,242683,5,2,0:0:0:0:
490,201,242761,1,0,0:0:0:0:
465,142,242840,1,0,0:0:0:0:
411,109,242919,1,0,0:0:0:0:
263,99,242999,1,2,0:0:0:0:
217,104,243077,1,0,0:0:0:0:
197,146,243156,1,0,0:0:0:0:
221,185,243235,1,0,0:0:0:0:
395,164,243314,1,2,0:0:0:0:
322,223,243393,1,0,0:0:0:0:
249,162,243472,1,0,0:0:0:0:
176,224,243551,1,0,0:0:0:0:
322,223,243630,1,2,0:0:0:0:
249,282,243709,1,0,0:0:0:0:
176,221,243788,1,0,0:0:0:0:
103,283,243867,1,0,0:0:0:0:
249,282,243946,5,2,0:0:0:0:
322,284,244025,1,0,0:0:0:0:
249,282,244104,1,0,0:0:0:0:
176,284,244183,1,0,0:0:0:0:
322,284,244262,1,2,0:0:0:0:
395,286,244341,1,0,0:0:0:0:
322,284,244420,1,0,0:0:0:0:
249,286,244499,1,0,0:0:0:0:
85,174,244578,2,0,L|85:258,1,48.25,2|0,0:0|0:0,0:0:0:0:
232,217,244735,2,0,L|315:217,1,48.25,0|0,0:0|0:0,0:0:0:0:
113,96,244893,1,2,0:0:0:0:
50,100,244972,1,2,0:0:0:0:
214,167,245051,1,2,0:0:0:0:
151,171,245130,1,2,0:0:0:0:
321,203,245209,5,2,0:0:0:0:
365,245,245287,1,0,0:0:0:0:
356,306,245366,1,0,0:0:0:0:
300,333,245445,1,0,0:0:0:0:
155,341,245525,1,2,0:0:0:0:
124,304,245603,1,0,0:0:0:0:
122,256,245682,1,0,0:0:0:0:
149,217,245761,1,0,0:0:0:0:
296,124,245841,1,2,0:0:0:0:
313,168,245919,1,0,0:0:0:0:
300,213,245998,1,0,0:0:0:0:
262,242,246077,1,0,0:0:0:0:
409,149,246157,1,2,0:0:0:0:
446,175,246235,1,0,0:0:0:0:
448,222,246314,1,0,0:0:0:0:
411,251,246393,1,0,0:0:0:0:
244,290,246472,5,2,0:0:0:0:
232,244,246550,1,0,0:0:0:0:
256,203,246629,1,0,0:0:0:0:
302,191,246708,1,0,0:0:0:0:
121,217,246788,2,0,L|121:309,1,48.25,2|0,0:0|0:0,0:0:0:0:
196,144,246946,2,0,L|270:144,1,48.25,0|0,0:0|0:0,0:0:0:0:
97,243,247104,2,0,L|30:243,1,48.25,2|0,0:0|0:0,0:0:0:0:
207,100,247262,2,0,L|207:180,1,48.25,0|0,0:0|0:0,0:0:0:0:
59,177,247420,2,0,L|59:258,1,48.25,2|0,0:0|0:0,0:0:0:0:
207,284,247578,2,0,L|207:204,1,48.25,0|0,0:0|0:0,0:0:0:0:
352,127,247735,5,2,0:0:0:0:
392,148,247813,1,0,0:0:0:0:
394,194,247892,1,0,0:0:0:0:
355,218,247971,1,0,0:0:0:0:
207,235,248051,1,2,0:0:0:0:
164,212,248129,1,0,0:0:0:0:
140,171,248208,1,0,0:0:0:0:
141,123,248287,1,0,0:0:0:0:
305,87,248367,1,2,0:0:0:0:
270,120,248445,1,0,0:0:0:0:
235,153,248524,1,0,0:0:0:0:
200,186,248603,1,0,0:0:0:0:
349,147,248683,1,2,0:0:0:0:
395,157,248761,1,0,0:0:0:0:
395,157,248841,1,0,0:0:0:0:
349,147,248919,1,0,0:0:0:0:
181,266,248999,5,2,0:0:0:0:
248,269,249078,2,0,L|302:216,2,48.25,0|0|0,0:0|0:0|0:0,0:0:0:0:
109,163,249314,1,2,0:0:0:0:
176,164,249393,2,0,L|229:107,2,48.25,0|0|0,0:0|0:0|0:0,0:0:0:0:
35,243,249630,1,2,0:0:0:0:
102,249,249709,2,0,L|160:190,2,48.25,0|0|0,0:0|0:0|0:0,0:0:0:0:
258,293,249946,1,2,0:0:0:0:
185,298,250025,1,0,0:0:0:0:
112,302,250104,1,0,0:0:0:0:
39,308,250183,1,0,0:0:0:0:
197,129,250262,5,2,0:0:0:0:
256,148,250340,1,0,0:0:0:0:
288,203,250419,1,0,0:0:0:0:
277,265,250498,1,0,0:0:0:0:
120,326,250578,1,2,0:0:0:0:
66,295,250656,1,0,0:0:0:0:
65,233,250735,1,0,0:0:0:0:
117,200,250814,1,0,0:0:0:0:
265,100,250893,1,2,0:0:0:0:
277,162,250971,1,0,0:0:0:0:
251,220,251050,1,0,0:0:0:0:
197,252,251129,1,0,0:0:0:0:
346,259,251209,1,2,0:0:0:0:
405,239,251287,1,0,0:0:0:0:
432,182,251366,1,0,0:0:0:0:
410,123,251445,1,0,0:0:0:0:
245,112,251525,5,2,0:0:0:0:
224,171,251603,1,0,0:0:0:0:
252,226,251682,1,0,0:0:0:0:
312,244,251761,1,0,0:0:0:0:
164,185,251841,1,2,0:0:0:0:
143,244,251919,1,0,0:0:0:0:
171,299,251998,1,0,0:0:0:0:
231,317,252077,1,0,0:0:0:0:
405,284,252157,2,0,L|341:284,1,48.25,2|0,0:0|0:0,0:0:0:0:
186,251,252314,2,0,L|186:159,1,48.25,0|0,0:0|0:0,0:0:0:0:
334,55,252472,2,0,L|334:147,1,48.25,2|0,0:0|0:0,0:0:0:0:
481,159,252630,2,0,L|400:157,1,48.25,0|0,0:0|0:0,0:0:0:0:
259,158,252788,6,0,L|258:243,1,48.25,2|0,0:0|0:0,0:0:0:0:
405,98,252946,2,0,L|405:168,1,48.25,0|0,0:0|0:0,0:0:0:0:
331,153,253104,2,0,L|331:238,1,48.25,2|0,0:0|0:0,0:0:0:0:
180,267,253262,2,0,L|110:267,1,48.25,0|0,0:0|0:0,0:0:0:0:
205,95,253420,2,0,L|205:187,1,48.25,2|0,0:0|0:0,0:0:0:0:
356,142,253578,2,0,L|356:219,1,48.25,0|0,0:0|0:0,0:0:0:0:
283,205,253735,2,0,L|197:205,1,48.25,2|0,0:0|0:0,0:0:0:0:
389,316,253893,2,0,L|389:227,1,48.25,0|0,0:0|0:0,0:0:0:0:
463,117,254051,6,0,L|463:193,1,48.25,2|0,0:0|0:0,0:0:0:0:
315,200,254209,2,0,L|235:199,1,48.25,0|0,0:0|0:0,0:0:0:0:
340,266,254367,2,0,L|340:341,1,48.25,2|0,0:0|0:0,0:0:0:0:
192,317,254525,2,0,L|135:317,1,48.25,0|0,0:0|0:0,0:0:0:0:
291,148,254683,2,0,L|291:231,1,48.25,2|0,0:0|0:0,0:0:0:0:
132,215,254841,2,0,L|44:215,1,48.25,0|0,0:0|0:0,0:0:0:0:
234,55,254999,2,0,L|233:147,1,48.25,2|0,0:0|0:0,0:0:0:0:
380,172,255157,2,0,L|306:172,1,48.25,0|0,0:0|0:0,0:0:0:0:
161,137,255314,5,2,0:0:0:0:
98,182,255392,1,0,0:0:0:0:
101,259,255471,1,0,0:0:0:0:
168,298,255550,1,0,0:0:0:0:
351,306,255630,1,2,0:0:0:0:
366,245,255708,1,0,0:0:0:0:
336,189,255787,1,0,0:0:0:0:
276,169,255866,1,0,0:0:0:0:
128,209,255946,1,2,0:0:0:0:
69,185,256024,1,0,0:0:0:0:
43,128,256103,1,0,0:0:0:0:
64,68,256182,1,0,0:0:0:0:
217,52,256262,1,2,0:0:0:0:
270,82,256340,1,0,0:0:0:0:
267,143,256419,1,0,0:0:0:0:
212,168,256498,1,0,0:0:0:0:
30,246,256578,6,0,L|30:316,1,48.25,2|0,0:0|0:0,0:0:0:0:
183,322,256735,2,0,L|183:233,1,48.25,0|0,0:0|0:0,0:0:0:0:
335,238,256893,2,0,L|336:164,1,48.25,2|0,0:0|0:0,0:0:0:0:
185,215,257051,1,0,0:0:0:0:
335,189,257130,1,0,0:0:0:0:
491,219,257209,2,0,L|491:297,1,48.25,2|0,0:0|0:0,0:0:0:0:
330,309,257367,2,0,L|330:244,1,48.25,0|0,0:0|0:0,0:0:0:0:
480,185,257525,2,0,L|402:185,1,48.25,2|0,0:0|0:0,0:0:0:0:
283,88,257683,2,0,L|283:171,1,48.25,0|0,0:0|0:0,0:0:0:0:
444,248,257841,5,2,0:0:0:0:
491,206,257919,1,0,0:0:0:0:
484,145,257998,1,0,0:0:0:0:
430,114,258077,1,0,0:0:0:0:
280,117,258157,1,2,0:0:0:0:
259,176,258235,1,0,0:0:0:0:
285,233,258314,1,0,0:0:0:0:
344,257,258393,1,0,0:0:0:0:
196,294,258472,1,2,0:0:0:0:
134,281,258550,1,0,0:0:0:0:
104,227,258629,1,0,0:0:0:0:
127,168,258708,1,0,0:0:0:0:
286,80,258788,1,2,0:0:0:0:
347,92,258866,1,0,0:0:0:0:
383,144,258945,1,0,0:0:0:0:
373,206,259024,1,0,0:0:0:0:
134,301,259105,5,2,0:0:0:0:
96,289,259144,1,0,0:0:0:0:
69,261,259183,1,0,0:0:0:0:
58,222,259223,1,0,0:0:0:0:
68,184,259262,1,0,0:0:0:0:
96,155,259302,1,0,0:0:0:0:
134,143,259341,1,0,0:0:0:0:
295,133,259421,1,2,0:0:0:0:
150,94,259579,1,0,0:0:0:0:
423,195,259736,6,0,L|335:195,2,72.3750027608873,0|0|0,0:0|0:0|0:0,0:0:0:0:
150,94,260052,2,0,P|110:164|155:184,1,144.750005521775,0|0,0:0|0:0,0:0:0:0:
221,185,260289,1,0,0:0:0:0:
394,182,260367,5,2,0:0:0:0:
442,224,260445,1,0,0:0:0:0:
432,288,260524,1,0,0:0:0:0:
373,313,260603,1,0,0:0:0:0:
188,305,260683,1,10,0:0:0:0:
139,262,260761,1,0,0:0:0:0:
149,198,260840,1,0,0:0:0:0:
208,173,260919,1,0,0:0:0:0:
359,177,260999,1,2,0:0:0:0:
376,113,261077,1,0,0:0:0:0:
344,55,261156,1,0,0:0:0:0:
281,37,261235,1,0,0:0:0:0:
105,58,261314,1,10,0:0:0:0:
53,97,261392,1,0,0:0:0:0:
54,162,261471,1,0,0:0:0:0:
107,199,261550,1,0,0:0:0:0:
287,315,261630,5,2,0:0:0:0:
349,292,261708,1,0,0:0:0:0:
381,234,261787,1,0,0:0:0:0:
367,170,261866,1,0,0:0:0:0:
188,127,261946,1,10,0:0:0:0:
130,155,262024,1,0,0:0:0:0:
126,220,262103,1,0,0:0:0:0:
180,255,262182,1,0,0:0:0:0:
330,257,262262,1,2,0:0:0:0:
330,257,262341,1,0,0:0:0:0:
180,255,262420,2,0,L|66:256,1,67.5499979385377,0|0,0:0|0:0,0:0:0:0:
291,84,262578,2,0,L|291:217,1,67.5499979385377,10|0,0:0|0:0,0:0:0:0:
142,179,262735,2,0,L|142:287,1,67.5499979385377,0|0,0:0|0:0,0:0:0:0:
321,316,262893,5,2,0:0:0:0:
382,294,262971,1,0,0:0:0:0:
407,234,263050,1,0,0:0:0:0:
379,175,263129,1,0,0:0:0:0:
201,111,263209,2,0,L|167:198,3,67.5499979385377,10|0|0|0,0:0|0:0|0:0|0:0,0:0:0:0:
327,171,263525,2,0,L|327:276,1,67.5499979385377,2|0,0:0|0:0,0:0:0:0:
176,245,263683,2,0,L|79:187,1,67.5499979385377,0|0,0:0|0:0,0:0:0:0:
297,73,263841,1,10,0:0:0:0:
354,100,263919,1,0,0:0:0:0:
355,164,263998,1,0,0:0:0:0:
297,191,264077,1,0,0:0:0:0:
140,168,264157,6,0,L|140:264,1,67.5499979385377,2|0,0:0|0:0,0:0:0:0:
316,151,264314,2,0,L|316:267,1,67.5499979385377,0|0,0:0|0:0,0:0:0:0:
244,232,264472,2,0,L|244:330,1,67.5499979385377,10|0,0:0|0:0,0:0:0:0:
417,309,264630,2,0,L|493:309,1,67.5499979385377,0|0,0:0|0:0,0:0:0:0:
331,247,264788,2,0,L|229:247,1,67.5499979385377,2|0,0:0|0:0,0:0:0:0:
421,59,264946,2,0,L|338:59,1,67.5499979385377,0|0,0:0|0:0,0:0:0:0:
190,91,265104,2,0,L|283:91,1,67.5499979385377,10|2,0:0|0:0,0:0:0:0:
401,83,265262,2,0,L|401:167,1,67.5499979385377,2|2,0:0|0:0,0:0:0:0:
217,93,265420,5,2,0:0:0:0:
184,149,265498,1,0,0:0:0:0:
207,210,265577,1,0,0:0:0:0:
269,231,265656,1,0,0:0:0:0:
91,306,265735,1,10,0:0:0:0:
43,232,265813,1,0,0:0:0:0:
58,145,265892,1,0,0:0:0:0:
128,93,265971,1,0,0:0:0:0:
278,76,266051,1,2,0:0:0:0:
307,134,266129,1,0,0:0:0:0:
283,195,266208,1,0,0:0:0:0:
221,217,266287,1,0,0:0:0:0:
398,293,266367,1,10,0:0:0:0:
456,264,266445,1,0,0:0:0:0:
453,200,266524,1,0,0:0:0:0:
394,176,266603,1,0,0:0:0:0:
215,148,266683,5,2,0:0:0:0:
151,159,266761,1,0,0:0:0:0:
117,215,266840,1,0,0:0:0:0:
138,277,266919,1,0,0:0:0:0:
316,338,266999,1,10,0:0:0:0:
375,311,267077,1,0,0:0:0:0:
374,247,267156,1,0,0:0:0:0:
316,221,267235,1,0,0:0:0:0:
164,218,267314,1,2,0:0:0:0:
164,218,267393,1,0,0:0:0:0:
325,102,267472,2,0,L|325:209,1,67.5499979385377,0|0,0:0|0:0,0:0:0:0:
174,40,267630,2,0,L|174:160,1,67.5499979385377,10|0,0:0|0:0,0:0:0:0:
24,144,267788,2,0,L|24:254,1,67.5499979385377,0|0,0:0|0:0,0:0:0:0:
204,320,267946,5,2,0:0:0:0:
264,297,268024,1,0,0:0:0:0:
264,234,268103,1,0,0:0:0:0:
204,212,268182,1,0,0:0:0:0:
52,29,268262,2,0,L|52:130,1,67.5499979385377,10|0,0:0|0:0,0:0:0:0:
202,90,268420,1,0,0:0:0:0:
351,88,268499,1,0,0:0:0:0:
175,129,268578,2,0,L|175:229,1,67.5499979385377,2|0,0:0|0:0,0:0:0:0:
324,225,268735,2,0,L|324:355,1,67.5499979385377,0|0,0:0|0:0,0:0:0:0:
145,304,268893,2,0,L|41:304,1,67.5499979385377,10|0,0:0|0:0,0:0:0:0:
246,274,269051,1,0,0:0:0:0:
301,239,269129,1,0,0:0:0:0:
297,175,269208,5,2,0:0:0:0:
238,149,269287,1,0,0:0:0:0:
85,58,269367,1,0,0:0:0:0:
56,117,269445,1,0,0:0:0:0:
74,180,269524,1,10,0:0:0:0:
130,216,269603,1,0,0:0:0:0:
284,220,269683,2,0,L|360:218,1,67.5499979385377,0|0,0:0|0:0,0:0:0:0:
173,157,269841,1,2,0:0:0:0:
117,125,269919,1,0,0:0:0:0:
120,61,269998,1,0,0:0:0:0:
179,35,270077,1,0,0:0:0:0:
344,47,270157,2,0,L|449:46,1,67.5499979385377,10|2,0:0|0:0,0:0:0:0:
249,128,270314,2,0,L|144:129,1,67.5499979385377,2|2,0:0|0:0,0:0:0:0:
364,192,270472,5,2,0:0:0:0:
414,232,270550,1,0,0:0:0:0:
403,296,270629,1,0,0:0:0:0:
342,316,270708,1,0,0:0:0:0:
161,319,270788,1,10,0:0:0:0:
132,260,270866,1,0,0:0:0:0:
160,201,270945,1,0,0:0:0:0:
223,185,271024,1,0,0:0:0:0:
68,210,271104,1,2,0:0:0:0:
32,155,271182,1,0,0:0:0:0:
46,90,271261,1,0,0:0:0:0:
101,55,271340,1,0,0:0:0:0:
281,74,271420,1,10,0:0:0:0:
342,92,271498,1,0,0:0:0:0:
349,156,271577,1,0,0:0:0:0:
293,186,271656,1,0,0:0:0:0:
112,169,271735,6,0,L|112:282,1,67.5499979385377,2|0,0:0|0:0,0:0:0:0:
292,258,271893,2,0,L|292:353,1,67.5499979385377,0|0,0:0|0:0,0:0:0:0:
218,248,272051,2,0,L|218:148,1,67.5499979385377,10|0,0:0|0:0,0:0:0:0:
400,146,272209,2,0,L|500:146,1,67.5499979385377,0|0,0:0|0:0,0:0:0:0:
287,195,272367,2,0,L|180:195,1,67.5499979385377,2|0,0:0|0:0,0:0:0:0:
395,196,272525,2,0,L|395:330,1,67.5499979385377,0|0,0:0|0:0,0:0:0:0:
242,44,272683,2,0,L|242:164,1,67.5499979385377,10|0,0:0|0:0,0:0:0:0:
89,179,272841,2,0,L|89:297,1,67.5499979385377,0|0,0:0|0:0,0:0:0:0:
269,357,272999,5,2,0:0:0:0:
326,327,273077,1,0,0:0:0:0:
327,263,273156,1,0,0:0:0:0:
270,233,273235,1,0,0:0:0:0:
91,80,273314,1,10,0:0:0:0:
35,109,273392,1,0,0:0:0:0:
34,173,273471,1,0,0:0:0:0:
91,203,273550,1,0,0:0:0:0:
244,203,273630,2,0,L|326:202,1,67.5499979385377,2|0,0:0|0:0,0:0:0:0:
132,44,273788,2,0,L|131:177,1,67.5499979385377,0|0,0:0|0:0,0:0:0:0:
311,129,273946,1,10,0:0:0:0:
369,155,274024,1,0,0:0:0:0:
368,219,274103,1,0,0:0:0:0:
309,243,274182,1,0,0:0:0:0:
130,104,274262,6,0,L|130:235,1,67.5499979385377,2|0,0:0|0:0,0:0:0:0:
309,199,274420,2,0,L|310:318,1,67.5499979385377,0|0,0:0|0:0,0:0:0:0:
382,195,274578,2,0,L|382:77,1,67.5499979385377,10|0,0:0|0:0,0:0:0:0:
204,117,274735,2,0,L|118:117,1,67.5499979385377,0|0,0:0|0:0,0:0:0:0:
287,123,274893,2,0,L|287:241,1,67.5499979385377,2|0,0:0|0:0,0:0:0:0:
107,128,275051,2,0,L|107:226,1,67.5499979385377,0|0,0:0|0:0,0:0:0:0:
260,228,275209,2,0,L|260:326,1,67.5499979385377,10|2,0:0|0:0,0:0:0:0:
413,80,275367,2,0,L|413:178,1,67.5499979385377,2|2,0:0|0:0,0:0:0:0:
232,277,275525,5,2,0:0:0:0:
167,268,275603,1,0,0:0:0:0:
126,217,275682,1,0,0:0:0:0:
133,151,275761,1,0,0:0:0:0:
312,75,275841,1,10,0:0:0:0:
325,139,275919,1,0,0:0:0:0:
287,193,275998,1,0,0:0:0:0:
222,203,276077,1,0,0:0:0:0:
374,296,276157,1,2,0:0:0:0:
431,264,276235,1,0,0:0:0:0:
429,200,276314,1,0,0:0:0:0:
371,172,276393,1,0,0:0:0:0:
193,73,276472,1,10,0:0:0:0:
137,104,276550,1,0,0:0:0:0:
139,168,276629,1,0,0:0:0:0:
197,196,276708,1,0,0:0:0:0:
377,201,276788,6,0,L|377:313,1,67.5499979385377,2|0,0:0|0:0,0:0:0:0:
197,196,276946,2,0,L|197:294,1,67.5499979385377,0|0,0:0|0:0,0:0:0:0:
270,291,277104,2,0,L|271:164,1,67.5499979385377,10|0,0:0|0:0,0:0:0:0:
92,154,277262,2,0,L|190:154,1,67.5499979385377,0|0,0:0|0:0,0:0:0:0:
341,57,277420,2,0,L|341:183,1,67.5499979385377,2|0,0:0|0:0,0:0:0:0:
161,107,277578,2,0,L|161:231,1,67.5499979385377,0|0,0:0|0:0,0:0:0:0:
312,192,277735,2,0,L|214:191,1,67.5499979385377,10|0,0:0|0:0,0:0:0:0:
91,191,277893,2,0,L|189:190,1,67.5499979385377,0|0,0:0|0:0,0:0:0:0:
340,117,278051,6,0,L|340:221,1,67.5499979385377,2|0,0:0|0:0,0:0:0:0:
162,231,278209,2,0,L|64:231,1,67.5499979385377,0|0,0:0|0:0,0:0:0:0:
162,231,278367,2,0,L|253:231,1,67.5499979385377,10|0,0:0|0:0,0:0:0:0:
368,189,278525,2,0,L|481:189,1,67.5499979385377,0|0,0:0|0:0,0:0:0:0:
368,189,278683,2,0,L|291:190,1,67.5499979385377,2|0,0:0|0:0,0:0:0:0:
161,168,278841,2,0,L|260:168,1,67.5499979385377,0|0,0:0|0:0,0:0:0:0:
393,97,278999,2,0,L|393:211,1,67.5499979385377,10|0,0:0|0:0,0:0:0:0:
226,206,279157,2,0,L|137:207,2,67.5499979385377,0|0|2,0:0|0:0|0:0,0:0:0:0:
356,157,279472,5,0,0:0:0:0:
226,206,279630,2,0,P|182:158|232:141,1,135.099995877075,2|0,0:0|0:0,0:0:0:0:
295,140,279867,1,0,0:0:0:0:
108,107,279946,1,2,0:0:0:0:
63,153,280024,1,0,0:0:0:0:
68,219,280103,1,0,0:0:0:0:
120,258,280182,1,0,0:0:0:0:
297,297,280262,2,0,L|392:296,1,67.5499979385377,10|2,0:0|0:0,0:0:0:0:
183,179,280420,2,0,L|63:180,1,67.5499979385377,2|2,0:0|0:0,0:0:0:0:
271,216,280578,6,0,L|404:215,1,67.5499979385377,2|0,0:0|0:0,0:0:0:0:
200,115,280735,2,0,L|89:115,1,67.5499979385377,4|0,0:0|0:0,0:0:0:0:
274,171,280893,2,0,L|389:171,1,67.5499979385377,10|0,0:0|0:0,0:0:0:0:
484,146,281051,2,0,L|373:146,1,67.5499979385377,4|0,0:0|0:0,0:0:0:0:
275,242,281209,2,0,L|405:242,1,67.5499979385377,2|0,0:0|0:0,0:0:0:0:
201,144,281367,2,0,L|331:144,1,67.5499979385377,4|0,0:0|0:0,0:0:0:0:
413,274,281525,1,10,0:0:0:0:
470,245,281603,1,0,0:0:0:0:
289,98,281683,1,4,0:0:0:0:
233,127,281761,1,0,0:0:0:0:
233,191,281840,5,2,0:0:0:0:
290,220,281919,1,0,0:0:0:0:
117,304,281999,1,4,0:0:0:0:
88,245,282077,1,0,0:0:0:0:
110,182,282156,1,10,0:0:0:0:
170,155,282235,1,0,0:0:0:0:
319,157,282314,2,0,L|423:157,1,67.5499979385377,4|0,0:0|0:0,0:0:0:0:
231,49,282472,2,0,L|232:134,1,67.5499979385377,2|0,0:0|0:0,0:0:0:0:
64,239,282630,1,4,0:0:0:0:
28,184,282708,1,0,0:0:0:0:
51,124,282787,1,10,0:0:0:0:
114,107,282866,1,0,0:0:0:0:
267,112,282946,2,0,L|391:112,1,67.5499979385377,4|0,0:0|0:0,0:0:0:0:
160,171,283104,6,0,L|47:171,1,67.5499979385377,2|0,0:0|0:0,0:0:0:0:
233,256,283262,2,0,L|334:256,1,67.5499979385377,4|0,0:0|0:0,0:0:0:0:
145,154,283420,2,0,L|268:154,1,67.5499979385377,10|0,0:0|0:0,0:0:0:0:
354,86,283578,2,0,L|447:86,1,67.5499979385377,4|0,0:0|0:0,0:0:0:0:
284,172,283735,2,0,L|216:172,1,67.5499979385377,2|0,0:0|0:0,0:0:0:0:
77,276,283893,1,4,0:0:0:0:
19,249,283971,1,0,0:0:0:0:
17,186,284050,1,10,0:0:0:0:
74,156,284129,1,0,0:0:0:0:
216,281,284209,2,0,L|290:281,1,67.5499979385377,4|0,0:0|0:0,0:0:0:0:
125,123,284367,6,0,L|46:122,1,67.5499979385377,2|0,0:0|0:0,0:0:0:0:
125,123,284525,2,0,L|223:124,1,67.5499979385377,4|0,0:0|0:0,0:0:0:0:
342,125,284683,2,0,L|235:125,1,67.5499979385377,10|0,0:0|0:0,0:0:0:0:
206,125,284841,2,0,L|313:125,1,67.5499979385377,4|0,0:0|0:0,0:0:0:0:
425,234,284999,2,0,L|341:234,1,67.5499979385377,2|0,0:0|0:0,0:0:0:0:
189,283,285157,2,0,L|190:205,1,67.5499979385377,4|0,0:0|0:0,0:0:0:0:
353,199,285314,2,0,L|260:199,1,67.5499979385377,10|0,0:0|0:0,0:0:0:0:
142,210,285472,2,0,L|141:126,1,67.5499979385377,4|0,0:0|0:0,0:0:0:0:
318,126,285630,6,0,L|224:126,1,67.5499979385377,2|0,0:0|0:0,0:0:0:0:
96,129,285788,2,0,L|0:129,1,67.5499979385377,4|0,0:0|0:0,0:0:0:0:
180,211,285946,2,0,L|293:212,1,67.5499979385377,10|0,0:0|0:0,0:0:0:0:
401,178,286104,2,0,L|295:178,1,67.5499979385377,4|0,0:0|0:0,0:0:0:0:
181,92,286262,2,0,L|292:92,1,67.5499979385377,2|0,0:0|0:0,0:0:0:0:
68,150,286420,1,4,0:0:0:0:
40,208,286498,1,0,0:0:0:0:
70,266,286577,1,10,0:0:0:0:
134,276,286656,1,0,0:0:0:0:
289,278,286735,1,4,0:0:0:0:
348,252,286813,1,0,0:0:0:0:
348,188,286893,5,2,0:0:0:0:
289,162,286971,1,0,0:0:0:0:
138,44,287051,1,4,0:0:0:0:
80,69,287129,1,0,0:0:0:0:
80,133,287208,1,10,0:0:0:0:
139,159,287287,1,0,0:0:0:0:
291,195,287367,1,4,0:0:0:0:
441,215,287446,1,0,0:0:0:0:
291,195,287525,2,0,L|199:195,1,67.5499979385377,2|0,0:0|0:0,0:0:0:0:
69,292,287683,2,0,L|69:220,1,67.5499979385377,4|0,0:0|0:0,0:0:0:0:
221,80,287841,2,0,L|221:182,1,67.5499979385377,10|0,0:0|0:0,0:0:0:0:
69,157,287999,2,0,L|69:283,1,67.5499979385377,4|0,0:0|0:0,0:0:0:0:
291,155,288157,6,0,L|385:155,2,67.5499979385377,2|0|4,0:0|0:0|0:0,0:0:0:0:
122,196,288393,2,0,L|122:292,1,67.5499979385377,0|10,0:0|0:0,0:0:0:0:
291,155,288551,2,0,L|291:244,1,67.5499979385377,0|4,0:0|0:0,0:0:0:0:
122,196,288709,2,0,L|11:195,1,67.5499979385377,0|2,0:0|0:0,0:0:0:0:
224,221,288867,2,0,L|335:222,1,67.5499979385377,0|4,0:0|0:0,0:0:0:0:
122,196,289025,2,0,L|122:309,1,67.5499979385377,0|10,0:0|0:0,0:0:0:0:
259,264,289183,1,0,0:0:0:0:
122,263,289262,2,0,L|122:380,1,67.5499979385377,4|0,0:0|0:0,0:0:0:0:
335,318,289420,5,2,0:0:0:0:
406,313,289499,2,0,L|446:233,2,67.5499979385377,0|4|0,0:0|0:0|0:0,0:0:0:0:
235,214,289735,1,10,0:0:0:0:
164,209,289814,2,0,L|124:129,2,67.5499979385377,0|4|0,0:0|0:0|0:0,0:0:0:0:
335,66,290051,1,2,0:0:0:0:
406,71,290130,2,0,L|446:151,2,67.5499979385377,0|4|0,0:0|0:0|0:0,0:0:0:0:
231,113,290367,2,0,L|131:113,1,67.5499979385377,10|0,0:0|0:0,0:0:0:0:
337,215,290525,2,0,L|449:215,1,67.5499979385377,4|0,0:0|0:0,0:0:0:0:
219,274,290683,6,0,L|221:362,1,67.5499979385377,2|0,0:0|0:0,0:0:0:0:
369,255,290841,2,0,L|456:255,1,67.5499979385377,4|0,0:0|0:0,0:0:0:0:
283,130,290999,2,0,L|192:130,1,67.5499979385377,10|0,0:0|0:0,0:0:0:0:
66,134,291157,1,4,0:0:0:0:
216,130,291235,1,0,0:0:0:0:
366,124,291314,2,0,L|365:223,1,67.5499979385377,2|0,0:0|0:0,0:0:0:0:
213,152,291472,2,0,L|120:152,1,67.5499979385377,4|0,0:0|0:0,0:0:0:0:
299,124,291630,2,0,L|419:124,1,67.5499979385377,10|0,0:0|0:0,0:0:0:0:
186,258,291788,1,4,0:0:0:0:
129,230,291866,1,0,0:0:0:0:
129,166,291945,5,2,0:0:0:0:
187,138,292024,1,0,0:0:0:0:
342,140,292104,2,0,L|418:140,1,67.5499979385377,4|0,0:0|0:0,0:0:0:0:
255,45,292262,2,0,L|255:143,1,67.5499979385377,10|0,0:0|0:0,0:0:0:0:
102,125,292420,2,0,L|102:209,1,67.5499979385377,4|0,0:0|0:0,0:0:0:0:
279,246,292578,2,0,L|397:246,1,67.5499979385377,2|0,0:0|0:0,0:0:0:0:
171,160,292735,2,0,L|88:160,1,67.5499979385377,4|0,0:0|0:0,0:0:0:0:
282,96,292893,2,0,L|282:196,1,67.5499979385377,10|0,0:0|0:0,0:0:0:0:
128,183,293051,2,0,L|128:298,1,67.5499979385377,4|0,0:0|0:0,0:0:0:0:
311,306,293209,6,0,L|219:306,1,67.5499979385377,2|0,0:0|0:0,0:0:0:0:
89,306,293367,2,0,L|3:306,1,67.5499979385377,4|0,0:0|0:0,0:0:0:0:
175,233,293525,2,0,L|257:233,1,67.5499979385377,10|0,0:0|0:0,0:0:0:0:
395,234,293683,2,0,L|486:234,1,67.5499979385377,4|0,0:0|0:0,0:0:0:0:
309,158,293841,1,2,0:0:0:0:
158,141,293920,1,0,0:0:0:0:
309,158,293999,1,4,0:0:0:0:
371,176,294077,1,0,0:0:0:0:
382,239,294156,1,10,0:0:0:0:
331,278,294235,1,0,0:0:0:0:
175,233,294314,2,0,L|97:233,1,67.5499979385377,4|0,0:0|0:0,0:0:0:0:
288,162,294472,6,0,L|288:252,1,67.5499979385377,2|0,0:0|0:0,0:0:0:0:
135,287,294630,2,0,L|50:287,1,67.5499979385377,4|0,0:0|0:0,0:0:0:0:
222,260,294788,2,0,L|314:261,2,67.5499979385377,10|0|4,0:0|0:0|0:0,0:0:0:0:
70,124,295025,2,0,L|70:220,1,67.5499979385377,0|2,0:0|0:0,0:0:0:0:
222,260,295183,1,0,0:0:0:0:
70,191,295262,2,0,L|70:302,1,67.5499979385377,4|0,0:0|0:0,0:0:0:0:
212,209,295420,2,0,L|313:209,1,67.5499979385377,10|0,0:0|0:0,0:0:0:0:
422,72,295578,2,0,L|321:71,1,67.5499979385377,4|0,0:0|0:0,0:0:0:0:
198,168,295735,6,0,L|115:168,1,67.5499979385377,2|0,0:0|0:0,0:0:0:0:
278,248,295893,2,0,L|375:248,1,67.5499979385377,4|0,0:0|0:0,0:0:0:0:
494,248,296051,2,0,L|411:248,1,67.5499979385377,10|0,0:0|0:0,0:0:0:0:
275,106,296209,2,0,L|276:214,1,67.5499979385377,4|0,0:0|0:0,0:0:0:0:
427,193,296367,2,0,L|328:193,1,67.5499979385377,2|0,0:0|0:0,0:0:0:0:
204,204,296525,2,0,L|111:204,1,67.5499979385377,4|0,0:0|0:0,0:0:0:0:
290,301,296683,2,0,L|388:301,1,67.5499979385377,10|0,0:0|0:0,0:0:0:0:
154,268,296841,1,4,0:0:0:0:
100,233,296919,1,0,0:0:0:0:
101,169,296999,5,2,0:0:0:0:
157,137,297077,1,0,0:0:0:0:
311,140,297157,2,0,L|407:140,1,67.5499979385377,4|0,0:0|0:0,0:0:0:0:
226,53,297314,2,0,L|226:160,1,67.5499979385377,10|0,0:0|0:0,0:0:0:0:
73,149,297472,2,0,L|74:233,1,67.5499979385377,4|0,0:0|0:0,0:0:0:0:
244,267,297630,2,0,L|324:267,1,67.5499979385377,2|0,0:0|0:0,0:0:0:0:
145,229,297788,1,4,0:0:0:0:
89,199,297866,1,0,0:0:0:0:
90,135,297945,1,10,0:0:0:0:
148,107,298024,1,0,0:0:0:0:
299,108,298104,2,0,L|373:108,1,67.5499979385377,4|0,0:0|0:0,0:0:0:0:
147,173,298262,6,0,L|53:173,1,67.5499979385377,2|0,0:0|0:0,0:0:0:0:
278,274,298420,2,0,L|169:273,1,67.5499979385377,4|0,0:0|0:0,0:0:0:0:
365,338,298578,1,10,0:0:0:0:
420,304,298656,1,0,0:0:0:0:
418,240,298735,1,4,0:0:0:0:
360,211,298814,1,0,0:0:0:0:
191,104,298893,2,0,L|191:199,1,67.5499979385377,2|0,0:0|0:0,0:0:0:0:
360,211,299051,2,0,L|435:211,1,67.5499979385377,4|0,0:0|0:0,0:0:0:0:
360,211,299209,2,0,L|275:210,1,67.5499979385377,10|0,0:0|0:0,0:0:0:0:
119,126,299367,2,0,L|44:127,1,67.5499979385377,4|0,0:0|0:0,0:0:0:0:
239,222,299525,5,2,0:0:0:0:
310,217,299604,2,0,L|350:137,2,67.5499979385377,0|4|0,0:0|0:0|0:0,0:0:0:0:
156,297,299841,1,10,0:0:0:0:
85,292,299920,2,0,L|45:212,2,67.5499979385377,0|4|0,0:0|0:0|0:0,0:0:0:0:
239,181,300157,1,2,0:0:0:0:
310,186,300236,2,0,L|350:266,2,67.5499979385377,0|4|0,0:0|0:0|0:0,0:0:0:0:
128,179,300472,2,0,L|128:91,1,67.5499979385377,10|0,0:0|0:0,0:0:0:0:
283,212,300630,2,0,L|282:338,1,67.5499979385377,4|0,0:0|0:0,0:0:0:0:
486,177,300788,6,0,L|364:177,1,67.5499979385377,2|0,0:0|0:0,0:0:0:0:
266,155,300946,2,0,L|183:155,1,67.5499979385377,4|0,0:0|0:0,0:0:0:0:
44,93,301104,2,0,L|155:93,1,67.5499979385377,10|0,0:0|0:0,0:0:0:0:
264,93,301262,2,0,L|348:93,1,67.5499979385377,4|0,0:0|0:0,0:0:0:0:
178,160,301420,1,2,0:0:0:0:
27,209,301499,1,0,0:0:0:0:
178,160,301578,1,4,0:0:0:0:
329,89,301657,1,0,0:0:0:0:
178,160,301735,1,10,0:0:0:0:
27,209,301814,1,0,0:0:0:0:
230,228,301893,1,4,0:0:0:0:
287,259,301971,1,0,0:0:0:0:
287,323,302050,5,2,0:0:0:0:
230,353,302129,1,0,0:0:0:0:
87,345,302209,2,0,L|20:345,1,67.5499979385377,4|0,0:0|0:0,0:0:0:0:
167,181,302367,2,0,L|285:180,1,67.5499979385377,10|0,0:0|0:0,0:0:0:0:
378,209,302525,1,4,0:0:0:0:
234,180,302604,1,0,0:0:0:0:
92,111,302683,2,0,L|92:211,1,67.5499979385377,2|0,0:0|0:0,0:0:0:0:
271,108,302841,2,0,L|358:108,1,67.5499979385377,4|0,0:0|0:0,0:0:0:0:
271,108,302999,2,0,L|203:108,1,67.5499979385377,10|0,0:0|0:0,0:0:0:0:
41,85,303157,2,0,L|171:85,1,67.5499979385377,4|0,0:0|0:0,0:0:0:0:
312,88,303314,6,0,L|227:88,1,67.5499979385377,2|0,0:0|0:0,0:0:0:0:
92,128,303472,2,0,L|13:128,1,67.5499979385377,4|0,0:0|0:0,0:0:0:0:
202,204,303630,2,0,L|310:203,1,67.5499979385377,10|0,0:0|0:0,0:0:0:0:
449,187,303788,2,0,L|352:187,1,67.5499979385377,4|0,0:0|0:0,0:0:0:0:
204,273,303946,2,0,L|318:273,1,67.5499979385377,2|0,0:0|0:0,0:0:0:0:
98,194,304104,2,0,L|15:194,1,67.5499979385377,4|0,0:0|0:0,0:0:0:0:
178,116,304262,2,0,L|263:116,1,67.5499979385377,10|0,0:0|0:0,0:0:0:0:
51,143,304420,2,0,L|51:252,1,67.5499979385377,4|0,0:0|0:0,0:0:0:0:
240,322,304578,6,0,L|315:322,1,67.5499979385377,2|0,0:0|0:0,0:0:0:0:
149,178,304735,2,0,L|149:286,1,67.5499979385377,4|0,0:0|0:0,0:0:0:0:
315,250,304893,2,0,L|385:250,1,67.5499979385377,10|0,0:0|0:0,0:0:0:0:
232,194,305051,1,4,0:0:0:0:
83,183,305130,2,0,L|19:223,2,67.5499979385377,0|2|0,0:0|0:0|0:0,0:0:0:0:
232,261,305367,2,0,L|232:175,1,67.5499979385377,4|0,0:0|0:0,0:0:0:0:
87,133,305525,2,0,L|87:257,1,67.5499979385377,10|0,0:0|0:0,0:0:0:0:
232,193,305683,2,0,L|157:193,1,67.5499979385377,4|0,0:0|0:0,0:0:0:0:
354,274,305841,6,0,L|473:274,1,67.5499979385377,2|0,0:0|0:0,0:0:0:0:
271,198,305999,2,0,L|162:198,1,67.5499979385377,4|0,0:0|0:0,0:0:0:0:
53,285,306157,2,0,L|157:285,1,67.5499979385377,10|0,0:0|0:0,0:0:0:0:
269,323,306314,2,0,L|183:323,1,67.5499979385377,4|0,0:0|0:0,0:0:0:0:
50,257,306472,1,2,0:0:0:0:
201,255,306551,1,0,0:0:0:0:
353,189,306630,2,0,L|353:104,1,67.5499979385377,4|0,0:0|0:0,0:0:0:0:
202,187,306788,2,0,L|201:306,1,67.5499979385377,10|0,0:0|0:0,0:0:0:0:
376,315,306946,1,4,0:0:0:0:
430,248,307024,1,0,0:0:0:0:
402,166,307103,5,2,0:0:0:0:
326,138,307182,1,0,0:0:0:0:
171,106,307262,1,4,0:0:0:0:
115,136,307340,1,0,0:0:0:0:
116,200,307419,1,10,0:0:0:0:
173,229,307498,1,0,0:0:0:0:
316,234,307578,1,4,0:0:0:0:
458,237,307657,1,0,0:0:0:0:
316,234,307735,2,0,L|206:234,1,67.5499979385377,2|0,0:0|0:0,0:0:0:0:
430,327,307893,2,0,L|314:326,1,67.5499979385377,4|0,0:0|0:0,0:0:0:0:
179,140,308051,2,0,L|179:252,1,67.5499979385377,10|0,0:0|0:0,0:0:0:0:
322,234,308209,2,0,L|322:314,1,67.5499979385377,4|0,0:0|0:0,0:0:0:0:
115,328,308367,5,2,0:0:0:0:
60,296,308445,1,0,0:0:0:0:
63,232,308524,1,4,0:0:0:0:
121,205,308603,1,0,0:0:0:0:
278,148,308683,2,0,L|279:258,1,67.5499979385377,10|0,0:0|0:0,0:0:0:0:
139,241,308841,2,0,L|139:341,1,67.5499979385377,4|0,0:0|0:0,0:0:0:0:
300,281,308999,2,0,L|371:281,1,67.5499979385377,2|0,0:0|0:0,0:0:0:0:
192,49,309157,2,0,L|192:148,1,67.5499979385377,4|0,0:0|0:0,0:0:0:0:
332,150,309314,2,0,L|332:250,1,67.5499979385377,10|0,0:0|0:0,0:0:0:0:
166,225,309472,2,0,L|91:224,1,67.5499979385377,4|0,0:0|0:0,0:0:0:0:
258,295,309630,5,2,0:0:0:0:
329,269,309709,2,0,L|383:194,2,67.5499979385377,0|4|0,0:0|0:0|0:0,0:0:0:0:
153,170,309946,1,10,0:0:0:0:
224,170,310025,2,0,L|298:169,2,67.5499979385377,0|4|0,0:0|0:0|0:0,0:0:0:0:
375,208,310262,1,2,0:0:0:0:
446,182,310341,2,0,L|500:107,2,67.5499979385377,0|4|0,0:0|0:0|0:0,0:0:0:0:
280,71,310578,2,0,L|281:205,1,67.5499979385377,10|0,0:0|0:0,0:0:0:0:
427,238,310735,2,0,L|428:326,1,67.5499979385377,4|0,0:0|0:0,0:0:0:0:
220,329,310893,5,2,0:0:0:0:
163,301,310971,1,0,0:0:0:0:
163,237,311050,1,4,0:0:0:0:
221,211,311129,1,0,0:0:0:0:
374,140,311209,2,0,L|374:240,1,67.5499979385377,10|0,0:0|0:0,0:0:0:0:
221,211,311367,1,4,0:0:0:0:
69,210,311446,1,0,0:0:0:0:
221,211,311525,1,2,0:0:0:0:
372,152,311604,1,0,0:0:0:0:
221,211,311683,2,0,L|221:322,1,67.5499979385377,4|0,0:0|0:0,0:0:0:0:
372,152,311841,2,0,L|464:151,1,67.5499979385377,10|0,0:0|0:0,0:0:0:0:
288,211,311999,2,0,L|188:211,1,67.5499979385377,4|0,0:0|0:0,0:0:0:0:
402,144,312157,6,0,L|469:143,1,67.5499979385377,2|0,0:0|0:0,0:0:0:0:
401,143,312314,2,0,L|333:143,1,67.5499979385377,4|0,0:0|0:0,0:0:0:0:
186,280,312472,2,0,L|187:153,1,67.5499979385377,10|0,0:0|0:0,0:0:0:0:
258,195,312630,2,0,L|258:108,1,67.5499979385377,4|0,0:0|0:0,0:0:0:0:
98,102,312788,1,2,0:0:0:0:
247,89,312867,1,0,0:0:0:0:
396,73,312946,1,4,0:0:0:0:
247,89,313025,1,0,0:0:0:0:
98,73,313104,2,0,L|31:72,1,67.5499979385377,10|0,0:0|0:0,0:0:0:0:
189,144,313262,2,0,L|259:143,1,67.5499979385377,4|0,0:0|0:0,0:0:0:0:
437,270,313420,6,0,L|340:270,1,67.5499979385377,2|0,0:0|0:0,0:0:0:0:
219,269,313578,2,0,L|138:269,1,67.5499979385377,4|0,0:0|0:0,0:0:0:0:
300,187,313735,2,0,L|399:187,1,67.5499979385377,10|0,0:0|0:0,0:0:0:0:
217,106,313893,2,0,L|90:106,1,67.5499979385377,4|0,0:0|0:0,0:0:0:0:
300,187,314051,2,0,L|209:187,1,67.5499979385377,2|0,0:0|0:0,0:0:0:0:
93,189,314209,2,0,L|12:188,1,67.5499979385377,4|0,0:0|0:0,0:0:0:0:
175,298,314367,2,0,L|266:298,1,67.5499979385377,10|0,0:0|0:0,0:0:0:0:
382,300,314525,2,0,L|463:299,1,67.5499979385377,4|0,0:0|0:0,0:0:0:0:
244,149,314683,6,0,L|244:250,1,67.5499979385377,2|0,0:0|0:0,0:0:0:0:
382,232,314841,2,0,L|382:321,1,67.5499979385377,4|0,0:0|0:0,0:0:0:0:
200,249,314999,2,0,L|114:249,2,67.5499979385377,10|0|4,0:0|0:0|0:0,0:0:0:0:
340,178,315235,2,0,L|340:312,1,67.5499979385377,0|2,0:0|0:0,0:0:0:0:
200,249,315393,1,0,0:0:0:0:
340,245,315472,2,0,L|431:245,1,67.5499979385377,4|0,0:0|0:0,0:0:0:0:
247,129,315630,2,0,L|162:128,1,67.5499979385377,10|0,0:0|0:0,0:0:0:0:
340,138,315788,2,0,L|431:139,1,67.5499979385377,4|0,0:0|0:0,0:0:0:0:
199,60,315946,5,2,0:0:0:0:
179,122,316024,1,0,0:0:0:0:
213,178,316103,1,4,0:0:0:0:
278,188,316182,1,0,0:0:0:0:
114,220,316262,2,0,L|114:332,1,67.5499979385377,10|0,0:0|0:0,0:0:0:0:
258,291,316420,1,4,0:0:0:0:
400,297,316499,1,0,0:0:0:0:
258,291,316578,1,2,0:0:0:0:
116,229,316657,1,0,0:0:0:0:
258,291,316735,1,4,0:0:0:0:
400,297,316814,1,0,0:0:0:0:
258,291,316893,2,0,L|176:290,1,67.5499979385377,10|0,0:0|0:0,0:0:0:0:
432,124,317051,1,4,0:0:0:0:
476,172,317129,1,0,0:0:0:0:
459,234,317208,5,2,0:0:0:0:
397,253,317287,1,0,0:0:0:0:
238,246,317367,2,0,L|156:246,1,67.5499979385377,4|0,0:0|0:0,0:0:0:0:
309,73,317525,2,0,L|309:188,1,67.5499979385377,10|0,0:0|0:0,0:0:0:0:
171,178,317683,2,0,L|171:304,1,67.5499979385377,4|0,0:0|0:0,0:0:0:0:
344,345,317841,1,2,0:0:0:0:
395,304,317919,1,0,0:0:0:0:
384,241,317998,1,4,0:0:0:0:
323,219,318077,1,0,0:0:0:0:
167,176,318157,2,0,L|95:177,1,67.5499979385377,10|0,0:0|0:0,0:0:0:0:
248,100,318314,2,0,L|380:100,1,67.5499979385377,4|0,0:0|0:0,0:0:0:0:
164,266,318472,5,2,0:0:0:0:
108,235,318550,1,0,0:0:0:0:
107,171,318629,1,4,0:0:0:0:
163,138,318708,1,0,0:0:0:0:
309,91,318788,1,10,0:0:0:0:
321,155,318866,1,0,0:0:0:0:
285,211,318945,1,4,0:0:0:0:
221,227,319024,1,0,0:0:0:0:
378,86,319104,2,0,L|378:215,1,67.5499979385377,2|0,0:0|0:0,0:0:0:0:
238,174,319262,2,0,L|238:304,1,67.5499979385377,4|0,0:0|0:0,0:0:0:0:
378,153,319420,2,0,L|378:263,1,67.5499979385377,10|0,0:0|0:0,0:0:0:0:
226,206,319578,6,0,L|136:206,2,67.5499979385377,4|0|2,0:0|0:0|0:0,0:0:0:0:
356,157,319893,1,4,0:0:0:0:
226,206,320051,2,0,P|182:158|232:141,1,135.099995877075,10|4,0:0|0:0,0:0:0:0:
295,140,320288,1,0,0:0:0:0:
108,107,320367,1,2,0:0:0:0:
63,153,320445,1,0,0:0:0:0:
68,219,320524,1,4,0:0:0:0:
120,258,320603,1,0,0:0:0:0:
297,297,320683,2,0,L|392:296,1,67.5499979385377,10|0,0:0|0:0,0:0:0:0:
183,179,320841,2,0,L|63:180,1,67.5499979385377,2|2,0:0|0:0,0:0:0:0:
374,124,320999,5,2,0:0:0:0:
399,164,321077,1,0,0:0:0:0:
400,211,321156,1,0,0:0:0:0:
375,252,321235,1,0,0:0:0:0:
275,313,321314,1,2,0:0:0:0:
250,273,321392,1,0,0:0:0:0:
249,226,321471,1,0,0:0:0:0:
274,185,321550,1,0,0:0:0:0:
374,124,321630,1,2,0:0:0:0:
386,78,321708,1,0,0:0:0:0:
366,35,321787,1,0,0:0:0:0:
323,15,321866,1,0,0:0:0:0:
226,31,321946,1,2,0:0:0:0:
180,44,322024,1,0,0:0:0:0:
153,83,322103,1,0,0:0:0:0:
155,130,322182,1,0,0:0:0:0:
305,283,322262,5,2,0:0:0:0:
321,238,322340,1,0,0:0:0:0:
303,195,322419,1,0,0:0:0:0:
260,176,322498,1,0,0:0:0:0:
358,151,322578,1,2,0:0:0:0:
374,106,322656,1,0,0:0:0:0:
356,63,322735,1,0,0:0:0:0:
313,44,322814,1,0,0:0:0:0:
216,44,322893,1,2,0:0:0:0:
164,78,322971,1,0,0:0:0:0:
166,140,323050,1,0,0:0:0:0:
219,171,323129,1,0,0:0:0:0:
317,178,323209,1,2,0:0:0:0:
374,201,323287,1,0,0:0:0:0:
396,260,323366,1,0,0:0:0:0:
367,316,323445,1,0,0:0:0:0:
219,335,323525,5,2,0:0:0:0:
204,290,323603,1,0,0:0:0:0:
227,249,323682,1,0,0:0:0:0:
272,239,323761,1,0,0:0:0:0:
175,206,323841,1,2,0:0:0:0:
160,161,323919,1,0,0:0:0:0:
183,120,323998,1,0,0:0:0:0:
228,110,324077,1,0,0:0:0:0:
326,105,324157,1,2,0:0:0:0:
339,150,324235,1,0,0:0:0:0:
321,194,324314,1,0,0:0:0:0:
281,219,324393,1,0,0:0:0:0:
185,221,324472,1,2,0:0:0:0:
132,188,324550,1,0,0:0:0:0:
132,127,324629,1,0,0:0:0:0:
184,94,324708,1,0,0:0:0:0:
334,66,324788,6,0,L|371:130,3,48.25,2|0|0|0,0:0|0:0|0:0|0:0,0:0:0:0:
260,169,325104,2,0,L|223:233,3,48.25,2|0|0|0,0:0|0:0|0:0|0:0,0:0:0:0:
334,289,325420,1,2,0:0:0:0:
351,245,325498,1,0,0:0:0:0:
332,202,325577,1,0,0:0:0:0:
288,186,325656,1,0,0:0:0:0:
385,194,325735,1,2,0:0:0:0:
402,150,325813,1,0,0:0:0:0:
383,107,325892,1,0,0:0:0:0:
339,91,325971,1,0,0:0:0:0:
190,82,326051,5,2,0:0:0:0:
150,105,326129,1,0,0:0:0:0:
150,151,326208,1,0,0:0:0:0:
191,174,326287,1,0,0:0:0:0:
289,294,326367,1,2,0:0:0:0:
328,270,326445,1,0,0:0:0:0:
328,224,326524,1,0,0:0:0:0:
287,201,326603,1,0,0:0:0:0:
189,214,326683,2,0,L|160:266,3,48.25,2|0|0|0,0:0|0:0|0:0|0:0,0:0:0:0:
264,271,326999,2,0,L|235:323,3,48.25,2|0|0|0,0:0|0:0|0:0|0:0,0:0:0:0:
386,315,327314,5,2,0:0:0:0:
396,269,327392,1,0,0:0:0:0:
369,230,327471,1,0,0:0:0:0:
323,222,327550,1,0,0:0:0:0:
423,170,327630,1,2,0:0:0:0:
433,124,327708,1,0,0:0:0:0:
406,85,327787,1,0,0:0:0:0:
360,77,327866,1,0,0:0:0:0:
261,89,327946,2,0,L|231:145,3,48.25,2|0|0|0,0:0|0:0|0:0|0:0,0:0:0:0:
336,194,328262,2,0,L|366:138,3,48.25,2|0|0|0,0:0|0:0|0:0|0:0,0:0:0:0:
211,132,328578,5,2,0:0:0:0:
178,184,328656,1,0,0:0:0:0:
198,243,328735,1,0,0:0:0:0:
257,264,328814,1,0,0:0:0:0:
161,199,328893,1,2,0:0:0:0:
128,251,328971,1,0,0:0:0:0:
148,310,329050,1,0,0:0:0:0:
207,331,329129,1,0,0:0:0:0:
305,346,329209,1,2,0:0:0:0:
348,327,329287,1,0,0:0:0:0:
369,284,329366,1,0,0:0:0:0:
359,238,329445,1,0,0:0:0:0:
261,155,329525,1,2,0:0:0:0:
217,173,329603,1,0,0:0:0:0:
196,216,329682,1,0,0:0:0:0:
206,262,329761,1,0,0:0:0:0:
359,238,329841,6,0,L|386:169,3,48.25,2|0|0|0,0:0|0:0|0:0|0:0,0:0:0:0:
279,155,330157,2,0,L|306:86,3,48.25,2|0|0|0,0:0|0:0|0:0|0:0,0:0:0:0:
199,101,330472,1,2,0:0:0:0:
184,145,330550,1,0,0:0:0:0:
207,186,330629,1,0,0:0:0:0:
253,197,330708,1,0,0:0:0:0:
352,203,330788,1,2,0:0:0:0:
367,247,330866,1,0,0:0:0:0:
344,288,330945,1,0,0:0:0:0:
298,299,331024,1,0,0:0:0:0:
148,291,331104,5,2,0:0:0:0:
256,192,331183,12,0,336788,0:0:0:0:
