osu file format v14

[General]
AudioFilename: audio.mp3
AudioLeadIn: 0
PreviewTime: 136538
Countdown: 0
SampleSet: Soft
StackLeniency: 0.7
Mode: 0
LetterboxInBreaks: 0
WidescreenStoryboard: 1

[Editor]
Bookmarks: 12828,22933,35565,45670,55775,65880,75985,86091,96196,106301,116406,126512,136617,146722,156828,166933,177038,187143,197248,207354,217459,227564,237670,247775,257880,267985,278091,288196,298301,308407,318512,328617
DistanceSpacing: 5
BeatDivisor: 4
GridSize: 8
TimelineZoom: 1.299999

[Metadata]
Title:FireLight
TitleUnicode:FireLight
Artist:Dustvoxx, Laur
ArtistUnicode:Dustvoxx, Laur
Creator:Hinsvar
Version:Normal
Source:
Tags:Electronic Instrumental hardcore tribecore hardtek pumpcore Supernatural Featured Artist FA Mappers' Guild MG MPG
BeatmapID:4320626
BeatmapSetID:2064173

[Difficulty]
HPDrainRate:3
CircleSize:2.5
OverallDifficulty:4
ApproachRate:5.5
SliderMultiplier:1.12
SliderTickRate:1

[Events]
//Background and Video events
0,0,"BG.jpg",0,0
//Break Periods
2,116606,123808
2,177238,183492
//Storyboard Layer 0 (Background)
//Storyboard Layer 1 (Fail)
//Storyboard Layer 2 (Pass)
//Storyboard Layer 3 (Foreground)
//Storyboard Layer 4 (Overlay)
//Storyboard Sound Samples

[TimingPoints]
2723,315.789473684211,4,2,2,50,1,0
12828,-125,4,2,2,50,0,0
22933,-125,4,2,2,55,0,0
35565,315.789473684211,4,2,1,60,1,0
35565,-111.111111111111,4,2,1,60,0,0
45670,-100,4,2,1,65,0,0
65880,-100,4,2,1,75,0,0
136617,-90.9090909090909,4,2,1,85,0,1
145459,-90.9090909090909,4,2,1,85,0,0
146722,-90.9090909090909,4,2,1,85,0,1
154301,-90.9090909090909,4,2,1,85,0,0
156828,-90.9090909090909,4,2,1,85,0,1
164407,-90.9090909090909,4,2,1,85,0,0
166933,-90.9090909090909,4,2,1,85,0,1
171986,-90.9090909090909,4,2,1,85,0,0
174512,-90.9090909090909,4,2,1,85,0,1
177038,-100,4,2,1,75,0,0
187143,-111.111111111111,4,2,3,60,0,0
207354,-100,4,2,1,75,0,0
237670,-100,4,2,1,65,0,0
257880,-100,4,2,1,75,0,0
268301,-90.9090909090909,4,2,1,85,0,1
272722,-90.9090909090909,4,2,1,85,0,0
273354,-90.9090909090909,4,2,1,85,0,1
277459,-90.9090909090909,4,2,1,85,0,0
278091,-90.9090909090909,4,2,1,85,0,1
282828,-90.9090909090909,4,2,1,85,0,0
283459,-90.9090909090909,4,2,1,85,0,1
285038,-90.9090909090909,4,2,1,85,0,0
285670,-90.9090909090909,4,2,1,85,0,0
288512,-90.9090909090909,4,2,1,85,0,1
292933,-90.9090909090909,4,2,1,85,0,0
293565,-90.9090909090909,4,2,1,85,0,1
297670,-90.9090909090909,4,2,1,85,0,0
298301,-90.9090909090909,4,2,1,85,0,1
303038,-90.9090909090909,4,2,1,85,0,0
303670,-90.9090909090909,4,2,1,85,0,1
308407,-100,4,2,1,65,0,0

[Colours]
Combo1 : 232,176,74
Combo2 : 85,242,223
Combo3 : 233,107,71
Combo4 : 125,217,151

[HitObjects]
115,356,12828,6,0,P|248:348|404:133,1,403.2,4|2,1:2|0:0,0:0:0:0:
105,94,15038,2,0,L|100:45,2,44.8,0|0|4,1:0|1:0|1:2,0:0:0:0:
105,94,16617,2,0,P|70:37|2:36,2,134.4,0|0|0,1:0|1:0|1:0,0:0:0:0:
105,154,17723,1,0,1:0:0:0:
105,154,17880,1,4,1:2:0:0:
383,342,18828,6,0,P|405:352|434:346,1,44.8,8|0,0:0|0:0,0:0:0:0:
482,352,19144,2,0,B|508:294|463:227|468:224|423:133|455:83,1,268.8,2|0,0:0|1:0,0:0:0:0:
457,39,20249,1,0,1:0:0:0:
457,39,20407,1,4,1:2:0:0:
59,173,21512,2,0,B|44:223|54:238|58:238|67:252|59:309,1,134.4,2|0,0:0|0:0,0:0:0:0:
167,333,22301,2,0,B|162:349|165:354|166:354|169:359|167:378,2,44.8,0|0|0,1:0|0:0|1:0,0:0:0:0:
275,302,22933,6,0,P|344:305|413:269,2,134.4,4|2|0,1:2|0:0|1:0,0:0:0:0:
253,250,24038,2,0,P|255:227|267:209,1,44.8,2|0,0:0|0:0,0:0:0:0:
412,40,24828,1,2,0:0:0:0:
482,127,25144,2,0,P|479:149|467:167,1,44.8,0|0,1:0|1:0,0:0:0:0:
441,217,25459,6,0,P|443:283|456:352,2,134.4,4|2|0,1:2|0:0|1:0,0:0:0:0:
384,223,26565,2,0,P|362:227|339:228,1,44.8,2|0,0:0|0:0,0:0:0:0:
115,228,27354,1,2,0:0:0:0:
86,119,27670,2,0,P|107:114|130:113,1,44.8,0|0,1:0|1:0,0:0:0:0:
184,130,27986,6,0,P|212:61|282:36,2,134.4,4|2|0,1:2|0:0|1:0,0:0:0:0:
216,175,29091,2,0,P|234:186|256:182,1,44.8,2|0,0:0|0:0,0:0:0:0:
406,348,29880,1,2,0:0:0:0:
481,265,30196,2,0,P|492:246|488:224,1,44.8,0|0,1:0|1:0,0:0:0:0:
456,177,30512,6,0,B|468:128|447:108|445:112|426:94|439:40,2,134.4,4|2|0,1:2|0:0|1:0,0:0:0:0:
406,196,31617,1,2,0:0:0:0:
406,196,31775,2,0,B|360:152|327:162|330:167|293:178|245:131,1,179.2,0|0,0:0|1:0,0:0:0:0:
314,43,32723,2,0,B|329:38|331:30|329:30|332:20|348:16,2,44.8,0|0|4,1:0|1:0|1:2,0:0:0:0:
256,192,33196,12,0,34933,0:0:0:0:
97,344,35565,6,0,P|117:282|109:189,1,151.199995385742,4|0,0:0|0:0,0:0:0:0:
100,142,36196,1,2,0:0:0:0:
111,31,36512,1,2,0:0:0:0:
222,42,36828,2,0,P|284:62|377:54,1,151.199995385742,2|2,0:0|0:3,0:0:0:0:
416,28,37459,2,0,P|440:25|465:32,2,50.3999984619141,2|2|2,0:3|0:0|0:0,0:0:0:0:
436,137,38091,6,0,P|428:209|355:225,1,151.199995385742,2|0,0:0|0:0,0:0:0:0:
306,218,38722,1,2,0:0:0:0:
314,328,39038,1,2,0:0:0:0:
204,336,39354,2,0,L|94:300,1,100.799996923828,2|0,0:0|0:0,0:0:0:0:
59,292,39828,1,2,0:3:0:0:
59,292,39986,2,0,L|145:214,1,100.799996923828,2|0,0:3|0:0,0:0:0:0:
227,165,40617,6,0,B|273:167|294:196|292:200|315:228|376:227,1,151.199995385742,2|0,1:2|0:0,0:0:0:0:
416,223,41249,1,2,0:0:0:0:
485,136,41565,1,2,0:0:0:0:
398,67,41880,2,0,B|352:65|331:36|333:32|310:4|249:5,1,151.199995385742,2|2,0:0|0:3,0:0:0:0:
253,60,42512,2,0,B|252:75|242:82|241:81|232:89|232:109,2,50.3999984619141,2|2|2,0:3|0:0|0:0,0:0:0:0:
142,62,43143,6,0,L|82:66,1,50.3999984619141,2|2,0:0|0:0,0:0:0:0:
47,99,43459,2,0,L|51:159,1,50.3999984619141,2|2,0:0|0:0,0:0:0:0:
84,194,43775,2,0,L|204:186,1,100.799996923828,2|0,0:0|0:0,0:0:0:0:
294,201,44407,2,0,B|312:247|306:276|308:277|302:305|329:352,1,151.199995385742,2|2,0:3|3:0,0:0:0:0:
377,368,45038,1,2,1:2:0:0:
478,322,45354,1,2,1:2:0:0:
488,211,45670,6,0,P|493:131|434:65,1,168,4|0,3:2|3:0,0:0:0:0:
383,58,46301,2,0,P|359:69|349:97,1,56,2|0,1:2|0:0,0:0:0:0:
338,150,46617,1,0,3:0:0:0:
258,229,46933,2,0,L|266:301,2,56,2|2|0,0:0|0:0|3:0,0:0:0:0:
207,204,47407,2,0,L|194:92,1,112,2|0,3:2|0:0,0:0:0:0:
189,36,47880,1,0,3:0:0:0:
76,42,48196,6,0,P|20:104|26:184,1,168,2|0,3:2|3:0,0:0:0:0:
40,238,48828,2,0,L|104:241,1,56,2|0,1:2|0:0,0:0:0:0:
151,242,49143,1,0,3:0:0:0:
264,222,49459,1,2,0:0:0:0:
264,222,49617,2,0,L|261:286,2,56,0|0|0,3:0|3:0|3:0,0:0:0:0:
294,174,50091,2,0,P|348:170|388:207,1,112,2|0,1:2|3:0,0:0:0:0:
476,275,50722,6,0,B|426:288|411:324|413:332|394:367|334:375,1,168,2|0,1:2|3:0,0:0:0:0:
312,327,51354,2,0,P|282:321|252:332,1,56,2|0,1:2|0:0,0:0:0:0:
223,372,51670,1,0,3:0:0:0:
115,341,51986,2,0,P|85:347|55:336,2,56,2|2|0,0:0|0:0|3:0,0:0:0:0:
134,288,52459,2,0,P|148:234|136:180,1,112,2|0,3:2|0:0,0:0:0:0:
85,155,52933,1,0,3:0:0:0:
50,48,53249,6,0,B|104:63|135:39|133:28|162:4|215:25,1,168,2|0,3:2|3:0,0:0:0:0:
260,45,53880,2,0,L|316:25,2,56,2|0|0,1:2|3:0|3:0,0:0:0:0:
295,151,54512,2,0,L|351:131,1,56,2|0,3:2|3:0,0:0:0:0:
400,152,54828,2,0,L|420:208,1,56,0|0,3:0|3:0,0:0:0:0:
399,257,55143,2,0,L|287:297,1,112,0|0,1:0|3:0,0:0:0:0:
209,220,55775,6,0,P|130:174|50:187,1,168,4|0,3:2|3:0,0:0:0:0:
23,228,56407,2,0,P|7:254|12:280,1,56,2|0,1:2|0:0,0:0:0:0:
12,334,56722,1,0,3:0:0:0:
123,343,57038,2,0,P|138:316|133:290,2,56,2|2|0,0:0|0:0|3:0,0:0:0:0:
175,363,57512,2,0,L|294:349,1,112,2|0,3:2|0:0,0:0:0:0:
342,344,57986,1,0,3:0:0:0:
452,357,58301,6,0,B|463:311|432:274|430:279|394:239|417:180,1,168,2|0,3:2|3:0,0:0:0:0:
419,143,58933,2,0,B|415:127|425:115|426:117|438:103|430:84,1,56,2|0,1:2|0:0,0:0:0:0:
422,34,59249,1,0,3:0:0:0:
314,48,59565,1,2,0:0:0:0:
314,48,59722,2,0,L|258:22,2,56,0|0|0,3:0|3:0|3:0,0:0:0:0:
307,104,60196,2,0,L|215:168,1,112,2|0,1:2|3:0,0:0:0:0:
183,275,60828,6,0,P|99:302|22:257,1,168,2|0,1:2|3:0,0:0:0:0:
32,212,61459,2,0,P|23:184|37:158,1,56,2|0,1:2|0:0,0:0:0:0:
42,105,61775,1,0,3:0:0:0:
149,72,62091,2,0,P|160:47|151:21,2,56,2|2|0,0:0|0:0|3:0,0:0:0:0:
203,84,62565,2,0,B|243:83|256:101|254:105|265:123|316:117,1,112,2|0,3:2|0:0,0:0:0:0:
360,105,63038,1,0,3:0:0:0:
456,48,63354,6,0,L|473:110,1,56,0|2,3:0|0:0,0:0:0:0:
482,157,63670,2,0,L|465:219,1,56,2|0,0:0|3:0,0:0:0:0:
456,266,63986,2,0,L|490:390,1,112,2|0,1:2|3:0,0:0:0:0:
374,360,64617,1,0,3:0:0:0:
150,373,65249,2,0,L|116:249,1,112,0|2,3:0|0:0,0:0:0:0:
109,215,65722,1,2,0:0:0:0:
109,215,65880,1,4,1:2:0:0:
256,192,66038,12,0,69670,0:0:0:0:
100,208,70933,5,4,1:2:0:0:
28,122,71249,1,0,1:0:0:0:
87,27,71565,1,2,1:2:0:0:
196,54,71880,1,0,1:0:0:0:
203,166,72196,2,0,P|260:179|307:153,1,112,2|0,1:2|1:0,0:0:0:0:
395,88,72828,2,0,P|452:75|499:101,1,112,2|0,1:2|1:0,0:0:0:0:
511,210,73459,2,0,B|395:200|298:276|338:330|242:405|120:374,1,448,2|8,1:2|1:2,0:0:0:0:
119,373,75986,5,4,3:2:0:0:
256,192,76143,12,0,79775,3:0:0:0:
436,198,80407,6,0,L|492:188,2,56,0|0|0,3:0|3:0|3:0,0:0:0:0:
364,284,81038,6,0,P|343:271|325:180,1,112,2|0,3:2|1:0,0:0:0:0:
370,91,81670,2,0,P|339:45|285:32,1,112,0|0,3:0|1:0,0:0:0:0:
189,90,82301,2,0,L|183:152,2,56,2|0|0,3:2|0:0|1:0,0:0:0:0:
153,54,82775,1,2,0:0:0:0:
153,54,82933,2,0,L|51:100,1,112,0|0,3:0|1:0,0:0:0:0:
24,209,83565,6,0,P|67:243|125:239,1,112,2|0,3:2|1:0,0:0:0:0:
199,320,84196,2,0,P|233:277|229:219,1,112,2|0,3:2|1:0,0:0:0:0:
212,113,84828,1,2,3:2:0:0:
212,113,84986,1,2,0:0:0:0:
310,63,85301,1,2,0:0:0:0:
388,140,85617,1,2,0:0:0:0:
388,140,85775,1,2,0:0:0:0:
338,237,86091,6,0,L|344:296,1,56,4|0,3:2|0:0,0:0:0:0:
378,337,86407,2,0,L|496:325,1,112,0|0,1:0|3:0,0:0:0:0:
482,213,87038,1,0,1:0:0:0:
508,104,87354,2,0,P|479:91|461:68,1,56,2|0,3:2|0:0,0:0:0:0:
423,33,87670,2,0,P|401:56|374:66,1,56,0|0,1:0|0:0,0:0:0:0:
329,91,87986,2,0,P|360:146|362:204,1,112,2|0,3:2|1:0,0:0:0:0:
303,289,88617,6,0,L|232:277,1,56,2|0,3:2|0:0,0:0:0:0:
200,311,88933,2,0,L|72:332,1,112,0|0,1:0|3:0,0:0:0:0:
23,239,89565,2,0,L|12:175,1,56,0|0,1:0|3:0,0:0:0:0:
47,138,89880,1,2,3:2:0:0:
157,155,90196,2,0,L|135:27,1,112,0|2,1:0|3:2,0:0:0:0:
247,17,90828,2,0,P|277:28|294:45,1,56,0|0,1:0|3:0,0:0:0:0:
329,87,91143,6,0,B|375:95|383:81|382:75|392:60|436:77,1,112,4|0,3:2|1:0,0:0:0:0:
502,166,91775,2,0,P|477:186|454:192,1,56,0|2,3:0|0:0,0:0:0:0:
401,202,92090,2,0,B|371:237|379:251|384:253|392:270|356:299,1,112,0|2,1:0|3:2,0:0:0:0:
256,247,92722,1,0,1:0:0:0:
156,299,93038,2,0,B|120:270|128:253|133:251|141:237|111:202,1,112,2|0,3:2|1:0,0:0:0:0:
58,191,93512,5,2,0:0:0:0:
58,191,93670,1,4,3:2:0:0:
40,80,93986,1,8,0:0:0:0:
258,30,94617,2,0,L|268:87,1,56,2|2,0:3|0:3,0:0:0:0:
276,141,94933,1,0,0:0:0:0:
276,141,96196,1,0,3:0:0:0:
227,241,96512,6,0,P|251:256|289:253,1,56,4|0,1:2|3:0,0:0:0:0:
326,284,96828,2,0,P|352:333|421:366,1,112,2|0,3:2|1:0,0:0:0:0:
461,269,97459,2,0,P|484:283|497:308,2,56,2|0|0,3:2|0:0|1:0,0:0:0:0:
487,221,97933,1,0,3:0:0:0:
487,221,98091,2,0,P|500:169|506:109,1,112,2|0,3:2|1:0,0:0:0:0:
409,53,98722,6,0,P|396:105|390:165,1,112,2|0,3:2|1:0,0:0:0:0:
339,153,99196,1,0,3:0:0:0:
339,153,99354,2,0,P|287:140|227:134,1,112,2|0,3:2|1:0,0:0:0:0:
147,56,99986,1,2,3:2:0:0:
69,137,100301,2,0,L|80:201,1,56,0|0,1:0|3:0,0:0:0:0:
56,244,100617,2,0,L|34:372,1,112,2|2,1:2|1:2,0:0:0:0:
96,370,101091,1,2,1:2:0:0:
96,370,101249,1,2,3:2:0:0:
205,344,101565,6,0,P|237:344|273:356,2,56,0|0|2,1:0|3:0|3:2,0:0:0:0:
186,297,102038,1,0,3:0:0:0:
186,297,102196,2,0,P|199:242|198:186,1,112,0|2,1:0|3:2,0:0:0:0:
274,103,102828,2,0,P|328:116|384:115,1,112,0|2,1:0|3:2,0:0:0:0:
468,191,103459,2,0,P|461:218|461:246,2,56,0|0|2,1:0|3:0|3:2,0:0:0:0:
487,80,104091,6,0,P|480:53|452:32,1,56,0|0,1:0|3:0,0:0:0:0:
404,23,104407,2,0,P|350:37|308:93,1,112,2|0,3:2|1:0,0:0:0:0:
305,136,104880,1,0,3:0:0:0:
305,136,105038,2,0,P|268:177|214:190,1,112,2|0,1:2|3:0,0:0:0:0:
102,195,105670,1,0,1:0:0:0:
97,83,105986,2,0,L|95:24,2,56,2|0|4,3:2|1:0|3:2,0:0:0:0:
209,73,106617,6,0,B|233:57|263:60,1,56,0|0,1:0|3:0,0:0:0:0:
317,73,106933,2,0,B|346:77|363:96|361:101|385:125|419:125,1,112,2|0,3:2|1:0,0:0:0:0:
452,230,107565,2,0,B|465:235|477:231|478:228|494:224|509:232,2,56,0|0|0,3:0|3:0|1:0,0:0:0:0:
401,243,108038,1,0,3:0:0:0:
401,243,108196,2,0,P|360:281|341:344,1,112,2|0,3:2|1:0,0:0:0:0:
252,264,108828,6,0,P|246:210|232:149,1,112,2|0,3:2|1:0,0:0:0:0:
221,99,109301,1,0,3:0:0:0:
221,99,109459,2,0,P|167:105|106:119,1,112,2|0,3:2|1:0,0:0:0:0:
44,208,110091,2,0,P|47:235|54:265,2,56,2|0|0,3:2|3:0|1:0,0:0:0:0:
159,226,110722,1,2,3:2:0:0:
159,226,110880,2,0,P|165:253|168:281,2,56,0|0|0,3:0|1:0|3:0,0:0:0:0:
214,217,111354,1,2,3:2:0:0:
315,263,111670,6,0,L|370:286,2,56,0|0|2,1:0|3:0|3:2,0:0:0:0:
324,211,112143,1,0,0:0:0:0:
324,211,112301,2,0,L|413:143,1,112,0|2,1:0|3:2,0:0:0:0:
474,236,112933,2,0,L|488:347,1,112,0|0,1:0|3:0,0:0:0:0:
376,363,113565,2,0,L|320:370,1,56,0|0,1:0|3:0,0:0:0:0:
265,357,113880,5,4,3:2:0:0:
265,357,115143,2,0,P|256:296|194:265,1,112,2|0,3:2|3:0,0:0:0:0:
166,282,115617,1,2,3:2:0:0:
166,282,115775,1,0,1:0:0:0:
73,346,116091,2,0,P|51:328|49:301,2,56,0|0|0,3:0|1:0|3:0,0:0:0:0:
34,148,124933,5,0,1:0:0:0:
101,237,125249,2,0,B|155:262|208:232|204:210|257:178|336:202,1,224,2|2,1:2|1:2,0:0:0:0:
423,210,126196,2,0,L|490:201,1,56,2|0,1:2|3:0,0:0:0:0:
491,147,126512,5,4,3:2:0:0:
439,47,126828,2,0,L|372:38,1,56,2|0,1:2|1:0,0:0:0:0:
331,59,127143,2,0,P|296:28|257:26,2,84,2|2|0,1:2|0:0|1:0,0:0:0:0:
318,113,127775,2,0,P|307:169|282:222,1,112,2|2,1:2|1:2,0:0:0:0:
214,306,128407,2,0,P|171:268|137:220,1,112,2|2,1:2|1:2,0:0:0:0:
114,180,128880,1,0,1:0:0:0:
114,180,129038,1,2,1:2:0:0:
170,82,129354,6,0,L|233:74,1,56,2|0,1:2|1:0,0:0:0:0:
279,92,129670,2,0,L|315:4,2,84,2|2|0,1:2|0:0|1:0,0:0:0:0:
328,117,130301,2,0,L|444:166,1,112,2|2,1:2|1:2,0:0:0:0:
487,187,130775,1,0,1:0:0:0:
487,187,130933,1,2,3:2:0:0:
323,340,131565,6,0,P|99:320|255:34,1,672,0|2,1:0|3:2,0:0:0:0:
488,93,134091,6,0,L|477:215,1,112,2|0,0:3|1:0,0:0:0:0:
474,260,134565,1,2,0:3:0:0:
367,248,134880,1,0,1:0:0:0:
367,248,135038,2,0,L|378:126,1,112,2|0,0:3|1:0,0:0:0:0:
381,81,135512,1,2,0:3:0:0:
218,36,135986,2,0,B|182:28|166:43|166:49|146:61|102:49,1,112,2|2,0:3|0:3,0:0:0:0:
14,128,136617,6,0,L|22:193,1,61.6000018798829,4|0,3:2|0:0,0:0:0:0:
78,219,136933,2,0,L|94:349,1,123.200003759766,0|2,1:0|3:2,0:0:0:0:
214,364,137565,1,0,1:0:0:0:
312,290,137880,2,0,P|341:297|358:323,2,61.6000018798829,2|0|0,3:2|3:0|1:0,0:0:0:0:
300,229,138354,2,0,P|242:215|208:163,1,123.200003759766,2|0,0:0|3:0,0:0:0:0:
202,102,138828,1,0,1:0:0:0:
299,26,139143,6,0,L|427:45,1,123.200003759766,2|0,3:2|1:0,0:0:0:0:
446,106,139617,1,2,0:0:0:0:
446,106,139775,2,0,L|510:115,2,61.6000018798829,0|0|0,3:0|3:0|1:0,0:0:0:0:
322,134,140407,2,0,P|262:134|203:169,1,123.200003759766,2|0,3:2|1:0,0:0:0:0:
189,225,140880,1,0,3:0:0:0:
189,225,141038,2,0,P|189:285|224:344,1,123.200003759766,2|0,3:2|1:0,0:0:0:0:
339,366,141670,6,0,L|473:349,1,123.200003759766,0|2,3:0|1:2,0:0:0:0:
502,304,142143,1,0,3:0:0:0:
431,195,142459,1,2,0:0:0:0:
431,195,142617,2,0,L|364:186,1,61.6000018798829,0|0,1:0|0:0,0:0:0:0:
322,147,142933,2,0,L|330:80,2,61.6000018798829,2|0|0,3:2|3:0|1:0,0:0:0:0:
268,177,143407,1,2,0:0:0:0:
211,74,143722,1,0,0:0:0:0:
211,74,143880,1,0,1:0:0:0:
93,71,144196,6,0,P|54:76|29:93,1,61.6000018798829,0|2,3:0|0:0,0:0:0:0:
22,147,144512,2,0,P|27:186|44:211,1,61.6000018798829,0|2,1:0|0:0,0:0:0:0:
98,218,144828,2,0,P|176:208|226:174,1,123.200003759766,0|0,3:0|1:0,0:0:0:0:
333,157,145459,6,0,B|382:164|393:180|388:185|393:204|450:216,1,123.200003759766,2|0,3:2|3:0,0:0:0:0:
503,230,145933,1,0,3:0:0:0:
503,230,146091,1,2,1:2:0:0:
505,353,146407,2,0,L|437:363,1,61.6000018798829,0|0,3:0|1:0,0:0:0:0:
383,352,146722,6,0,P|367:298|307:264,1,123.200003759766,4|0,3:2|1:0,0:0:0:0:
262,238,147196,1,0,3:0:0:0:
262,238,147354,2,0,P|223:278|223:347,1,123.200003759766,2|0,3:2|1:0,0:0:0:0:
98,355,147986,2,0,L|33:364,2,61.6000018798829,2|0|0,3:2|3:0|1:0,0:0:0:0:
91,293,148459,2,0,L|73:163,1,123.200003759766,2|0,0:0|0:0,0:0:0:0:
38,120,148933,2,0,L|47:55,1,61.6000018798829,0|0,1:0|3:0,0:0:0:0:
100,27,149249,5,2,3:2:0:0:
186,115,149565,2,0,P|219:119|255:108,1,61.6000018798829,0|0,1:0|0:0,0:0:0:0:
268,54,149880,2,0,P|334:46|406:68,1,123.200003759766,2|0,3:2|1:0,0:0:0:0:
475,146,150512,2,0,L|467:282,1,123.200003759766,2|0,3:2|1:0,0:0:0:0:
468,335,150986,1,0,3:0:0:0:
468,335,151143,1,2,3:2:0:0:
350,297,151459,2,0,L|353:235,1,61.6000018798829,0|0,1:0|3:0,0:0:0:0:
341,174,151775,6,0,B|351:139|331:112|327:114|306:96|306:45,1,123.200003759766,4|2,3:2|1:2,0:0:0:0:
254,25,152249,1,0,3:0:0:0:
136,50,152565,1,2,0:0:0:0:
136,50,152722,2,0,P|121:71|82:90,1,61.6000018798829,0|0,1:0|0:0,0:0:0:0:
84,150,153038,1,2,3:2:0:0:
84,150,153196,2,0,L|17:162,2,61.6000018798829,0|8|0,3:0|0:0|3:0,0:0:0:0:
208,184,153828,1,2,3:2:0:0:
208,184,153986,1,8,3:2:0:0:
257,296,154301,6,0,P|394:339|436:75,1,492.800015039063,4|2,3:2|1:2,0:0:0:0:
322,122,155880,2,0,L|313:52,1,61.6000018798829,0|0,1:0|3:0,0:0:0:0:
261,27,156196,2,0,L|121:45,1,123.200003759766,0|2,1:0|1:2,0:0:0:0:
165,168,156828,5,4,3:2:0:0:
165,168,156986,2,0,P|190:174|221:204,1,61.6000018798829,0|0,3:0|1:0,0:0:0:0:
255,252,157301,1,0,3:0:0:0:
255,252,157459,2,0,P|244:296|191:351,1,123.200003759766,2|0,3:2|1:0,0:0:0:0:
72,316,158091,2,0,L|67:378,2,61.6000018798829,0|0|0,3:0|3:0|1:0,0:0:0:0:
15,290,158565,2,0,L|25:166,1,123.200003759766,2|0,0:0|0:0,0:0:0:0:
32,106,159038,1,0,1:0:0:0:
135,38,159354,6,0,P|164:26|203:28,1,61.6000018798829,0|2,3:0|0:0,0:0:0:0:
254,39,159670,2,0,P|266:68|264:107,1,61.6000018798829,0|0,1:0|3:0,0:0:0:0:
317,132,159986,2,0,P|375:108|453:112,1,123.200003759766,2|0,3:2|1:0,0:0:0:0:
445,230,160617,2,0,L|504:245,2,61.6000018798829,2|0|0,3:2|3:0|1:0,0:0:0:0:
389,251,161091,1,0,1:0:0:0:
389,251,161249,2,0,L|358:370,1,123.200003759766,2|8,3:2|0:0,0:0:0:0:
234,376,161880,6,0,L|194:320,1,61.6000018798829,0|0,3:0|3:0,0:0:0:0:
164,281,162196,1,0,1:0:0:0:
164,281,162354,2,0,L|102:286,2,61.6000018798829,0|2|0,0:0|3:2|0:0,0:0:0:0:
196,227,162828,1,0,1:0:0:0:
91,173,163143,5,2,3:2:0:0:
91,173,163301,2,0,P|58:156|40:129,1,61.6000018798829,0|0,3:0|1:0,0:0:0:0:
29,76,163617,2,0,P|91:35|156:31,1,123.200003759766,2|0,0:0|0:0,0:0:0:0:
198,46,164091,1,0,1:0:0:0:
314,87,164407,5,4,3:2:0:0:
314,87,165670,2,0,P|303:147|326:210,1,123.200003759766,0|0,3:0|3:0,0:0:0:0:
379,241,166143,1,0,3:0:0:0:
379,241,166301,2,0,P|409:246|440:235,2,61.6000018798829,0|0|0,1:0|0:0|3:0,0:0:0:0:
291,327,166933,6,0,L|229:320,1,61.6000018798829,4|0,3:2|3:0,0:0:0:0:
177,353,167249,2,0,L|53:367,1,123.200003759766,0|0,1:0|3:0,0:0:0:0:
19,323,167722,1,2,0:0:0:0:
19,323,167880,1,0,1:0:0:0:
79,215,168196,2,0,L|86:153,2,61.6000018798829,2|2|0,3:2|0:0|1:0,0:0:0:0:
127,253,168670,1,0,3:0:0:0:
241,202,168986,1,2,0:0:0:0:
241,202,169143,1,0,1:0:0:0:
353,252,169459,6,0,P|408:253|469:224,1,123.200003759766,0|0,3:0|1:0,0:0:0:0:
478,102,170091,2,0,P|483:66|468:26,2,61.6000018798829,0|2|0,3:0|3:2|1:0,0:0:0:0:
359,137,170722,2,0,P|329:127|306:107,1,61.6000018798829,2|0,3:2|0:0,0:0:0:0:
245,117,171038,2,0,P|231:89|228:59,1,61.6000018798829,0|0,1:0|0:0,0:0:0:0:
170,35,171354,2,0,P|150:93|111:140,1,123.200003759766,2|0,3:2|1:0,0:0:0:0:
65,181,171828,1,0,3:0:0:0:
65,181,171986,1,4,3:2:0:0:
256,192,172301,12,0,173565,0:0:0:0:
85,183,174512,6,0,B|228:131|302:219|292:301|358:384|516:329,1,492.800015039063,0|0,1:0|1:0,0:0:0:0:
493,209,176091,2,0,L|484:138,1,61.6000018798829,0|0,1:0|0:0,0:0:0:0:
478,86,176407,2,0,L|469:15,2,61.6000018798829,0|2|0,1:0|0:0|1:0,0:0:0:0:
376,132,177038,1,4,3:2:0:0:
256,192,184617,12,0,186512,1:0:0:0:
209,359,187143,6,0,P|215:291|293:259,1,151.199995385742,4|2,3:2|0:3,0:0:0:0:
336,273,187775,1,8,0:0:0:0:
419,199,188091,2,0,L|479:193,2,50.3999984619141,0|0|2,0:0|3:0|0:0,0:0:0:0:
348,112,188722,2,0,L|342:52,1,50.3999984619141,0|2,3:0|0:3,0:0:0:0:
297,29,189038,2,0,B|260:27|250:43|251:47|239:66|193:59,1,100.799996923828,8|0,0:0|0:0,0:0:0:0:
155,79,189512,5,2,0:0:0:0:
155,79,189670,2,0,B|118:81|108:65|109:60|97:42|51:49,1,100.799996923828,0|0,3:0|0:0,0:0:0:0:
19,149,190301,2,0,P|51:182|70:245,1,100.799996923828,10|0,0:0|0:0,0:0:0:0:
129,240,190775,1,0,3:0:0:0:
129,240,190933,2,0,P|135:217|157:193,2,50.3999984619141,0|2|2,3:0|0:3|0:0,0:0:0:0:
142,294,191407,1,2,0:3:0:0:
247,326,191722,2,0,P|241:349|219:373,2,50.3999984619141,0|0|2,3:0|1:0|0:0,0:0:0:0:
251,270,192196,6,0,B|309:263|344:301|337:306|375:346|445:336,1,201.599993847656,2|8,3:2|0:0,0:0:0:0:
495,244,193143,2,0,P|477:221|439:220,1,50.3999984619141,2|0,0:0|3:0,0:0:0:0:
402,200,193459,2,0,L|388:89,1,100.799996923828,2|0,0:0|3:0,0:0:0:0:
285,80,194091,1,8,0:0:0:0:
285,80,194249,2,0,L|278:24,2,50.3999984619141,0|2|0,3:0|1:2|0:0,0:0:0:0:
243,118,194722,2,0,L|181:197,1,100.799996923828,2|0,0:0|0:0,0:0:0:0:
180,197,196933,2,0,L|133:215,1,50.3999984619141,2|0,0:0|0:0,0:0:0:0:
81,236,197249,6,0,B|94:188|67:164|63:169|35:141|47:76,1,151.199995385742,4|2,3:2|0:3,0:0:0:0:
50,39,197880,1,8,0:0:0:0:
156,70,198196,2,0,P|169:89|196:104,2,50.3999984619141,0|0|2,0:0|3:0|0:0,0:0:0:0:
250,11,198828,2,0,P|271:24|286:44,1,50.3999984619141,0|2,3:0|0:3,0:0:0:0:
315,91,199143,2,0,L|429:82,1,100.799996923828,8|0,0:0|0:0,0:0:0:0:
468,114,199617,5,2,0:0:0:0:
468,114,199775,2,0,L|477:228,1,100.799996923828,0|0,3:0|0:0,0:0:0:0:
485,325,200407,2,0,B|459:329|442:349|445:354|425:377|390:381,1,100.799996923828,10|0,0:0|0:0,0:0:0:0:
361,350,200880,1,0,3:0:0:0:
361,350,201038,2,0,B|349:350|339:362|340:364|332:374|319:376,2,50.3999984619141,0|2|2,3:0|0:3|0:0,0:0:0:0:
355,294,201512,1,2,0:3:0:0:
356,183,201828,2,0,L|357:123,2,50.3999984619141,0|0|2,3:0|1:0|0:0,0:0:0:0:
300,183,202301,6,0,B|248:171|212:216|217:227|176:273|113:250,1,201.599993847656,0|8,3:0|0:0,0:0:0:0:
28,192,203249,2,0,P|20:166|26:134,1,50.3999984619141,2|0,0:0|3:0,0:0:0:0:
26,87,203565,2,0,B|55:69|74:77|72:80|95:88|127:67,1,100.799996923828,2|0,0:0|3:0,0:0:0:0:
237,65,204196,1,8,0:0:0:0:
237,65,204354,2,0,B|246:51|242:41|240:42|236:31|247:15,2,50.3999984619141,0|2|0,3:0|1:2|0:0,0:0:0:0:
244,120,204828,2,0,P|245:172|218:220,1,100.799996923828,2|0,0:0|0:0,0:0:0:0:
223,214,207354,5,4,3:2:0:0:
256,192,207512,12,0,211143,0:0:0:0:
39,263,211775,6,0,L|54:203,1,56,0|0,1:0|1:0,0:0:0:0:
63,153,212091,1,0,1:0:0:0:
14,51,212407,6,0,B|149:-9|331:27|138:345|350:395|510:344,1,672,0|0,1:0|3:0,0:0:0:0:
441,253,214617,1,2,3:2:0:0:
477,146,214933,6,0,P|489:93|462:43,1,112,0|0,1:0|1:0,0:0:0:0:
351,56,215565,2,0,P|324:50|299:63,1,56,0|0,1:0|1:0,0:0:0:0:
305,118,215880,2,0,P|299:144|312:169,2,56,0|0|0,1:0|1:0|1:0,0:0:0:0:
305,118,217459,1,2,3:2:0:0:
218,46,217775,6,0,P|168:28|113:64,1,112,4|0,1:2|3:0,0:0:0:0:
85,100,218249,1,2,0:0:0:0:
85,100,218407,2,0,P|61:113|35:104,2,56,0|0|2,1:0|0:0|3:2,0:0:0:0:
178,162,219038,1,0,1:0:0:0:
174,274,219354,2,0,L|162:337,2,56,2|0|0,3:2|0:0|3:0,0:0:0:0:
230,267,219828,5,0,3:0:0:0:
230,267,219986,2,0,P|266:312|328:325,1,112,2|0,3:2|1:0,0:0:0:0:
376,319,220459,1,2,0:0:0:0:
376,319,220617,2,0,P|402:326|419:348,2,56,0|0|0,3:0|0:0|1:0,0:0:0:0:
342,211,221249,2,0,P|340:159|348:93,1,112,2|0,3:2|1:0,0:0:0:0:
456,78,221880,2,0,P|459:50|458:22,2,56,0|0|2,3:0|3:0|3:2,0:0:0:0:
496,182,222512,1,2,3:2:0:0:
464,289,222828,6,0,L|356:321,1,112,4|0,1:2|3:0,0:0:0:0:
309,302,223301,1,2,0:0:0:0:
309,302,223459,2,0,L|293:248,2,56,0|0|2,1:0|0:0|3:2,0:0:0:0:
196,304,224091,1,0,1:0:0:0:
83,306,224407,2,0,L|99:360,2,56,2|0|0,3:2|0:0|3:0,0:0:0:0:
69,257,224880,5,0,3:0:0:0:
69,257,225038,2,0,P|40:244|31:213,2,56,2|0|0,3:2|3:0|1:0,0:0:0:0:
161,192,225670,2,0,P|135:143|84:123,1,112,2|0,3:2|1:0,0:0:0:0:
36,108,226143,1,0,3:0:0:0:
36,108,226301,1,4,3:2:0:0:
244,25,226933,2,0,P|270:74|321:94,1,112,0|0,3:0|3:0,0:0:0:0:
377,117,227406,1,2,0:0:0:0:
377,117,227564,1,0,3:0:0:0:
483,153,227880,6,0,L|482:271,1,112,4|2,1:2|3:2,0:0:0:0:
442,306,228354,1,0,0:0:0:0:
442,306,228512,2,0,L|441:365,2,56,0|0|0,1:0|3:0|3:0,0:0:0:0:
335,341,229143,1,0,1:0:0:0:
335,228,229459,2,0,L|335:169,2,56,0|0|0,3:0|0:0|3:0,0:0:0:0:
282,230,229933,5,0,3:0:0:0:
282,230,230091,2,0,P|230:202|174:203,1,112,2|0,3:2|1:0,0:0:0:0:
139,242,230565,1,0,3:0:0:0:
139,242,230722,2,0,P|125:268|125:296,2,56,0|2|0,3:0|0:0|1:0,0:0:0:0:
31,208,231354,2,0,L|20:78,1,112,2|0,3:2|1:0,0:0:0:0:
111,29,231986,2,0,L|166:24,1,56,0|0,3:0|3:0,0:0:0:0:
213,54,232301,2,0,L|268:49,1,56,0|0,3:0|3:0,0:0:0:0:
315,79,232617,1,2,3:2:0:0:
258,175,232933,6,0,P|243:230|275:285,1,112,4|0,1:2|3:0,0:0:0:0:
320,308,233407,1,2,0:0:0:0:
320,308,233565,2,0,P|331:332|324:359,2,56,0|0|0,1:0|3:0|3:0,0:0:0:0:
416,251,234196,1,0,1:0:0:0:
446,143,234512,2,0,P|470:131|497:138,2,56,0|0|0,3:0|0:0|3:0,0:0:0:0:
342,100,235143,6,0,P|292:123|239:108,1,112,0|0,3:0|1:0,0:0:0:0:
209,60,235617,1,2,3:2:0:0:
209,60,235775,2,0,L|142:58,1,56,0|2,1:0|3:2,0:0:0:0:
100,39,236091,2,0,L|33:41,1,56,0|2,1:0|3:2,0:0:0:0:
17,90,236407,2,0,B|-18:150|16:204|20:193|62:240|30:312,1,224,0|0,1:0|1:0,0:0:0:0:
138,343,237354,2,0,B|130:327|141:315|142:318|150:304|142:289,1,56,0|0,1:0|1:0,0:0:0:0:
192,264,237670,6,0,P|244:320|342:326,1,168,4|0,3:2|3:0,0:0:0:0:
387,323,238301,1,0,1:0:0:0:
498,312,238617,1,0,3:0:0:0:
487,201,238933,2,0,L|482:141,2,56,2|2|0,0:0|0:0|3:0,0:0:0:0:
430,205,239407,1,0,3:0:0:0:
344,143,239722,1,2,0:0:0:0:
344,143,239880,1,0,3:0:0:0:
245,196,240196,6,0,B|195:184|163:215|167:220|134:245|70:236,1,168,2|0,3:2|3:0,0:0:0:0:
41,203,240828,1,0,1:0:0:0:
11,95,241143,1,0,3:0:0:0:
104,33,241459,1,2,0:0:0:0:
104,33,241617,2,0,L|117:100,2,56,2|0|0,0:0|3:0|3:0,0:0:0:0:
159,21,242091,2,0,P|216:32|244:80,1,112,0|0,1:0|3:0,0:0:0:0:
192,174,242722,6,0,L|310:192,1,112,2|2,3:2|0:0,0:0:0:0:
356,173,243196,2,0,L|399:284,1,112,0|2,3:0|0:0,0:0:0:0:
438,314,243670,1,0,3:0:0:0:
488,216,243986,1,2,0:0:0:0:
488,216,244143,2,0,L|467:163,1,56,2|0,0:0|3:0,0:0:0:0:
447,111,244459,1,0,3:0:0:0:
350,53,244775,1,2,0:0:0:0:
355,57,244933,1,0,3:0:0:0:
243,61,245249,6,0,P|218:58|182:68,1,56,0|2,3:0|0:0,0:0:0:0:
141,96,245565,2,0,P|138:121|148:157,1,56,2|2,0:0|0:0,0:0:0:0:
180,202,245880,1,0,1:0:0:0:
180,202,246038,2,0,P|205:205|241:195,2,56,0|2|0,3:0|0:0|3:0,0:0:0:0:
180,258,246512,2,0,B|180:287|156:308|151:304|128:322|123:367,1,112,2|2,3:2|3:2,0:0:0:0:
74,366,246986,1,0,3:0:0:0:
74,366,247143,1,0,1:0:0:0:
42,271,247459,2,0,B|29:263|25:248|29:246|27:232|9:219,1,56,0|2,3:0|0:0,0:0:0:0:
7,166,247775,6,0,P|80:149|150:82,1,168,4|0,3:2|3:0,0:0:0:0:
158,32,248407,1,0,1:0:0:0:
260,76,248722,1,0,3:0:0:0:
371,68,249038,2,0,L|379:127,2,56,2|2|0,0:0|0:0|3:0,0:0:0:0:
414,32,249512,1,0,3:0:0:0:
490,122,249828,1,2,0:0:0:0:
490,122,249986,1,0,3:0:0:0:
450,232,250301,6,0,P|395:315|326:333,1,168,2|0,3:2|3:0,0:0:0:0:
276,337,250933,1,0,1:0:0:0:
169,372,251249,1,0,3:0:0:0:
85,296,251565,1,2,0:0:0:0:
85,296,251722,2,0,P|57:277|51:254,2,56,2|0|0,0:0|3:0|3:0,0:0:0:0:
135,270,252196,2,0,P|169:227|169:172,1,112,0|0,1:0|3:0,0:0:0:0:
57,158,252828,6,0,L|43:44,1,112,0|2,3:0|0:0,0:0:0:0:
99,40,253301,2,0,L|213:26,1,112,0|2,3:0|0:0,0:0:0:0:
217,82,253775,1,0,3:0:0:0:
332,100,254091,1,2,0:0:0:0:
332,100,254249,2,0,L|387:106,1,56,2|0,0:0|3:0,0:0:0:0:
443,115,254565,1,0,3:0:0:0:
495,220,254880,1,2,0:0:0:0:
495,220,255038,1,0,3:0:0:0:
411,301,255354,6,0,P|379:312|362:333,1,56,0|2,3:0|0:0,0:0:0:0:
308,328,255670,2,0,P|297:296|276:279,1,56,2|0,0:0|3:0,0:0:0:0:
281,225,255986,2,0,P|345:203|379:161,1,112,0|0,1:0|3:0,0:0:0:0:
377,119,256459,1,2,0:0:0:0:
377,119,256617,1,0,0:0:0:0:
377,119,257880,5,4,1:2:0:0:
256,192,258038,12,0,261670,0:0:0:0:
44,33,262301,6,0,L|50:104,1,56,0|0,1:0|1:0,0:0:0:0:
53,145,262617,1,0,1:0:0:0:
36,255,262933,6,0,P|287:338|479:29,1,672,0|0,1:0|1:0,0:0:0:0:
371,61,265143,2,0,P|339:57|311:39,1,56,0|2,3:0|0:0,0:0:0:0:
263,33,265459,6,0,L|140:44,1,112,0|0,1:0|1:0,0:0:0:0:
156,103,265933,1,0,1:0:0:0:
156,103,266091,2,0,L|161:164,1,56,0|0,1:0|1:0,0:0:0:0:
225,153,266407,2,0,L|286:147,1,56,0|0,1:0|1:0,0:0:0:0:
336,143,266722,1,0,3:0:0:0:
336,143,267986,1,2,3:2:0:0:
456,165,268301,6,0,B|463:211|448:228|444:225|430:239|433:295,1,123.200003759766,4|0,1:2|3:0,0:0:0:0:
437,349,268775,1,0,0:0:0:0:
437,349,268933,1,0,1:0:0:0:
321,306,269249,2,0,L|300:364,2,61.6000018798829,2|0|0,3:2|3:0|1:0,0:0:0:0:
199,291,269880,1,2,3:2:0:0:
76,275,270196,2,0,L|96:216,1,61.6000018798829,0|0,3:0|3:0,0:0:0:0:
116,158,270512,1,2,3:2:0:0:
64,45,270828,6,0,P|116:33|185:59,1,123.200003759766,0|2,1:0|3:2,0:0:0:0:
232,98,271301,1,2,0:0:0:0:
232,98,271459,1,0,1:0:0:0:
355,102,271775,2,0,P|349:76|362:41,1,61.6000018798829,2|0,3:2|3:0,0:0:0:0:
422,39,272091,2,0,P|448:33|482:46,2,61.6000018798829,0|2|0,1:0|0:0|3:0,0:0:0:0:
468,153,272722,2,0,L|480:216,1,61.6000018798829,0|0,3:0|3:0,0:0:0:0:
490,274,273038,1,0,3:0:0:0:
403,360,273354,6,0,P|355:338|345:265,1,123.200003759766,4|0,1:2|3:0,0:0:0:0:
348,211,273828,1,0,3:0:0:0:
347,210,273986,2,0,P|338:151|286:124,1,123.200003759766,0|2,1:0|3:2,0:0:0:0:
224,124,274459,1,0,3:0:0:0:
224,124,274617,1,0,1:0:0:0:
102,142,274933,1,0,3:0:0:0:
120,264,275249,2,0,L|183:255,1,61.6000018798829,0|0,3:0|3:0,0:0:0:0:
242,246,275565,6,0,B|287:253|298:270|295:271|309:293|357:295,1,123.200003759766,0|0,3:0|1:0,0:0:0:0:
418,299,276038,1,2,3:2:0:0:
418,299,276196,2,0,P|420:338|429:379,2,61.6000018798829,0|0|0,3:0|1:0|3:0,0:0:0:0:
492,200,276828,2,0,P|462:58|366:50,1,246.400007519531,0|2,1:0|1:2,0:0:0:0:
327,71,277617,1,0,3:0:0:0:
327,71,277775,2,0,P|299:61|298:32,1,61.6000018798829,2|0,1:2|3:0,0:0:0:0:
237,24,278091,6,0,L|163:33,1,61.6000018798829,4|0,3:2|3:0,0:0:0:0:
113,35,278407,1,0,1:0:0:0:
29,120,278722,2,0,B|72:125|83:145|81:149|94:168|147:172,1,123.200003759766,2|0,3:2|1:0,0:0:0:0:
254,227,279354,1,2,3:2:0:0:
254,227,279512,2,0,P|267:195|264:159,2,61.6000018798829,0|0|0,3:0|1:0|0:0,0:0:0:0:
153,296,280143,1,0,0:0:0:0:
153,296,280301,2,0,P|140:328|143:364,2,61.6000018798829,0|0|2,1:0|3:0|3:2,0:0:0:0:
42,242,280933,6,0,L|28:119,1,123.200003759766,0|2,1:0|3:2,0:0:0:0:
26,62,281407,1,0,0:0:0:0:
26,62,281565,1,0,1:0:0:0:
143,24,281880,2,0,P|179:39|215:65,1,61.6000018798829,2|2,3:2|0:0,0:0:0:0:
258,63,282196,2,0,P|284:48|308:28,2,61.6000018798829,0|2|0,1:0|0:0|3:0,0:0:0:0:
211,177,282828,2,0,P|210:207|215:238,2,61.6000018798829,0|0|0,3:0|3:0|3:0,0:0:0:0:
149,170,283301,5,0,3:0:0:0:
149,170,283459,2,0,L|20:201,1,123.200003759766,4|0,1:2|3:0,0:0:0:0:
4,319,284091,2,0,L|133:350,1,123.200003759766,0|2,1:0|3:2,0:0:0:0:
190,351,284565,1,0,3:0:0:0:
190,351,284722,2,0,L|319:320,1,123.200003759766,0|2,1:0|3:2,0:0:0:0:
433,323,285354,2,0,L|475:367,2,61.6000018798829,0|0|0,3:0|3:0|3:0,0:0:0:0:
433,323,286933,5,2,3:2:0:0:
433,323,288196,1,0,3:0:0:0:
458,202,288512,6,0,P|440:144|394:91,1,123.200003759766,4|2,1:2|3:2,0:0:0:0:
295,159,289143,2,0,P|304:188|327:214,1,61.6000018798829,0|0,1:0|0:0,0:0:0:0:
359,269,289459,1,2,3:2:0:0:
359,269,289617,2,0,L|296:301,1,61.6000018798829,0|0,3:0|1:0,0:0:0:0:
246,319,289933,1,0,0:0:0:0:
131,357,290249,1,0,3:0:0:0:
131,357,290407,2,0,L|68:325,2,61.6000018798829,0|0|2,3:0|3:0|3:2,0:0:0:0:
168,239,291038,6,0,P|167:207|156:164,1,61.6000018798829,0|0,1:0|0:0,0:0:0:0:
153,116,291354,2,0,P|207:114|280:95,1,123.200003759766,0|0,3:0|1:0,0:0:0:0:
397,92,291986,1,2,3:2:0:0:
397,92,292143,2,0,L|404:28,2,61.6000018798829,0|0|2,0:0|1:0|0:0,0:0:0:0:
447,127,292617,1,0,3:0:0:0:
432,249,292933,2,0,L|425:313,2,61.6000018798829,0|0|0,3:0|3:0|3:0,0:0:0:0:
311,275,293565,6,0,B|275:269|253:290|256:295|229:315|181:305,1,123.200003759766,4|0,1:2|3:0,0:0:0:0:
155,354,294038,1,0,3:0:0:0:
155,354,294196,2,0,B|142:319|113:311|110:316|79:302|64:256,1,123.200003759766,0|2,1:0|3:2,0:0:0:0:
52,215,294670,1,0,0:0:0:0:
52,215,294828,1,0,1:0:0:0:
41,92,295143,1,0,3:0:0:0:
164,81,295459,2,0,L|168:142,1,61.6000018798829,0|0,3:0|3:0,0:0:0:0:
175,204,295775,1,2,3:2:0:0:
245,305,296091,6,0,P|269:285|287:241,1,61.6000018798829,0|0,1:0|3:0,0:0:0:0:
342,239,296407,2,0,P|373:243|417:223,2,61.6000018798829,0|0|0,1:0|3:0|1:0,0:0:0:0:
275,135,297038,2,0,P|331:37|442:79,1,246.400007519531,0|2,1:0|1:2,0:0:0:0:
457,138,297828,1,0,3:0:0:0:
457,138,297986,1,2,1:2:0:0:
502,252,298301,6,0,L|433:260,1,61.6000018798829,4|0,3:2|3:0,0:0:0:0:
393,298,298617,2,0,L|255:282,1,123.200003759766,0|0,1:0|3:0,0:0:0:0:
159,338,299249,2,0,P|145:309|152:273,1,61.6000018798829,0|0,1:0|3:0,0:0:0:0:
99,252,299565,1,2,3:2:0:0:
99,252,299722,2,0,P|70:266|34:259,2,61.6000018798829,0|0|0,3:0|1:0|3:0,0:0:0:0:
211,195,300354,1,2,0:0:0:0:
211,195,300511,2,0,P|240:181|276:188,2,61.6000018798829,0|0|2,1:0|3:0|3:2,0:0:0:0:
93,157,301143,6,0,P|61:125|64:48,1,123.200003759766,0|2,1:0|3:2,0:0:0:0:
125,36,301617,1,0,0:0:0:0:
125,36,301775,1,0,1:0:0:0:
241,90,302091,1,0,3:0:0:0:
241,90,302249,2,0,P|244:119|225:143,2,61.6000018798829,2|0|2,0:0|1:0|0:0,0:0:0:0:
245,28,302722,1,0,3:0:0:0:
368,24,303038,1,0,0:0:0:0:
457,108,303354,6,0,P|442:131|436:173,1,61.6000018798829,0|0,3:0|3:0,0:0:0:0:
381,194,303670,2,0,P|407:242|472:295,1,123.200003759766,4|0,3:2|1:0,0:0:0:0:
469,352,304143,1,0,3:0:0:0:
469,352,304301,1,0,1:0:0:0:
346,336,304617,2,0,L|280:324,1,61.6000018798829,2|0,3:2|3:0,0:0:0:0:
251,272,304933,2,0,L|263:206,2,61.6000018798829,0|0|2,1:0|0:0|3:2,0:0:0:0:
177,371,305565,1,0,1:0:0:0:
55,361,305881,6,0,P|39:338|46:305,1,61.6000018798829,2|0,1:2|1:0,0:0:0:0:
27,247,306196,2,0,P|38:221|70:211,1,61.6000018798829,0|0,1:0|1:0,0:0:0:0:
111,165,306512,2,0,P|138:162|163:185,2,61.6000018798829,2|0|0,1:2|1:0|1:0,0:0:0:0:
69,48,307143,2,0,B|133:15|191:45|186:50|249:94|309:62,1,246.400007519531,2|0,1:2|3:0,0:0:0:0:
369,50,307933,1,2,3:2:0:0:
369,50,308091,1,0,1:0:0:0:
467,103,308407,6,0,P|480:184|481:282,1,168,4|0,1:2|3:0,0:0:0:0:
480,325,309038,1,0,1:0:0:0:
377,361,309354,1,0,3:0:0:0:
377,361,309512,1,2,0:0:0:0:
192,344,309986,6,0,P|187:317|187:284,1,56,0|0,3:0|3:0,0:0:0:0:
151,245,310301,2,0,P|97:253|31:254,1,112,0|0,1:0|3:0,0:0:0:0:
37,203,310775,1,2,0:0:0:0:
37,203,310933,1,0,3:0:0:0:
99,29,311407,5,0,3:0:0:0:
99,29,311565,2,0,P|159:33|178:95,1,112,0|0,1:0|3:0,0:0:0:0:
182,130,312038,1,0,0:0:0:0:
294,132,312354,2,0,L|294:68,2,56,0|0|0,3:0|3:0|3:0,0:0:0:0:
329,175,312828,2,0,B|368:177|380:198|377:203|393:225|442:229,1,112,0|0,1:0|3:0,0:0:0:0:
470,193,313301,5,2,0:0:0:0:
470,193,313459,2,0,P|480:103|419:44,1,168,0|0,1:0|3:0,0:0:0:0:
375,42,314091,2,0,P|315:35|275:75,1,112,0|0,1:0|3:0,0:0:0:0:
247,114,314565,1,2,0:0:0:0:
98,223,315038,2,0,L|34:235,1,56,0|0,3:0|3:0,0:0:0:0:
13,281,315354,2,0,L|97:379,1,112,0|0,1:0|3:0,0:0:0:0:
140,367,315828,2,0,L|161:305,1,56,2|0,0:0|3:0,0:0:0:0:
287,182,316459,5,0,3:0:0:0:
287,182,316617,2,0,B|306:178|339:197|339:204|374:221|410:207,1,112,0|0,1:0|3:0,0:0:0:0:
447,195,317091,1,2,0:0:0:0:
420,303,317407,2,0,L|435:362,2,56,0|0|0,3:0|3:0|3:0,0:0:0:0:
364,311,317880,2,0,L|246:277,1,112,0|0,1:0|3:0,0:0:0:0:
158,335,318512,6,0,B|151:282|119:267|104:269|73:253|58:190,1,168,4|0,3:2|3:0,0:0:0:0:
57,148,319143,1,2,1:2:0:0:
52,36,319459,1,2,3:2:0:0:
164,31,319775,2,0,P|196:37|234:53,1,56,2|0,0:0|0:0,0:0:0:0:
247,92,320091,2,0,P|279:86|317:70,1,56,2|0,3:2|3:0,0:0:0:0:
351,42,320407,2,0,B|396:40|407:55|403:56|414:68|468:58,1,112,2|0,1:2|3:2,0:0:0:0:
482,180,321038,6,0,P|475:280|407:324,1,168,0|0,3:0|3:0,0:0:0:0:
366,310,321670,2,0,P|311:273|308:219,1,112,2|0,1:2|3:0,0:0:0:0:
339,181,322143,1,0,3:0:0:0:
259,95,322459,1,0,3:0:0:0:
259,95,322617,2,0,L|251:36,2,56,2|0|2,3:2|3:0|1:2,0:0:0:0:
147,81,323249,1,0,3:0:0:0:
46,130,323565,6,0,P|34:195|51:300,1,168,2|0,1:2|3:0,0:0:0:0:
63,349,324196,2,0,P|106:356|176:345,1,112,2|0,1:2|3:0,0:0:0:0:
175,290,324670,1,0,3:0:0:0:
356,258,325143,2,0,L|394:303,1,56,0|0,3:0|3:0,0:0:0:0:
429,342,325459,2,0,L|469:231,1,112,2|0,1:2|3:0,0:0:0:0:
403,143,326091,6,0,P|321:141|253:73,1,168,2|0,3:2|3:0,0:0:0:0:
289,38,326722,2,0,P|337:12|399:28,1,112,2|0,1:2|3:0,0:0:0:0:
442,46,327196,1,0,3:0:0:0:
256,192,327354,12,4,328617,1:2:0:0:
