osu file format v14

[General]
AudioFilename: audio.mp3
AudioLeadIn: 0
PreviewTime: 136538
Countdown: 0
SampleSet: Soft
StackLeniency: 0.7
Mode: 0
LetterboxInBreaks: 0
WidescreenStoryboard: 1

[Editor]
Bookmarks: 12828,22933,35565,45670,55775,65880,75985,86091,96196,106301,116406,126512,136617,146722,156828,166933,177038,187143,197248,207354,217459,227564,237670,247775,257880,267985,278091,288196,298301,308407,318512,328617
DistanceSpacing: 5
BeatDivisor: 4
GridSize: 8
TimelineZoom: 1.199999

[Metadata]
Title:FireLight
TitleUnicode:FireLight
Artist:Dustvoxx, Laur
ArtistUnicode:Dustvoxx, Laur
Creator:Hinsvar
Version:Hard
Source:
Tags:Electronic Instrumental hardcore tribecore hardtek pumpcore Supernatural Featured Artist FA Mappers' Guild MG MPG
BeatmapID:4319425
BeatmapSetID:2064173

[Difficulty]
HPDrainRate:4
CircleSize:3.3
OverallDifficulty:6.3
ApproachRate:8
SliderMultiplier:1.36
SliderTickRate:1

[Events]
//Background and Video events
0,0,"BG.jpg",0,0
//Break Periods
2,116606,124183
2,177238,183867
//Storyboard Layer 0 (Background)
//Storyboard Layer 1 (Fail)
//Storyboard Layer 2 (Pass)
//Storyboard Layer 3 (Foreground)
//Storyboard Layer 4 (Overlay)
//Storyboard Sound Samples

[TimingPoints]
2723,315.789473684211,4,2,2,50,1,0
12828,-166.666666666667,4,2,2,50,0,0
22933,-166.666666666667,4,2,2,55,0,0
35565,315.789473684211,4,2,1,60,1,0
35565,-125,4,2,1,60,0,0
45670,-111.111111111111,4,2,1,65,0,0
65880,-100,4,2,1,75,0,0
136617,-90.9090909090909,4,2,1,85,0,1
145459,-90.9090909090909,4,2,1,85,0,0
146722,-90.9090909090909,4,2,1,85,0,1
154301,-90.9090909090909,4,2,1,85,0,0
156828,-90.9090909090909,4,2,1,85,0,1
164407,-90.9090909090909,4,2,1,85,0,0
166933,-90.9090909090909,4,2,1,85,0,1
171986,-90.9090909090909,4,2,1,85,0,0
174512,-90.9090909090909,4,2,1,85,0,1
177038,-100,4,2,1,75,0,0
187143,-125,4,2,3,60,0,0
207354,-100,4,2,1,75,0,0
237670,-111.111111111111,4,2,1,65,0,0
257880,-100,4,2,1,75,0,0
268301,-90.9090909090909,4,2,1,85,0,1
272722,-90.9090909090909,4,2,1,85,0,0
273354,-90.9090909090909,4,2,1,85,0,1
277459,-90.9090909090909,4,2,1,85,0,0
278091,-90.9090909090909,4,2,1,85,0,1
282828,-90.9090909090909,4,2,1,85,0,0
283459,-90.9090909090909,4,2,1,85,0,1
285038,-90.9090909090909,4,2,1,85,0,0
285670,-90.9090909090909,4,2,1,85,0,0
288512,-90.9090909090909,4,2,1,85,0,1
292933,-90.9090909090909,4,2,1,85,0,0
293565,-90.9090909090909,4,2,1,85,0,1
297670,-90.9090909090909,4,2,1,85,0,0
298301,-90.9090909090909,4,2,1,85,0,1
303038,-90.9090909090909,4,2,1,85,0,0
303670,-90.9090909090909,4,2,1,85,0,1
308407,-111.111111111111,4,2,1,65,0,0

[Colours]
Combo1 : 232,176,74
Combo2 : 85,242,223
Combo3 : 233,107,71
Combo4 : 125,217,151

[HitObjects]
486,274,12828,6,0,P|421:352|285:342,1,244.799992529297,4|0,1:2|0:0,0:0:0:0:
60,222,14249,1,2,0:0:0:0:
60,222,15038,5,0,1:0:0:0:
55,140,15196,1,0,1:0:0:0:
50,58,15354,1,4,1:2:0:0:
50,58,16617,6,0,P|82:19|150:24,2,122.399996264649,0|0|0,1:0|1:0|1:0,0:0:0:0:
19,134,17723,1,0,1:0:0:0:
99,125,17880,1,4,1:2:0:0:
99,125,18828,2,0,P|101:142|107:170,1,40.7999987548829,8|0,0:0|0:0,0:0:0:0:
115,247,19144,6,0,B|173:260|232:197|213:195|243:148|332:162,1,244.799992529297,2|0,0:0|1:0,0:0:0:0:
407,128,20249,1,0,1:0:0:0:
474,176,20407,1,4,1:2:0:0:
474,176,21512,6,0,P|491:228|494:302,1,122.399996264649,2|0,0:0|0:0,0:0:0:0:
339,345,22301,2,0,P|333:327|332:303,1,40.7999987548829,0|0,1:0|0:0,0:0:0:0:
256,272,22617,2,0,P|250:254|249:230,1,40.7999987548829,0|0,1:0|0:0,0:0:0:0:
318,188,22933,6,0,B|309:146|323:131|327:135|345:109|332:57,2,122.399996264649,4|2|0,1:2|0:0|1:0,0:0:0:0:
397,170,24038,2,0,P|423:169|452:178,1,40.7999987548829,2|0,0:0|0:0,0:0:0:0:
437,172,24828,2,0,P|438:211|425:254,1,81.5999975097657,2|0,0:0|1:0,0:0:0:0:
352,286,25301,1,0,1:0:0:0:
305,353,25459,6,0,B|261:365|248:345|250:343|237:318|176:329,2,122.399996264649,4|2|0,1:2|0:0|1:0,0:0:0:0:
386,360,26565,2,0,P|415:366|432:380,1,40.7999987548829,2|0,0:0|0:0,0:0:0:0:
423,372,27354,2,0,P|432:325|455:298,1,81.5999975097657,2|0,0:0|1:0,0:0:0:0:
478,221,27828,1,0,1:0:0:0:
480,139,27986,6,0,B|445:114|447:89|454:89|459:61|421:31,2,122.399996264649,4|2|0,1:2|0:0|1:0,0:0:0:0:
410,182,29091,2,0,P|388:187|361:178,1,40.7999987548829,2|0,0:0|0:0,0:0:0:0:
370,183,29880,2,0,P|335:161|312:115,1,81.5999975097657,2|0,0:0|1:0,0:0:0:0:
237,153,30354,1,0,1:0:0:0:
161,122,30512,6,0,B|152:88|180:68|180:74|215:43|203:11,2,122.399996264649,4|2|0,1:2|0:0|1:0,0:0:0:0:
83,146,31617,2,0,P|70:122|48:109,1,40.7999987548829,2|0,0:0|0:0,0:0:0:0:
34,276,32091,2,0,P|56:316|93:338,1,81.5999975097657,2|0,0:0|1:0,0:0:0:0:
256,353,32723,5,0,1:0:0:0:
256,353,32880,1,0,1:0:0:0:
256,353,33038,1,4,1:2:0:0:
256,192,33196,12,0,35249,0:0:0:0:
44,221,35565,6,0,P|118:211|204:185,1,163.2,4|0,0:0|0:0,0:0:0:0:
234,110,36196,2,0,P|232:97|228:83,2,27.2,2|2|2,0:0|0:0|0:0,0:0:0:0:
282,176,36512,1,2,0:0:0:0:
413,272,36828,2,0,B|407:226|431:198|434:200|467:167|457:104,1,163.2,2|2,0:0|0:3,0:0:0:0:
458,119,37380,1,2,0:3:0:0:
458,119,37459,1,2,0:3:0:0:
387,78,37617,2,0,P|377:43|381:12,1,54.4,2|2,0:0|0:0,0:0:0:0:
214,21,38091,6,0,P|182:73|83:72,1,163.2,2|0,0:0|0:0,0:0:0:0:
20,121,38722,2,0,P|7:119|-1:130,2,27.2,2|2|2,0:0|0:0|0:0,0:0:0:0:
90,163,39038,1,2,0:0:0:0:
244,216,39354,2,0,P|254:265|260:327,1,108.8,2|0,0:0|0:0,0:0:0:0:
181,366,39828,1,2,0:3:0:0:
181,366,39907,1,2,0:3:0:0:
181,366,39986,2,0,P|171:317|165:255,1,108.8,2|0,0:3|0:0,0:0:0:0:
96,214,40459,1,2,0:0:0:0:
75,134,40617,6,0,B|115:102|154:122|150:126|193:154|234:123,1,163.2,2|0,1:2|0:0,0:0:0:0:
194,51,41249,2,0,P|181:37|177:23,2,27.2,2|2|2,0:0|0:0|0:0,0:0:0:0:
268,16,41565,1,2,0:0:0:0:
430,21,41880,2,0,P|457:76|395:152,1,163.2,2|2,0:0|0:3,0:0:0:0:
401,150,42433,1,2,0:3:0:0:
401,150,42512,1,2,0:3:0:0:
360,221,42670,2,0,P|339:219|328:189,1,54.4,2|2,0:0|0:0,0:0:0:0:
182,117,43143,6,0,L|123:128,1,54.4,2|2,0:0|0:0,0:0:0:0:
60,172,43459,2,0,L|71:231,1,54.4,2|2,0:0|0:0,0:0:0:0:
115,294,43775,2,0,L|233:272,1,108.8,2|0,0:0|0:0,0:0:0:0:
378,320,44407,2,0,P|390:334|401:353,2,27.2,2|2|2,0:3|0:3|0:3,0:0:0:0:
401,240,44722,2,0,P|379:215|360:183,1,54.4,2|2,0:3|3:0,0:0:0:0:
328,124,45038,6,0,L|286:118,2,36.2666666666667,2|0|0,1:2|1:0|1:0,0:0:0:0:
363,82,45354,6,0,L|347:42,2,36.2666666666667,2|0|0,1:2|1:0|1:0,0:0:0:0:
416,91,45670,6,0,P|474:104|500:216,1,183.599994396973,4|0,3:2|3:0,0:0:0:0:
449,280,46301,2,0,L|389:271,1,61.1999981323243,2|0,1:2|0:0,0:0:0:0:
303,255,46617,1,0,3:0:0:0:
145,323,46933,2,0,L|148:364,2,30.5999990661621,2|2|2,0:0|0:0|0:0,0:0:0:0:
62,296,47249,1,0,3:0:0:0:
23,219,47407,2,0,L|13:83,1,122.399996264649,2|0,3:2|0:0,0:0:0:0:
55,21,47880,1,0,3:0:0:0:
226,17,48196,6,0,B|226:74|250:105|258:101|286:125|282:201,1,183.599994396973,2|0,3:2|3:0,0:0:0:0:
239,262,48828,2,0,P|247:295|279:318,1,61.1999981323243,2|0,1:2|0:0,0:0:0:0:
347,340,49143,1,0,3:0:0:0:
494,251,49459,1,2,0:0:0:0:
507,166,49617,2,0,P|500:136|479:114,2,61.1999981323243,0|0|0,3:0|3:0|3:0,0:0:0:0:
425,192,50091,2,0,P|362:193|303:171,1,122.399996264649,2|0,1:2|3:0,0:0:0:0:
186,50,50722,6,0,P|101:56|34:136,1,183.599994396973,2|0,1:2|3:0,0:0:0:0:
33,211,51354,2,0,L|41:282,1,61.1999981323243,2|0,1:2|0:0,0:0:0:0:
48,357,51670,1,0,3:0:0:0:
187,257,51986,2,0,L|190:226,2,30.5999990661621,2|2|2,0:0|0:0|0:0,0:0:0:0:
241,323,52301,1,0,3:0:0:0:
308,269,52459,2,0,B|317:224|304:205|299:208|288:186|300:131,1,122.399996264649,2|0,3:2|0:0,0:0:0:0:
308,63,52933,1,0,3:0:0:0:
476,29,53249,6,0,B|464:84|486:124|492:119|518:157|488:223,1,183.599994396973,2|0,3:2|3:0,0:0:0:0:
471,289,53880,2,0,L|480:364,2,61.1999981323243,2|0|0,1:2|3:0|3:0,0:0:0:0:
302,254,54512,1,2,3:2:0:0:
305,168,54670,1,0,3:0:0:0:
308,82,54828,2,0,L|247:89,1,61.1999981323243,0|0,3:0|3:0,0:0:0:0:
184,30,55143,2,0,B|144:33|133:55|135:63|115:79|74:80,1,122.399996264649,0|0,1:0|3:0,0:0:0:0:
21,146,55617,1,2,0:0:0:0:
46,227,55775,6,0,B|91:212|128:252|126:255|174:293|217:273,1,183.599994396973,4|0,3:2|3:0,0:0:0:0:
251,195,56407,2,0,L|255:123,1,61.1999981323243,2|0,1:2|0:0,0:0:0:0:
257,48,56722,1,0,3:0:0:0:
427,32,57038,2,0,L|425:-4,2,30.5999990661621,2|2|2,0:0|0:0|0:0,0:0:0:0:
496,83,57354,1,0,3:0:0:0:
417,118,57512,2,0,B|430:159|414:175|409:174|395:190|414:237,1,122.399996264649,2|0,3:2|0:0,0:0:0:0:
432,319,57986,1,0,3:0:0:0:
263,348,58301,6,0,P|177:360|66:320,1,183.599994396973,2|0,3:2|3:0,0:0:0:0:
16,281,58933,2,0,P|12:252|25:215,1,61.1999981323243,2|0,1:2|0:0,0:0:0:0:
104,198,59249,1,0,3:0:0:0:
265,141,59565,1,2,0:0:0:0:
334,90,59722,2,0,P|337:59|328:30,2,61.1999981323243,0|0|0,3:0|3:0|3:0,0:0:0:0:
345,175,60196,2,0,P|410:171|466:153,1,122.399996264649,2|0,1:2|3:0,0:0:0:0:
422,320,60828,6,0,P|324:326|240:353,1,183.599994396973,2|0,1:2|3:0,0:0:0:0:
219,269,61459,2,0,P|233:239|239:211,1,61.1999981323243,2|0,1:2|0:0,0:0:0:0:
255,127,61775,1,0,3:0:0:0:
101,51,62091,2,0,P|104:36|111:22,2,30.5999990661621,2|2|2,0:0|0:0|0:0,0:0:0:0:
16,67,62407,1,0,3:0:0:0:
32,152,62565,2,0,B|75:142|88:167|87:171|92:193|154:186,1,122.399996264649,2|0,3:2|0:0,0:0:0:0:
228,180,63038,1,0,3:0:0:0:
310,29,63354,6,0,L|379:45,1,61.1999981323243,0|2,3:0|0:0,0:0:0:0:
391,126,63670,1,2,0:0:0:0:
372,209,63827,1,0,3:0:0:0:
393,292,63986,2,0,L|453:306,2,61.1999981323243,2|0|0,1:2|0:0|3:0,0:0:0:0:
223,320,64617,5,0,3:0:0:0:
223,320,65249,2,0,B|180:310|165:335|166:341|152:361|109:349,1,122.399996264649,0|2,3:0|0:0,0:0:0:0:
26,334,65722,1,2,0:0:0:0:
82,268,65880,1,4,1:2:0:0:
256,192,66038,12,0,70617,1:0:0:0:
42,42,70933,6,0,P|105:51|160:104,1,136,4|0,1:2|1:0,0:0:0:0:
186,182,71407,1,0,3:0:0:0:
214,265,71565,2,0,P|263:311|330:322,1,136,2|0,1:2|1:0,0:0:0:0:
418,314,72038,1,0,3:0:0:0:
476,245,72196,6,0,L|481:174,1,68,2|0,1:2|3:0,0:0:0:0:
391,183,72512,2,0,L|396:112,1,68,0|0,1:0|3:0,0:0:0:0:
306,121,72828,2,0,L|311:50,1,68,2|0,1:2|3:0,0:0:0:0:
221,59,73143,2,0,L|223:23,2,34,0|0|0,1:0|1:0|1:0,0:0:0:0:
137,90,73459,6,0,P|117:87|93:74,3,34,2|0|0|0,1:2|1:0|1:0|1:0,0:0:0:0:
75,98,73775,2,0,P|72:117|59:141,3,34,0|0|0|0,1:0|1:0|1:0|1:0,0:0:0:0:
83,160,74091,2,0,P|102:162|126:175,3,34,0|0|0|0,1:0|1:0|1:0|1:0,0:0:0:0:
145,152,74407,2,0,P|147:132|160:108,3,34,0|0|0|0,1:0|1:0|1:0|1:0,0:0:0:0:
137,90,74722,1,8,1:2:0:0:
137,90,75986,5,4,3:2:0:0:
256,192,76143,12,0,80091,3:0:0:0:
155,290,80407,5,0,3:0:0:0:
155,290,80565,1,0,3:0:0:0:
155,290,80722,1,0,3:0:0:0:
313,369,81038,6,0,P|325:341|332:303,1,68,2|0,3:2|0:0,0:0:0:0:
321,215,81354,2,0,P|381:207|454:181,1,136,0|0,1:0|3:0,0:0:0:0:
400,110,81828,1,2,0:0:0:0:
409,22,81986,2,0,P|378:25|342:38,1,68,0|0,1:0|0:0,0:0:0:0:
255,47,82301,2,0,L|178:36,2,68,2|0|0,3:2|0:0|1:0,0:0:0:0:
307,118,82775,1,2,0:0:0:0:
271,199,82933,2,0,L|117:177,1,136,0|0,3:0|1:0,0:0:0:0:
7,301,83565,6,0,P|25:331|29:369,1,68,2|0,3:2|0:0,0:0:0:0:
117,361,83880,2,0,P|147:343|185:339,1,68,0|0,1:0|0:0,0:0:0:0:
268,338,84196,2,0,P|301:342|330:360,1,68,2|0,3:2|0:0,0:0:0:0:
418,363,84511,2,0,P|422:329|440:300,1,68,0|0,1:0|0:0,0:0:0:0:
498,233,84828,5,2,3:2:0:0:
498,233,84986,1,2,0:0:0:0:
466,59,85301,1,2,0:0:0:0:
292,91,85617,1,2,0:0:0:0:
292,91,85775,1,2,0:0:0:0:
324,265,86091,6,0,P|323:292|302:338,1,68,4|0,3:2|0:0,0:0:0:0:
219,336,86407,2,0,P|220:284|261:195,1,136,0|0,1:0|3:0,0:0:0:0:
187,146,86880,1,2,0:0:0:0:
134,217,87038,1,0,1:0:0:0:
57,179,87196,5,0,3:0:0:0:
57,179,87275,1,0,3:0:0:0:
57,179,87354,2,0,L|27:116,1,68,2|0,3:2|0:0,0:0:0:0:
22,28,87670,2,0,L|91:33,1,68,0|0,1:0|0:0,0:0:0:0:
161,86,87986,2,0,L|300:74,1,136,2|0,3:2|1:0,0:0:0:0:
373,27,88459,5,0,3:0:0:0:
373,27,88538,1,0,3:0:0:0:
373,27,88617,2,0,P|412:30|439:58,1,68,2|0,3:2|0:0,0:0:0:0:
485,119,88933,2,0,P|479:197|423:251,1,136,0|0,1:0|3:0,0:0:0:0:
380,176,89407,1,2,0:0:0:0:
317,239,89565,1,0,1:0:0:0:
388,310,89722,5,0,3:0:0:0:
388,310,89801,1,0,3:0:0:0:
388,310,89880,2,0,L|315:326,1,68,2|0,3:2|0:0,0:0:0:0:
237,293,90196,2,0,L|164:309,2,68,0|0|2,1:0|0:0|3:2,0:0:0:0:
268,118,90828,1,0,1:0:0:0:
214,47,90986,1,0,3:0:0:0:
125,58,91143,6,0,P|102:74|57:76,1,68,4|0,3:2|0:0,0:0:0:0:
22,156,91459,2,0,P|54:202|58:292,1,136,0|0,1:0|3:0,0:0:0:0:
117,348,91933,1,2,0:0:0:0:
186,293,92091,1,0,1:0:0:0:
278,328,92249,5,0,3:0:0:0:
278,328,92328,1,0,3:0:0:0:
278,328,92407,2,0,L|356:309,1,68,2|0,3:2|0:0,0:0:0:0:
318,227,92722,2,0,L|396:208,1,68,0|0,1:0|0:0,0:0:0:0:
358,126,93038,2,0,P|422:104|448:29,1,136,2|0,3:2|1:0,0:0:0:0:
360,36,93512,1,2,0:0:0:0:
271,28,93670,5,4,3:2:0:0:
263,117,93828,1,0,3:0:0:0:
263,117,93907,1,0,3:0:0:0:
263,117,93986,2,0,L|256:189,1,68,8|0,0:0|0:0,0:0:0:0:
85,229,94459,1,2,0:0:0:0:
93,318,94617,2,0,L|96:354,2,34,2|2|2,0:3|0:3|0:3,0:0:0:0:
93,318,96196,1,0,3:0:0:0:
255,247,96512,5,4,1:2:0:0:
177,203,96670,1,0,3:0:0:0:
191,115,96828,2,0,L|116:123,2,68,2|0|0,3:2|0:0|1:0,0:0:0:0:
226,30,97301,5,0,3:0:0:0:
226,30,97380,1,0,3:0:0:0:
226,30,97459,2,0,L|193:26,2,34,2|0|0,3:2|0:0|0:0,0:0:0:0:
300,78,97775,1,0,1:0:0:0:
371,24,97933,1,0,3:0:0:0:
371,24,98012,1,0,3:0:0:0:
371,24,98091,2,0,B|393:61|385:86|380:89|375:116|411:167,1,136,2|0,3:2|1:0,0:0:0:0:
484,310,98722,6,0,L|489:354,2,34,2|0|0,3:2|3:0|3:0,0:0:0:0:
401,342,99038,1,0,1:0:0:0:
320,304,99196,1,0,3:0:0:0:
320,304,99275,1,0,3:0:0:0:
320,304,99354,2,0,B|270:299|258:327|259:332|244:361|192:350,1,136,2|0,3:2|1:0,0:0:0:0:
122,333,99828,5,0,3:0:0:0:
122,333,99907,1,0,3:0:0:0:
122,333,99986,2,0,B|110:335|107:328|107:326|104:319|91:321,2,34,2|0|0,3:2|3:0|3:0,0:0:0:0:
182,268,100301,2,0,L|179:199,1,68,0|0,1:0|3:0,0:0:0:0:
264,164,100617,2,0,L|297:173,2,34,2|0|0,1:2|1:0|1:0,0:0:0:0:
257,73,100933,1,2,1:2:0:0:
168,51,101091,1,2,1:2:0:0:
119,128,101249,5,2,3:2:0:0:
83,208,101407,2,0,P|54:219|14:222,1,68,0|0,3:0|1:0,0:0:0:0:
5,309,101722,2,0,P|10:323|12:343,2,34,0|0|2,3:0|3:0|3:2,0:0:0:0:
93,304,102038,1,0,3:0:0:0:
189,307,102196,5,0,1:0:0:0:
189,307,102275,1,0,3:0:0:0:
189,307,102354,2,0,P|184:293|182:273,2,34,0|0|2,3:0|3:0|3:2,0:0:0:0:
259,360,102670,1,0,3:0:0:0:
339,325,102828,2,0,B|330:277|346:258|351:258|366:238|353:181,1,136,0|2,1:0|3:2,0:0:0:0:
178,180,103459,5,0,1:0:0:0:
126,107,103617,1,0,3:0:0:0:
163,25,103775,2,0,L|320:33,1,136,2|0,3:2|1:0,0:0:0:0:
394,22,104249,1,0,3:0:0:0:
394,22,104328,1,0,3:0:0:0:
394,22,104407,2,0,L|386:179,1,136,2|0,3:2|1:0,0:0:0:0:
397,253,104880,5,0,3:0:0:0:
397,253,104959,1,0,3:0:0:0:
397,253,105038,2,0,L|240:245,1,136,2|0,1:2|3:0,0:0:0:0:
176,275,105512,1,0,3:0:0:0:
92,303,105670,2,0,P|77:288|71:262,2,34,0|0|0,1:0|1:0|1:0,0:0:0:0:
158,361,105986,2,0,P|191:363|223:353,1,68,2|0,3:2|1:0,0:0:0:0:
311,339,106301,6,0,B|359:333|377:358|372:361|396:385|441:364,1,136,4|0,3:2|1:0,0:0:0:0:
469,287,106775,1,0,3:0:0:0:
469,287,106854,1,0,3:0:0:0:
469,287,106933,2,0,B|466:263|478:254|480:256|492:244|481:222,1,68,2|0,3:2|3:0,0:0:0:0:
475,134,107249,1,0,1:0:0:0:
338,40,107565,5,0,3:0:0:0:
338,40,107643,1,0,3:0:0:0:
338,40,107722,2,0,L|284:80,1,68,0|0,3:0|1:0,0:0:0:0:
202,88,108038,1,0,3:0:0:0:
202,88,108116,1,0,3:0:0:0:
202,88,108195,2,0,L|65:28,1,136,2|0,3:2|1:0,0:0:0:0:
24,203,108828,6,0,P|22:222|10:249,2,34,2|0|0,3:2|3:0|3:0,0:0:0:0:
102,162,109143,1,0,1:0:0:0:
173,231,109301,1,0,3:0:0:0:
173,231,109380,1,0,3:0:0:0:
173,231,109459,2,0,P|179:288|215:369,1,136,2|0,3:2|1:0,0:0:0:0:
297,347,109933,1,0,3:0:0:0:
359,285,110091,5,2,3:2:0:0:
359,285,110170,1,0,3:0:0:0:
359,285,110249,2,0,P|356:256|338:216,2,68,0|0|0,3:0|1:0|0:0,0:0:0:0:
411,356,110722,1,2,3:2:0:0:
464,285,110880,2,0,P|467:256|485:216,1,68,0|0,3:0|1:0,0:0:0:0:
433,146,111196,2,0,L|384:147,2,34,0|0|2,3:0|3:0|3:2,0:0:0:0:
448,58,111512,6,0,L|350:60,1,68,0|0,3:0|1:0,0:0:0:0:
298,68,111828,1,0,3:0:0:0:
298,68,111907,1,0,3:0:0:0:
298,68,111986,2,0,L|300:166,2,68,2|0|0,3:2|0:0|1:0,0:0:0:0:
214,30,112459,5,0,3:0:0:0:
214,30,112538,1,0,3:0:0:0:
214,30,112617,2,0,P|196:59|157:74,1,68,2|0,3:2|0:0,0:0:0:0:
122,150,112933,2,0,P|53:149|-10:96,1,136,0|0,1:0|3:0,0:0:0:0:
4,288,113565,1,0,1:0:0:0:
91,289,113722,1,0,3:0:0:0:
162,338,113880,5,4,3:2:0:0:
334,375,114196,1,8,0:0:0:0:
481,53,114828,1,8,0:0:0:0:
309,17,115143,6,0,P|327:74|323:159,1,136,2|0,3:2|3:0,0:0:0:0:
241,120,115617,1,2,3:2:0:0:
175,176,115775,1,0,1:0:0:0:
175,176,115854,1,0,1:0:0:0:
175,176,115933,1,0,1:0:0:0:
127,93,116091,2,0,P|93:91|60:101,2,68,0|0|0,3:0|1:0|3:0,0:0:0:0:
416,366,124933,5,0,1:0:0:0:
495,207,125249,5,2,1:2:0:0:
414,143,125407,1,0,3:0:0:0:
414,143,125486,1,0,3:0:0:0:
414,143,125565,2,0,L|365:131,3,34,2|0|0|0,3:2|3:0|3:0|3:0,0:0:0:0:
357,159,125880,2,0,L|308:171,2,34,2|0|0,1:2|3:0|3:0,0:0:0:0:
310,82,126196,2,0,L|261:94,3,34,2|0|0|0,1:2|3:0|3:0|3:0,0:0:0:0:
243,96,126512,6,0,P|214:76|187:42,2,68,4|0|2,3:2|1:0|1:2,0:0:0:0:
244,192,126986,1,0,1:0:0:0:
244,192,127065,1,0,1:0:0:0:
244,192,127143,2,0,P|239:243|217:304,2,102,2|2|0,1:2|0:0|1:0,0:0:0:0:
158,218,127775,5,2,1:2:0:0:
76,252,127933,2,0,L|42:257,2,34,0|0|2,1:0|1:0|1:2,0:0:0:0:
89,164,128249,1,0,1:0:0:0:
89,164,128328,1,0,1:0:0:0:
89,164,128407,2,0,P|60:136|57:88,1,68,2|0,1:2|1:0,0:0:0:0:
114,45,128722,2,0,P|108:28|96:18,2,34,2|0|0,1:2|1:0|1:0,0:0:0:0:
277,112,129196,6,0,L|349:126,1,68,0|2,1:0|1:2,0:0:0:0:
343,221,129512,1,0,1:0:0:0:
343,221,129591,1,0,1:0:0:0:
343,221,129670,2,0,L|242:201,2,102,2|2|0,1:2|0:0|1:0,0:0:0:0:
351,309,130301,5,2,1:2:0:0:
439,301,130459,2,0,L|444:349,2,34,0|0|2,1:0|1:0|1:2,0:0:0:0:
431,213,130775,1,0,1:0:0:0:
431,213,130854,1,0,1:0:0:0:
431,213,130933,1,2,3:2:0:0:
124,36,131565,6,0,P|107:36|81:48,3,34,0|0|0|0,1:0|1:0|1:0|1:0,0:0:0:0:
59,54,131880,2,0,P|50:68|47:97,3,34,0|0|0|0,1:0|1:0|1:0|1:0,0:0:0:0:
42,119,132196,2,0,P|50:133|73:150,3,34,0|0|0|0,1:0|1:0|1:0|1:0,0:0:0:0:
90,166,132512,2,0,P|106:166|132:154,3,34,0|0|0|0,1:0|1:0|1:0|1:0,0:0:0:0:
154,148,132828,2,0,P|162:133|165:104,3,34,0|0|0|0,1:0|1:0|1:0|1:0,0:0:0:0:
170,82,133143,2,0,P|161:67|138:50,3,34,0|0|0|0,1:0|1:0|1:0|1:0,0:0:0:0:
123,36,133459,1,2,3:2:0:0:
443,186,134091,6,0,L|490:196,2,34,2|2|2,0:3|0:3|0:3,0:0:0:0:
385,255,134407,1,0,1:0:0:0:
295,262,134565,6,0,L|285:309,2,34,2|2|2,0:3|0:3|0:3,0:0:0:0:
226,204,134881,1,0,1:0:0:0:
219,114,135038,6,0,L|172:104,2,34,2|2|2,0:3|0:3|0:3,0:0:0:0:
277,45,135354,1,0,1:0:0:0:
367,38,135512,6,0,L|377:-9,2,34,2|2|2,0:3|0:3|0:3,0:0:0:0:
436,96,135828,1,0,1:0:0:0:
352,123,135986,6,0,L|301:138,2,45.3333333333333,2|2|2,0:3|0:3|0:3,0:0:0:0:
387,169,136301,6,0,L|356:212,2,45.3333333333333,2|2|2,0:3|0:3|0:3,0:0:0:0:
442,183,136617,5,4,3:2:0:0:
503,258,136775,1,0,3:0:0:0:
468,348,136933,2,0,L|384:335,1,74.8000022827149,0|0,1:0|0:0,0:0:0:0:
302,301,137249,2,0,L|218:314,1,74.8000022827149,2|0,3:2|0:0,0:0:0:0:
137,348,137565,1,0,1:0:0:0:
35,195,137880,5,2,3:2:0:0:
35,195,137959,1,0,3:0:0:0:
35,195,138038,1,0,3:0:0:0:
28,97,138196,1,0,1:0:0:0:
126,90,138354,2,0,P|164:92|198:110,1,74.8000022827149,2|0,0:0|3:0,0:0:0:0:
294,78,138670,1,0,3:0:0:0:
294,78,138749,1,0,3:0:0:0:
294,78,138828,2,0,P|315:45|347:25,1,74.8000022827149,0|0,1:0|0:0,0:0:0:0:
441,36,139143,6,0,B|434:84|461:108|464:103|493:123|473:185,1,149.60000456543,2|0,3:2|1:0,0:0:0:0:
401,238,139617,1,2,0:0:0:0:
315,191,139775,2,0,P|311:168|317:144,3,37.4000011413575,0|0|0|0,3:0|3:0|3:0|3:0,0:0:0:0:
288,125,140091,2,0,P|242:133|194:121,1,74.8000022827149,0|0,1:0|0:0,0:0:0:0:
158,48,140407,6,0,P|82:46|38:103,1,149.60000456543,2|0,3:2|1:0,0:0:0:0:
80,198,140880,1,0,3:0:0:0:
80,198,140959,1,0,3:0:0:0:
80,198,141038,2,0,P|78:274|135:318,1,149.60000456543,2|0,3:2|1:0,0:0:0:0:
222,284,141512,1,0,3:0:0:0:
213,187,141670,6,0,B|205:131|224:108|228:110|248:83|237:29,1,149.60000456543,0|2,3:0|1:2,0:0:0:0:
328,82,142143,2,0,L|330:126,2,37.4000011413575,0|0|0,3:0|3:0|3:0,0:0:0:0:
414,35,142459,1,2,0:0:0:0:
414,35,142538,1,0,0:0:0:0:
414,35,142617,2,0,P|442:57|490:56,1,74.8000022827149,0|0,1:0|0:0,0:0:0:0:
481,157,142933,6,0,P|470:171|470:195,3,37.4000011413575,2|0|0|0,3:2|3:0|3:0|3:0,0:0:0:0:
472,227,143249,1,0,1:0:0:0:
384,270,143407,2,0,P|374:200|357:123,1,149.60000456543,2|0,0:0|0:0,0:0:0:0:
257,156,143880,2,0,P|264:208|277:266,1,112.200003424072,0|0,1:0|0:0,0:0:0:0:
285,283,144196,6,0,L|283:369,2,74.8000022827149,0|2|0,3:0|0:0|1:0,0:0:0:0:
191,315,144670,1,2,0:0:0:0:
104,358,144828,6,0,L|102:283,1,74.8000022827149,0|0,3:0|0:0,0:0:0:0:
93,186,145143,2,0,L|27:150,1,74.8000022827149,0|0,1:0|0:0,0:0:0:0:
42,53,145459,6,0,P|119:53|153:121,1,149.60000456543,2|0,3:2|3:0,0:0:0:0:
239,155,145933,1,0,3:0:0:0:
327,107,146091,1,2,1:2:0:0:
327,107,146170,1,0,1:0:0:0:
327,107,146249,2,0,P|339:65|366:42,2,74.8000022827149,0|0|0,1:0|3:0|1:0,0:0:0:0:
320,204,146722,6,0,B|373:198|394:220|390:230|409:255|473:251,1,149.60000456543,4|0,3:2|1:0,0:0:0:0:
511,345,147196,1,0,3:0:0:0:
511,345,147275,1,0,3:0:0:0:
511,345,147354,2,0,P|476:345|434:357,1,74.8000022827149,2|0,3:2|0:0,0:0:0:0:
347,317,147670,1,0,1:0:0:0:
160,341,147986,5,2,3:2:0:0:
160,341,148065,1,0,3:0:0:0:
160,341,148143,2,0,L|164:384,2,37.4000011413575,0|0|0,3:0|3:0|1:0,0:0:0:0:
222,265,148459,2,0,B|229:219|202:198|196:201|162:179|163:131,1,149.60000456543,2|0,0:0|0:0,0:0:0:0:
135,40,148933,1,0,1:0:0:0:
38,37,149091,1,0,3:0:0:0:
5,128,149249,6,0,L|0:177,2,37.4000011413575,2|0|0,3:2|3:0|3:0,0:0:0:0:
84,185,149565,2,0,L|74:283,1,74.8000022827149,0|0,1:0|0:0,0:0:0:0:
136,335,149880,2,0,L|185:340,2,37.4000011413575,2|0|0,3:2|3:0|3:0,0:0:0:0:
175,245,150196,1,0,1:0:0:0:
358,309,150512,6,0,P|415:292|441:207,1,149.60000456543,2|0,3:2|1:0,0:0:0:0:
346,193,150986,1,0,3:0:0:0:
251,174,151143,2,0,L|239:96,1,74.8000022827149,2|0,3:2|3:0,0:0:0:0:
299,22,151459,2,0,L|377:10,1,74.8000022827149,0|0,1:0|3:0,0:0:0:0:
451,70,151775,6,0,B|480:120|463:146|458:142|440:165|471:220,1,149.60000456543,4|2,3:2|1:2,0:0:0:0:
431,304,152249,2,0,L|487:314,2,37.4000011413575,0|0|0,3:0|3:0|3:0,0:0:0:0:
366,230,152565,2,0,L|277:246,2,74.8000022827149,2|0|0,0:0|1:0|0:0,0:0:0:0:
359,132,153038,5,2,3:2:0:0:
262,143,153196,2,0,P|246:107|241:61,1,74.8000022827149,0|8,3:0|0:0,0:0:0:0:
149,36,153512,1,0,3:0:0:0:
14,176,153828,1,2,3:2:0:0:
105,212,153986,1,8,3:2:0:0:
248,342,154301,6,0,L|264:301,3,37.4000011413575,4|0|0|0,3:2|3:0|3:0|3:0,0:0:0:0:
256,269,154617,2,0,L|240:228,3,37.4000011413575,0|0|0|0,1:0|3:0|3:0|3:0,0:0:0:0:
248,196,154933,2,0,L|264:155,3,37.4000011413575,0|0|0|0,3:0|3:0|3:0|3:0,0:0:0:0:
256,123,155249,2,0,L|240:82,3,37.4000011413575,0|0|0|0,1:0|3:0|3:0|3:0,0:0:0:0:
248,50,155565,6,0,L|264:9,3,37.4000011413575,2|0|0|0,1:2|1:0|3:0|0:0,0:0:0:0:
296,28,155880,2,0,L|378:60,1,74.8000022827149,0|0,1:0|3:0,0:0:0:0:
392,149,156196,1,0,1:0:0:0:
483,184,156353,1,0,3:0:0:0:
408,247,156512,2,0,L|338:274,1,74.8000022827149,2|0,1:2|0:0,0:0:0:0:
275,349,156828,5,4,3:2:0:0:
181,376,156986,2,0,P|174:336|177:294,1,74.8000022827149,0|0,3:0|1:0,0:0:0:0:
87,322,157301,1,0,3:0:0:0:
87,322,157380,1,0,3:0:0:0:
87,322,157459,2,0,P|73:242|79:158,1,149.60000456543,2|0,3:2|1:0,0:0:0:0:
73,76,157933,1,2,0:0:0:0:
155,24,158091,5,0,3:0:0:0:
246,57,158249,2,0,P|282:64|321:48,1,74.8000022827149,0|0,3:0|1:0,0:0:0:0:
395,109,158565,2,0,P|346:164|335:247,1,149.60000456543,2|0,0:0|0:0,0:0:0:0:
238,217,159038,2,0,P|220:164|170:126,1,112.200003424072,0|0,1:0|0:0,0:0:0:0:
158,130,159354,6,0,L|81:143,1,74.8000022827149,0|2,3:0|0:0,0:0:0:0:
13,209,159670,1,0,1:0:0:0:
51,309,159828,1,0,3:0:0:0:
51,309,159907,1,0,3:0:0:0:
51,309,159986,2,0,B|95:305|120:339|115:342|138:368|195:354,1,149.60000456543,2|0,3:2|1:0,0:0:0:0:
381,353,160617,6,0,L|391:273,1,74.8000022827149,2|0,3:2|3:0,0:0:0:0:
423,186,160933,1,0,1:0:0:0:
423,186,161012,1,0,1:0:0:0:
423,186,161091,1,0,1:0:0:0:
327,202,161249,2,0,L|247:192,2,74.8000022827149,2|0|8,3:2|0:0|0:0,0:0:0:0:
454,55,161880,5,0,3:0:0:0:
375,106,162038,1,0,3:0:0:0:
375,106,162117,1,0,3:0:0:0:
375,106,162196,2,0,L|362:22,1,74.8000022827149,0|0,1:0|0:0,0:0:0:0:
266,42,162512,2,0,L|279:126,1,74.8000022827149,2|0,3:2|0:0,0:0:0:0:
334,195,162828,1,0,1:0:0:0:
218,350,163143,5,2,3:2:0:0:
122,367,163301,1,0,3:0:0:0:
122,367,163380,1,0,3:0:0:0:
122,367,163459,1,0,1:0:0:0:
55,288,163617,2,0,B|72:246|48:217|41:222|21:188|39:141,1,149.60000456543,2|0,0:0|0:0,0:0:0:0:
73,54,164091,2,0,B|95:50|101:33|98:31|107:14|132:10,1,74.8000022827149,0|0,1:0|0:0,0:0:0:0:
223,40,164407,5,4,3:2:0:0:
416,30,164722,1,8,0:0:0:0:
416,30,165354,1,8,0:0:0:0:
223,40,165670,6,0,P|183:109|225:173,1,149.60000456543,0|0,3:0|3:0,0:0:0:0:
308,152,166143,1,0,3:0:0:0:
395,194,166301,2,0,P|409:226|389:256,1,74.8000022827149,0|0,1:0|0:0,0:0:0:0:
408,352,166617,2,0,P|375:366|345:346,1,74.8000022827149,0|0,3:0|0:0,0:0:0:0:
249,368,166933,5,4,3:2:0:0:
240,271,167091,1,0,3:0:0:0:
231,174,167249,2,0,B|237:128|216:101|210:104|190:76|208:16,1,149.60000456543,0|0,1:0|3:0,0:0:0:0:
107,19,167722,1,2,0:0:0:0:
49,98,167880,1,0,1:0:0:0:
29,291,168196,5,2,3:2:0:0:
88,368,168354,2,0,L|173:357,1,74.8000022827149,2|0,0:0|1:0,0:0:0:0:
210,273,168670,1,0,3:0:0:0:
210,273,168749,1,0,3:0:0:0:
210,273,168828,1,0,3:0:0:0:
151,196,168986,2,0,L|66:207,2,74.8000022827149,2|0|0,0:0|1:0|0:0,0:0:0:0:
109,108,169459,6,0,P|93:74|107:31,1,74.8000022827149,0|2,3:0|0:0,0:0:0:0:
198,34,169775,2,0,P|232:18|275:32,1,74.8000022827149,0|2,1:0|0:0,0:0:0:0:
272,123,170091,1,0,3:0:0:0:
272,123,170170,1,0,3:0:0:0:
272,123,170249,2,0,P|288:157|274:200,2,74.8000022827149,2|0|2,3:2|1:0|0:0,0:0:0:0:
359,79,170722,6,0,L|434:88,1,74.8000022827149,2|0,3:2|0:0,0:0:0:0:
478,174,171038,2,0,L|403:183,1,74.8000022827149,0|0,1:0|0:0,0:0:0:0:
451,268,171354,2,0,B|402:276|394:308|395:313|384:343|322:353,1,149.60000456543,2|0,3:2|1:0,0:0:0:0:
236,369,171828,1,0,3:0:0:0:
217,273,171986,5,4,3:2:0:0:
29,224,172301,1,8,0:0:0:0:
29,224,172933,1,8,0:0:0:0:
29,224,173565,1,8,0:0:0:0:
29,224,174196,1,8,0:0:0:0:
165,85,174512,6,0,L|162:37,3,37.4000011413575,0|0|0|0,1:0|1:0|1:0|1:0,0:0:0:0:
192,24,174828,2,0,L|240:21,3,37.4000011413575,0|0|0|0,1:0|1:0|1:0|1:0,0:0:0:0:
253,51,175143,2,0,L|256:99,3,37.4000011413575,0|0|0|0,1:0|1:0|1:0|1:0,0:0:0:0:
226,112,175459,2,0,L|178:115,3,37.4000011413575,0|0|0|0,1:0|1:0|1:0|1:0,0:0:0:0:
165,85,175775,6,0,P|134:71|88:72,1,74.8000022827149,0|0,1:0|0:0,0:0:0:0:
70,165,176091,2,0,P|47:190|33:234,1,74.8000022827149,0|0,1:0|0:0,0:0:0:0:
116,280,176407,2,0,P|132:309|170:335,1,74.8000022827149,0|0,1:0|0:0,0:0:0:0:
240,272,176722,2,0,P|273:265|309:237,1,74.8000022827149,0|0,1:0|0:0,0:0:0:0:
269,151,177038,1,4,3:2:0:0:
256,192,184617,12,0,186512,1:0:0:0:
391,353,186828,5,0,3:0:0:0:
475,326,186986,1,2,0:0:0:0:
410,267,187143,6,0,P|438:214|422:101,1,163.2,4|2,3:2|0:3,0:0:0:0:
341,118,187775,2,0,P|322:153|333:228,1,108.8,8|0,0:0|0:0,0:0:0:0:
331,307,188249,1,0,3:0:0:0:
254,266,188407,1,2,0:0:0:0:
70,288,188722,6,0,L|35:306,2,27.2,0|0|2,3:0|3:0|0:3,0:0:0:0:
77,195,189038,2,0,B|90:152|75:141|72:142|60:130|68:79,1,108.8,8|0,0:0|0:0,0:0:0:0:
140,33,189512,1,2,0:0:0:0:
205,90,189670,2,0,B|211:130|199:142|196:141|181:152|194:195,1,108.8,0|0,3:0|0:0,0:0:0:0:
317,318,190301,6,0,P|363:347|429:339,1,108.8,10|0,0:0|0:0,0:0:0:0:
460,269,190775,1,0,3:0:0:0:
492,187,190933,2,0,L|486:148,2,27.2,0|0|2,3:0|3:0|0:3,0:0:0:0:
405,200,191249,2,0,L|399:161,2,27.2,2|2|2,0:0|0:0|0:3,0:0:0:0:
322,228,191565,1,8,0:0:0:0:
245,188,191722,1,0,3:0:0:0:
286,111,191880,2,0,P|263:96|230:100,1,54.4,0|2,1:0|0:0,0:0:0:0:
172,38,192196,6,0,B|110:51|106:116|113:111|92:177|12:175,1,217.6,2|8,3:2|0:0,0:0:0:0:
126,313,193143,2,0,L|122:384,1,54.4,2|0,0:0|3:0,0:0:0:0:
210,375,193459,2,0,B|241:368|243:336|239:338|250:305|290:306,1,108.8,2|0,0:0|3:0,0:0:0:0:
285,306,193854,1,0,3:0:0:0:
285,306,193933,1,2,0:3:0:0:
369,368,194091,1,8,0:0:0:0:
454,350,194249,5,0,3:0:0:0:
488,270,194407,2,0,P|469:255|436:243,1,54.4,2|0,1:2|0:0,0:0:0:0:
393,171,194722,2,0,P|437:153|491:107,1,108.8,2|0,0:0|0:0,0:0:0:0:
484,115,196933,2,0,L|474:53,1,54.4,2|0,0:0|0:0,0:0:0:0:
389,79,197249,6,0,P|324:78|243:11,1,163.2,4|2,3:2|0:3,0:0:0:0:
162,36,197880,2,0,P|161:84|110:145,1,108.8,8|0,0:0|0:0,0:0:0:0:
41,119,198354,1,0,3:0:0:0:
72,201,198512,1,2,0:0:0:0:
246,202,198828,6,0,L|274:198,2,27.2,0|0|2,3:0|3:0|0:3,0:0:0:0:
190,268,199143,2,0,P|198:332|234:342,1,108.8,8|0,0:0|0:0,0:0:0:0:
319,324,199617,1,2,0:0:0:0:
404,306,199775,2,0,P|450:328|447:380,1,108.8,0|0,3:0|0:0,0:0:0:0:
503,214,200407,6,0,P|504:160|512:99,1,108.8,10|0,0:0|0:0,0:0:0:0:
444,49,200880,1,0,3:0:0:0:
372,98,201038,2,0,P|371:111|369:126,2,27.2,0|0|2,3:0|3:0|0:3,0:0:0:0:
285,112,201354,2,0,P|285:98|287:83,2,27.2,2|2|2,0:0|0:0|0:3,0:0:0:0:
211,159,201670,1,8,0:0:0:0:
177,240,201828,1,0,3:0:0:0:
96,272,201986,2,0,P|63:274|36:248,1,54.4,0|2,1:0|0:0,0:0:0:0:
15,181,202301,6,0,P|36:65|128:34,1,217.6,0|8,3:0|0:0,0:0:0:0:
294,32,203249,2,0,P|323:37|330:60,1,54.4,2|0,0:0|3:0,0:0:0:0:
339,145,203565,2,0,L|461:130,1,108.8,2|0,0:0|3:0,0:0:0:0:
447,132,203959,1,0,3:0:0:0:
447,132,204038,1,2,0:3:0:0:
415,303,204354,5,0,3:0:0:0:
335,338,204512,2,0,P|326:309|332:278,1,54.4,2|0,1:2|0:0,0:0:0:0:
271,219,204828,2,0,P|230:262|170:283,1,108.8,2|0,0:0|0:0,0:0:0:0:
185,280,207354,5,4,3:2:0:0:
256,192,207512,12,0,211459,1:0:0:0:
63,367,211775,5,0,1:0:0:0:
68,280,211933,1,0,1:0:0:0:
68,280,212012,1,0,1:0:0:0:
68,280,212091,2,0,L|49:213,1,68,0|0,1:0|0:0,0:0:0:0:
29,127,212407,6,0,P|39:115|47:88,3,34,0|0|0|0,1:0|1:0|1:0|1:0,0:0:0:0:
69,74,212722,2,0,P|83:68|104:49,3,34,0|0|0|0,1:0|1:0|1:0|1:0,0:0:0:0:
130,49,213038,2,0,P|145:51|172:45,3,34,0|0|0|0,1:0|1:0|1:0|1:0,0:0:0:0:
195,56,213354,2,0,P|207:66|233:74,3,34,0|0|0|0,1:0|1:0|1:0|1:0,0:0:0:0:
248,96,213670,2,0,P|253:110|272:131,3,34,0|0|0|0,1:0|1:0|1:0|1:0,0:0:0:0:
274,155,213986,2,0,P|271:170|277:197,3,34,0|0|0|0,1:0|1:0|1:0|1:0,0:0:0:0:
266,221,214301,2,0,L|263:293,1,68,0|0,3:0|0:0,0:0:0:0:
351,296,214617,2,0,L|354:224,1,68,2|0,3:2|0:0,0:0:0:0:
359,139,214933,6,0,P|360:115|370:95,3,34,0|0|0|0,1:0|1:0|1:0|1:0,0:0:0:0:
382,77,215249,2,0,P|405:70|427:73,3,34,0|0|0|0,1:0|1:0|1:0|1:0,0:0:0:0:
448,79,215565,2,0,P|461:99|464:121,3,34,0|0|0|0,1:0|1:0|1:0|1:0,0:0:0:0:
465,142,215880,2,0,P|450:160|430:171,3,34,0|0|0|0,1:0|1:0|1:0|1:0,0:0:0:0:
411,179,216196,1,0,1:0:0:0:
411,179,217459,1,2,3:2:0:0:
350,345,217775,6,0,B|302:357|286:329|289:325|268:301|215:309,1,136,4|0,1:2|3:0,0:0:0:0:
151,356,218249,1,2,0:0:0:0:
63,367,218407,2,0,P|43:341|38:300,1,68,0|0,1:0|0:0,0:0:0:0:
96,241,218722,2,0,L|169:232,1,68,2|0,3:2|0:0,0:0:0:0:
154,144,219038,2,0,L|80:152,1,68,0|0,1:0|0:0,0:0:0:0:
22,88,219354,1,2,3:2:0:0:
187,25,219670,5,0,3:0:0:0:
187,25,219828,1,0,3:0:0:0:
282,21,219986,6,0,B|330:17|350:35|349:35|369:60|425:45,1,136,2|0,3:2|1:0,0:0:0:0:
489,90,220459,1,2,0:0:0:0:
415,138,220617,2,0,L|341:151,1,68,0|0,3:0|0:0,0:0:0:0:
269,192,220933,2,0,L|282:266,1,68,0|0,1:0|0:0,0:0:0:0:
323,338,221249,5,2,3:2:0:0:
382,263,221407,2,0,L|394:222,2,34,2|0|0,0:0|0:0|1:0,0:0:0:0:
457,322,221722,1,2,0:0:0:0:
488,234,221880,5,0,3:0:0:0:
488,234,222038,1,0,3:0:0:0:
476,139,222196,2,0,L|466:69,2,68,2|0|2,3:2|3:0|3:2,0:0:0:0:
318,57,222828,6,0,P|258:19|187:26,1,136,4|0,1:2|3:0,0:0:0:0:
112,53,223301,1,2,0:0:0:0:
29,20,223459,2,0,L|20:100,1,68,0|0,1:0|0:0,0:0:0:0:
43,173,223775,2,0,P|75:173|121:201,1,68,2|0,3:2|0:0,0:0:0:0:
172,126,224091,2,0,P|202:140|236:140,1,68,0|0,1:0|0:0,0:0:0:0:
257,226,224407,1,2,3:2:0:0:
437,299,224722,5,0,3:0:0:0:
437,299,224880,1,0,3:0:0:0:
451,204,225038,6,0,P|418:202|378:217,2,68,2|0|0,3:2|3:0|1:0,0:0:0:0:
487,115,225512,1,0,0:0:0:0:
487,115,225591,1,2,0:0:0:0:
487,115,225670,2,0,B|438:116|423:96|423:90|404:70|347:65,1,136,2|0,3:2|1:0,0:0:0:0:
320,147,226143,1,0,3:0:0:0:
320,147,226222,1,0,3:0:0:0:
320,147,226301,1,4,3:2:0:0:
320,147,226933,6,0,B|271:146|256:166|256:172|237:192|180:197,1,136,0|0,3:0|3:0,0:0:0:0:
184,106,227407,2,0,P|190:89|190:70,2,34,2|0|0,0:0|0:0|3:0,0:0:0:0:
26,26,227880,6,0,P|14:60|14:98,1,68,4|0,1:2|0:0,0:0:0:0:
40,176,228196,2,0,P|74:188|112:188,1,68,2|0,3:2|0:0,0:0:0:0:
195,195,228512,1,0,1:0:0:0:
184,106,228670,2,0,L|178:60,2,34,0|0|0,3:0|3:0|3:0,0:0:0:0:
273,95,228986,2,0,L|319:89,2,34,2|0|0,0:0|0:0|1:0,0:0:0:0:
284,184,229301,1,2,0:0:0:0:
256,267,229459,2,0,P|247:299|250:334,1,68,0|0,3:0|0:0,0:0:0:0:
339,362,229775,5,0,3:0:0:0:
339,362,229933,1,0,3:0:0:0:
379,283,230091,6,0,P|388:251|385:216,2,68,2|0|0,3:2|0:0|1:0,0:0:0:0:
446,340,230565,2,0,P|462:338|479:343,2,34,0|0|0,3:0|3:0|3:0,0:0:0:0:
475,256,230880,2,0,P|488:246|505:242,2,34,2|0|0,0:0|0:0|1:0,0:0:0:0:
458,168,231196,5,0,3:0:0:0:
458,168,231275,1,0,3:0:0:0:
458,168,231354,2,0,L|466:96,2,68,2|2|0,3:2|0:0|1:0,0:0:0:0:
373,195,231828,1,2,0:0:0:0:
293,156,231986,2,0,L|257:152,3,34,0|0|0|0,3:0|3:0|3:0|3:0,0:0:0:0:
225,149,232301,6,0,P|193:162|152:162,1,68,0|0,3:0|3:0,0:0:0:0:
80,203,232617,2,0,P|60:155|60:93,1,102,2|0,3:2|0:0,0:0:0:0:
57,95,232933,6,0,B|103:90|117:62|113:56|125:24|185:28,1,136,4|0,1:2|3:0,0:0:0:0:
253,55,233407,2,0,L|261:133,1,68,2|0,0:0|1:0,0:0:0:0:
259,211,233722,2,0,L|255:250,2,34,0|0|0,3:0|3:0|3:0,0:0:0:0:
339,173,234038,6,0,P|373:171|411:192,1,68,2|0,0:0|1:0,0:0:0:0:
401,273,234354,1,2,0:0:0:0:
475,321,234512,2,0,P|490:290|488:257,1,68,0|0,3:0|0:0,0:0:0:0:
490,168,234828,5,0,3:0:0:0:
490,168,234986,1,0,3:0:0:0:
495,80,235143,6,0,L|453:14,1,68,0|2,3:0|3:2,0:0:0:0:
370,32,235459,2,0,L|328:98,1,68,0|2,1:0|3:2,0:0:0:0:
244,80,235775,1,0,1:0:0:0:
156,67,235933,1,2,3:2:0:0:
68,54,236091,2,0,P|28:59|0:82,1,68,0|2,1:0|3:2,0:0:0:0:
16,181,236407,6,0,P|18:201|30:215,3,34,0|0|0|0,1:0|1:0|1:0|1:0,0:0:0:0:
53,232,236722,2,0,P|71:239|89:236,3,34,0|0|0|0,1:0|1:0|1:0|1:0,0:0:0:0:
115,225,237038,1,0,1:0:0:0:
203,217,237196,2,0,P|197:182|176:157,2,68,0|0|0,1:0|1:0|1:0,0:0:0:0:
170,296,237670,6,0,B|225:293|252:329|250:340|281:380|346:350,1,183.599994396973,4|0,3:2|3:0,0:0:0:0:
392,292,238301,2,0,B|426:308|447:282|446:274|464:250|500:252,1,122.399996264649,0|0,1:0|3:0,0:0:0:0:
476,90,238933,5,2,0:0:0:0:
476,90,239012,1,2,0:0:0:0:
476,90,239091,2,0,L|397:118,1,61.1999981323243,2|0,0:0|3:0,0:0:0:0:
333,92,239407,2,0,L|308:223,1,122.399996264649,0|2,3:0|0:0,0:0:0:0:
300,297,239880,1,0,3:0:0:0:
144,369,240196,6,0,P|63:349|41:255,1,183.599994396973,2|0,3:2|3:0,0:0:0:0:
57,176,240828,2,0,P|70:122|132:107,1,122.399996264649,0|0,1:0|3:0,0:0:0:0:
277,20,241459,5,2,0:0:0:0:
277,20,241538,1,2,0:0:0:0:
277,20,241617,2,0,P|278:48|293:88,1,61.1999981323243,2|0,0:0|3:0,0:0:0:0:
309,162,241933,1,0,3:0:0:0:
378,212,242091,2,0,P|434:210|514:180,1,122.399996264649,0|0,1:0|3:0,0:0:0:0:
495,361,242722,6,0,B|448:367|437:347|438:343|424:325|377:331,1,122.399996264649,2|2,3:2|0:0,0:0:0:0:
298,354,243196,2,0,P|296:322|286:290,1,61.1999981323243,0|0,3:0|1:0,0:0:0:0:
206,322,243512,1,2,0:0:0:0:
125,350,243670,2,0,P|123:318|113:286,1,61.1999981323243,0|0,3:0|0:0,0:0:0:0:
87,206,243986,5,2,0:0:0:0:
87,206,244065,1,2,0:0:0:0:
87,206,244143,2,0,L|27:194,1,61.1999981323243,2|0,0:0|3:0,0:0:0:0:
5,110,244459,2,0,L|125:86,1,122.399996264649,0|2,3:0|0:0,0:0:0:0:
166,161,244933,1,0,3:0:0:0:
261,18,245249,6,0,P|289:27|315:60,1,61.1999981323243,0|2,3:0|0:0,0:0:0:0:
395,65,245565,2,0,P|401:93|385:132,1,61.1999981323243,2|2,0:0|0:0,0:0:0:0:
421,204,245880,2,0,P|378:242|294:253,1,122.399996264649,0|2,1:0|0:0,0:0:0:0:
152,202,246512,6,0,L|86:185,1,61.1999981323243,2|0,3:2|3:0,0:0:0:0:
21,235,246828,1,2,3:2:0:0:
28,321,246986,1,0,3:0:0:0:
105,357,247143,2,0,B|150:362|163:349|163:341|179:324|229:333,1,122.399996264649,0|0,1:0|3:0,0:0:0:0:
301,362,247617,1,2,0:0:0:0:
288,277,247775,6,0,B|303:215|284:182|279:187|259:152|280:90,1,183.599994396973,4|0,3:2|3:0,0:0:0:0:
334,32,248407,2,0,B|375:41|397:29|393:26|417:12|458:26,1,122.399996264649,0|0,1:0|3:0,0:0:0:0:
509,197,249038,1,2,0:0:0:0:
509,197,249117,1,2,0:0:0:0:
509,197,249196,2,0,L|439:186,1,61.1999981323243,2|0,0:0|3:0,0:0:0:0:
371,225,249512,2,0,L|349:365,1,122.399996264649,0|2,3:0|0:0,0:0:0:0:
267,330,249986,1,0,3:0:0:0:
76,363,250301,6,0,P|92:287|26:202,1,183.599994396973,2|0,3:2|3:0,0:0:0:0:
14,108,250933,2,0,P|57:79|66:8,1,122.399996264649,0|0,1:0|3:0,0:0:0:0:
247,30,251565,1,2,0:0:0:0:
247,30,251643,1,2,0:0:0:0:
247,30,251722,2,0,L|261:101,1,61.1999981323243,2|0,0:0|3:0,0:0:0:0:
199,153,252038,1,0,3:0:0:0:
184,237,252196,2,0,P|228:277|301:295,1,122.399996264649,0|0,1:0|3:0,0:0:0:0:
442,368,252828,6,0,P|442:306|469:247,1,122.399996264649,0|2,3:0|0:0,0:0:0:0:
396,201,253301,2,0,P|396:170|409:140,1,61.1999981323243,0|0,3:0|1:0,0:0:0:0:
371,64,253617,1,2,0:0:0:0:
306,120,253775,2,0,P|306:151|293:181,1,61.1999981323243,0|0,3:0|0:0,0:0:0:0:
210,196,254091,5,2,0:0:0:0:
210,196,254170,1,2,0:0:0:0:
210,196,254249,2,0,L|145:203,1,61.1999981323243,2|0,0:0|3:0,0:0:0:0:
63,214,254565,2,0,L|77:344,1,122.399996264649,0|2,3:0|0:0,0:0:0:0:
161,329,255038,1,0,3:0:0:0:
327,369,255354,5,0,3:0:0:0:
282,295,255512,1,2,0:0:0:0:
282,295,255591,1,0,0:0:0:0:
282,295,255670,2,0,P|309:281|357:292,1,61.1999981323243,2|0,0:0|3:0,0:0:0:0:
408,333,255986,2,0,P|453:345|478:275,1,122.399996264649,0|0,1:0|3:0,0:0:0:0:
475,201,256459,2,0,P|481:178|446:166,1,61.1999981323243,2|0,0:0|0:0,0:0:0:0:
451,163,257880,5,4,1:2:0:0:
256,192,258038,12,0,261986,1:0:0:0:
22,32,262301,5,0,1:0:0:0:
56,124,262459,1,0,1:0:0:0:
56,124,262538,1,0,1:0:0:0:
56,124,262617,2,0,P|80:139|125:141,1,68,0|0,1:0|0:0,0:0:0:0:
206,126,262933,6,0,L|210:170,3,34,0|0|0|0,1:0|1:0|1:0|1:0,0:0:0:0:
218,193,263249,2,0,L|237:233,3,34,0|0|0|0,1:0|1:0|1:0|1:0,0:0:0:0:
252,251,263565,2,0,L|283:282,3,34,0|0|0|0,1:0|1:0|1:0|1:0,0:0:0:0:
304,294,263880,2,0,L|344:312,3,34,0|0|0|0,1:0|1:0|1:0|1:0,0:0:0:0:
367,316,264196,2,0,L|411:319,3,34,0|0|0|0,1:0|1:0|1:0|1:0,0:0:0:0:
433,315,264512,2,0,L|476:303,3,34,0|0|0|0,1:0|1:0|1:0|1:0,0:0:0:0:
494,290,264828,2,0,B|481:246|491:222|496:225|504:200|491:149,1,136,0|0,1:0|3:0,0:0:0:0:
482,68,265301,1,2,0:0:0:0:
403,26,265459,6,0,L|359:20,3,34,0|0|0|0,1:0|1:0|1:0|1:0,0:0:0:0:
334,20,265775,2,0,L|306:55,3,34,0|0|0|0,1:0|1:0|1:0|1:0,0:0:0:0:
294,76,266091,2,0,L|310:117,3,34,0|0|0|0,1:0|1:0|1:0|1:0,0:0:0:0:
323,138,266407,2,0,L|367:143,3,34,0|0|0|0,1:0|1:0|1:0|1:0,0:0:0:0:
391,145,266722,1,0,3:0:0:0:
391,145,267986,6,0,P|345:148|295:175,1,102,2|0,3:2|0:0,0:0:0:0:
283,187,268301,5,4,1:2:0:0:
315,278,268459,2,0,L|399:289,2,74.8000022827149,2|0|0,0:0|3:0|0:0,0:0:0:0:
217,266,268933,2,0,L|165:333,1,74.8000022827149,0|0,1:0|0:0,0:0:0:0:
96,261,269249,1,2,3:2:0:0:
96,261,269328,1,0,3:0:0:0:
96,261,269407,2,0,L|141:201,2,74.8000022827149,0|0|0,3:0|1:0|0:0,0:0:0:0:
35,336,269880,2,0,L|12:366,2,37.4000011413575,2|0|0,3:2|3:0|3:0,0:0:0:0:
133,367,270196,5,0,3:0:0:0:
133,367,270354,1,0,3:0:0:0:
224,334,270512,6,0,P|259:339|304:358,1,74.8000022827149,2|0,3:2|0:0,0:0:0:0:
376,286,270828,2,0,P|378:268|388:246,2,37.4000011413575,0|0|0,1:0|3:0|3:0,0:0:0:0:
280,243,271143,2,0,P|245:238|200:219,2,74.8000022827149,2|2|0,3:2|0:0|1:0,0:0:0:0:
297,146,271617,1,2,0:0:0:0:
386,107,271775,6,0,L|421:85,2,37.4000011413575,2|0|0,3:2|3:0|3:0,0:0:0:0:
334,23,272091,2,0,L|259:24,1,74.8000022827149,0|2,1:0|0:0,0:0:0:0:
186,89,272407,1,0,3:0:0:0:
263,148,272565,1,0,3:0:0:0:
190,213,272722,2,0,L|115:214,2,74.8000022827149,0|0|0,3:0|3:0|3:0,0:0:0:0:
367,290,273354,6,0,P|376:327|382:377,2,74.8000022827149,4|2|0,1:2|0:0|3:0,0:0:0:0:
343,205,273828,1,0,3:0:0:0:
343,205,273907,1,0,3:0:0:0:
343,205,273986,2,0,P|305:210|269:219,1,74.8000022827149,0|0,1:0|0:0,0:0:0:0:
184,242,274301,1,2,3:2:0:0:
184,242,274380,1,0,3:0:0:0:
184,242,274459,2,0,P|189:280|198:316,2,74.8000022827149,0|0|0,3:0|1:0|0:0,0:0:0:0:
86,242,274933,6,0,P|47:239|23:214,1,74.8000022827149,0|2,3:0|0:0,0:0:0:0:
97,149,275249,1,0,3:0:0:0:
97,149,275407,1,0,3:0:0:0:
104,52,275565,2,0,P|143:55|167:80,1,74.8000022827149,0|2,3:0|3:2,0:0:0:0:
228,155,275880,6,0,L|316:145,1,74.8000022827149,0|2,1:0|3:2,0:0:0:0:
346,234,276196,2,0,L|434:224,1,74.8000022827149,0|0,3:0|1:0,0:0:0:0:
502,171,276512,1,0,3:0:0:0:
489,74,276670,1,0,1:0:0:0:
411,133,276828,6,0,P|400:120|392:91,3,37.4000011413575,0|0|0|0,1:0|1:0|1:0|1:0,0:0:0:0:
362,78,277143,2,0,P|345:81|316:73,3,37.4000011413575,0|0|0|0,1:0|1:0|1:0|1:0,0:0:0:0:
289,92,277459,2,0,P|277:124|235:166,1,74.8000022827149,2|0,1:2|3:0,0:0:0:0:
233,251,277775,2,0,P|200:239|158:197,1,74.8000022827149,2|0,1:2|3:0,0:0:0:0:
77,248,278091,5,4,3:2:0:0:
20,168,278249,2,0,L|16:81,1,74.8000022827149,0|0,3:0|1:0,0:0:0:0:
96,36,278565,1,0,3:0:0:0:
96,36,278643,1,0,3:0:0:0:
96,36,278722,2,0,L|270:28,1,149.60000456543,2|0,3:2|1:0,0:0:0:0:
331,75,279196,6,0,L|373:89,2,37.4000011413575,0|0|2,3:0|3:0|3:2,0:0:0:0:
258,138,279512,1,0,3:0:0:0:
258,138,279591,1,0,3:0:0:0:
258,138,279670,2,0,L|174:166,1,74.8000022827149,0|0,1:0|0:0,0:0:0:0:
210,256,279986,2,0,L|238:340,2,74.8000022827149,2|0|0,3:2|0:0|1:0,0:0:0:0:
309,231,280459,1,0,3:0:0:0:
309,231,280538,1,0,3:0:0:0:
309,231,280617,1,2,3:2:0:0:
465,346,280933,6,0,P|501:322|509:286,1,74.8000022827149,0|0,1:0|0:0,0:0:0:0:
510,195,281249,2,0,P|462:123|390:107,1,149.60000456543,2|0,3:2|1:0,0:0:0:0:
323,52,281722,2,0,L|348:20,2,37.4000011413575,0|0|2,3:0|3:0|3:2,0:0:0:0:
229,21,282038,2,0,L|188:15,2,37.4000011413575,2|0|0,0:0|0:0|1:0,0:0:0:0:
250,118,282354,2,0,L|265:155,2,37.4000011413575,2|0|0,0:0|0:0|3:0,0:0:0:0:
152,108,282670,6,0,P|140:144|144:181,1,74.8000022827149,2|0,0:0|3:0,0:0:0:0:
220,251,282986,1,0,3:0:0:0:
179,337,283143,2,0,P|143:340|107:328,1,74.8000022827149,0|0,3:0|3:0,0:0:0:0:
63,241,283459,5,4,1:2:0:0:
12,157,283617,2,0,L|52:92,1,74.8000022827149,2|0,0:0|3:0,0:0:0:0:
150,67,283933,1,0,3:0:0:0:
150,67,284012,1,0,3:0:0:0:
150,67,284091,2,0,L|280:147,1,149.60000456543,0|2,1:0|3:2,0:0:0:0:
322,232,284565,2,0,L|254:268,2,74.8000022827149,0|0|0,3:0|1:0|0:0,0:0:0:0:
374,150,285038,2,0,L|378:-2,1,149.60000456543,2|0,3:2|3:0,0:0:0:0:
472,27,285512,1,0,3:0:0:0:
471,128,285670,5,0,3:0:0:0:
471,128,285828,1,2,0:0:0:0:
354,282,286143,1,2,0:0:0:0:
158,282,286459,1,2,0:0:0:0:
41,128,286775,1,2,0:0:0:0:
41,128,286933,1,2,3:2:0:0:
41,128,288196,1,0,3:0:0:0:
212,35,288512,5,4,1:2:0:0:
315,62,288670,1,0,3:0:0:0:
315,62,288749,1,0,3:0:0:0:
315,62,288828,2,0,P|337:90|342:132,1,74.8000022827149,2|0,3:2|0:0,0:0:0:0:
338,225,289143,2,0,P|310:247|268:252,1,74.8000022827149,0|0,1:0|0:0,0:0:0:0:
174,241,289459,5,2,3:2:0:0:
77,230,289617,1,0,3:0:0:0:
77,230,289696,1,0,3:0:0:0:
77,230,289775,2,0,L|69:316,1,74.8000022827149,0|0,1:0|0:0,0:0:0:0:
163,334,290091,2,0,L|159:377,2,37.4000011413575,2|0|0,3:2|3:0|3:0,0:0:0:0:
261,364,290407,5,0,3:0:0:0:
261,364,290565,1,0,3:0:0:0:
350,328,290722,6,0,P|336:297|295:269,1,74.8000022827149,2|0,3:2|0:0,0:0:0:0:
254,187,291038,2,0,P|316:159|372:77,1,149.60000456543,0|0,1:0|3:0,0:0:0:0:
436,28,291512,1,0,3:0:0:0:
496,104,291670,2,0,P|491:140|494:179,1,74.8000022827149,0|0,1:0|0:0,0:0:0:0:
500,275,291986,6,0,L|421:304,1,74.8000022827149,2|0,3:2|0:0,0:0:0:0:
353,360,292301,2,0,L|274:331,1,74.8000022827149,0|2,1:0|0:0,0:0:0:0:
204,275,292617,2,0,L|125:304,1,74.8000022827149,0|0,3:0|3:0,0:0:0:0:
46,331,292933,1,0,3:0:0:0:
46,331,293091,1,0,3:0:0:0:
46,331,293249,1,0,3:0:0:0:
11,139,293565,6,0,P|11:104|24:53,2,74.8000022827149,4|2|0,1:2|0:0|3:0,0:0:0:0:
101,198,294038,1,0,3:0:0:0:
101,198,294117,1,0,3:0:0:0:
101,198,294196,2,0,P|109:162|110:125,1,74.8000022827149,0|0,1:0|0:0,0:0:0:0:
174,50,294512,2,0,P|209:38|241:21,1,74.8000022827149,2|0,3:2|0:0,0:0:0:0:
347,38,294828,5,0,1:0:0:0:
347,38,294907,1,0,3:0:0:0:
347,38,294986,2,0,L|427:49,2,74.8000022827149,0|0|2,3:0|3:0|0:0,0:0:0:0:
285,113,295459,5,0,3:0:0:0:
285,113,295617,1,0,3:0:0:0:
273,209,295775,6,0,L|303:283,1,74.8000022827149,2|0,3:2|3:0,0:0:0:0:
392,241,296091,2,0,L|361:166,1,74.8000022827149,0|0,1:0|3:0,0:0:0:0:
453,133,296407,2,0,L|482:203,1,74.8000022827149,0|0,1:0|3:0,0:0:0:0:
474,299,296722,1,0,1:0:0:0:
385,339,296880,1,0,3:0:0:0:
296,379,297038,6,0,P|288:358|290:332,3,37.4000011413575,0|0|0|0,1:0|1:0|1:0|1:0,0:0:0:0:
289,305,297354,2,0,P|297:284|295:258,3,37.4000011413575,0|0|0|0,1:0|1:0|1:0|1:0,0:0:0:0:
271,241,297670,2,0,L|259:160,1,74.8000022827149,2|0,1:2|3:0,0:0:0:0:
322,91,297986,2,0,L|334:10,1,74.8000022827149,2|0,1:2|3:0,0:0:0:0:
236,27,298301,5,4,3:2:0:0:
140,42,298459,2,0,P|105:41|63:12,1,74.8000022827149,0|0,3:0|1:0,0:0:0:0:
31,114,298775,1,0,3:0:0:0:
31,114,298854,1,0,3:0:0:0:
31,114,298933,2,0,P|64:175|56:277,1,149.60000456543,0|0,3:0|1:0,0:0:0:0:
138,317,299407,6,0,L|132:366,2,37.4000011413575,0|0|2,3:0|3:0|3:2,0:0:0:0:
231,289,299722,1,0,3:0:0:0:
231,289,299801,1,0,3:0:0:0:
231,289,299880,1,0,1:0:0:0:
324,261,300038,2,0,L|330:212,2,37.4000011413575,0|0|2,3:0|3:0|3:2,0:0:0:0:
374,345,300354,1,2,0:0:0:0:
470,324,300512,1,0,1:0:0:0:
479,226,300670,2,0,L|469:151,1,74.8000022827149,0|2,3:0|3:2,0:0:0:0:
317,29,301143,6,0,P|287:48|240:56,1,74.8000022827149,0|0,1:0|0:0,0:0:0:0:
162,102,301459,2,0,P|112:46|46:11,1,149.60000456543,2|0,3:2|1:0,0:0:0:0:
17,109,301933,1,0,3:0:0:0:
17,109,302012,1,0,3:0:0:0:
17,109,302091,1,0,3:0:0:0:
57,197,302249,6,0,L|14:210,2,37.4000011413575,2|0|0,0:0|0:0|1:0,0:0:0:0:
146,237,302565,2,0,L|156:193,2,37.4000011413575,2|0|0,0:0|0:0|3:0,0:0:0:0:
66,294,302880,2,0,L|98:324,2,37.4000011413575,2|0|0,0:0|0:0|0:0,0:0:0:0:
260,278,303354,2,0,L|285:361,1,74.8000022827149,0|0,3:0|3:0,0:0:0:0:
376,373,303670,6,0,B|377:326|404:305|407:310|436:286|439:229,1,149.60000456543,4|0,3:2|1:0,0:0:0:0:
359,183,304143,2,0,P|323:189|282:177,1,74.8000022827149,0|0,3:0|1:0,0:0:0:0:
292,89,304459,1,0,3:0:0:0:
292,89,304538,1,0,3:0:0:0:
292,89,304617,2,0,P|328:83|369:95,1,74.8000022827149,2|0,3:2|3:0,0:0:0:0:
442,32,304933,6,0,P|471:53|492:90,1,74.8000022827149,0|0,1:0|0:0,0:0:0:0:
498,183,305249,1,2,3:2:0:0:
512,287,305407,1,0,3:0:0:0:
512,287,305486,1,0,3:0:0:0:
512,287,305565,2,0,L|518:332,2,37.4000011413575,0|0|0,1:0|0:0|3:0,0:0:0:0:
426,244,305880,6,0,L|381:248,2,37.4000011413575,2|0|0,1:2|1:0|1:0,0:0:0:0:
416,341,306196,2,0,L|326:349,1,74.8000022827149,0|0,1:0|1:0,0:0:0:0:
256,299,306512,1,2,1:2:0:0:
256,299,306591,1,0,1:0:0:0:
256,299,306670,1,0,1:0:0:0:
170,347,306828,2,0,L|96:341,1,74.8000022827149,0|0,1:0|1:0,0:0:0:0:
86,244,307143,6,0,P|76:227|51:212,3,37.4000011413575,2|0|0|0,1:2|1:0|1:0|1:0,0:0:0:0:
28,198,307459,2,0,P|32:178|25:150,3,37.4000011413575,0|0|0|0,1:0|1:0|1:0|1:0,0:0:0:0:
28,122,307775,2,0,P|66:111|107:70,1,74.8000022827149,0|2,3:0|3:2,0:0:0:0:
165,24,308091,1,0,1:0:0:0:
279,152,308407,6,0,B|286:205|259:243|251:238|223:271|232:324,1,183.599994396973,4|0,1:2|3:0,0:0:0:0:
307,365,309038,2,0,B|335:343|366:345|365:352|394:357|421:334,1,122.399996264649,0|0,1:0|3:0,0:0:0:0:
427,251,309512,1,2,0:0:0:0:
270,23,309986,2,0,P|243:29|208:23,1,61.1999981323243,0|0,3:0|3:0,0:0:0:0:
132,60,310301,2,0,P|144:114|132:184,1,122.399996264649,0|0,1:0|3:0,0:0:0:0:
169,257,310775,2,0,P|163:284|169:319,1,61.1999981323243,2|0,0:0|3:0,0:0:0:0:
426,209,311407,5,0,3:0:0:0:
426,209,311486,1,0,3:0:0:0:
426,209,311565,2,0,P|446:151|414:98,1,122.399996264649,0|0,1:0|3:0,0:0:0:0:
151,170,312354,1,0,3:0:0:0:
77,213,312512,2,0,P|43:208|19:191,1,61.1999981323243,0|0,3:0|3:0,0:0:0:0:
14,107,312828,2,0,P|56:53|110:28,1,122.399996264649,0|0,1:0|3:0,0:0:0:0:
178,72,313301,1,2,0:0:0:0:
257,39,313459,6,0,B|313:29|347:61|346:67|378:98|428:77,1,183.599994396973,0|0,1:0|3:0,0:0:0:0:
487,139,314091,2,0,B|474:174|444:183|441:181|412:189|408:224,1,122.399996264649,0|0,1:0|3:0,0:0:0:0:
414,311,314565,1,2,0:0:0:0:
143,360,315038,2,0,L|126:300,1,61.1999981323243,0|0,3:0|3:0,0:0:0:0:
107,217,315354,2,0,P|169:201|206:146,1,122.399996264649,0|0,1:0|3:0,0:0:0:0:
138,98,315828,2,0,P|107:106|88:133,1,61.1999981323243,2|0,0:0|3:0,0:0:0:0:
313,289,316459,5,0,3:0:0:0:
313,289,316538,1,0,3:0:0:0:
313,289,316617,2,0,P|373:294|442:280,1,122.399996264649,0|0,1:0|3:0,0:0:0:0:
483,212,317091,1,2,0:0:0:0:
433,47,317407,1,0,3:0:0:0:
356,86,317565,2,0,P|353:116|360:150,1,61.1999981323243,0|0,3:0|3:0,0:0:0:0:
279,179,317880,2,0,P|267:118|272:58,1,122.399996264649,0|0,1:0|3:0,0:0:0:0:
103,22,318512,6,0,B|49:47|58:105|64:102|75:156|20:197,1,183.599994396973,4|0,3:2|3:0,0:0:0:0:
36,268,319143,1,2,1:2:0:0:
200,316,319459,2,0,L|267:307,1,61.1999981323243,2|0,3:2|0:0,0:0:0:0:
340,274,319775,2,0,L|298:220,1,61.1999981323243,2|0,0:0|0:0,0:0:0:0:
234,174,320091,2,0,L|208:236,1,61.1999981323243,2|0,3:2|3:0,0:0:0:0:
130,197,320407,2,0,P|119:136|131:68,1,122.399996264649,2|0,1:2|3:2,0:0:0:0:
206,41,320880,1,2,0:0:0:0:
290,61,321038,6,0,B|350:54|376:85|375:93|404:127|479:105,1,183.599994396973,0|0,3:0|3:0,0:0:0:0:
455,195,321670,2,0,B|415:190|397:210|398:216|379:238|329:224,1,122.399996264649,2|0,1:2|3:0,0:0:0:0:
267,271,322143,1,0,3:0:0:0:
341,312,322301,2,0,L|350:374,1,61.1999981323243,2|0,0:0|3:0,0:0:0:0:
435,360,322617,2,0,L|426:298,2,61.1999981323243,2|0|2,3:2|3:0|1:2,0:0:0:0:
503,202,323249,2,0,L|494:140,1,61.1999981323243,0|2,3:0|0:0,0:0:0:0:
436,77,323565,6,0,B|390:86|376:66|379:59|365:38|304:44,1,122.399996264649,2|0,1:2|0:0,0:0:0:0:
256,96,324038,1,0,3:0:0:0:
188,43,324196,2,0,B|147:38|133:59|136:66|122:86|76:77,1,122.399996264649,2|0,1:2|3:0,0:0:0:0:
25,146,324670,1,0,3:0:0:0:
109,158,324828,2,0,L|123:221,1,61.1999981323243,2|0,3:2|3:0,0:0:0:0:
207,227,325143,2,0,L|187:288,1,61.1999981323243,0|0,3:0|3:0,0:0:0:0:
211,375,325459,2,0,L|302:293,1,122.399996264649,2|0,1:2|3:0,0:0:0:0:
481,303,326091,5,2,3:2:0:0:
481,303,326170,1,2,0:0:0:0:
481,303,326249,2,0,P|494:315|507:331,2,30.5999990661621,2|2|2,0:0|0:0|0:0,0:0:0:0:
496,218,326565,1,0,3:0:0:0:
412,233,326722,2,0,P|368:192|324:138,1,122.399996264649,2|0,1:2|3:0,0:0:0:0:
353,61,327196,1,0,3:0:0:0:
256,192,327354,12,4,328617,1:2:0:0:
