osu file format v14

[General]
AudioFilename: audio.mp3
AudioLeadIn: 0
PreviewTime: 76850
Countdown: 0
SampleSet: Soft
StackLeniency: 0.7
Mode: 3
LetterboxInBreaks: 0
SpecialStyle: 0
WidescreenStoryboard: 0

[Editor]
DistanceSpacing: 0.8
BeatDivisor: 4
GridSize: 32
TimelineZoom: 1.4

[Metadata]
Title:Trigger (Zekk Remix)
TitleUnicode:Trigger (Zekk Remix)
Artist:Dustvoxx
ArtistUnicode:Dustvoxx
Creator:Wonki
Version:Normal
Source:
Tags:SUPERNATURAL Pumpcore Hardtek CYCLIK CONTROL.
BeatmapID:1174926
BeatmapSetID:555076

[Difficulty]
HPDrainRate:7
CircleSize:4
OverallDifficulty:7
ApproachRate:5
SliderMultiplier:1.4
SliderTickRate:1

[Events]
//Background and Video events
0,0,"1234.jpg",0,0
//Break Periods
//Storyboard Layer 0 (Background)
//Storyboard Layer 1 (Fail)
//Storyboard Layer 2 (Pass)
//Storyboard Layer 3 (Foreground)
//Storyboard Sound Samples
Sample,57648,0,"Clap.wav",20
Sample,77448,0,"Snare.wav",70
Sample,153648,0,"Snare.wav",50
Sample,173298,0,"Clap.wav",10
Sample,174498,0,"Clap.wav",10
Sample,175248,0,"Cymbol.wav",70
Sample,207348,0,"Cymbol.wav",40
Sample,230448,0,"Snare.wav",40
Sample,247248,0,"Cymbol.wav",70

[TimingPoints]
48,300,4,2,1,40,1,0
77448,-100,4,2,1,40,0,1
94848,-100,4,2,1,40,0,0
175248,-100,4,2,1,40,0,1
190848,-100,4,2,1,40,0,0

[HitObjects]
64,192,48,5,8,0:0:0:0:
192,192,348,1,8,0:0:0:0:
448,192,648,1,8,0:0:0:0:
320,192,948,1,8,0:0:0:0:
64,192,1248,1,8,0:0:0:0:
448,192,1548,1,8,0:0:0:0:
320,192,1848,1,8,0:0:0:0:
192,192,2148,1,8,0:0:0:0:
64,192,2448,1,8,0:0:0:0:
448,192,2748,1,8,0:0:0:0:
192,192,3048,1,8,0:0:0:0:
448,192,3348,1,8,0:0:0:0:
64,192,3648,1,8,0:0:0:0:
448,192,3948,1,8,0:0:0:0:
320,192,4248,128,8,4548:0:0:0:0:
64,192,4548,1,0,0:0:0:0:
192,192,4698,1,0,0:0:0:0:
320,192,4848,1,8,0:0:0:0:
448,192,5148,1,8,0:0:0:0:
192,192,5448,1,8,0:0:0:0:
64,192,5748,1,8,0:0:0:0:
320,192,6048,1,8,0:0:0:0:
192,192,6348,1,8,0:0:0:0:
448,192,6648,1,8,0:0:0:0:
64,192,6948,1,8,0:0:0:0:
320,192,7248,1,8,0:0:0:0:
64,192,7548,1,8,0:0:0:0:
192,192,7848,128,8,8148:0:0:0:0:
320,192,8148,1,8,0:0:0:0:
64,192,8448,1,8,0:0:0:0:
448,192,8448,1,0,0:0:0:0:
192,192,9048,1,0,0:0:0:0:
320,192,9198,1,0,0:0:0:0:
448,192,9348,1,0,0:0:0:0:
320,192,9498,1,0,0:0:0:0:
192,192,9648,1,8,0:0:0:0:
64,192,9648,1,0,0:0:0:0:
448,192,9948,1,8,0:0:0:0:
320,192,10248,1,8,0:0:0:0:
64,192,10548,1,8,0:0:0:0:
192,192,10848,1,8,0:0:0:0:
448,192,11148,1,8,0:0:0:0:
64,192,11448,1,8,0:0:0:0:
320,192,11748,1,8,0:0:0:0:
192,192,11898,1,0,0:0:0:0:
64,192,12048,1,8,0:0:0:0:
448,192,12348,1,8,0:0:0:0:
320,192,12648,1,8,0:0:0:0:
192,192,12948,1,8,0:0:0:0:
64,192,13248,1,8,0:0:0:0:
320,192,13548,1,8,0:0:0:0:
448,192,13848,128,8,14148:0:0:0:0:
64,192,14148,1,0,0:0:0:0:
192,192,14298,1,0,0:0:0:0:
320,192,14448,1,0,0:0:0:70:Cymbol.wav
448,192,14448,1,8,0:0:0:0:
192,192,14748,1,8,0:0:0:0:
64,192,14748,1,0,0:0:0:0:
320,192,15048,1,8,0:0:0:0:
448,192,15048,1,0,0:0:0:0:
64,192,15348,1,8,0:0:0:0:
448,192,15348,1,0,0:0:0:0:
320,192,15648,1,8,0:0:0:0:
64,192,15648,1,0,0:0:0:0:
448,192,15948,1,8,0:0:0:0:
320,192,16098,1,0,0:0:0:0:
64,192,16248,1,8,0:0:0:0:
192,192,16248,1,0,0:0:0:0:
192,192,16548,1,8,0:0:0:0:
320,192,16698,1,0,0:0:0:0:
448,192,16848,1,0,0:0:0:0:
320,192,16998,1,0,0:0:0:0:
192,192,17148,1,0,0:0:0:0:
64,192,17298,1,0,0:0:0:0:
448,192,17448,1,0,0:0:0:0:
320,192,17598,1,0,0:0:0:0:
192,192,17748,1,0,0:0:0:0:
64,192,17898,1,0,0:0:0:0:
320,192,18048,1,8,0:0:0:0:
448,192,18048,1,0,0:0:0:0:
192,192,18348,1,0,0:0:0:0:
320,192,18498,1,0,0:0:0:0:
448,192,18648,1,0,0:0:0:70:Snare.wav
64,192,18648,1,0,0:0:0:0:
320,192,18948,1,0,0:0:0:0:
192,192,19098,1,0,0:0:0:0:
64,192,19248,1,8,0:0:0:0:
448,192,19248,1,0,0:0:0:0:
320,192,19548,1,0,0:0:0:70:Cymbol.wav
192,192,19848,1,8,0:0:0:0:
448,192,20148,1,8,0:0:0:0:
64,192,20448,1,8,0:0:0:0:
320,192,20748,1,8,0:0:0:0:
192,192,21048,1,8,0:0:0:0:
448,192,21348,1,8,0:0:0:0:
320,192,21498,1,0,0:0:0:0:
64,192,21648,1,8,0:0:0:0:
192,192,21948,1,8,0:0:0:0:
448,192,22248,1,8,0:0:0:0:
320,192,22548,1,8,0:0:0:0:
64,192,22848,1,8,0:0:0:0:
448,192,23148,1,8,0:0:0:0:
192,192,23448,1,8,0:0:0:0:
192,192,23748,1,0,0:0:0:70:Snare.wav
448,192,23748,1,0,0:0:0:0:
320,192,24048,1,8,0:0:0:0:
64,192,24348,1,8,0:0:0:0:
192,192,24648,1,8,0:0:0:0:
320,192,24948,1,8,0:0:0:0:
448,192,25248,1,8,0:0:0:0:
192,192,25548,1,8,0:0:0:0:
448,192,25848,1,8,0:0:0:0:
320,192,26148,1,8,0:0:0:0:
192,192,26298,1,0,0:0:0:0:
64,192,26448,1,8,0:0:0:0:
448,192,26748,1,8,0:0:0:0:
320,192,27048,1,8,0:0:0:0:
192,192,27348,1,8,0:0:0:0:
64,192,27648,1,0,0:0:0:70:Cymbol.wav
448,192,27648,1,8,0:0:0:0:
192,192,28248,1,0,0:0:0:70:Snare.wav
320,192,28248,1,0,0:0:0:0:
64,192,28548,1,0,0:0:0:0:
448,192,28548,1,0,0:0:0:0:
192,192,28848,1,8,0:0:0:0:
320,192,28998,1,8,0:0:0:0:
448,192,29148,1,0,0:0:0:70:Cymbol.wav
64,192,29448,1,8,0:0:0:0:
320,192,29748,1,8,0:0:0:0:
448,192,30048,1,8,0:0:0:0:
64,192,30348,1,8,0:0:0:0:
192,192,30648,1,8,0:0:0:0:
320,192,30948,1,8,0:0:0:0:
64,192,31248,1,8,0:0:0:0:
448,192,31548,1,8,0:0:0:0:
192,192,31848,1,8,0:0:0:0:
320,192,32148,1,8,0:0:0:0:
448,192,32448,1,8,0:0:0:0:
320,192,32748,1,8,0:0:0:0:
64,192,33048,1,8,0:0:0:0:
64,192,33348,1,0,0:0:0:70:Snare.wav
448,192,33348,1,0,0:0:0:0:
320,192,33648,128,0,33948:0:0:0:0:
64,192,34248,1,8,0:0:0:0:
320,192,34548,1,0,0:0:0:70:Snare.wav
448,192,34548,1,0,0:0:0:0:
320,192,34998,1,0,0:0:0:70:Snare.wav
448,192,34998,1,0,0:0:0:0:
320,192,35448,1,0,0:0:0:70:Snare.wav
448,192,35448,1,0,0:0:0:0:
64,192,35748,1,8,0:0:0:0:
192,192,36048,1,8,0:0:0:0:
320,192,36273,1,8,0:0:0:0:
192,192,36498,1,8,0:0:0:0:
448,192,36648,128,0,36948:0:0:0:0:
192,192,36948,1,8,0:0:0:0:
64,192,36948,1,0,0:0:0:0:
320,192,37248,1,0,0:0:0:70:Cymbol.wav
448,192,37248,1,0,0:0:0:0:
192,192,37548,1,0,0:0:0:0:
320,192,37848,1,0,0:0:0:0:
448,192,38448,1,0,0:0:0:20:bell.wav
64,192,38448,128,8,42048:0:0:0:0:
448,192,42048,128,0,45648:0:0:0:0:
320,192,45648,128,0,46848:0:0:0:0:
64,192,46848,128,0,48048:0:0:0:0:
320,192,48048,1,0,0:0:0:20:bell.wav
448,192,48048,1,8,0:0:0:0:
192,192,48348,1,0,0:0:0:0:
320,192,48648,1,0,0:0:0:0:
192,192,48948,1,0,0:0:0:0:
448,192,49248,1,0,0:0:0:0:
320,192,49548,1,0,0:0:0:0:
448,192,49848,1,0,0:0:0:0:
320,192,50148,1,0,0:0:0:0:
64,192,50448,1,0,0:0:0:0:
192,192,50748,1,0,0:0:0:0:
448,192,51048,1,0,0:0:0:0:
320,192,51348,1,0,0:0:0:0:
64,192,51648,1,0,0:0:0:0:
192,192,51948,1,0,0:0:0:0:
64,192,52248,1,0,0:0:0:0:
192,192,52548,1,0,0:0:0:0:
448,192,52848,1,0,0:0:0:0:
320,192,53148,1,0,0:0:0:0:
192,192,53448,1,0,0:0:0:0:
64,192,53748,1,0,0:0:0:0:
320,192,54048,1,0,0:0:0:0:
448,192,54348,1,0,0:0:0:0:
64,192,54648,1,0,0:0:0:0:
192,192,54948,1,0,0:0:0:0:
448,192,55248,1,0,0:0:0:0:
64,192,55548,1,0,0:0:0:0:
192,192,55848,1,0,0:0:0:0:
320,192,56148,1,0,0:0:0:0:
64,192,56448,1,8,0:0:0:0:
192,192,56448,1,0,0:0:0:70:Snare.wav
448,192,56748,1,0,0:0:0:0:
320,192,57048,1,0,0:0:0:0:
192,192,57348,1,0,0:0:0:0:
64,192,57648,1,8,0:0:0:0:
448,192,57648,1,8,0:0:0:70:Snare.wav
448,192,57948,1,0,0:0:0:20:Clap.wav
448,192,58248,1,0,0:0:0:20:Clap.wav
192,192,58548,1,0,0:0:0:20:Clap.wav
448,192,58848,1,0,0:0:0:20:Clap.wav
320,192,59148,1,0,0:0:0:20:Clap.wav
192,192,59448,1,0,0:0:0:20:Clap.wav
320,192,59748,1,0,0:0:0:20:Clap.wav
64,192,60048,1,0,0:0:0:20:Clap.wav
192,192,60348,1,0,0:0:0:20:Clap.wav
448,192,60648,1,0,0:0:0:20:Clap.wav
320,192,60948,1,0,0:0:0:20:Clap.wav
64,192,61248,1,0,0:0:0:20:Clap.wav
448,192,61548,1,0,0:0:0:20:Clap.wav
192,192,61848,1,0,0:0:0:20:Clap.wav
320,192,62148,1,0,0:0:0:20:Clap.wav
64,192,62448,1,8,0:0:0:0:
448,192,62448,1,0,0:0:0:0:
64,192,62748,1,0,0:0:0:0:
64,192,63048,1,0,0:0:0:70:Snare.wav
448,192,63048,1,0,0:0:0:0:
320,192,63348,1,8,0:0:0:0:
64,192,63648,1,0,0:0:0:0:
192,192,63948,1,0,0:0:0:0:
320,192,64248,1,0,0:0:0:70:Snare.wav
448,192,64248,1,0,0:0:0:0:
192,192,64548,1,0,0:0:0:0:
64,192,64848,1,8,0:0:0:0:
320,192,65148,1,0,0:0:0:0:
192,192,65448,1,0,0:0:0:70:Snare.wav
64,192,65448,1,0,0:0:0:0:
448,192,65748,1,8,0:0:0:0:
320,192,66048,1,0,0:0:0:0:
192,192,66348,1,0,0:0:0:70:Snare.wav
64,192,66348,1,0,0:0:0:0:
448,192,66498,1,8,0:0:0:0:
320,192,66648,1,0,0:0:0:0:
64,192,66798,1,0,0:0:0:70:Snare.wav
192,192,66948,128,0,67248:0:0:0:0:
320,192,67248,1,8,0:0:0:0:
448,192,67248,1,0,0:0:0:0:
64,192,67548,1,8,0:0:0:0:
192,192,67848,1,8,0:0:0:0:
320,192,68148,1,8,0:0:0:0:
64,192,68448,1,8,0:0:0:0:
192,192,68748,1,8,0:0:0:0:
448,192,69048,1,8,0:0:0:0:
320,192,69348,1,8,0:0:0:0:
448,192,69648,1,8,0:0:0:0:
320,192,69948,1,8,0:0:0:0:
192,192,70248,1,8,0:0:0:0:
448,192,70548,1,8,0:0:0:0:
64,192,70848,1,8,0:0:0:0:
192,192,71148,1,8,0:0:0:0:
448,192,71448,1,8,0:0:0:0:
320,192,71748,1,8,0:0:0:0:
64,192,72048,1,0,0:0:0:0:
192,192,72198,1,0,0:0:0:0:
448,192,72348,1,0,0:0:0:0:
320,192,72498,1,0,0:0:0:0:
64,192,72648,1,0,0:0:0:0:
192,192,72798,1,0,0:0:0:0:
448,192,72948,1,0,0:0:0:0:
320,192,73098,1,0,0:0:0:0:
192,192,73248,1,0,0:0:0:0:
192,192,73398,1,0,0:0:0:0:
320,192,73548,1,0,0:0:0:0:
320,192,73698,1,0,0:0:0:0:
64,192,73848,1,0,0:0:0:0:
64,192,73998,1,0,0:0:0:0:
448,192,74148,1,0,0:0:0:0:
448,192,74298,1,0,0:0:0:0:
192,192,74448,1,0,0:0:0:70:Cymbol.wav
64,192,74448,1,8,0:0:0:0:
64,192,75648,1,8,0:0:0:0:
192,192,75648,1,0,0:0:0:0:
448,192,75798,128,0,76098:0:0:0:0:
192,192,76248,1,0,0:0:0:0:
320,192,76548,1,0,0:0:0:0:
448,192,76848,128,0,77148:0:0:0:0:
64,192,76848,128,0,77148:0:0:0:0:
192,192,77148,1,0,0:0:0:0:
320,192,77298,1,0,0:0:0:0:
64,192,77448,1,8,0:0:0:0:
448,192,77448,1,0,0:0:0:70:Cymbol.wav
64,192,77748,1,8,0:0:0:0:
448,192,78198,1,8,0:0:0:0:
64,192,78648,1,0,0:0:0:70:Snare.wav
448,192,78648,1,0,0:0:0:0:
320,192,78948,1,8,0:0:0:0:
192,192,79248,1,8,0:0:0:0:
64,192,79848,1,0,0:0:0:70:Snare.wav
448,192,79848,1,0,0:0:0:0:
320,192,80148,1,8,0:0:0:0:
192,192,80598,128,8,80898:0:0:0:0:
64,192,80898,1,0,0:0:0:70:Snare.wav
448,192,80898,1,0,0:0:0:0:
320,192,81048,128,8,81348:0:0:0:0:
64,192,81348,128,0,81648:0:0:0:0:
448,192,81648,1,8,0:0:0:0:
192,192,81948,1,0,0:0:0:0:
320,192,82098,1,0,0:0:0:0:
64,192,82248,1,0,0:0:0:70:Snare.wav
448,192,82248,1,8,0:0:0:0:
192,192,82548,1,8,0:0:0:0:
448,192,82998,1,8,0:0:0:0:
192,192,83448,1,0,0:0:0:70:Snare.wav
64,192,83448,1,0,0:0:0:0:
448,192,83748,1,8,0:0:0:0:
320,192,84048,1,8,0:0:0:0:
64,192,84048,1,0,0:0:0:70:Snare.wav
192,192,84348,1,0,0:0:0:0:
320,192,84498,1,8,0:0:0:0:
192,192,84648,1,8,0:0:0:0:
448,192,84948,1,8,0:0:0:0:
320,192,85098,1,8,0:0:0:0:
192,192,85248,1,8,0:0:0:0:
64,192,85248,128,0,85548:0:0:0:0:
448,192,85548,1,0,0:0:0:0:
320,192,85698,1,0,0:0:0:0:
192,192,85848,128,0,86148:0:0:0:0:
448,192,86148,1,0,0:0:0:0:
320,192,86298,1,0,0:0:0:0:
64,192,86448,128,0,86748:0:0:0:0:
192,192,86448,128,0,86748:0:0:0:0:
448,192,86748,1,0,0:0:0:0:
320,192,86898,1,0,0:0:0:0:
64,192,87048,1,8,0:0:0:0:
192,192,87048,1,0,0:0:0:70:Snare.wav
320,192,87348,1,8,0:0:0:0:
192,192,87798,1,8,0:0:0:0:
320,192,88248,1,0,0:0:0:70:Snare.wav
448,192,88248,1,0,0:0:0:0:
64,192,88548,1,8,0:0:0:0:
192,192,88848,1,8,0:0:0:0:
320,192,89448,1,0,0:0:0:70:Snare.wav
448,192,89448,1,0,0:0:0:0:
64,192,89748,1,8,0:0:0:0:
320,192,90198,128,8,90498:0:0:0:0:
64,192,90498,1,0,0:0:0:70:Snare.wav
448,192,90498,1,0,0:0:0:0:
192,192,90648,128,8,90948:0:0:0:0:
448,192,90948,1,0,0:0:0:0:
64,192,91248,1,8,0:0:0:0:
192,192,91248,1,0,0:0:0:0:
448,192,91548,1,0,0:0:0:0:
320,192,91698,1,0,0:0:0:0:
192,192,91848,1,0,0:0:0:70:Snare.wav
64,192,91848,1,8,0:0:0:0:
448,192,92148,1,8,0:0:0:0:
448,192,92598,1,8,0:0:0:0:
192,192,93048,1,0,0:0:0:70:Snare.wav
64,192,93048,1,0,0:0:0:0:
320,192,93348,128,8,93648:0:0:0:0:
64,192,93648,1,8,0:0:0:0:
192,192,93648,1,0,0:0:0:0:
320,192,93873,1,8,0:0:0:0:
448,192,93873,1,0,0:0:0:0:
192,192,94098,1,8,0:0:0:0:
64,192,94098,1,0,0:0:0:0:
320,192,94248,1,8,0:0:0:0:
448,192,94248,128,0,94548:0:0:0:0:
64,192,94548,1,0,0:0:0:70:Snare.wav
192,192,94698,1,0,0:0:0:0:
448,192,94848,1,8,0:0:0:0:
320,192,94848,128,0,95148:0:0:0:0:
64,192,95148,1,8,0:0:0:0:
192,192,95448,128,0,95748:0:0:0:0:
448,192,95748,1,0,0:0:0:0:
64,192,96048,1,0,0:0:0:0:
192,192,96123,1,0,0:0:0:0:
320,192,96198,1,0,0:0:0:0:
448,192,96348,1,0,0:0:0:0:
320,192,96498,1,0,0:0:0:0:
64,192,96648,1,0,0:0:0:70:Cymbol.wav
64,192,96948,1,8,0:0:0:0:
448,192,97248,1,8,0:0:0:0:
448,192,97548,1,8,0:0:0:0:
192,192,97848,1,8,0:0:0:0:
192,192,98148,1,8,0:0:0:0:
448,192,98448,1,8,0:0:0:0:
320,192,98598,1,0,0:0:0:0:
448,192,98748,1,0,0:0:0:0:
64,192,98898,1,8,0:0:0:0:
192,192,99048,1,0,0:0:0:0:
64,192,99198,1,0,0:0:0:0:
320,192,99348,1,8,0:0:0:0:
192,192,99498,1,0,0:0:0:0:
320,192,99648,1,0,0:0:0:0:
64,192,99798,1,8,0:0:0:0:
192,192,99948,1,0,0:0:0:0:
64,192,100098,1,0,0:0:0:0:
320,192,100248,1,8,0:0:0:0:
448,192,100248,128,0,100548:0:0:0:0:
192,192,100548,128,0,100848:0:0:0:0:
448,192,100848,1,8,0:0:0:0:
64,192,101073,1,8,0:0:0:0:
448,192,101298,1,8,0:0:0:0:
192,192,101448,1,8,0:0:0:0:
64,192,101448,1,0,0:0:0:70:Cymbol.wav
192,192,101748,1,8,0:0:0:0:
448,192,102048,1,8,0:0:0:0:
448,192,102348,1,8,0:0:0:0:
64,192,102648,1,8,0:0:0:0:
64,192,102948,1,8,0:0:0:0:
320,192,103248,1,8,0:0:0:0:
192,192,103398,1,0,0:0:0:0:
320,192,103548,1,8,0:0:0:0:
64,192,103698,1,8,0:0:0:0:
192,192,103848,1,8,0:0:0:0:
448,192,104148,1,8,0:0:0:0:
320,192,104298,1,8,0:0:0:0:
192,192,104448,1,8,0:0:0:0:
64,192,104448,1,0,0:0:0:70:Cymbol.wav
320,192,105048,1,8,0:0:0:0:
64,192,105348,1,0,0:0:0:70:Snare.wav
448,192,105348,1,0,0:0:0:0:
192,192,105648,128,8,105948:0:0:0:0:
64,192,105648,128,0,105948:0:0:0:0:
320,192,105948,1,0,0:0:0:70:Cymbol.wav
448,192,105948,1,8,0:0:0:0:
448,192,106248,1,8,0:0:0:0:
192,192,106548,1,8,0:0:0:0:
192,192,106848,1,8,0:0:0:0:
320,192,107148,1,8,0:0:0:0:
320,192,107448,1,8,0:0:0:0:
64,192,107748,1,8,0:0:0:0:
64,192,108048,1,8,0:0:0:0:
448,192,108348,1,8,0:0:0:0:
448,192,108648,1,8,0:0:0:0:
192,192,108948,1,8,0:0:0:0:
192,192,109248,1,8,0:0:0:0:
320,192,109398,1,0,0:0:0:0:
64,192,109548,1,8,0:0:0:0:
448,192,109848,128,8,110148:0:0:0:0:
64,192,110148,128,0,110448:0:0:0:0:
320,192,110448,1,8,0:0:0:0:
192,192,110673,1,8,0:0:0:0:
320,192,110898,1,8,0:0:0:0:
64,192,111048,1,0,0:0:0:70:Cymbol.wav
448,192,111348,1,8,0:0:0:0:
192,192,111648,1,8,0:0:0:0:
448,192,111948,1,8,0:0:0:0:
320,192,112248,1,8,0:0:0:0:
192,192,112548,1,8,0:0:0:0:
64,192,112848,128,8,113148:0:0:0:0:
448,192,113148,1,8,0:0:0:0:
320,192,113298,1,0,0:0:0:0:
64,192,113448,1,0,0:0:0:0:
192,192,113598,1,0,0:0:0:0:
448,192,113748,1,0,0:0:0:0:
320,192,113898,1,0,0:0:0:0:
192,192,114048,1,8,0:0:0:0:
64,192,114048,1,0,0:0:0:70:Cymbol.wav
320,192,114235,1,8,0:0:0:0:
192,192,114348,1,0,0:0:0:0:
64,192,114648,1,8,0:0:0:0:
320,192,114648,1,0,0:0:0:0:
192,192,114948,1,0,0:0:0:70:Snare.wav
448,192,114948,1,0,0:0:0:0:
64,192,115248,128,0,115548:0:0:0:0:
448,192,115248,128,0,115548:0:0:0:0:
192,192,115548,1,0,0:0:0:0:
320,192,115698,1,0,0:0:0:0:
64,192,115848,1,0,0:0:0:70:Snare.wav
448,192,115848,1,8,0:0:0:0:
192,192,116148,1,8,0:0:0:0:
320,192,116598,1,8,0:0:0:0:
64,192,117048,1,0,0:0:0:70:Snare.wav
448,192,117048,1,0,0:0:0:0:
320,192,117348,1,8,0:0:0:0:
192,192,117648,1,8,0:0:0:0:
320,192,118248,1,0,0:0:0:70:Snare.wav
448,192,118248,1,0,0:0:0:0:
64,192,118548,1,8,0:0:0:0:
320,192,118998,128,8,119298:0:0:0:0:
64,192,119298,1,0,0:0:0:70:Snare.wav
448,192,119298,1,0,0:0:0:0:
192,192,119448,128,8,119748:0:0:0:0:
320,192,119748,128,8,120048:0:0:0:0:
64,192,120048,1,8,0:0:0:0:
192,192,120048,1,0,0:0:0:0:
320,192,120348,1,0,0:0:0:0:
192,192,120498,1,0,0:0:0:0:
64,192,120648,1,0,0:0:0:70:Snare.wav
448,192,120648,1,8,0:0:0:0:
320,192,120948,1,8,0:0:0:0:
192,192,121398,1,8,0:0:0:0:
320,192,121848,1,0,0:0:0:70:Snare.wav
448,192,121848,1,0,0:0:0:0:
64,192,122148,1,8,0:0:0:0:
192,192,122448,1,8,0:0:0:0:
448,192,122448,1,0,0:0:0:70:Cymbol.wav
448,192,122748,1,0,0:0:0:0:
192,192,123048,1,8,0:0:0:0:
192,192,123348,1,8,0:0:0:0:
320,192,123648,128,0,123948:0:0:0:70:Snare.wav
64,192,124248,1,8,0:0:0:0:
192,192,124398,1,8,0:0:0:0:
448,192,124548,1,8,0:0:0:0:
320,192,124698,1,8,0:0:0:0:
64,192,124848,128,8,125148:0:0:0:0:
192,192,124848,128,0,125148:0:0:0:0:
448,192,125148,1,0,0:0:0:0:
320,192,125298,1,0,0:0:0:0:
192,192,125448,1,0,0:0:0:70:Snare.wav
64,192,125448,1,8,0:0:0:0:
448,192,125748,1,8,0:0:0:0:
320,192,126198,1,8,0:0:0:0:
192,192,126648,1,0,0:0:0:70:Snare.wav
64,192,126648,1,0,0:0:0:0:
320,192,126948,1,8,0:0:0:0:
448,192,127248,1,8,0:0:0:0:
64,192,127848,1,0,0:0:0:70:Snare.wav
192,192,127848,1,0,0:0:0:0:
448,192,128148,1,8,0:0:0:0:
64,192,128598,128,8,128898:0:0:0:0:
320,192,128898,1,0,0:0:0:70:Snare.wav
448,192,128898,1,0,0:0:0:0:
192,192,129048,128,8,129348:0:0:0:0:
448,192,129348,128,8,129648:0:0:0:0:
192,192,129648,1,8,0:0:0:0:
64,192,129648,1,0,0:0:0:0:
320,192,129948,1,0,0:0:0:0:
192,192,130098,1,0,0:0:0:0:
64,192,130248,1,0,0:0:0:70:Cymbol.wav
320,192,130548,1,0,0:0:0:70:Snare.wav
448,192,130548,1,0,0:0:0:0:
448,192,130998,1,0,0:0:0:70:Snare.wav
320,192,130998,1,0,0:0:0:0:
192,192,131448,1,0,0:0:0:70:Snare.wav
64,192,131448,1,0,0:0:0:0:
192,192,131673,1,0,0:0:0:0:
320,192,131748,128,8,132048:0:0:0:0:
64,192,132048,1,8,0:0:0:0:
64,192,132273,1,0,0:0:0:0:
192,192,132498,1,0,0:0:0:0:
448,192,132648,128,0,132948:0:0:0:0:
192,192,132948,1,0,0:0:0:70:Cymbol.wav
320,192,133248,1,8,0:0:0:0:
448,192,133248,1,0,0:0:0:0:
64,192,133473,1,0,0:0:0:0:
192,192,133473,1,0,0:0:0:0:
320,192,133848,1,8,0:0:0:0:
448,192,133848,1,0,0:0:0:0:
192,192,134448,1,8,0:0:0:0:
64,192,134448,128,0,138048:0:0:0:20:bell.wav
448,192,138048,128,0,141648:0:0:0:0:
192,192,141648,128,0,142848:0:0:0:0:
320,192,142848,128,0,144048:0:0:0:0:
64,192,144048,1,8,0:0:0:0:
448,192,144048,1,0,0:0:0:20:bell.wav
192,192,144348,1,0,0:0:0:0:
320,192,144648,1,0,0:0:0:0:
448,192,144948,1,0,0:0:0:0:
192,192,145248,1,0,0:0:0:0:
64,192,145548,1,0,0:0:0:0:
448,192,145848,1,0,0:0:0:0:
320,192,146148,1,0,0:0:0:0:
192,192,146448,1,0,0:0:0:0:
448,192,146748,1,0,0:0:0:0:
64,192,147048,1,0,0:0:0:0:
320,192,147348,1,0,0:0:0:0:
64,192,147648,1,0,0:0:0:0:
448,192,147948,1,0,0:0:0:0:
320,192,148248,1,0,0:0:0:0:
192,192,148548,1,0,0:0:0:0:
448,192,148848,1,0,0:0:0:0:
64,192,149148,1,0,0:0:0:0:
320,192,149448,1,0,0:0:0:0:
192,192,149748,1,0,0:0:0:0:
64,192,150048,1,0,0:0:0:0:
192,192,150348,1,0,0:0:0:0:
320,192,150648,1,0,0:0:0:0:
448,192,150948,1,0,0:0:0:0:
192,192,151248,1,0,0:0:0:0:
448,192,151548,1,0,0:0:0:0:
64,192,151848,1,0,0:0:0:0:
320,192,152148,1,0,0:0:0:0:
192,192,152448,1,8,0:0:0:0:
64,192,152448,1,0,0:0:0:50:Cymbol.wav
448,192,153048,128,0,153648:0:0:0:0:
192,192,153648,1,8,0:0:0:0:
64,192,153648,1,0,0:0:0:20:Clap.wav
64,192,153948,1,0,0:0:0:20:Clap.wav
448,192,154248,1,0,0:0:0:20:Clap.wav
320,192,154548,1,0,0:0:0:20:Clap.wav
64,192,154848,1,0,0:0:0:20:Clap.wav
192,192,155148,1,0,0:0:0:20:Clap.wav
320,192,155448,1,0,0:0:0:20:Clap.wav
448,192,155748,1,0,0:0:0:20:Clap.wav
192,192,156048,1,0,0:0:0:20:Clap.wav
64,192,156348,1,0,0:0:0:20:Clap.wav
320,192,156648,1,0,0:0:0:20:Clap.wav
448,192,156948,1,0,0:0:0:20:Clap.wav
64,192,157248,1,0,0:0:0:20:Clap.wav
192,192,157548,1,0,0:0:0:20:Clap.wav
448,192,157848,1,0,0:0:0:20:Clap.wav
320,192,158148,1,0,0:0:0:20:Clap.wav
192,192,158448,1,0,0:0:0:70:Cymbol.wav
64,192,158448,1,8,0:0:0:0:
64,192,158748,1,0,0:0:0:0:
320,192,159048,1,0,0:0:0:70:Snare.wav
448,192,159048,1,0,0:0:0:0:
192,192,159348,1,8,0:0:0:0:
320,192,159648,1,0,0:0:0:0:
448,192,159948,1,0,0:0:0:0:
192,192,160248,1,0,0:0:0:70:Snare.wav
64,192,160248,1,0,0:0:0:0:
320,192,160548,1,0,0:0:0:0:
64,192,160848,1,8,0:0:0:0:
448,192,161148,1,0,0:0:0:0:
192,192,161448,1,0,0:0:0:70:Snare.wav
64,192,161448,1,0,0:0:0:0:
320,192,161748,1,8,0:0:0:0:
448,192,162048,1,0,0:0:0:0:
320,192,162348,1,0,0:0:0:70:Snare.wav
64,192,162498,1,8,0:0:0:0:
448,192,162648,1,0,0:0:0:0:
320,192,162798,1,0,0:0:0:70:Snare.wav
192,192,162948,128,0,163248:0:0:0:0:
64,192,163248,1,8,0:0:0:0:
448,192,163248,1,0,0:0:0:70:Cymbol.wav
320,192,163548,1,8,0:0:0:0:
64,192,163848,1,8,0:0:0:0:
192,192,164148,1,8,0:0:0:0:
320,192,164448,1,8,0:0:0:0:
448,192,164748,1,8,0:0:0:0:
192,192,165048,1,8,0:0:0:0:
64,192,165348,1,8,0:0:0:0:
448,192,165648,1,8,0:0:0:0:
320,192,165948,1,8,0:0:0:0:
64,192,166248,1,8,0:0:0:0:
192,192,166548,1,8,0:0:0:0:
448,192,166848,1,8,0:0:0:0:
64,192,167148,1,8,0:0:0:0:
192,192,167448,1,8,0:0:0:0:
320,192,167748,1,8,0:0:0:0:
448,192,168048,1,0,0:0:0:0:
320,192,168198,1,0,0:0:0:0:
64,192,168348,1,0,0:0:0:0:
192,192,168498,1,0,0:0:0:0:
448,192,168648,1,0,0:0:0:0:
320,192,168798,1,0,0:0:0:0:
64,192,168948,1,0,0:0:0:0:
192,192,169098,1,0,0:0:0:0:
320,192,169248,1,0,0:0:0:0:
320,192,169398,1,0,0:0:0:0:
192,192,169548,1,0,0:0:0:0:
192,192,169698,1,0,0:0:0:0:
448,192,169848,1,0,0:0:0:0:
448,192,169998,1,0,0:0:0:0:
64,192,170148,1,0,0:0:0:0:
64,192,170298,1,0,0:0:0:0:
320,192,170448,1,0,0:0:0:70:Cymbol.wav
448,192,170448,1,8,0:0:0:0:
64,192,171648,1,8,0:0:0:0:
192,192,171648,1,0,0:0:0:0:
448,192,171798,128,0,172098:0:0:0:0:
192,192,172248,1,0,0:0:0:0:
320,192,172548,1,0,0:0:0:0:
64,192,172848,1,0,0:0:0:40:Cymbol.wav
448,192,172848,1,0,0:0:0:10:Clap.wav
320,192,173048,1,0,0:0:0:10:Clap.wav
192,192,173148,1,0,0:0:0:10:Clap.wav
320,192,173448,1,0,0:0:0:10:Clap.wav
448,192,173448,1,0,0:0:0:0:
192,192,173748,1,0,0:0:0:0:
64,192,174048,1,8,0:0:0:0:
192,192,174198,1,0,0:0:0:0:
320,192,174348,1,0,0:0:0:10:Clap.wav
192,192,174648,1,0,0:0:0:10:Clap.wav
64,192,174648,1,0,0:0:0:0:
448,192,175248,1,8,0:0:0:0:
320,192,175398,1,8,0:0:0:0:
64,192,175548,1,8,0:0:0:0:
192,192,175698,1,0,0:0:0:0:
448,192,175848,1,0,0:0:0:0:
320,192,175998,1,0,0:0:0:0:
64,192,176148,1,8,0:0:0:0:
192,192,176298,1,8,0:0:0:0:
448,192,176448,1,8,0:0:0:0:
320,192,176598,1,0,0:0:0:0:
192,192,176748,1,8,0:0:0:0:
64,192,176898,1,8,0:0:0:0:
320,192,177048,1,0,0:0:0:0:
448,192,177048,128,0,177348:0:0:0:0:
64,192,177348,128,8,177648:0:0:0:0:
320,192,177648,1,8,0:0:0:0:
192,192,177798,1,0,0:0:0:0:
64,192,177948,128,0,178248:0:0:0:0:
448,192,178248,1,8,0:0:0:0:
320,192,178398,1,8,0:0:0:0:
64,192,178548,1,8,0:0:0:0:
192,192,178698,1,8,0:0:0:0:
320,192,178848,1,8,0:0:0:0:
448,192,178998,1,8,0:0:0:0:
192,192,179148,1,8,0:0:0:0:
64,192,179298,1,8,0:0:0:0:
448,192,179448,1,8,0:0:0:0:
320,192,179598,1,8,0:0:0:0:
64,192,179748,1,8,0:0:0:0:
320,192,179898,1,8,0:0:0:0:
192,192,180048,1,8,0:0:0:0:
448,192,180198,1,8,0:0:0:0:
192,192,180348,1,8,0:0:0:0:
320,192,180498,1,8,0:0:0:0:
448,192,180648,1,8,0:0:0:0:
64,192,180798,1,8,0:0:0:0:
448,192,180948,1,8,0:0:0:0:
320,192,181098,1,8,0:0:0:0:
192,192,181248,1,8,0:0:0:0:
64,192,181248,128,0,181548:0:0:0:0:
448,192,181548,1,8,0:0:0:0:
320,192,181698,1,8,0:0:0:0:
192,192,181848,128,0,182148:0:0:0:0:
64,192,182148,1,0,0:0:0:70:Cymbol.wav
448,192,182148,1,8,0:0:0:0:
320,192,182298,1,0,0:0:0:0:
192,192,182448,128,0,182748:0:0:0:0:
64,192,182448,128,0,182748:0:0:0:0:
448,192,182748,1,8,0:0:0:0:
320,192,182898,1,0,0:0:0:0:
192,192,183048,1,8,0:0:0:0:
64,192,183048,1,0,0:0:0:70:Cymbol.wav
448,192,183198,1,0,0:0:0:0:
64,192,183348,1,8,0:0:0:0:
448,192,183498,1,0,0:0:0:0:
64,192,183648,1,8,0:0:0:0:
320,192,183798,1,0,0:0:0:0:
192,192,183948,1,8,0:0:0:0:
320,192,184098,1,0,0:0:0:0:
64,192,184248,1,8,0:0:0:0:
448,192,184398,1,0,0:0:0:0:
320,192,184548,1,8,0:0:0:0:
192,192,184698,1,0,0:0:0:0:
448,192,184848,1,8,0:0:0:0:
64,192,184998,1,0,0:0:0:0:
192,192,185148,1,8,0:0:0:0:
320,192,185298,1,0,0:0:0:0:
64,192,185448,1,8,0:0:0:0:
192,192,185598,1,0,0:0:0:0:
448,192,185748,1,8,0:0:0:0:
320,192,185898,1,0,0:0:0:0:
192,192,186048,1,8,0:0:0:0:
320,192,186198,1,0,0:0:0:0:
64,192,186348,1,8,0:0:0:0:
192,192,186498,1,0,0:0:0:0:
64,192,186648,128,8,186948:0:0:0:0:
448,192,186648,1,0,0:0:0:0:
320,192,186948,128,0,187248:0:0:0:0:
192,192,187248,1,0,0:0:0:70:Cymbol.wav
448,192,187548,1,0,0:0:0:0:
320,192,187698,1,0,0:0:0:0:
192,192,187848,1,8,0:0:0:0:
64,192,187848,1,0,0:0:0:0:
448,192,187998,1,0,0:0:0:0:
192,192,188148,1,8,0:0:0:0:
320,192,188298,1,0,0:0:0:0:
64,192,188448,1,8,0:0:0:0:
320,192,188598,1,0,0:0:0:0:
192,192,188748,1,8,0:0:0:0:
448,192,188898,1,0,0:0:0:0:
192,192,189048,1,8,0:0:0:0:
320,192,189198,1,0,0:0:0:0:
64,192,189348,128,8,189648:0:0:0:0:
448,192,189648,1,8,0:0:0:0:
192,192,189798,1,0,0:0:0:0:
320,192,189948,1,8,0:0:0:0:
64,192,190098,1,0,0:0:0:0:
192,192,190248,1,0,0:0:0:0:
448,192,190398,1,0,0:0:0:0:
320,192,190548,1,0,0:0:0:0:
192,192,190698,1,0,0:0:0:0:
64,192,190848,1,8,0:0:0:0:
448,192,190848,128,0,191148:0:0:0:0:
192,192,191148,1,0,0:0:0:0:
320,192,191448,1,8,0:0:0:0:
448,192,191448,1,0,0:0:0:0:
192,192,191748,1,0,0:0:0:70:Snare.wav
64,192,191748,1,0,0:0:0:0:
448,192,192048,1,0,0:0:0:0:
320,192,192123,1,0,0:0:0:0:
192,192,192198,1,0,0:0:0:0:
64,192,192348,1,0,0:0:0:0:
192,192,192498,1,0,0:0:0:0:
320,192,192648,1,8,0:0:0:0:
448,192,192648,1,0,0:0:0:70:Cymbol.wav
448,192,192948,1,8,0:0:0:0:
192,192,193248,1,8,0:0:0:0:
192,192,193548,1,8,0:0:0:0:
320,192,193848,1,8,0:0:0:0:
320,192,194148,1,8,0:0:0:0:
64,192,194448,1,8,0:0:0:0:
192,192,194598,1,0,0:0:0:0:
64,192,194748,1,0,0:0:0:0:
448,192,194898,1,8,0:0:0:0:
320,192,195048,1,0,0:0:0:0:
448,192,195198,1,0,0:0:0:0:
192,192,195348,1,8,0:0:0:0:
320,192,195498,1,0,0:0:0:0:
192,192,195648,1,0,0:0:0:0:
320,192,195798,1,8,0:0:0:0:
448,192,195948,1,0,0:0:0:0:
320,192,196098,1,0,0:0:0:0:
64,192,196248,128,8,196548:0:0:0:0:
192,192,196248,1,0,0:0:0:0:
320,192,196548,128,0,196848:0:0:0:0:
192,192,196848,1,8,0:0:0:0:
320,192,197073,1,8,0:0:0:0:
192,192,197298,1,8,0:0:0:0:
448,192,197448,1,0,0:0:0:70:Cymbol.wav
64,192,197448,1,8,0:0:0:0:
448,192,197748,1,8,0:0:0:0:
64,192,198048,1,8,0:0:0:0:
64,192,198348,1,8,0:0:0:0:
320,192,198648,1,8,0:0:0:0:
320,192,198948,1,8,0:0:0:0:
192,192,199248,1,0,0:0:0:70:Cymbol.wav
448,192,199398,1,0,0:0:0:0:
64,192,199548,1,0,0:0:0:0:
320,192,199698,1,8,0:0:0:0:
192,192,199848,1,8,0:0:0:0:
448,192,199998,1,0,0:0:0:0:
64,192,200148,1,8,0:0:0:0:
192,192,200298,1,8,0:0:0:0:
320,192,200448,1,0,0:0:0:70:Cymbol.wav
448,192,200448,1,8,0:0:0:0:
192,192,201048,1,8,0:0:0:0:
320,192,201198,1,8,0:0:0:0:
64,192,201348,1,0,0:0:0:70:Snare.wav
448,192,201348,1,0,0:0:0:0:
192,192,201648,128,0,201948:0:0:0:0:
320,192,201648,128,0,201948:0:0:0:0:
64,192,201948,1,8,0:0:0:0:
448,192,201948,1,0,0:0:0:70:Cymbol.wav
64,192,202248,1,8,0:0:0:0:
320,192,202548,1,8,0:0:0:0:
320,192,202848,1,8,0:0:0:0:
192,192,203148,1,8,0:0:0:0:
192,192,203448,1,8,0:0:0:0:
448,192,203748,1,8,0:0:0:0:
448,192,204048,1,8,0:0:0:0:
64,192,204348,1,8,0:0:0:0:
64,192,204648,1,8,0:0:0:0:
320,192,204948,1,8,0:0:0:0:
320,192,205248,1,8,0:0:0:0:
192,192,205548,1,8,0:0:0:0:
192,192,205848,128,8,206148:0:0:0:0:
448,192,206148,128,0,206448:0:0:0:0:
64,192,206448,1,8,0:0:0:0:
192,192,206673,1,8,0:0:0:0:
320,192,206898,1,8,0:0:0:0:
448,192,207048,1,8,0:0:0:0:
64,192,207048,1,0,0:0:0:70:Cymbol.wav
192,192,207348,1,8,0:0:0:0:
192,192,207648,1,8,0:0:0:0:
320,192,207948,1,8,0:0:0:0:
320,192,208248,1,8,0:0:0:0:
64,192,208548,1,8,0:0:0:0:
64,192,208848,1,8,0:0:0:0:
192,192,208998,1,0,0:0:0:0:
448,192,209148,1,8,0:0:0:0:
320,192,209298,1,0,0:0:0:0:
64,192,209448,1,0,0:0:0:0:
192,192,209598,1,0,0:0:0:0:
448,192,209748,1,0,0:0:0:0:
320,192,209898,1,0,0:0:0:0:
192,192,210048,1,0,0:0:0:70:Cymbol.wav
64,192,210048,1,8,0:0:0:0:
320,192,210235,1,0,0:0:0:0:
192,192,210348,1,8,0:0:0:0:
320,192,210648,1,8,0:0:0:0:
448,192,210648,1,0,0:0:0:0:
192,192,210948,1,0,0:0:0:70:Snare.wav
64,192,210948,1,0,0:0:0:0:
448,192,211248,1,8,0:0:0:0:
192,192,211398,1,8,0:0:0:0:
320,192,211548,1,8,0:0:0:0:
448,192,211548,1,0,0:0:0:0:
64,192,211698,1,0,0:0:0:0:
448,192,211848,1,8,0:0:0:0:
192,192,211998,1,0,0:0:0:0:
448,192,212148,1,8,0:0:0:0:
320,192,212298,1,0,0:0:0:0:
64,192,212448,1,8,0:0:0:0:
448,192,212598,1,0,0:0:0:0:
64,192,212748,1,8,0:0:0:0:
192,192,212898,1,0,0:0:0:0:
448,192,213048,1,8,0:0:0:0:
320,192,213198,1,0,0:0:0:0:
192,192,213348,1,8,0:0:0:0:
64,192,213498,1,0,0:0:0:0:
320,192,213648,1,8,0:0:0:0:
448,192,213648,1,0,0:0:0:0:
192,192,213798,1,0,0:0:0:0:
448,192,213948,1,8,0:0:0:0:
320,192,214098,1,0,0:0:0:0:
64,192,214248,128,8,214548:0:0:0:0:
448,192,214548,1,8,0:0:0:0:
320,192,214698,1,0,0:0:0:0:
64,192,214848,1,8,0:0:0:0:
192,192,214998,1,0,0:0:0:0:
320,192,215148,1,8,0:0:0:0:
64,192,215298,1,0,0:0:0:0:
448,192,215448,1,8,0:0:0:0:
64,192,215598,1,8,0:0:0:0:
320,192,215748,1,0,0:0:0:70:Snare.wav
448,192,215748,1,0,0:0:0:0:
192,192,216048,1,8,0:0:0:0:
320,192,216198,1,0,0:0:0:0:
64,192,216348,1,8,0:0:0:0:
192,192,216498,1,0,0:0:0:0:
448,192,216648,1,8,0:0:0:0:
64,192,216798,1,0,0:0:0:0:
448,192,216948,1,8,0:0:0:0:
192,192,217098,1,0,0:0:0:0:
320,192,217248,1,8,0:0:0:0:
448,192,217398,1,0,0:0:0:0:
320,192,217548,1,8,0:0:0:0:
64,192,217698,1,0,0:0:0:0:
192,192,217848,1,8,0:0:0:0:
448,192,217998,1,0,0:0:0:0:
192,192,218148,1,8,0:0:0:0:
320,192,218298,1,0,0:0:0:0:
448,192,218448,1,8,0:0:0:0:
64,192,218448,1,0,0:0:0:0:
192,192,218598,1,0,0:0:0:0:
320,192,218748,1,8,0:0:0:0:
64,192,218898,1,0,0:0:0:0:
448,192,219048,1,8,0:0:0:0:
320,192,219198,1,0,0:0:0:0:
192,192,219348,1,8,0:0:0:0:
448,192,219498,1,0,0:0:0:0:
192,192,219648,1,0,0:0:0:70:Cymbol.wav
64,192,219648,128,8,219948:0:0:0:0:
448,192,219948,1,0,0:0:0:0:
192,192,220248,1,0,0:0:0:0:
320,192,220323,1,0,0:0:0:0:
448,192,220398,1,0,0:0:0:0:
192,192,220548,1,0,0:0:0:70:Snare.wav
64,192,220548,1,0,0:0:0:0:
320,192,220698,1,0,0:0:0:0:
448,192,220848,1,8,0:0:0:0:
320,192,220998,1,8,0:0:0:0:
192,192,221148,1,8,0:0:0:0:
64,192,221148,1,0,0:0:0:70:Cymbol.wav
448,192,221298,1,0,0:0:0:0:
64,192,221448,1,8,0:0:0:0:
320,192,221598,1,0,0:0:0:0:
64,192,221748,1,0,0:0:0:0:
448,192,221898,1,0,0:0:0:0:
64,192,222048,1,8,0:0:0:0:
192,192,222198,1,0,0:0:0:0:
448,192,222348,1,8,0:0:0:0:
320,192,222498,1,0,0:0:0:0:
448,192,222648,1,8,0:0:0:0:
64,192,222798,1,0,0:0:0:0:
320,192,222948,1,8,0:0:0:0:
192,192,223098,1,0,0:0:0:0:
64,192,223248,1,8,0:0:0:0:
320,192,223398,1,0,0:0:0:0:
64,192,223548,1,8,0:0:0:0:
320,192,223698,1,0,0:0:0:0:
192,192,223848,1,8,0:0:0:0:
320,192,223998,1,0,0:0:0:0:
448,192,224148,1,8,0:0:0:0:
64,192,224298,1,0,0:0:0:0:
320,192,224448,1,8,0:0:0:0:
192,192,224598,1,0,0:0:0:0:
448,192,224748,1,8,0:0:0:0:
320,192,224898,1,0,0:0:0:0:
64,192,225048,1,8,0:0:0:0:
192,192,225198,1,8,0:0:0:0:
320,192,225348,1,0,0:0:0:70:Snare.wav
448,192,225348,1,0,0:0:0:0:
64,192,225648,128,0,225948:0:0:0:0:
448,192,225948,1,0,0:0:0:0:
320,192,226098,1,0,0:0:0:0:
192,192,226248,1,8,0:0:0:0:
64,192,226248,1,0,0:0:0:70:Cymbol.wav
448,192,226398,1,0,0:0:0:0:
192,192,226548,1,0,0:0:0:70:Snare.wav
64,192,226548,1,0,0:0:0:0:
320,192,226698,1,0,0:0:0:0:
448,192,226848,1,0,0:0:0:0:
192,192,226998,1,0,0:0:0:70:Snare.wav
64,192,226998,1,0,0:0:0:0:
320,192,227148,1,0,0:0:0:0:
448,192,227298,1,0,0:0:0:0:
192,192,227448,1,0,0:0:0:70:Snare.wav
64,192,227448,1,0,0:0:0:0:
320,192,227598,1,0,0:0:0:0:
448,192,227748,128,8,228048:0:0:0:0:
64,192,228048,1,0,0:0:0:70:Cymbol.wav
192,192,228273,1,8,0:0:0:0:
320,192,228498,1,8,0:0:0:0:
64,192,228648,1,8,0:0:0:0:
192,192,228798,1,0,0:0:0:0:
320,192,228948,1,8,0:0:0:0:
448,192,228948,1,0,0:0:0:70:Cymbol.wav
192,192,229248,1,8,0:0:0:0:
64,192,229248,128,0,229548:0:0:0:0:
320,192,229548,128,8,229848:0:0:0:0:
192,192,229848,128,8,230148:0:0:0:0:
448,192,230148,1,0,0:0:0:0:
320,192,230298,1,0,0:0:0:0:
192,192,230448,1,8,0:0:0:0:
64,192,230448,1,0,0:0:0:40:Cymbol.wav
448,192,230748,1,8,0:0:0:0:
320,192,231048,1,8,0:0:0:0:
64,192,231348,1,8,0:0:0:0:
192,192,231648,1,8,0:0:0:0:
320,192,231948,1,8,0:0:0:0:
64,192,232248,1,8,0:0:0:0:
448,192,232548,1,8,0:0:0:0:
320,192,232848,1,8,0:0:0:0:
192,192,233148,1,8,0:0:0:0:
64,192,233448,1,8,0:0:0:0:
320,192,233748,1,8,0:0:0:0:
192,192,234048,1,8,0:0:0:0:
448,192,234348,1,8,0:0:0:0:
64,192,234648,128,8,234948:0:0:0:0:
320,192,234948,1,0,0:0:0:0:
192,192,235098,1,0,0:0:0:0:
64,192,235248,1,8,0:0:0:0:
448,192,235548,1,8,0:0:0:0:
192,192,235848,1,8,0:0:0:0:
320,192,236148,1,8,0:0:0:0:
64,192,236448,1,8,0:0:0:0:
448,192,236748,1,8,0:0:0:0:
192,192,237048,1,8,0:0:0:0:
320,192,237348,1,8,0:0:0:0:
64,192,237648,1,8,0:0:0:0:
192,192,237948,1,8,0:0:0:0:
448,192,238248,128,8,238548:0:0:0:0:
320,192,238548,1,8,0:0:0:0:
64,192,238848,1,0,0:0:0:70:Cymbol.wav
192,192,238848,1,8,0:0:0:0:
448,192,239148,1,0,0:0:0:0:
320,192,239448,1,8,0:0:0:0:
192,192,239748,1,0,0:0:0:0:
64,192,240048,1,0,0:0:0:70:Cymbol.wav
448,192,240048,1,8,0:0:0:0:
448,192,240348,1,8,0:0:0:0:
64,192,240648,1,8,0:0:0:0:
64,192,240948,1,8,0:0:0:0:
448,192,241248,1,8,0:0:0:0:
448,192,241548,1,8,0:0:0:0:
64,192,241848,1,8,0:0:0:0:
64,192,242148,1,8,0:0:0:0:
320,192,242448,1,8,0:0:0:0:
320,192,242748,1,8,0:0:0:0:
192,192,243048,1,8,0:0:0:0:
192,192,243348,1,8,0:0:0:0:
320,192,243648,1,8,0:0:0:0:
320,192,243948,1,8,0:0:0:0:
192,192,244248,128,8,244548:0:0:0:0:
448,192,244548,1,0,0:0:0:0:
320,192,244698,1,0,0:0:0:0:
192,192,244848,1,0,0:0:0:70:Cymbol.wav
64,192,244848,1,8,0:0:0:0:
320,192,245148,1,8,0:0:0:0:
448,192,245148,1,0,0:0:0:0:
192,192,245448,1,8,0:0:0:0:
64,192,245448,1,0,0:0:0:0:
320,192,245748,1,8,0:0:0:0:
448,192,245748,1,0,0:0:0:0:
64,192,245973,1,0,0:0:0:0:
192,192,246048,1,8,0:0:0:0:
448,192,246348,1,8,0:0:0:0:
320,192,246498,1,0,0:0:0:0:
192,192,246648,1,8,0:0:0:0:
64,192,246948,1,8,0:0:0:0:
448,192,246948,1,0,0:0:0:0:
320,192,247098,1,0,0:0:0:0:
192,192,247248,1,8,0:0:0:0:
64,192,247398,1,0,0:0:0:0:
448,192,247548,1,0,0:0:0:0:
320,192,247698,1,0,0:0:0:0:
64,192,247848,1,0,0:0:0:0:
192,192,247998,1,0,0:0:0:0:
448,192,248148,1,0,0:0:0:0:
320,192,248298,1,0,0:0:0:0:
192,192,248448,1,8,0:0:0:0:
64,192,248448,1,0,0:0:0:0:
448,192,248598,1,0,0:0:0:0:
64,192,248748,1,0,0:0:0:0:
192,192,248898,1,0,0:0:0:0:
320,192,249048,1,0,0:0:0:70:Snare.wav
448,192,249048,1,0,0:0:0:0:
64,192,249198,1,0,0:0:0:0:
192,192,249348,128,0,249648:0:0:0:0:
320,192,249648,1,8,0:0:0:0:
448,192,249648,1,0,0:0:0:0:
