osu file format v14

[General]
AudioFilename: audio.mp3
AudioLeadIn: 0
PreviewTime: 76850
Countdown: 0
SampleSet: Soft
StackLeniency: 0.7
Mode: 3
LetterboxInBreaks: 0
SpecialStyle: 0
WidescreenStoryboard: 0

[Editor]
DistanceSpacing: 0.8
BeatDivisor: 4
GridSize: 32
TimelineZoom: 1.4

[Metadata]
Title:Trigger (Zekk Remix)
TitleUnicode:Trigger (Zekk Remix)
Artist:Dustvoxx
ArtistUnicode:Dustvoxx
Creator:Wonki
Version:Hard
Source:
Tags:SUPERNATURAL Pumpcore Hardtek CYCLIK CONTROL.
BeatmapID:1175035
BeatmapSetID:555076

[Difficulty]
HPDrainRate:7.5
CircleSize:4
OverallDifficulty:7.5
ApproachRate:5
SliderMultiplier:1.4
SliderTickRate:1

[Events]
//Background and Video events
0,0,"1234.jpg",0,0
//Break Periods
//Storyboard Layer 0 (Background)
//Storyboard Layer 1 (Fail)
//Storyboard Layer 2 (Pass)
//Storyboard Layer 3 (Foreground)
//Storyboard Sound Samples
Sample,57648,0,"Clap.wav",20
Sample,77448,0,"Snare.wav",70
Sample,153648,0,"Snare.wav",50
Sample,173298,0,"Clap.wav",10
Sample,207348,0,"Cymbol.wav",40
Sample,230448,0,"Snare.wav",40

[TimingPoints]
48,300,4,2,1,40,1,0
77448,-100,4,2,1,40,0,1
94848,-100,4,2,1,40,0,0
175248,-100,4,2,1,40,0,1
190848,-100,4,2,1,40,0,0

[HitObjects]
64,192,48,5,8,0:0:0:0:
192,192,48,1,0,0:0:0:0:
320,192,348,1,8,0:0:0:0:
448,192,348,1,0,0:0:0:0:
64,192,648,1,8,0:0:0:0:
448,192,648,1,0,0:0:0:0:
320,192,948,1,8,0:0:0:0:
64,192,948,1,0,0:0:0:0:
192,192,1248,1,8,0:0:0:0:
64,192,1248,1,0,0:0:0:0:
320,192,1548,1,8,0:0:0:0:
448,192,1548,1,0,0:0:0:0:
64,192,1848,1,8,0:0:0:0:
320,192,1848,1,0,0:0:0:0:
192,192,2148,1,8,0:0:0:0:
448,192,2148,1,0,0:0:0:0:
64,192,2448,1,8,0:0:0:0:
192,192,2448,1,0,0:0:0:0:
320,192,2748,1,8,0:0:0:0:
448,192,2748,1,0,0:0:0:0:
64,192,3048,1,8,0:0:0:0:
448,192,3048,1,0,0:0:0:0:
320,192,3348,1,8,0:0:0:0:
192,192,3348,1,0,0:0:0:0:
64,192,3648,1,8,0:0:0:0:
320,192,3648,1,0,0:0:0:0:
192,192,3948,1,8,0:0:0:0:
448,192,3948,1,0,0:0:0:0:
320,192,4248,128,8,4548:0:0:0:0:
64,192,4248,1,0,0:0:0:0:
192,192,4548,1,0,0:0:0:0:
320,192,4698,1,0,0:0:0:0:
64,192,4848,1,8,0:0:0:0:
448,192,4848,1,0,0:0:0:0:
192,192,5148,1,8,0:0:0:0:
64,192,5148,1,0,0:0:0:0:
320,192,5448,1,8,0:0:0:0:
448,192,5448,1,0,0:0:0:0:
192,192,5748,1,8,0:0:0:0:
448,192,5748,1,0,0:0:0:0:
192,192,6048,1,8,0:0:0:0:
64,192,6048,1,0,0:0:0:0:
64,192,6348,1,8,0:0:0:0:
448,192,6348,1,0,0:0:0:0:
320,192,6648,1,8,0:0:0:0:
448,192,6648,1,0,0:0:0:0:
192,192,6948,1,8,0:0:0:0:
64,192,6948,1,0,0:0:0:0:
192,192,7248,1,8,0:0:0:0:
448,192,7248,1,0,0:0:0:0:
320,192,7548,1,8,0:0:0:0:
192,192,7548,1,0,0:0:0:0:
64,192,7848,1,8,0:0:0:0:
448,192,7848,1,0,0:0:0:0:
192,192,7923,1,0,0:0:0:0:
448,192,7998,1,0,0:0:0:0:
320,192,8073,1,0,0:0:0:0:
64,192,8148,1,8,0:0:0:0:
192,192,8148,1,0,0:0:0:0:
64,192,8448,1,8,0:0:0:0:
320,192,8448,1,0,0:0:0:0:
448,192,8448,1,0,0:0:0:0:
192,192,9048,1,0,0:0:0:0:
320,192,9198,1,0,0:0:0:0:
64,192,9348,1,0,0:0:0:0:
192,192,9498,1,0,0:0:0:0:
320,192,9573,1,0,0:0:0:0:
64,192,9648,1,8,0:0:0:0:
448,192,9648,1,0,0:0:0:0:
320,192,9798,1,0,0:0:0:0:
192,192,9948,1,8,0:0:0:0:
64,192,9948,1,0,0:0:0:0:
448,192,10098,128,0,10248:0:0:0:0:
64,192,10248,1,8,0:0:0:0:
192,192,10248,1,0,0:0:0:0:
448,192,10398,128,0,10548:0:0:0:0:
192,192,10548,1,8,0:0:0:0:
320,192,10698,1,0,0:0:0:0:
448,192,10848,1,8,0:0:0:0:
64,192,10848,128,0,10998:0:0:0:0:
192,192,10998,1,0,0:0:0:0:
320,192,11148,1,8,0:0:0:0:
448,192,11148,1,0,0:0:0:0:
64,192,11298,128,0,11448:0:0:0:0:
320,192,11448,1,8,0:0:0:0:
448,192,11448,1,0,0:0:0:0:
192,192,11598,1,0,0:0:0:0:
64,192,11748,1,8,0:0:0:0:
448,192,11748,128,0,11898:0:0:0:0:
320,192,11898,128,0,12048:0:0:0:0:
192,192,12048,1,8,0:0:0:0:
64,192,12048,1,0,0:0:0:0:
448,192,12198,1,0,0:0:0:0:
320,192,12348,1,8,0:0:0:0:
64,192,12348,1,0,0:0:0:0:
192,192,12498,128,0,12648:0:0:0:0:
448,192,12648,1,8,0:0:0:0:
320,192,12648,1,0,0:0:0:0:
192,192,12798,128,0,12948:0:0:0:0:
64,192,12948,1,8,0:0:0:0:
448,192,12948,1,0,0:0:0:0:
320,192,13098,1,0,0:0:0:0:
192,192,13248,1,8,0:0:0:0:
64,192,13248,128,0,13398:0:0:0:0:
448,192,13398,1,0,0:0:0:0:
320,192,13548,1,8,0:0:0:0:
192,192,13548,1,0,0:0:0:0:
64,192,13698,128,0,13848:0:0:0:0:
320,192,13848,1,8,0:0:0:0:
448,192,13848,128,0,14148:0:0:0:0:
192,192,14148,1,0,0:0:0:0:
320,192,14298,1,0,0:0:0:0:
64,192,14448,1,0,0:0:0:70:Cymbol.wav
448,192,14448,1,8,0:0:0:0:
320,192,14748,1,8,0:0:0:0:
448,192,14748,1,0,0:0:0:0:
192,192,15048,1,8,0:0:0:0:
64,192,15048,1,0,0:0:0:0:
320,192,15348,1,8,0:0:0:0:
448,192,15348,1,0,0:0:0:0:
64,192,15573,1,0,0:0:0:0:
192,192,15573,1,0,0:0:0:0:
320,192,15648,1,8,0:0:0:0:
448,192,15648,1,0,0:0:0:0:
64,192,15948,1,8,0:0:0:0:
320,192,15948,1,0,0:0:0:0:
192,192,16098,1,0,0:0:0:0:
64,192,16248,1,8,0:0:0:0:
320,192,16248,1,0,0:0:0:0:
448,192,16398,1,0,0:0:0:0:
64,192,16548,1,8,0:0:0:0:
320,192,16548,1,0,0:0:0:0:
192,192,16698,1,0,0:0:0:0:
448,192,16698,1,0,0:0:0:0:
320,192,16848,1,0,0:0:0:0:
448,192,16848,1,0,0:0:0:0:
64,192,16923,1,0,0:0:0:0:
192,192,16998,1,0,0:0:0:0:
320,192,17073,1,0,0:0:0:0:
448,192,17148,1,0,0:0:0:0:
64,192,17223,1,0,0:0:0:0:
192,192,17298,1,0,0:0:0:0:
320,192,17373,1,0,0:0:0:0:
448,192,17448,1,0,0:0:0:0:
64,192,17523,1,0,0:0:0:0:
192,192,17598,1,0,0:0:0:0:
320,192,17673,1,0,0:0:0:0:
448,192,17748,1,0,0:0:0:0:
64,192,17823,1,0,0:0:0:0:
192,192,17898,1,0,0:0:0:0:
320,192,17973,1,0,0:0:0:0:
448,192,18048,1,8,0:0:0:0:
64,192,18048,1,0,0:0:0:0:
192,192,18123,1,0,0:0:0:0:
320,192,18198,1,0,0:0:0:0:
448,192,18348,1,0,0:0:0:0:
320,192,18498,1,0,0:0:0:0:
192,192,18648,1,0,0:0:0:70:Snare.wav
64,192,18648,1,0,0:0:0:0:
320,192,18798,1,0,0:0:0:0:
192,192,18948,1,0,0:0:0:0:
320,192,19098,1,0,0:0:0:0:
192,192,19248,1,8,0:0:0:0:
64,192,19248,1,0,0:0:0:0:
320,192,19398,1,8,0:0:0:0:
448,192,19398,1,0,0:0:0:0:
192,192,19548,1,0,0:0:0:70:Cymbol.wav
64,192,19548,1,8,0:0:0:0:
448,192,19698,1,0,0:0:0:0:
320,192,19848,1,8,0:0:0:0:
64,192,19848,1,0,0:0:0:0:
192,192,19998,1,0,0:0:0:0:
320,192,20148,1,8,0:0:0:0:
448,192,20148,1,0,0:0:0:0:
192,192,20298,1,0,0:0:0:0:
64,192,20448,1,8,0:0:0:0:
448,192,20448,1,0,0:0:0:0:
320,192,20598,1,0,0:0:0:0:
192,192,20748,1,8,0:0:0:0:
64,192,20748,1,0,0:0:0:0:
320,192,20898,1,0,0:0:0:0:
448,192,21048,1,8,0:0:0:0:
64,192,21048,1,0,0:0:0:0:
192,192,21198,1,0,0:0:0:0:
448,192,21348,1,8,0:0:0:0:
320,192,21348,128,0,21498:0:0:0:0:
64,192,21498,128,0,21648:0:0:0:0:
320,192,21648,1,8,0:0:0:0:
448,192,21648,1,0,0:0:0:0:
192,192,21798,1,0,0:0:0:0:
64,192,21948,1,8,0:0:0:0:
320,192,21948,1,0,0:0:0:0:
448,192,22098,1,0,0:0:0:0:
192,192,22248,1,8,0:0:0:0:
64,192,22248,1,0,0:0:0:0:
320,192,22398,1,0,0:0:0:0:
448,192,22548,1,8,0:0:0:0:
64,192,22548,1,0,0:0:0:0:
192,192,22698,1,0,0:0:0:0:
320,192,22848,1,8,0:0:0:0:
448,192,22848,128,0,22998:0:0:0:0:
64,192,22998,1,0,0:0:0:0:
192,192,23148,1,8,0:0:0:0:
448,192,23148,128,0,23298:0:0:0:0:
320,192,23298,1,0,0:0:0:0:
64,192,23448,1,8,0:0:0:0:
448,192,23448,1,0,0:0:0:0:
192,192,23598,1,8,0:0:0:0:
320,192,23748,1,0,0:0:0:70:Snare.wav
448,192,23748,1,0,0:0:0:0:
64,192,23748,1,0,0:0:0:0:
64,192,24048,1,8,0:0:0:0:
192,192,24048,1,0,0:0:0:0:
448,192,24198,128,0,24498:0:0:0:0:
64,192,24498,128,0,24648:0:0:0:0:
320,192,24648,128,8,24798:0:0:0:0:
192,192,24798,128,0,24948:0:0:0:0:
64,192,24948,128,8,25098:0:0:0:0:
320,192,25098,128,0,25248:0:0:0:0:
448,192,25248,128,8,25398:0:0:0:0:
320,192,25398,128,0,25698:0:0:0:0:
192,192,25698,128,0,25998:0:0:0:0:
448,192,25998,128,0,26148:0:0:0:0:
320,192,26148,128,8,26448:0:0:0:0:
64,192,26448,1,8,0:0:0:0:
192,192,26448,1,0,0:0:0:0:
448,192,26598,1,0,0:0:0:0:
320,192,26748,1,8,0:0:0:0:
64,192,26748,128,0,27048:0:0:0:0:
448,192,27048,128,8,27198:0:0:0:0:
192,192,27198,128,0,27348:0:0:0:0:
320,192,27348,128,8,27498:0:0:0:0:
448,192,27498,128,0,27798:0:0:0:0:
192,192,27648,1,0,0:0:0:70:Cymbol.wav
64,192,27648,1,8,0:0:0:0:
320,192,27798,128,0,27948:0:0:0:0:
64,192,27948,128,0,28098:0:0:0:0:
192,192,28098,128,0,28248:0:0:0:0:
448,192,28248,128,0,28848:0:0:0:70:Snare.wav
320,192,28248,1,0,0:0:0:0:
64,192,28548,1,0,0:0:0:0:
192,192,28548,1,0,0:0:0:0:
320,192,28698,1,0,0:0:0:0:
192,192,28773,1,0,0:0:0:0:
64,192,28848,1,8,0:0:0:0:
320,192,28848,1,0,0:0:0:0:
192,192,28998,1,8,0:0:0:0:
448,192,28998,1,0,0:0:0:0:
320,192,29148,128,0,29298:0:0:0:70:Cymbol.wav
64,192,29148,1,8,0:0:0:0:
448,192,29298,128,0,29448:0:0:0:0:
192,192,29448,128,8,29598:0:0:0:0:
320,192,29598,128,0,29748:0:0:0:0:
448,192,29748,128,8,30048:0:0:0:0:
64,192,30048,128,8,30198:0:0:0:0:
192,192,30198,128,0,30498:0:0:0:0:
448,192,30498,128,0,30648:0:0:0:0:
64,192,30648,1,8,0:0:0:0:
192,192,30648,1,0,0:0:0:0:
320,192,30798,1,0,0:0:0:0:
448,192,30948,1,8,0:0:0:0:
64,192,30948,128,0,31098:0:0:0:0:
192,192,31098,128,0,31248:0:0:0:0:
320,192,31248,128,8,31548:0:0:0:0:
192,192,31548,128,8,31698:0:0:0:0:
448,192,31698,128,0,31848:0:0:0:0:
64,192,31848,128,8,31998:0:0:0:0:
320,192,31998,128,0,32148:0:0:0:0:
192,192,32148,128,8,32298:0:0:0:0:
448,192,32298,128,0,32448:0:0:0:0:
64,192,32448,128,8,32598:0:0:0:0:
320,192,32598,1,0,0:0:0:0:
192,192,32673,1,0,0:0:0:0:
64,192,32748,128,8,32898:0:0:0:0:
448,192,32898,128,0,33048:0:0:0:0:
192,192,33048,128,8,33348:0:0:0:0:
320,192,33048,1,0,0:0:0:0:
448,192,33198,1,8,0:0:0:0:
64,192,33348,1,0,0:0:0:70:Snare.wav
320,192,33348,1,0,0:0:0:0:
320,192,33648,128,0,33948:0:0:0:0:
448,192,33648,128,0,33948:0:0:0:0:
64,192,33948,1,0,0:0:0:0:
192,192,34098,1,0,0:0:0:0:
320,192,34248,1,8,0:0:0:0:
448,192,34248,1,0,0:0:0:0:
192,192,34398,1,0,0:0:0:0:
320,192,34548,1,0,0:0:0:70:Snare.wav
64,192,34548,1,0,0:0:0:0:
448,192,34698,1,0,0:0:0:0:
320,192,34848,1,0,0:0:0:0:
192,192,34998,1,0,0:0:0:70:Snare.wav
64,192,34998,1,0,0:0:0:0:
448,192,35148,1,0,0:0:0:0:
320,192,35298,1,0,0:0:0:0:
192,192,35448,1,0,0:0:0:70:Snare.wav
64,192,35448,1,0,0:0:0:0:
448,192,35598,1,0,0:0:0:0:
320,192,35748,1,8,0:0:0:0:
64,192,35748,1,0,0:0:0:0:
192,192,35898,1,0,0:0:0:0:
320,192,36048,1,8,0:0:0:0:
448,192,36048,1,0,0:0:0:0:
192,192,36198,1,0,0:0:0:0:
64,192,36273,1,8,0:0:0:0:
448,192,36273,1,0,0:0:0:0:
320,192,36423,1,0,0:0:0:0:
192,192,36498,1,8,0:0:0:0:
64,192,36498,1,0,0:0:0:0:
320,192,36648,1,0,0:0:0:0:
448,192,36648,1,0,0:0:0:0:
192,192,36798,1,0,0:0:0:0:
64,192,36948,1,8,0:0:0:0:
448,192,36948,1,0,0:0:0:0:
320,192,37098,1,0,0:0:0:0:
192,192,37248,1,0,0:0:0:70:Cymbol.wav
64,192,37248,1,0,0:0:0:0:
448,192,37248,128,0,37398:0:0:0:0:
320,192,37398,128,0,37548:0:0:0:0:
64,192,37548,128,0,37698:0:0:0:0:
192,192,37698,128,0,37848:0:0:0:0:
320,192,37848,128,0,38448:0:0:0:0:
192,192,38448,1,0,0:0:0:20:bell.wav
448,192,38448,1,8,0:0:0:0:
64,192,38448,128,0,42048:0:0:0:0:
320,192,38748,1,0,0:0:0:0:
320,192,39348,1,0,0:0:0:0:
448,192,39948,1,0,0:0:0:0:
448,192,40548,1,0,0:0:0:0:
192,192,41148,1,0,0:0:0:0:
192,192,41748,1,0,0:0:0:0:
448,192,42048,128,0,45648:0:0:0:0:
320,192,42348,1,0,0:0:0:0:
320,192,42948,1,0,0:0:0:0:
64,192,43548,1,0,0:0:0:0:
64,192,44148,1,0,0:0:0:0:
192,192,44748,1,0,0:0:0:0:
192,192,45348,1,0,0:0:0:0:
320,192,45648,128,0,46848:0:0:0:0:
64,192,45948,1,0,0:0:0:0:
64,192,46548,1,0,0:0:0:0:
64,192,46848,128,0,48048:0:0:0:0:
448,192,47148,1,0,0:0:0:0:
448,192,47748,1,0,0:0:0:0:
320,192,48048,1,0,0:0:0:20:bell.wav
448,192,48048,128,8,48198:0:0:0:0:
192,192,48198,1,0,0:0:0:0:
64,192,48348,1,0,0:0:0:0:
448,192,48498,128,0,48648:0:0:0:0:
64,192,48648,1,0,0:0:0:0:
448,192,48798,128,0,48948:0:0:0:0:
192,192,48948,1,0,0:0:0:0:
320,192,49098,1,0,0:0:0:0:
448,192,49248,128,0,49398:0:0:0:0:
64,192,49398,1,0,0:0:0:0:
320,192,49548,1,0,0:0:0:0:
192,192,49698,128,0,49848:0:0:0:0:
448,192,49848,1,0,0:0:0:0:
320,192,49998,1,0,0:0:0:0:
64,192,50148,128,0,50298:0:0:0:0:
192,192,50298,128,0,50448:0:0:0:0:
448,192,50448,128,0,50598:0:0:0:0:
64,192,50598,1,0,0:0:0:0:
192,192,50748,1,0,0:0:0:0:
448,192,50898,128,0,51048:0:0:0:0:
64,192,51048,1,0,0:0:0:0:
448,192,51198,128,0,51348:0:0:0:0:
320,192,51348,1,0,0:0:0:0:
192,192,51498,1,0,0:0:0:0:
64,192,51648,128,0,51798:0:0:0:0:
320,192,51798,1,0,0:0:0:0:
320,192,51948,128,0,52098:0:0:0:0:
64,192,52098,1,0,0:0:0:0:
192,192,52248,128,0,52398:0:0:0:0:
448,192,52398,1,0,0:0:0:0:
448,192,52548,128,0,52698:0:0:0:0:
192,192,52698,1,0,0:0:0:0:
64,192,52848,128,0,52998:0:0:0:0:
448,192,52998,1,0,0:0:0:0:
320,192,53148,1,0,0:0:0:0:
192,192,53298,128,0,53448:0:0:0:0:
448,192,53448,1,0,0:0:0:0:
64,192,53598,128,0,53748:0:0:0:0:
320,192,53748,1,0,0:0:0:0:
448,192,53898,1,0,0:0:0:0:
192,192,54048,128,0,54198:0:0:0:0:
64,192,54198,1,0,0:0:0:0:
320,192,54348,1,0,0:0:0:0:
448,192,54498,128,0,54648:0:0:0:0:
320,192,54648,1,0,0:0:0:0:
192,192,54798,1,0,0:0:0:0:
64,192,54948,128,0,55098:0:0:0:0:
192,192,55098,128,0,55248:0:0:0:0:
448,192,55248,128,0,55398:0:0:0:0:
64,192,55398,1,0,0:0:0:0:
320,192,55548,1,0,0:0:0:0:
448,192,55698,128,0,55848:0:0:0:0:
192,192,55848,1,0,0:0:0:0:
320,192,55998,128,0,56148:0:0:0:0:
64,192,56148,1,0,0:0:0:0:
448,192,56298,128,0,56598:0:0:0:0:
192,192,56448,1,8,0:0:0:0:
64,192,56448,1,0,0:0:0:70:Snare.wav
320,192,56598,128,0,56748:0:0:0:0:
448,192,56748,128,0,56898:0:0:0:0:
192,192,56898,128,0,57048:0:0:0:0:
320,192,57048,128,0,57648:0:0:0:0:
64,192,57648,1,8,0:0:0:0:
448,192,57648,1,8,0:0:0:70:Snare.wav
192,192,57948,1,0,0:0:0:20:Clap.wav
320,192,57948,1,0,0:0:0:0:
448,192,58248,1,0,0:0:0:20:Clap.wav
64,192,58248,1,0,0:0:0:0:
320,192,58548,1,0,0:0:0:20:Clap.wav
448,192,58548,1,0,0:0:0:0:
64,192,58848,1,0,0:0:0:20:Clap.wav
448,192,58848,1,0,0:0:0:0:
320,192,59148,1,0,0:0:0:20:Clap.wav
192,192,59148,1,0,0:0:0:0:
64,192,59448,1,0,0:0:0:20:Clap.wav
192,192,59448,1,0,0:0:0:0:
448,192,59748,1,0,0:0:0:20:Clap.wav
320,192,59748,1,0,0:0:0:0:
448,192,60048,1,0,0:0:0:20:Clap.wav
64,192,60048,1,0,0:0:0:0:
448,192,60348,1,0,0:0:0:20:Clap.wav
192,192,60348,1,0,0:0:0:0:
192,192,60648,1,0,0:0:0:20:Clap.wav
64,192,60648,1,0,0:0:0:0:
320,192,60948,1,0,0:0:0:20:Clap.wav
448,192,60948,1,0,0:0:0:0:
192,192,61248,1,0,0:0:0:20:Clap.wav
448,192,61248,1,0,0:0:0:0:
448,192,61548,1,0,0:0:0:20:Clap.wav
64,192,61548,1,0,0:0:0:0:
192,192,61848,1,0,0:0:0:20:Clap.wav
448,192,61848,1,0,0:0:0:0:
64,192,62148,1,0,0:0:0:20:Clap.wav
448,192,62148,1,0,0:0:0:0:
192,192,62298,1,0,0:0:0:0:
320,192,62448,1,8,0:0:0:0:
448,192,62448,1,0,0:0:0:0:
448,192,62748,1,0,0:0:0:0:
64,192,63048,1,0,0:0:0:70:Snare.wav
192,192,63048,1,0,0:0:0:0:
320,192,63348,1,8,0:0:0:0:
192,192,63498,1,0,0:0:0:0:
64,192,63648,1,0,0:0:0:0:
448,192,63648,1,0,0:0:0:0:
320,192,63948,1,0,0:0:0:0:
192,192,64248,1,0,0:0:0:70:Snare.wav
64,192,64248,1,0,0:0:0:0:
320,192,64398,1,0,0:0:0:0:
64,192,64548,1,0,0:0:0:0:
192,192,64698,1,0,0:0:0:0:
320,192,64848,1,8,0:0:0:0:
448,192,64848,1,0,0:0:0:0:
64,192,64998,1,0,0:0:0:0:
448,192,65148,1,0,0:0:0:0:
192,192,65298,1,0,0:0:0:0:
64,192,65448,1,0,0:0:0:70:Snare.wav
320,192,65448,1,0,0:0:0:0:
448,192,65598,1,0,0:0:0:0:
192,192,65748,1,8,0:0:0:0:
320,192,65898,1,0,0:0:0:0:
448,192,66048,1,0,0:0:0:0:
64,192,66048,1,0,0:0:0:0:
192,192,66198,1,0,0:0:0:0:
320,192,66348,1,0,0:0:0:70:Snare.wav
448,192,66348,1,0,0:0:0:0:
64,192,66498,1,8,0:0:0:0:
448,192,66648,1,0,0:0:0:0:
320,192,66723,1,0,0:0:0:0:
192,192,66798,1,0,0:0:0:70:Snare.wav
64,192,66948,128,0,67248:0:0:0:0:
320,192,67248,1,8,0:0:0:0:
448,192,67248,1,0,0:0:0:0:
192,192,67398,1,0,0:0:0:0:
64,192,67548,1,8,0:0:0:0:
448,192,67548,1,0,0:0:0:0:
320,192,67698,1,0,0:0:0:0:
192,192,67848,1,8,0:0:0:0:
64,192,67848,1,0,0:0:0:0:
448,192,67998,1,0,0:0:0:0:
64,192,68148,1,8,0:0:0:0:
320,192,68148,1,0,0:0:0:0:
192,192,68298,1,0,0:0:0:0:
64,192,68448,1,8,0:0:0:0:
448,192,68448,1,0,0:0:0:0:
320,192,68598,1,0,0:0:0:0:
192,192,68748,1,8,0:0:0:0:
64,192,68748,1,0,0:0:0:0:
448,192,68898,1,0,0:0:0:0:
320,192,69048,1,8,0:0:0:0:
192,192,69048,1,0,0:0:0:0:
64,192,69198,1,0,0:0:0:0:
320,192,69348,1,8,0:0:0:0:
448,192,69348,1,0,0:0:0:0:
192,192,69498,1,0,0:0:0:0:
64,192,69648,1,8,0:0:0:0:
448,192,69648,1,0,0:0:0:0:
320,192,69798,1,0,0:0:0:0:
192,192,69948,1,8,0:0:0:0:
64,192,69948,1,0,0:0:0:0:
448,192,70098,1,0,0:0:0:0:
64,192,70248,1,8,0:0:0:0:
320,192,70248,1,0,0:0:0:0:
192,192,70398,1,0,0:0:0:0:
320,192,70548,1,8,0:0:0:0:
448,192,70548,1,0,0:0:0:0:
64,192,70698,1,0,0:0:0:0:
192,192,70848,1,8,0:0:0:0:
448,192,70848,1,0,0:0:0:0:
320,192,70998,1,0,0:0:0:0:
448,192,71148,1,8,0:0:0:0:
64,192,71148,1,0,0:0:0:0:
192,192,71298,1,0,0:0:0:0:
320,192,71448,1,8,0:0:0:0:
448,192,71448,1,0,0:0:0:0:
64,192,71598,1,0,0:0:0:0:
192,192,71748,1,8,0:0:0:0:
448,192,71748,1,0,0:0:0:0:
320,192,71898,1,0,0:0:0:0:
192,192,72048,1,0,0:0:0:0:
64,192,72048,1,0,0:0:0:0:
320,192,72198,1,0,0:0:0:0:
448,192,72198,1,0,0:0:0:0:
192,192,72348,1,0,0:0:0:0:
64,192,72348,1,0,0:0:0:0:
320,192,72498,1,0,0:0:0:0:
448,192,72648,1,0,0:0:0:0:
64,192,72648,1,0,0:0:0:0:
192,192,72798,1,0,0:0:0:0:
320,192,72798,1,0,0:0:0:0:
448,192,72948,1,0,0:0:0:0:
64,192,72948,1,0,0:0:0:0:
192,192,73098,1,0,0:0:0:0:
320,192,73248,1,0,0:0:0:0:
64,192,73248,1,0,0:0:0:0:
448,192,73323,1,0,0:0:0:0:
192,192,73398,1,0,0:0:0:0:
64,192,73473,1,0,0:0:0:0:
448,192,73548,1,0,0:0:0:0:
320,192,73623,1,0,0:0:0:0:
64,192,73698,1,0,0:0:0:0:
192,192,73773,1,0,0:0:0:0:
320,192,73848,1,0,0:0:0:0:
448,192,73923,1,0,0:0:0:0:
64,192,73998,1,0,0:0:0:0:
192,192,74073,1,0,0:0:0:0:
448,192,74148,128,0,74298:0:0:0:0:
320,192,74223,1,0,0:0:0:0:
64,192,74298,128,0,74448:0:0:0:0:
192,192,74373,1,0,0:0:0:0:
320,192,74448,1,0,0:0:0:70:Cymbol.wav
448,192,74448,1,8,0:0:0:0:
64,192,75648,1,8,0:0:0:0:
192,192,75648,1,0,0:0:0:0:
448,192,75798,1,0,0:0:0:0:
320,192,75873,1,0,0:0:0:0:
64,192,75948,1,0,0:0:0:0:
192,192,76023,1,0,0:0:0:0:
320,192,76098,1,0,0:0:0:0:
448,192,76248,1,0,0:0:0:0:
64,192,76398,1,0,0:0:0:0:
320,192,76548,1,0,0:0:0:0:
192,192,76698,1,0,0:0:0:0:
64,192,76848,128,0,77148:0:0:0:0:
448,192,76848,128,0,77148:0:0:0:0:
320,192,77148,1,0,0:0:0:0:
192,192,77298,1,0,0:0:0:0:
320,192,77448,1,8,0:0:0:0:
448,192,77448,1,0,0:0:0:70:Cymbol.wav
64,192,77598,1,0,0:0:0:0:
192,192,77748,1,8,0:0:0:0:
448,192,77748,1,0,0:0:0:0:
320,192,77898,1,0,0:0:0:0:
448,192,78048,1,0,0:0:0:0:
192,192,78198,1,8,0:0:0:0:
64,192,78198,1,0,0:0:0:0:
320,192,78348,1,0,0:0:0:0:
64,192,78498,1,0,0:0:0:0:
192,192,78648,1,0,0:0:0:70:Snare.wav
448,192,78648,1,0,0:0:0:0:
64,192,78798,1,0,0:0:0:0:
448,192,78948,1,8,0:0:0:0:
320,192,78948,1,0,0:0:0:0:
192,192,79098,1,0,0:0:0:0:
64,192,79248,1,8,0:0:0:0:
448,192,79248,1,0,0:0:0:0:
320,192,79398,1,0,0:0:0:0:
64,192,79548,1,0,0:0:0:0:
192,192,79698,1,0,0:0:0:0:
320,192,79848,1,0,0:0:0:70:Snare.wav
448,192,79848,1,0,0:0:0:0:
64,192,79998,1,0,0:0:0:0:
320,192,80148,1,8,0:0:0:0:
448,192,80148,1,0,0:0:0:0:
192,192,80298,1,0,0:0:0:0:
64,192,80448,1,0,0:0:0:0:
320,192,80598,1,8,0:0:0:0:
448,192,80598,128,0,81048:0:0:0:0:
64,192,80748,1,0,0:0:0:0:
192,192,80898,1,0,0:0:0:70:Snare.wav
64,192,81048,1,8,0:0:0:0:
320,192,81048,1,0,0:0:0:0:
192,192,81123,1,0,0:0:0:0:
448,192,81198,1,0,0:0:0:0:
320,192,81273,1,0,0:0:0:0:
192,192,81348,1,0,0:0:0:0:
64,192,81348,128,0,81648:0:0:0:0:
448,192,81573,1,0,0:0:0:0:
320,192,81648,1,8,0:0:0:0:
192,192,81798,1,0,0:0:0:0:
448,192,81948,128,0,82098:0:0:0:0:
320,192,82098,128,0,82248:0:0:0:0:
192,192,82248,1,0,0:0:0:70:Snare.wav
64,192,82248,1,8,0:0:0:0:
320,192,82398,1,0,0:0:0:0:
448,192,82548,1,8,0:0:0:0:
64,192,82548,1,0,0:0:0:0:
192,192,82698,1,0,0:0:0:0:
320,192,82848,1,0,0:0:0:0:
64,192,82998,1,8,0:0:0:0:
448,192,82998,1,0,0:0:0:0:
192,192,83148,1,0,0:0:0:0:
320,192,83298,1,0,0:0:0:0:
64,192,83448,1,0,0:0:0:70:Snare.wav
192,192,83448,1,0,0:0:0:0:
448,192,83598,1,0,0:0:0:0:
320,192,83748,1,8,0:0:0:0:
64,192,83748,1,0,0:0:0:0:
192,192,83898,1,0,0:0:0:0:
448,192,84048,1,8,0:0:0:0:
320,192,84048,1,0,0:0:0:70:Snare.wav
64,192,84198,1,0,0:0:0:0:
448,192,84348,1,0,0:0:0:0:
320,192,84423,1,0,0:0:0:0:
192,192,84498,1,8,0:0:0:0:
64,192,84498,1,0,0:0:0:0:
320,192,84648,1,8,0:0:0:0:
448,192,84648,128,0,84948:0:0:0:0:
64,192,84798,1,0,0:0:0:0:
192,192,84948,1,8,0:0:0:0:
320,192,84948,1,0,0:0:0:0:
64,192,85098,1,8,0:0:0:0:
448,192,85098,1,0,0:0:0:0:
320,192,85248,1,8,0:0:0:0:
192,192,85248,128,0,85548:0:0:0:0:
448,192,85548,128,0,85698:0:0:0:0:
64,192,85698,128,0,85848:0:0:0:0:
192,192,85848,1,0,0:0:0:0:
320,192,85923,1,0,0:0:0:0:
448,192,85998,1,0,0:0:0:0:
64,192,86073,1,0,0:0:0:0:
192,192,86148,1,0,0:0:0:0:
320,192,86148,1,0,0:0:0:0:
448,192,86298,1,0,0:0:0:0:
320,192,86373,1,0,0:0:0:0:
192,192,86448,128,0,86748:0:0:0:0:
64,192,86448,128,0,86748:0:0:0:0:
448,192,86748,1,0,0:0:0:0:
320,192,86898,1,0,0:0:0:0:
192,192,87048,1,8,0:0:0:0:
64,192,87048,1,0,0:0:0:70:Snare.wav
448,192,87198,1,0,0:0:0:0:
320,192,87348,1,8,0:0:0:0:
64,192,87348,1,0,0:0:0:0:
192,192,87498,1,0,0:0:0:0:
320,192,87648,1,0,0:0:0:0:
192,192,87798,1,8,0:0:0:0:
64,192,87798,1,0,0:0:0:0:
448,192,87948,1,0,0:0:0:0:
320,192,88098,1,0,0:0:0:0:
192,192,88248,1,0,0:0:0:70:Snare.wav
64,192,88248,1,0,0:0:0:0:
448,192,88398,1,0,0:0:0:0:
320,192,88548,1,8,0:0:0:0:
64,192,88548,1,0,0:0:0:0:
192,192,88698,1,0,0:0:0:0:
64,192,88848,1,8,0:0:0:0:
448,192,88848,1,0,0:0:0:0:
320,192,88998,1,0,0:0:0:0:
192,192,89148,1,0,0:0:0:0:
320,192,89298,1,0,0:0:0:0:
448,192,89448,1,0,0:0:0:70:Snare.wav
64,192,89448,1,0,0:0:0:0:
192,192,89598,1,0,0:0:0:0:
320,192,89748,1,8,0:0:0:0:
448,192,89748,1,0,0:0:0:0:
192,192,89898,1,0,0:0:0:0:
64,192,90048,1,0,0:0:0:0:
320,192,90198,1,8,0:0:0:0:
448,192,90198,1,0,0:0:0:0:
192,192,90348,1,0,0:0:0:0:
64,192,90498,1,0,0:0:0:70:Snare.wav
448,192,90498,1,0,0:0:0:0:
320,192,90648,1,8,0:0:0:0:
192,192,90723,1,0,0:0:0:0:
64,192,90798,1,0,0:0:0:0:
448,192,90873,1,0,0:0:0:0:
320,192,90948,1,0,0:0:0:0:
192,192,90948,128,0,91248:0:0:0:0:
64,192,91248,1,8,0:0:0:0:
448,192,91248,1,0,0:0:0:0:
320,192,91398,1,0,0:0:0:0:
192,192,91548,128,0,91698:0:0:0:0:
320,192,91698,128,0,91848:0:0:0:0:
64,192,91848,1,0,0:0:0:70:Snare.wav
448,192,91848,1,8,0:0:0:0:
192,192,91998,1,0,0:0:0:0:
320,192,92148,1,8,0:0:0:0:
448,192,92148,1,0,0:0:0:0:
64,192,92298,1,0,0:0:0:0:
192,192,92448,1,0,0:0:0:0:
64,192,92598,1,8,0:0:0:0:
448,192,92598,1,0,0:0:0:0:
320,192,92673,1,0,0:0:0:0:
192,192,92748,1,0,0:0:0:0:
320,192,92898,1,0,0:0:0:0:
448,192,93048,1,0,0:0:0:70:Snare.wav
64,192,93048,1,0,0:0:0:0:
192,192,93198,1,0,0:0:0:0:
320,192,93348,1,8,0:0:0:0:
448,192,93348,1,0,0:0:0:0:
64,192,93423,1,0,0:0:0:0:
192,192,93498,1,0,0:0:0:0:
320,192,93573,1,0,0:0:0:0:
64,192,93648,1,8,0:0:0:0:
448,192,93648,1,0,0:0:0:0:
192,192,93798,1,0,0:0:0:0:
320,192,93873,1,8,0:0:0:0:
448,192,93873,1,0,0:0:0:0:
64,192,94023,1,0,0:0:0:0:
192,192,94098,1,8,0:0:0:0:
320,192,94098,1,0,0:0:0:0:
448,192,94248,1,8,0:0:0:0:
64,192,94248,1,0,0:0:0:0:
320,192,94323,1,0,0:0:0:0:
192,192,94398,1,0,0:0:0:0:
448,192,94473,1,0,0:0:0:0:
192,192,94548,1,0,0:0:0:70:Snare.wav
64,192,94548,1,0,0:0:0:0:
320,192,94698,1,0,0:0:0:0:
64,192,94848,128,8,95148:0:0:0:0:
448,192,94848,1,0,0:0:0:0:
320,192,95148,128,8,95298:0:0:0:0:
192,192,95298,128,0,95448:0:0:0:0:
448,192,95448,1,0,0:0:0:0:
320,192,95523,1,0,0:0:0:0:
64,192,95598,1,0,0:0:0:0:
192,192,95673,1,0,0:0:0:0:
320,192,95748,1,0,0:0:0:0:
448,192,95748,128,0,96048:0:0:0:0:
192,192,96048,1,0,0:0:0:0:
320,192,96123,1,0,0:0:0:0:
448,192,96198,1,0,0:0:0:0:
64,192,96348,1,0,0:0:0:0:
192,192,96348,1,0,0:0:0:0:
320,192,96498,1,0,0:0:0:0:
448,192,96498,1,0,0:0:0:0:
192,192,96648,1,0,0:0:0:70:Cymbol.wav
64,192,96648,1,8,0:0:0:0:
448,192,96723,1,0,0:0:0:0:
320,192,96798,1,0,0:0:0:0:
192,192,96873,1,0,0:0:0:0:
64,192,96948,1,8,0:0:0:0:
448,192,97023,1,0,0:0:0:0:
320,192,97098,1,0,0:0:0:0:
64,192,97173,1,0,0:0:0:0:
192,192,97248,1,8,0:0:0:0:
320,192,97323,1,0,0:0:0:0:
448,192,97398,1,0,0:0:0:0:
64,192,97473,1,0,0:0:0:0:
192,192,97548,1,8,0:0:0:0:
448,192,97623,1,0,0:0:0:0:
320,192,97698,1,0,0:0:0:0:
192,192,97773,1,0,0:0:0:0:
448,192,97848,1,8,0:0:0:0:
64,192,97923,1,0,0:0:0:0:
320,192,97998,1,0,0:0:0:0:
192,192,98073,1,0,0:0:0:0:
448,192,98148,1,8,0:0:0:0:
64,192,98223,1,0,0:0:0:0:
192,192,98298,1,0,0:0:0:0:
320,192,98373,1,0,0:0:0:0:
448,192,98448,1,8,0:0:0:0:
192,192,98523,1,0,0:0:0:0:
448,192,98598,1,0,0:0:0:0:
320,192,98673,1,0,0:0:0:0:
192,192,98748,1,0,0:0:0:0:
64,192,98898,1,8,0:0:0:0:
320,192,98973,1,0,0:0:0:0:
64,192,99048,1,0,0:0:0:0:
192,192,99123,1,0,0:0:0:0:
320,192,99198,1,0,0:0:0:0:
64,192,99348,1,8,0:0:0:0:
192,192,99423,1,0,0:0:0:0:
448,192,99498,1,0,0:0:0:0:
320,192,99573,1,0,0:0:0:0:
192,192,99648,1,0,0:0:0:0:
448,192,99798,1,8,0:0:0:0:
320,192,99873,1,0,0:0:0:0:
64,192,99948,1,0,0:0:0:0:
192,192,100023,1,0,0:0:0:0:
320,192,100098,1,0,0:0:0:0:
448,192,100173,1,0,0:0:0:0:
192,192,100248,1,8,0:0:0:0:
64,192,100248,128,0,100548:0:0:0:0:
448,192,100548,128,0,100848:0:0:0:0:
192,192,100848,1,8,0:0:0:0:
64,192,100848,1,0,0:0:0:0:
320,192,101073,1,8,0:0:0:0:
448,192,101073,1,0,0:0:0:0:
192,192,101298,1,8,0:0:0:0:
64,192,101298,1,0,0:0:0:0:
320,192,101448,1,8,0:0:0:0:
448,192,101448,1,0,0:0:0:70:Cymbol.wav
192,192,101523,1,0,0:0:0:0:
64,192,101598,1,0,0:0:0:0:
320,192,101673,1,0,0:0:0:0:
192,192,101748,1,8,0:0:0:0:
448,192,101823,1,0,0:0:0:0:
320,192,101898,1,0,0:0:0:0:
64,192,101973,1,0,0:0:0:0:
192,192,102048,1,8,0:0:0:0:
448,192,102123,1,0,0:0:0:0:
320,192,102198,1,0,0:0:0:0:
192,192,102273,1,0,0:0:0:0:
64,192,102348,1,8,0:0:0:0:
448,192,102423,1,0,0:0:0:0:
320,192,102498,1,0,0:0:0:0:
192,192,102573,1,0,0:0:0:0:
64,192,102648,1,8,0:0:0:0:
320,192,102723,1,0,0:0:0:0:
192,192,102798,1,0,0:0:0:0:
320,192,102873,1,0,0:0:0:0:
448,192,102948,1,8,0:0:0:0:
64,192,103023,1,0,0:0:0:0:
192,192,103098,1,0,0:0:0:0:
320,192,103173,1,0,0:0:0:0:
448,192,103248,1,8,0:0:0:0:
64,192,103248,1,0,0:0:0:0:
192,192,103398,1,0,0:0:0:0:
320,192,103548,1,8,0:0:0:0:
448,192,103548,1,0,0:0:0:0:
192,192,103623,1,0,0:0:0:0:
64,192,103698,1,8,0:0:0:0:
448,192,103848,1,8,0:0:0:0:
192,192,103998,1,8,0:0:0:0:
64,192,103998,1,0,0:0:0:0:
320,192,104073,1,0,0:0:0:0:
448,192,104148,1,8,0:0:0:0:
192,192,104298,1,8,0:0:0:0:
64,192,104298,1,0,0:0:0:0:
320,192,104448,1,8,0:0:0:0:
448,192,104448,128,0,105048:0:0:0:70:Cymbol.wav
64,192,105048,1,8,0:0:0:0:
192,192,105198,1,8,0:0:0:0:
320,192,105348,1,0,0:0:0:70:Snare.wav
448,192,105348,1,0,0:0:0:0:
192,192,105498,1,8,0:0:0:0:
64,192,105648,128,8,105948:0:0:0:0:
448,192,105648,128,0,105948:0:0:0:0:
192,192,105948,1,0,0:0:0:70:Cymbol.wav
320,192,106023,1,0,0:0:0:0:
448,192,106098,1,0,0:0:0:0:
64,192,106173,1,0,0:0:0:0:
320,192,106248,1,8,0:0:0:0:
192,192,106323,1,0,0:0:0:0:
64,192,106398,1,0,0:0:0:0:
448,192,106473,1,0,0:0:0:0:
320,192,106548,1,8,0:0:0:0:
192,192,106623,1,0,0:0:0:0:
320,192,106698,1,0,0:0:0:0:
448,192,106773,1,0,0:0:0:0:
64,192,106848,1,8,0:0:0:0:
192,192,106923,1,0,0:0:0:0:
320,192,106998,1,0,0:0:0:0:
448,192,107073,1,0,0:0:0:0:
192,192,107148,1,8,0:0:0:0:
64,192,107223,1,0,0:0:0:0:
320,192,107298,1,0,0:0:0:0:
448,192,107373,1,0,0:0:0:0:
192,192,107448,1,8,0:0:0:0:
320,192,107523,1,0,0:0:0:0:
64,192,107598,1,0,0:0:0:0:
192,192,107673,1,0,0:0:0:0:
448,192,107748,1,8,0:0:0:0:
320,192,107823,1,0,0:0:0:0:
192,192,107898,1,0,0:0:0:0:
64,192,107973,1,0,0:0:0:0:
448,192,108048,1,8,0:0:0:0:
320,192,108123,1,0,0:0:0:0:
64,192,108198,1,0,0:0:0:0:
192,192,108273,1,0,0:0:0:0:
320,192,108348,1,8,0:0:0:0:
64,192,108423,1,0,0:0:0:0:
192,192,108498,1,0,0:0:0:0:
448,192,108573,1,0,0:0:0:0:
320,192,108648,1,8,0:0:0:0:
64,192,108723,1,0,0:0:0:0:
192,192,108798,1,0,0:0:0:0:
448,192,108873,1,0,0:0:0:0:
320,192,108948,1,8,0:0:0:0:
64,192,109023,1,0,0:0:0:0:
448,192,109098,1,0,0:0:0:0:
192,192,109173,1,0,0:0:0:0:
320,192,109248,1,8,0:0:0:0:
64,192,109398,1,0,0:0:0:0:
192,192,109473,1,0,0:0:0:0:
448,192,109548,1,8,0:0:0:0:
320,192,109623,1,0,0:0:0:0:
192,192,109698,1,0,0:0:0:0:
64,192,109773,1,0,0:0:0:0:
320,192,109848,1,8,0:0:0:0:
448,192,109848,128,0,110148:0:0:0:0:
64,192,110148,128,0,110448:0:0:0:0:
320,192,110448,1,8,0:0:0:0:
448,192,110448,1,0,0:0:0:0:
192,192,110673,1,8,0:0:0:0:
64,192,110673,1,0,0:0:0:0:
320,192,110898,1,8,0:0:0:0:
448,192,110898,1,0,0:0:0:0:
192,192,111048,1,0,0:0:0:70:Cymbol.wav
64,192,111048,1,8,0:0:0:0:
320,192,111123,1,0,0:0:0:0:
448,192,111198,1,0,0:0:0:0:
64,192,111273,1,0,0:0:0:0:
320,192,111348,1,8,0:0:0:0:
192,192,111423,1,0,0:0:0:0:
64,192,111498,1,0,0:0:0:0:
448,192,111573,1,0,0:0:0:0:
320,192,111648,1,8,0:0:0:0:
192,192,111723,1,0,0:0:0:0:
64,192,111798,1,0,0:0:0:0:
192,192,111873,1,0,0:0:0:0:
320,192,111948,1,8,0:0:0:0:
448,192,112023,1,0,0:0:0:0:
64,192,112098,1,0,0:0:0:0:
192,192,112173,1,0,0:0:0:0:
448,192,112248,1,8,0:0:0:0:
320,192,112323,1,0,0:0:0:0:
192,192,112398,1,0,0:0:0:0:
64,192,112473,1,0,0:0:0:0:
320,192,112548,1,8,0:0:0:0:
448,192,112623,1,0,0:0:0:0:
192,192,112698,1,0,0:0:0:0:
320,192,112773,1,0,0:0:0:0:
64,192,112848,1,8,0:0:0:0:
192,192,112848,1,0,0:0:0:0:
448,192,112998,1,0,0:0:0:0:
320,192,112998,1,0,0:0:0:0:
64,192,113148,1,8,0:0:0:0:
192,192,113223,1,0,0:0:0:0:
448,192,113298,1,0,0:0:0:0:
320,192,113373,1,0,0:0:0:0:
64,192,113448,1,0,0:0:0:0:
192,192,113523,1,0,0:0:0:0:
448,192,113598,1,0,0:0:0:0:
320,192,113673,1,0,0:0:0:0:
64,192,113748,1,0,0:0:0:0:
192,192,113823,1,0,0:0:0:0:
448,192,113898,1,0,0:0:0:0:
320,192,113973,1,0,0:0:0:0:
192,192,114048,1,8,0:0:0:0:
64,192,114048,1,0,0:0:0:70:Cymbol.wav
448,192,114235,1,0,0:0:0:0:
320,192,114235,1,8,0:0:0:0:
192,192,114348,1,0,0:0:0:0:
64,192,114348,1,0,0:0:0:0:
64,192,114648,1,8,0:0:0:0:
448,192,114648,1,0,0:0:0:0:
192,192,114948,1,0,0:0:0:70:Snare.wav
64,192,114948,1,0,0:0:0:0:
448,192,114948,1,0,0:0:0:0:
320,192,115248,128,0,115548:0:0:0:0:
448,192,115248,128,0,115548:0:0:0:0:
64,192,115548,1,0,0:0:0:0:
192,192,115698,1,0,0:0:0:0:
320,192,115848,1,0,0:0:0:70:Snare.wav
448,192,115848,1,8,0:0:0:0:
64,192,115998,1,0,0:0:0:0:
192,192,116148,1,8,0:0:0:0:
448,192,116148,1,0,0:0:0:0:
320,192,116298,1,0,0:0:0:0:
64,192,116448,1,0,0:0:0:0:
320,192,116598,1,8,0:0:0:0:
448,192,116598,1,0,0:0:0:0:
192,192,116748,1,0,0:0:0:0:
320,192,116898,1,0,0:0:0:0:
64,192,117048,1,0,0:0:0:70:Snare.wav
448,192,117048,1,0,0:0:0:0:
192,192,117198,1,0,0:0:0:0:
320,192,117348,1,8,0:0:0:0:
448,192,117348,1,0,0:0:0:0:
64,192,117498,1,0,0:0:0:0:
192,192,117648,1,8,0:0:0:0:
448,192,117648,1,0,0:0:0:0:
320,192,117798,1,0,0:0:0:0:
64,192,117948,1,0,0:0:0:0:
192,192,118098,1,0,0:0:0:0:
320,192,118248,1,0,0:0:0:70:Snare.wav
448,192,118248,1,0,0:0:0:0:
64,192,118323,1,0,0:0:0:0:
448,192,118398,1,0,0:0:0:0:
192,192,118473,1,0,0:0:0:0:
320,192,118548,1,8,0:0:0:0:
64,192,118548,1,0,0:0:0:0:
448,192,118698,1,0,0:0:0:0:
192,192,118848,1,0,0:0:0:0:
320,192,118923,1,0,0:0:0:0:
64,192,118998,1,8,0:0:0:0:
448,192,118998,1,0,0:0:0:0:
192,192,119073,1,0,0:0:0:0:
320,192,119148,1,0,0:0:0:0:
64,192,119298,1,0,0:0:0:70:Snare.wav
448,192,119298,1,0,0:0:0:0:
192,192,119448,1,8,0:0:0:0:
320,192,119523,1,0,0:0:0:0:
448,192,119598,1,0,0:0:0:0:
64,192,119673,1,0,0:0:0:0:
192,192,119748,1,8,0:0:0:0:
320,192,119748,128,0,120048:0:0:0:0:
64,192,120048,1,8,0:0:0:0:
192,192,120048,1,0,0:0:0:0:
320,192,120198,1,0,0:0:0:0:
448,192,120348,128,0,120498:0:0:0:0:
192,192,120498,128,0,120648:0:0:0:0:
64,192,120648,1,0,0:0:0:70:Snare.wav
448,192,120648,1,8,0:0:0:0:
320,192,120798,1,0,0:0:0:0:
192,192,120948,1,8,0:0:0:0:
64,192,120948,1,0,0:0:0:0:
320,192,121098,1,0,0:0:0:0:
448,192,121248,1,0,0:0:0:0:
192,192,121398,1,8,0:0:0:0:
64,192,121398,1,0,0:0:0:0:
320,192,121548,1,0,0:0:0:0:
192,192,121698,1,0,0:0:0:0:
64,192,121848,1,0,0:0:0:70:Snare.wav
448,192,121848,1,0,0:0:0:0:
320,192,121998,1,0,0:0:0:0:
192,192,122148,1,8,0:0:0:0:
64,192,122148,1,0,0:0:0:0:
320,192,122298,1,0,0:0:0:0:
448,192,122448,1,8,0:0:0:0:
64,192,122448,1,0,0:0:0:70:Cymbol.wav
192,192,122598,1,0,0:0:0:0:
448,192,122748,1,0,0:0:0:0:
192,192,122823,1,8,0:0:0:0:
64,192,122823,1,0,0:0:0:0:
320,192,122898,1,8,0:0:0:0:
448,192,122898,1,0,0:0:0:0:
192,192,123048,1,8,0:0:0:0:
64,192,123048,1,0,0:0:0:0:
320,192,123123,1,0,0:0:0:0:
192,192,123198,1,0,0:0:0:0:
320,192,123273,1,0,0:0:0:0:
448,192,123348,1,8,0:0:0:0:
64,192,123348,1,0,0:0:0:0:
192,192,123498,1,8,0:0:0:0:
320,192,123498,1,0,0:0:0:0:
448,192,123648,1,0,0:0:0:70:Snare.wav
64,192,123648,128,0,123948:0:0:0:0:
320,192,123948,1,0,0:0:0:0:
192,192,124098,1,0,0:0:0:0:
64,192,124248,1,8,0:0:0:0:
448,192,124248,1,0,0:0:0:0:
320,192,124323,1,0,0:0:0:0:
64,192,124398,1,8,0:0:0:0:
192,192,124473,1,8,0:0:0:0:
320,192,124548,1,8,0:0:0:0:
448,192,124548,1,0,0:0:0:0:
192,192,124698,1,8,0:0:0:0:
320,192,124773,1,8,0:0:0:0:
448,192,124773,1,0,0:0:0:0:
192,192,124848,1,8,0:0:0:0:
64,192,124848,128,0,125148:0:0:0:0:
448,192,125148,1,0,0:0:0:0:
320,192,125298,1,0,0:0:0:0:
192,192,125448,1,0,0:0:0:70:Snare.wav
64,192,125448,1,8,0:0:0:0:
448,192,125598,1,0,0:0:0:0:
320,192,125748,1,8,0:0:0:0:
64,192,125748,1,0,0:0:0:0:
192,192,125898,1,0,0:0:0:0:
448,192,126048,1,0,0:0:0:0:
64,192,126198,1,8,0:0:0:0:
192,192,126198,1,0,0:0:0:0:
320,192,126348,1,0,0:0:0:0:
448,192,126498,1,0,0:0:0:0:
192,192,126648,1,0,0:0:0:70:Snare.wav
64,192,126648,1,0,0:0:0:0:
320,192,126798,1,0,0:0:0:0:
64,192,126948,1,8,0:0:0:0:
448,192,126948,1,0,0:0:0:0:
192,192,127098,1,0,0:0:0:0:
320,192,127248,1,8,0:0:0:0:
448,192,127248,1,0,0:0:0:0:
64,192,127398,1,0,0:0:0:0:
320,192,127548,1,0,0:0:0:0:
192,192,127698,1,0,0:0:0:0:
320,192,127848,1,0,0:0:0:70:Snare.wav
448,192,127848,1,0,0:0:0:0:
64,192,127923,1,0,0:0:0:0:
448,192,127998,1,0,0:0:0:0:
192,192,128073,1,0,0:0:0:0:
320,192,128148,1,8,0:0:0:0:
448,192,128148,1,0,0:0:0:0:
192,192,128298,1,0,0:0:0:0:
64,192,128448,1,0,0:0:0:0:
192,192,128523,1,0,0:0:0:0:
320,192,128598,1,8,0:0:0:0:
448,192,128598,1,0,0:0:0:0:
192,192,128673,1,0,0:0:0:0:
64,192,128748,1,0,0:0:0:0:
192,192,128898,1,0,0:0:0:70:Snare.wav
448,192,128898,1,0,0:0:0:0:
320,192,129048,1,8,0:0:0:0:
64,192,129048,1,0,0:0:0:0:
192,192,129123,1,0,0:0:0:0:
448,192,129198,1,0,0:0:0:0:
320,192,129273,1,0,0:0:0:0:
192,192,129348,1,8,0:0:0:0:
64,192,129348,128,0,129648:0:0:0:0:
320,192,129648,1,8,0:0:0:0:
448,192,129648,1,0,0:0:0:0:
192,192,129798,1,0,0:0:0:0:
448,192,129948,128,0,130098:0:0:0:0:
320,192,130098,128,0,130248:0:0:0:0:
192,192,130248,1,0,0:0:0:70:Cymbol.wav
64,192,130248,1,8,0:0:0:0:
320,192,130398,1,0,0:0:0:0:
64,192,130548,1,0,0:0:0:70:Snare.wav
448,192,130548,1,0,0:0:0:0:
192,192,130698,1,0,0:0:0:0:
320,192,130848,1,0,0:0:0:0:
64,192,130998,1,0,0:0:0:70:Snare.wav
448,192,130998,1,0,0:0:0:0:
192,192,131073,1,0,0:0:0:0:
320,192,131148,1,0,0:0:0:0:
192,192,131298,1,0,0:0:0:0:
64,192,131448,1,0,0:0:0:70:Snare.wav
448,192,131448,1,0,0:0:0:0:
320,192,131598,1,0,0:0:0:0:
192,192,131748,1,8,0:0:0:0:
64,192,131748,1,0,0:0:0:0:
320,192,131823,1,0,0:0:0:0:
64,192,131898,1,0,0:0:0:0:
192,192,131973,1,0,0:0:0:0:
320,192,132048,1,8,0:0:0:0:
448,192,132048,1,0,0:0:0:0:
192,192,132198,1,0,0:0:0:0:
320,192,132273,1,8,0:0:0:0:
448,192,132273,1,0,0:0:0:0:
64,192,132423,1,0,0:0:0:0:
192,192,132498,1,8,0:0:0:0:
320,192,132498,1,0,0:0:0:0:
448,192,132648,1,0,0:0:0:0:
320,192,132723,1,0,0:0:0:0:
64,192,132798,1,0,0:0:0:0:
192,192,132873,1,0,0:0:0:0:
320,192,132948,1,0,0:0:0:70:Cymbol.wav
448,192,132948,1,8,0:0:0:0:
192,192,133098,1,0,0:0:0:0:
64,192,133248,1,8,0:0:0:0:
448,192,133248,1,0,0:0:0:0:
192,192,133473,1,8,0:0:0:0:
320,192,133473,1,0,0:0:0:0:
64,192,133848,1,8,0:0:0:0:
448,192,133848,1,0,0:0:0:0:
448,192,134448,1,8,0:0:0:0:
320,192,134448,1,0,0:0:0:20:bell.wav
64,192,134448,128,0,138048:0:0:0:0:
192,192,134748,1,0,0:0:0:0:
192,192,135348,1,0,0:0:0:0:
320,192,135948,1,0,0:0:0:0:
320,192,136548,1,0,0:0:0:0:
448,192,137148,1,0,0:0:0:0:
448,192,137748,1,0,0:0:0:0:
448,192,138048,128,0,141648:0:0:0:0:
192,192,138348,1,0,0:0:0:0:
192,192,138948,1,0,0:0:0:0:
64,192,139548,1,0,0:0:0:0:
64,192,140148,1,0,0:0:0:0:
320,192,140748,1,0,0:0:0:0:
320,192,141348,1,0,0:0:0:0:
192,192,141648,128,0,142848:0:0:0:0:
448,192,141948,1,0,0:0:0:0:
448,192,142548,1,0,0:0:0:0:
64,192,142848,128,0,144048:0:0:0:0:
320,192,143148,1,0,0:0:0:0:
320,192,143748,1,0,0:0:0:0:
320,192,144048,1,8,0:0:0:0:
448,192,144048,128,0,144198:0:0:0:20:bell.wav
192,192,144198,1,0,0:0:0:0:
64,192,144348,1,0,0:0:0:0:
448,192,144498,128,0,144648:0:0:0:0:
64,192,144648,1,0,0:0:0:0:
448,192,144798,128,0,144948:0:0:0:0:
192,192,144948,1,0,0:0:0:0:
320,192,145098,1,0,0:0:0:0:
448,192,145248,128,0,145398:0:0:0:0:
64,192,145398,1,0,0:0:0:0:
320,192,145548,1,0,0:0:0:0:
192,192,145698,128,0,145848:0:0:0:0:
448,192,145848,1,0,0:0:0:0:
320,192,145998,1,0,0:0:0:0:
64,192,146148,128,0,146298:0:0:0:0:
192,192,146298,128,0,146448:0:0:0:0:
448,192,146448,128,0,146598:0:0:0:0:
64,192,146598,1,0,0:0:0:0:
192,192,146748,1,0,0:0:0:0:
448,192,146898,128,0,147048:0:0:0:0:
64,192,147048,1,0,0:0:0:0:
448,192,147198,128,0,147348:0:0:0:0:
320,192,147348,1,0,0:0:0:0:
192,192,147498,1,0,0:0:0:0:
64,192,147648,128,0,147798:0:0:0:0:
448,192,147798,1,0,0:0:0:0:
320,192,147948,128,0,148098:0:0:0:0:
64,192,148098,1,0,0:0:0:0:
192,192,148248,128,0,148398:0:0:0:0:
448,192,148398,1,0,0:0:0:0:
448,192,148548,128,0,148698:0:0:0:0:
64,192,148698,1,0,0:0:0:0:
192,192,148848,128,0,148998:0:0:0:0:
448,192,148998,1,0,0:0:0:0:
320,192,149148,1,0,0:0:0:0:
192,192,149298,128,0,149448:0:0:0:0:
448,192,149448,1,0,0:0:0:0:
64,192,149598,128,0,149748:0:0:0:0:
320,192,149748,1,0,0:0:0:0:
448,192,149898,1,0,0:0:0:0:
192,192,150048,128,0,150198:0:0:0:0:
64,192,150198,1,0,0:0:0:0:
320,192,150348,1,0,0:0:0:0:
448,192,150498,128,0,150648:0:0:0:0:
320,192,150648,1,0,0:0:0:0:
192,192,150798,1,0,0:0:0:0:
64,192,150948,128,0,151098:0:0:0:0:
192,192,151098,128,0,151248:0:0:0:0:
448,192,151248,128,0,151398:0:0:0:0:
64,192,151398,1,0,0:0:0:0:
320,192,151548,1,0,0:0:0:0:
448,192,151698,128,0,151848:0:0:0:0:
192,192,151848,1,0,0:0:0:0:
320,192,151998,128,0,152148:0:0:0:0:
64,192,152148,1,0,0:0:0:0:
448,192,152298,128,0,152598:0:0:0:0:
192,192,152448,1,8,0:0:0:0:
64,192,152448,1,0,0:0:0:50:Cymbol.wav
320,192,152598,128,0,152748:0:0:0:0:
448,192,152748,128,0,152898:0:0:0:0:
64,192,152898,128,0,153048:0:0:0:0:
320,192,153048,128,0,153648:0:0:0:0:
64,192,153648,1,8,0:0:0:0:
448,192,153648,1,0,0:0:0:20:Clap.wav
320,192,153948,1,0,0:0:0:20:Clap.wav
448,192,154248,1,0,0:0:0:20:Clap.wav
64,192,154248,1,0,0:0:0:0:
192,192,154548,1,0,0:0:0:20:Clap.wav
320,192,154698,1,0,0:0:0:0:
64,192,154848,1,0,0:0:0:20:Clap.wav
448,192,154848,1,0,0:0:0:0:
320,192,155148,1,0,0:0:0:20:Clap.wav
64,192,155448,1,0,0:0:0:20:Clap.wav
192,192,155448,1,0,0:0:0:0:
448,192,155748,1,0,0:0:0:20:Clap.wav
448,192,156048,1,0,0:0:0:20:Clap.wav
64,192,156048,1,0,0:0:0:0:
192,192,156198,1,0,0:0:0:0:
448,192,156348,1,0,0:0:0:20:Clap.wav
320,192,156498,1,0,0:0:0:0:
192,192,156648,1,0,0:0:0:20:Clap.wav
64,192,156648,1,0,0:0:0:0:
448,192,156798,1,0,0:0:0:0:
64,192,156948,1,0,0:0:0:20:Clap.wav
192,192,157098,1,0,0:0:0:0:
320,192,157248,1,0,0:0:0:20:Clap.wav
448,192,157248,1,0,0:0:0:0:
64,192,157398,1,0,0:0:0:0:
448,192,157548,1,0,0:0:0:20:Clap.wav
192,192,157698,1,0,0:0:0:0:
64,192,157848,1,0,0:0:0:20:Clap.wav
448,192,157848,1,0,0:0:0:0:
320,192,157998,1,0,0:0:0:0:
64,192,158148,1,0,0:0:0:20:Clap.wav
192,192,158298,1,0,0:0:0:0:
320,192,158448,1,0,0:0:0:70:Cymbol.wav
448,192,158448,1,8,0:0:0:0:
448,192,158748,1,0,0:0:0:0:
64,192,159048,1,0,0:0:0:70:Snare.wav
192,192,159048,1,0,0:0:0:0:
320,192,159348,1,8,0:0:0:0:
192,192,159498,1,0,0:0:0:0:
64,192,159648,1,0,0:0:0:0:
448,192,159648,1,0,0:0:0:0:
320,192,159948,1,0,0:0:0:0:
192,192,160248,1,0,0:0:0:70:Snare.wav
64,192,160248,1,0,0:0:0:0:
320,192,160398,1,0,0:0:0:0:
64,192,160548,1,0,0:0:0:0:
192,192,160698,1,0,0:0:0:0:
320,192,160848,1,8,0:0:0:0:
448,192,160848,1,0,0:0:0:0:
64,192,160998,1,0,0:0:0:0:
448,192,161148,1,0,0:0:0:0:
192,192,161298,1,0,0:0:0:0:
64,192,161448,1,0,0:0:0:70:Snare.wav
320,192,161448,1,0,0:0:0:0:
448,192,161598,1,0,0:0:0:0:
192,192,161748,1,8,0:0:0:0:
320,192,161898,1,0,0:0:0:0:
448,192,162048,1,0,0:0:0:0:
64,192,162048,1,0,0:0:0:0:
192,192,162198,1,0,0:0:0:0:
320,192,162348,1,0,0:0:0:70:Snare.wav
448,192,162348,1,0,0:0:0:0:
64,192,162498,1,8,0:0:0:0:
448,192,162648,1,0,0:0:0:0:
320,192,162723,1,0,0:0:0:0:
192,192,162798,1,0,0:0:0:70:Snare.wav
64,192,162948,128,0,163248:0:0:0:0:
320,192,163248,1,8,0:0:0:0:
448,192,163248,1,0,0:0:0:70:Cymbol.wav
192,192,163398,1,0,0:0:0:0:
64,192,163548,1,8,0:0:0:0:
448,192,163548,1,0,0:0:0:0:
320,192,163698,1,0,0:0:0:0:
192,192,163848,1,8,0:0:0:0:
64,192,163848,1,0,0:0:0:0:
448,192,163998,1,0,0:0:0:0:
64,192,164148,1,8,0:0:0:0:
320,192,164148,1,0,0:0:0:0:
192,192,164298,1,0,0:0:0:0:
64,192,164448,1,8,0:0:0:0:
448,192,164448,1,0,0:0:0:0:
320,192,164598,1,0,0:0:0:0:
192,192,164748,1,8,0:0:0:0:
64,192,164748,1,0,0:0:0:0:
448,192,164898,1,0,0:0:0:0:
320,192,165048,1,8,0:0:0:0:
192,192,165048,1,0,0:0:0:0:
64,192,165198,1,0,0:0:0:0:
320,192,165348,1,8,0:0:0:0:
448,192,165348,1,0,0:0:0:0:
192,192,165498,1,0,0:0:0:0:
64,192,165648,1,8,0:0:0:0:
448,192,165648,1,0,0:0:0:0:
320,192,165798,1,0,0:0:0:0:
192,192,165948,1,8,0:0:0:0:
64,192,165948,1,0,0:0:0:0:
448,192,166098,1,0,0:0:0:0:
64,192,166248,1,8,0:0:0:0:
320,192,166248,1,0,0:0:0:0:
192,192,166398,1,0,0:0:0:0:
320,192,166548,1,8,0:0:0:0:
448,192,166548,1,0,0:0:0:0:
64,192,166698,1,0,0:0:0:0:
192,192,166848,1,8,0:0:0:0:
448,192,166848,1,0,0:0:0:0:
320,192,166998,1,0,0:0:0:0:
448,192,167148,1,8,0:0:0:0:
64,192,167148,1,0,0:0:0:0:
192,192,167298,1,0,0:0:0:0:
320,192,167448,1,8,0:0:0:0:
448,192,167448,1,0,0:0:0:0:
64,192,167598,1,0,0:0:0:0:
192,192,167748,1,8,0:0:0:0:
448,192,167748,1,0,0:0:0:0:
320,192,167898,1,0,0:0:0:0:
192,192,168048,1,0,0:0:0:0:
64,192,168048,1,0,0:0:0:0:
320,192,168198,1,0,0:0:0:0:
448,192,168198,1,0,0:0:0:0:
192,192,168348,1,0,0:0:0:0:
64,192,168348,1,0,0:0:0:0:
320,192,168498,1,0,0:0:0:0:
448,192,168648,1,0,0:0:0:0:
64,192,168648,1,0,0:0:0:0:
192,192,168798,1,0,0:0:0:0:
320,192,168798,1,0,0:0:0:0:
448,192,168948,1,0,0:0:0:0:
64,192,168948,1,0,0:0:0:0:
192,192,169098,1,0,0:0:0:0:
320,192,169248,1,0,0:0:0:0:
64,192,169248,1,0,0:0:0:0:
448,192,169323,1,0,0:0:0:0:
64,192,169398,1,0,0:0:0:0:
192,192,169473,1,0,0:0:0:0:
448,192,169548,1,0,0:0:0:0:
320,192,169623,1,0,0:0:0:0:
64,192,169698,1,0,0:0:0:0:
192,192,169773,1,0,0:0:0:0:
320,192,169848,1,0,0:0:0:0:
448,192,169923,1,0,0:0:0:0:
64,192,169998,1,0,0:0:0:0:
192,192,170073,1,0,0:0:0:0:
448,192,170148,128,0,170298:0:0:0:0:
320,192,170223,1,0,0:0:0:0:
64,192,170298,128,0,170448:0:0:0:0:
192,192,170373,1,0,0:0:0:0:
320,192,170448,1,0,0:0:0:70:Cymbol.wav
448,192,170448,1,8,0:0:0:0:
64,192,171648,1,8,0:0:0:0:
192,192,171648,1,0,0:0:0:0:
448,192,171798,1,0,0:0:0:0:
320,192,171873,1,0,0:0:0:0:
64,192,171948,1,0,0:0:0:0:
192,192,172023,1,0,0:0:0:0:
320,192,172098,1,0,0:0:0:0:
448,192,172248,1,0,0:0:0:0:
192,192,172398,1,0,0:0:0:0:
64,192,172548,1,0,0:0:0:0:
320,192,172698,1,0,0:0:0:0:
64,192,172848,1,0,0:0:0:40:Cymbol.wav
448,192,172848,1,0,0:0:0:10:Clap.wav
192,192,173048,1,0,0:0:0:10:Clap.wav
320,192,173148,1,0,0:0:0:10:Clap.wav
192,192,173348,1,0,0:0:0:0:
64,192,173448,1,0,0:0:0:10:Clap.wav
448,192,173598,1,0,0:0:0:0:
320,192,173748,1,0,0:0:0:0:
192,192,173898,1,0,0:0:0:0:
64,192,174048,1,8,0:0:0:0:
320,192,174198,1,0,0:0:0:0:
192,192,174348,1,0,0:0:0:10:Clap.wav
448,192,174498,1,0,0:0:0:10:Clap.wav
192,192,174648,1,0,0:0:0:10:Clap.wav
64,192,174648,1,0,0:0:0:0:
320,192,175248,1,8,0:0:0:0:
448,192,175248,1,0,0:0:0:70:Cymbol.wav
448,192,175398,1,8,0:0:0:0:
192,192,175548,1,8,0:0:0:0:
64,192,175548,1,0,0:0:0:0:
192,192,175698,1,0,0:0:0:0:
320,192,175773,1,8,0:0:0:0:
448,192,175848,1,0,0:0:0:0:
64,192,175923,1,8,0:0:0:0:
448,192,175998,1,0,0:0:0:0:
192,192,176148,1,8,0:0:0:0:
64,192,176148,1,0,0:0:0:0:
320,192,176298,1,8,0:0:0:0:
448,192,176298,1,0,0:0:0:0:
192,192,176448,1,8,0:0:0:0:
64,192,176448,1,0,0:0:0:0:
448,192,176598,1,0,0:0:0:0:
320,192,176673,1,0,0:0:0:0:
192,192,176748,1,8,0:0:0:0:
64,192,176748,1,0,0:0:0:0:
320,192,176898,1,8,0:0:0:0:
448,192,176898,1,0,0:0:0:0:
192,192,177048,1,0,0:0:0:0:
64,192,177048,128,0,177348:0:0:0:0:
448,192,177348,128,8,177648:0:0:0:0:
192,192,177648,1,8,0:0:0:0:
64,192,177648,1,0,0:0:0:0:
320,192,177798,1,0,0:0:0:0:
448,192,177948,128,0,178098:0:0:0:0:
192,192,178098,128,0,178248:0:0:0:0:
64,192,178248,1,8,0:0:0:0:
320,192,178248,1,0,0:0:0:0:
320,192,178398,1,8,0:0:0:0:
64,192,178548,1,8,0:0:0:0:
448,192,178548,1,0,0:0:0:0:
64,192,178698,1,8,0:0:0:0:
192,192,178848,1,8,0:0:0:0:
448,192,178848,1,0,0:0:0:0:
192,192,178998,1,8,0:0:0:0:
320,192,179148,1,8,0:0:0:0:
448,192,179148,1,0,0:0:0:0:
192,192,179298,1,8,0:0:0:0:
64,192,179448,1,8,0:0:0:0:
448,192,179448,1,0,0:0:0:0:
320,192,179523,1,8,0:0:0:0:
192,192,179598,1,8,0:0:0:0:
64,192,179673,1,8,0:0:0:0:
320,192,179748,1,8,0:0:0:0:
448,192,179748,1,0,0:0:0:0:
320,192,179898,1,8,0:0:0:0:
192,192,180048,1,8,0:0:0:0:
64,192,180048,1,0,0:0:0:0:
64,192,180198,1,8,0:0:0:0:
192,192,180348,1,8,0:0:0:0:
448,192,180348,1,0,0:0:0:0:
448,192,180498,1,8,0:0:0:0:
320,192,180648,1,8,0:0:0:0:
64,192,180648,1,0,0:0:0:0:
64,192,180798,1,8,0:0:0:0:
192,192,180948,1,8,0:0:0:0:
448,192,180948,1,0,0:0:0:0:
448,192,181098,1,8,0:0:0:0:
64,192,181248,1,8,0:0:0:0:
192,192,181248,1,0,0:0:0:0:
320,192,181398,1,8,0:0:0:0:
448,192,181473,1,0,0:0:0:0:
320,192,181548,1,8,0:0:0:0:
192,192,181698,1,8,0:0:0:0:
64,192,181698,1,0,0:0:0:0:
320,192,181848,1,0,0:0:0:0:
448,192,181848,1,0,0:0:0:0:
64,192,181923,1,0,0:0:0:0:
192,192,181998,1,0,0:0:0:0:
320,192,182073,1,0,0:0:0:0:
64,192,182148,1,0,0:0:0:70:Cymbol.wav
448,192,182148,1,8,0:0:0:0:
192,192,182298,1,0,0:0:0:0:
448,192,182448,128,0,182748:0:0:0:0:
320,192,182448,128,0,182748:0:0:0:0:
64,192,182748,1,8,0:0:0:0:
192,192,182898,1,0,0:0:0:0:
320,192,183048,1,8,0:0:0:0:
448,192,183048,1,0,0:0:0:70:Cymbol.wav
64,192,183198,1,0,0:0:0:0:
320,192,183348,1,8,0:0:0:0:
448,192,183348,1,0,0:0:0:0:
192,192,183498,1,0,0:0:0:0:
320,192,183648,1,8,0:0:0:0:
448,192,183648,1,0,0:0:0:0:
64,192,183798,1,0,0:0:0:0:
320,192,183948,1,8,0:0:0:0:
448,192,183948,1,0,0:0:0:0:
192,192,184098,1,0,0:0:0:0:
64,192,184248,1,8,0:0:0:0:
448,192,184248,1,0,0:0:0:0:
320,192,184398,1,0,0:0:0:0:
64,192,184548,1,8,0:0:0:0:
448,192,184548,1,0,0:0:0:0:
320,192,184698,1,0,0:0:0:0:
192,192,184848,1,8,0:0:0:0:
64,192,184848,1,0,0:0:0:0:
448,192,184998,1,0,0:0:0:0:
192,192,185148,1,8,0:0:0:0:
64,192,185148,1,0,0:0:0:0:
320,192,185298,1,0,0:0:0:0:
192,192,185448,1,8,0:0:0:0:
64,192,185448,1,0,0:0:0:0:
448,192,185598,1,0,0:0:0:0:
64,192,185748,1,8,0:0:0:0:
192,192,185748,1,0,0:0:0:0:
320,192,185898,1,0,0:0:0:0:
448,192,186048,1,8,0:0:0:0:
64,192,186048,1,0,0:0:0:0:
192,192,186198,1,0,0:0:0:0:
448,192,186348,1,8,0:0:0:0:
64,192,186348,1,0,0:0:0:0:
320,192,186498,1,0,0:0:0:0:
192,192,186648,1,8,0:0:0:0:
448,192,186648,1,0,0:0:0:0:
64,192,186723,1,0,0:0:0:0:
320,192,186798,1,0,0:0:0:0:
192,192,186873,1,0,0:0:0:0:
64,192,186948,1,0,0:0:0:0:
448,192,186948,128,0,187248:0:0:0:0:
192,192,187248,1,0,0:0:0:70:Cymbol.wav
64,192,187248,1,8,0:0:0:0:
448,192,187398,1,0,0:0:0:0:
192,192,187473,1,0,0:0:0:0:
320,192,187548,1,0,0:0:0:0:
64,192,187548,128,0,187698:0:0:0:0:
448,192,187698,128,0,187848:0:0:0:0:
64,192,187848,1,8,0:0:0:0:
320,192,187848,1,0,0:0:0:0:
448,192,187998,1,0,0:0:0:0:
320,192,188148,1,8,0:0:0:0:
64,192,188148,1,0,0:0:0:0:
192,192,188298,1,0,0:0:0:0:
64,192,188448,1,8,0:0:0:0:
448,192,188448,1,0,0:0:0:0:
320,192,188598,1,0,0:0:0:0:
192,192,188673,1,0,0:0:0:0:
64,192,188748,1,8,0:0:0:0:
448,192,188748,1,0,0:0:0:0:
192,192,188898,1,0,0:0:0:0:
320,192,189048,1,8,0:0:0:0:
448,192,189048,1,0,0:0:0:0:
192,192,189198,1,0,0:0:0:0:
320,192,189348,1,8,0:0:0:0:
448,192,189348,1,0,0:0:0:0:
192,192,189423,1,0,0:0:0:0:
64,192,189498,1,0,0:0:0:0:
448,192,189573,1,0,0:0:0:0:
320,192,189648,1,8,0:0:0:0:
192,192,189648,1,0,0:0:0:0:
64,192,189798,1,0,0:0:0:0:
192,192,189948,1,8,0:0:0:0:
320,192,189948,1,0,0:0:0:0:
448,192,190098,1,0,0:0:0:0:
64,192,190248,1,0,0:0:0:0:
320,192,190398,1,0,0:0:0:0:
64,192,190548,1,0,0:0:0:0:
192,192,190698,1,0,0:0:0:0:
320,192,190848,1,8,0:0:0:0:
448,192,190848,128,0,191148:0:0:0:0:
64,192,191035,1,0,0:0:0:0:
192,192,191148,1,0,0:0:0:0:
320,192,191298,1,0,0:0:0:0:
64,192,191448,1,8,0:0:0:0:
448,192,191448,1,0,0:0:0:0:
320,192,191748,1,0,0:0:0:70:Snare.wav
448,192,191748,1,0,0:0:0:0:
64,192,191748,1,0,0:0:0:0:
64,192,192048,1,0,0:0:0:0:
448,192,192123,1,0,0:0:0:0:
192,192,192198,1,0,0:0:0:0:
64,192,192348,1,0,0:0:0:0:
448,192,192348,1,0,0:0:0:0:
192,192,192498,1,0,0:0:0:0:
320,192,192498,1,0,0:0:0:0:
64,192,192648,1,8,0:0:0:0:
448,192,192648,1,0,0:0:0:70:Cymbol.wav
192,192,192723,1,0,0:0:0:0:
448,192,192798,1,0,0:0:0:0:
320,192,192873,1,0,0:0:0:0:
64,192,192948,1,8,0:0:0:0:
192,192,193023,1,0,0:0:0:0:
320,192,193098,1,0,0:0:0:0:
448,192,193173,1,0,0:0:0:0:
192,192,193248,1,8,0:0:0:0:
64,192,193323,1,0,0:0:0:0:
320,192,193398,1,0,0:0:0:0:
448,192,193473,1,0,0:0:0:0:
64,192,193548,1,8,0:0:0:0:
192,192,193623,1,0,0:0:0:0:
320,192,193698,1,0,0:0:0:0:
448,192,193773,1,0,0:0:0:0:
192,192,193848,1,8,0:0:0:0:
64,192,193923,1,0,0:0:0:0:
320,192,193998,1,0,0:0:0:0:
192,192,194073,1,0,0:0:0:0:
64,192,194148,1,8,0:0:0:0:
320,192,194223,1,0,0:0:0:0:
448,192,194298,1,0,0:0:0:0:
192,192,194373,1,0,0:0:0:0:
320,192,194448,1,8,0:0:0:0:
64,192,194523,1,0,0:0:0:0:
320,192,194598,1,0,0:0:0:0:
192,192,194673,1,0,0:0:0:0:
64,192,194748,1,0,0:0:0:0:
448,192,194898,1,8,0:0:0:0:
192,192,194973,1,0,0:0:0:0:
448,192,195048,1,0,0:0:0:0:
320,192,195123,1,0,0:0:0:0:
192,192,195198,1,0,0:0:0:0:
64,192,195348,1,8,0:0:0:0:
320,192,195423,1,0,0:0:0:0:
64,192,195498,1,0,0:0:0:0:
192,192,195573,1,0,0:0:0:0:
320,192,195648,1,0,0:0:0:0:
192,192,195798,1,8,0:0:0:0:
448,192,195873,1,0,0:0:0:0:
192,192,195948,1,0,0:0:0:0:
320,192,196023,1,0,0:0:0:0:
64,192,196098,1,0,0:0:0:0:
192,192,196173,1,0,0:0:0:0:
320,192,196248,1,8,0:0:0:0:
448,192,196248,128,0,196548:0:0:0:0:
64,192,196548,128,0,196848:0:0:0:0:
192,192,196848,1,8,0:0:0:0:
448,192,196848,1,0,0:0:0:0:
320,192,197073,1,8,0:0:0:0:
448,192,197073,1,0,0:0:0:0:
192,192,197298,1,8,0:0:0:0:
64,192,197298,1,0,0:0:0:0:
320,192,197448,1,0,0:0:0:70:Cymbol.wav
448,192,197448,1,8,0:0:0:0:
64,192,197523,1,0,0:0:0:0:
192,192,197598,1,0,0:0:0:0:
320,192,197673,1,0,0:0:0:0:
448,192,197748,1,8,0:0:0:0:
192,192,197823,1,0,0:0:0:0:
320,192,197898,1,0,0:0:0:0:
64,192,197973,1,0,0:0:0:0:
192,192,198048,1,8,0:0:0:0:
448,192,198123,1,0,0:0:0:0:
320,192,198198,1,0,0:0:0:0:
192,192,198273,1,0,0:0:0:0:
448,192,198348,1,8,0:0:0:0:
64,192,198423,1,0,0:0:0:0:
320,192,198498,1,0,0:0:0:0:
192,192,198573,1,0,0:0:0:0:
64,192,198648,1,8,0:0:0:0:
320,192,198723,1,0,0:0:0:0:
192,192,198798,1,0,0:0:0:0:
448,192,198873,1,0,0:0:0:0:
64,192,198948,1,8,0:0:0:0:
192,192,199023,1,0,0:0:0:0:
320,192,199098,1,0,0:0:0:0:
448,192,199173,1,0,0:0:0:0:
192,192,199248,1,0,0:0:0:70:Cymbol.wav
64,192,199248,1,8,0:0:0:0:
448,192,199398,1,0,0:0:0:0:
320,192,199548,1,0,0:0:0:0:
64,192,199548,1,0,0:0:0:0:
192,192,199623,1,8,0:0:0:0:
448,192,199698,1,8,0:0:0:0:
64,192,199848,1,8,0:0:0:0:
192,192,199998,1,0,0:0:0:0:
448,192,199998,1,0,0:0:0:0:
320,192,200073,1,0,0:0:0:0:
64,192,200148,1,8,0:0:0:0:
192,192,200298,1,8,0:0:0:0:
320,192,200298,1,0,0:0:0:0:
64,192,200448,1,0,0:0:0:70:Cymbol.wav
448,192,200448,128,8,201048:0:0:0:0:
64,192,201048,1,8,0:0:0:0:
192,192,201198,1,8,0:0:0:0:
320,192,201348,1,0,0:0:0:70:Snare.wav
448,192,201348,1,0,0:0:0:0:
192,192,201498,1,0,0:0:0:0:
64,192,201648,128,0,201948:0:0:0:0:
448,192,201648,128,0,201948:0:0:0:0:
320,192,201948,1,8,0:0:0:0:
192,192,201948,1,0,0:0:0:70:Cymbol.wav
448,192,202023,1,0,0:0:0:0:
64,192,202098,1,0,0:0:0:0:
192,192,202173,1,0,0:0:0:0:
320,192,202248,1,8,0:0:0:0:
192,192,202323,1,0,0:0:0:0:
64,192,202398,1,0,0:0:0:0:
448,192,202473,1,0,0:0:0:0:
320,192,202548,1,8,0:0:0:0:
64,192,202623,1,0,0:0:0:0:
192,192,202698,1,0,0:0:0:0:
320,192,202773,1,0,0:0:0:0:
448,192,202848,1,8,0:0:0:0:
64,192,202923,1,0,0:0:0:0:
192,192,202998,1,0,0:0:0:0:
448,192,203073,1,0,0:0:0:0:
320,192,203148,1,8,0:0:0:0:
192,192,203223,1,0,0:0:0:0:
448,192,203298,1,0,0:0:0:0:
320,192,203373,1,0,0:0:0:0:
64,192,203448,1,8,0:0:0:0:
192,192,203523,1,0,0:0:0:0:
320,192,203598,1,0,0:0:0:0:
64,192,203673,1,0,0:0:0:0:
192,192,203748,1,8,0:0:0:0:
448,192,203823,1,0,0:0:0:0:
320,192,203898,1,0,0:0:0:0:
192,192,203973,1,0,0:0:0:0:
320,192,204048,1,8,0:0:0:0:
448,192,204123,1,0,0:0:0:0:
192,192,204198,1,0,0:0:0:0:
320,192,204273,1,0,0:0:0:0:
64,192,204348,1,8,0:0:0:0:
192,192,204423,1,0,0:0:0:0:
448,192,204498,1,0,0:0:0:0:
320,192,204573,1,0,0:0:0:0:
192,192,204648,1,8,0:0:0:0:
64,192,204723,1,0,0:0:0:0:
448,192,204798,1,0,0:0:0:0:
320,192,204873,1,0,0:0:0:0:
64,192,204948,1,8,0:0:0:0:
192,192,205023,1,0,0:0:0:0:
320,192,205098,1,0,0:0:0:0:
448,192,205173,1,0,0:0:0:0:
64,192,205248,1,8,0:0:0:0:
192,192,205323,1,0,0:0:0:0:
448,192,205398,1,0,0:0:0:0:
320,192,205473,1,0,0:0:0:0:
64,192,205548,1,8,0:0:0:0:
192,192,205623,1,0,0:0:0:0:
320,192,205698,1,0,0:0:0:0:
448,192,205773,1,0,0:0:0:0:
192,192,205848,1,8,0:0:0:0:
64,192,205848,128,0,206148:0:0:0:0:
448,192,206148,128,0,206448:0:0:0:0:
192,192,206448,1,8,0:0:0:0:
64,192,206448,1,0,0:0:0:0:
320,192,206673,1,8,0:0:0:0:
448,192,206673,1,0,0:0:0:0:
192,192,206898,1,8,0:0:0:0:
64,192,206898,1,0,0:0:0:0:
320,192,207048,1,8,0:0:0:0:
448,192,207048,1,0,0:0:0:70:Cymbol.wav
192,192,207123,1,0,0:0:0:0:
64,192,207198,1,0,0:0:0:0:
448,192,207273,1,0,0:0:0:0:
320,192,207348,1,8,0:0:0:0:
192,192,207423,1,0,0:0:0:0:
320,192,207498,1,0,0:0:0:0:
448,192,207573,1,0,0:0:0:0:
64,192,207648,1,8,0:0:0:0:
192,192,207723,1,0,0:0:0:0:
320,192,207798,1,0,0:0:0:0:
192,192,207873,1,0,0:0:0:0:
448,192,207948,1,8,0:0:0:0:
320,192,208023,1,0,0:0:0:0:
192,192,208098,1,0,0:0:0:0:
64,192,208173,1,0,0:0:0:0:
448,192,208248,1,8,0:0:0:0:
320,192,208323,1,0,0:0:0:0:
64,192,208398,1,0,0:0:0:0:
192,192,208473,1,0,0:0:0:0:
448,192,208548,1,8,0:0:0:0:
320,192,208623,1,0,0:0:0:0:
192,192,208698,1,0,0:0:0:0:
64,192,208773,1,0,0:0:0:0:
320,192,208848,1,8,0:0:0:0:
448,192,208848,1,0,0:0:0:0:
192,192,208998,1,0,0:0:0:0:
64,192,208998,1,0,0:0:0:0:
448,192,209148,1,8,0:0:0:0:
320,192,209223,1,0,0:0:0:0:
64,192,209298,1,0,0:0:0:0:
192,192,209373,1,0,0:0:0:0:
448,192,209448,1,0,0:0:0:0:
320,192,209523,1,0,0:0:0:0:
64,192,209598,1,0,0:0:0:0:
192,192,209673,1,0,0:0:0:0:
448,192,209748,1,0,0:0:0:0:
320,192,209823,1,0,0:0:0:0:
64,192,209898,1,0,0:0:0:0:
192,192,209973,1,0,0:0:0:0:
320,192,210048,1,0,0:0:0:70:Cymbol.wav
448,192,210048,1,8,0:0:0:0:
192,192,210235,1,0,0:0:0:0:
64,192,210235,1,0,0:0:0:0:
320,192,210348,1,8,0:0:0:0:
448,192,210648,1,8,0:0:0:0:
64,192,210648,1,0,0:0:0:0:
320,192,210948,1,0,0:0:0:70:Snare.wav
448,192,210948,1,0,0:0:0:0:
64,192,210948,1,0,0:0:0:0:
192,192,211248,1,8,0:0:0:0:
64,192,211248,1,0,0:0:0:0:
448,192,211398,1,8,0:0:0:0:
320,192,211398,1,0,0:0:0:0:
192,192,211548,1,8,0:0:0:0:
64,192,211548,1,0,0:0:0:0:
320,192,211698,1,0,0:0:0:0:
448,192,211848,1,8,0:0:0:0:
64,192,211848,1,0,0:0:0:0:
64,192,211998,1,0,0:0:0:0:
320,192,212148,1,8,0:0:0:0:
448,192,212148,1,0,0:0:0:0:
448,192,212298,1,0,0:0:0:0:
192,192,212448,1,8,0:0:0:0:
320,192,212448,1,0,0:0:0:0:
192,192,212598,1,0,0:0:0:0:
64,192,212748,1,8,0:0:0:0:
320,192,212748,1,0,0:0:0:0:
320,192,212898,1,0,0:0:0:0:
448,192,213048,1,8,0:0:0:0:
64,192,213048,1,0,0:0:0:0:
448,192,213198,1,0,0:0:0:0:
320,192,213348,1,8,0:0:0:0:
64,192,213348,1,0,0:0:0:0:
64,192,213498,1,0,0:0:0:0:
192,192,213648,1,8,0:0:0:0:
320,192,213648,1,0,0:0:0:0:
448,192,213648,1,0,0:0:0:0:
448,192,213798,1,0,0:0:0:0:
192,192,213948,1,8,0:0:0:0:
64,192,213948,1,0,0:0:0:0:
64,192,214098,1,0,0:0:0:0:
320,192,214248,1,8,0:0:0:0:
448,192,214248,1,0,0:0:0:0:
64,192,214323,1,0,0:0:0:0:
192,192,214398,1,0,0:0:0:0:
448,192,214473,1,0,0:0:0:0:
320,192,214548,1,8,0:0:0:0:
64,192,214548,1,0,0:0:0:0:
192,192,214698,1,0,0:0:0:0:
448,192,214698,1,0,0:0:0:0:
320,192,214848,1,8,0:0:0:0:
448,192,214848,1,0,0:0:0:0:
64,192,214923,1,0,0:0:0:0:
192,192,214998,1,0,0:0:0:0:
320,192,215073,1,0,0:0:0:0:
64,192,215148,1,8,0:0:0:0:
192,192,215148,1,0,0:0:0:0:
320,192,215298,1,0,0:0:0:0:
192,192,215373,1,0,0:0:0:0:
320,192,215448,1,8,0:0:0:0:
448,192,215448,1,0,0:0:0:0:
192,192,215598,1,8,0:0:0:0:
64,192,215598,1,0,0:0:0:0:
64,192,215748,1,0,0:0:0:70:Snare.wav
320,192,215748,1,0,0:0:0:0:
448,192,215748,1,0,0:0:0:0:
192,192,216048,1,8,0:0:0:0:
64,192,216048,1,0,0:0:0:0:
320,192,216198,1,0,0:0:0:0:
64,192,216348,1,8,0:0:0:0:
448,192,216348,1,0,0:0:0:0:
192,192,216498,1,0,0:0:0:0:
320,192,216648,1,8,0:0:0:0:
448,192,216648,1,0,0:0:0:0:
448,192,216798,1,0,0:0:0:0:
192,192,216948,1,8,0:0:0:0:
64,192,216948,1,0,0:0:0:0:
64,192,217098,1,0,0:0:0:0:
192,192,217248,1,8,0:0:0:0:
320,192,217248,1,0,0:0:0:0:
192,192,217398,1,0,0:0:0:0:
320,192,217548,1,8,0:0:0:0:
448,192,217548,1,0,0:0:0:0:
320,192,217698,1,0,0:0:0:0:
64,192,217848,1,8,0:0:0:0:
448,192,217848,1,0,0:0:0:0:
64,192,217998,1,0,0:0:0:0:
192,192,218148,1,8,0:0:0:0:
448,192,218148,1,0,0:0:0:0:
448,192,218298,1,0,0:0:0:0:
64,192,218448,1,8,0:0:0:0:
320,192,218448,1,0,0:0:0:0:
192,192,218448,1,0,0:0:0:0:
64,192,218598,1,0,0:0:0:0:
320,192,218748,1,8,0:0:0:0:
448,192,218748,1,0,0:0:0:0:
448,192,218898,1,0,0:0:0:0:
64,192,219048,1,8,0:0:0:0:
192,192,219048,1,0,0:0:0:0:
448,192,219123,1,0,0:0:0:0:
320,192,219198,1,0,0:0:0:0:
192,192,219273,1,0,0:0:0:0:
64,192,219348,1,8,0:0:0:0:
448,192,219348,1,0,0:0:0:0:
320,192,219498,1,0,0:0:0:0:
192,192,219498,1,0,0:0:0:0:
64,192,219648,1,0,0:0:0:70:Cymbol.wav
448,192,219648,128,8,219948:0:0:0:0:
192,192,219948,1,0,0:0:0:0:
320,192,220098,1,0,0:0:0:0:
64,192,220248,1,0,0:0:0:0:
192,192,220323,1,0,0:0:0:0:
320,192,220398,1,0,0:0:0:0:
64,192,220548,1,0,0:0:0:70:Snare.wav
448,192,220548,1,0,0:0:0:0:
192,192,220698,1,0,0:0:0:0:
320,192,220773,1,0,0:0:0:0:
448,192,220848,1,8,0:0:0:0:
64,192,220848,1,0,0:0:0:0:
192,192,220998,1,8,0:0:0:0:
64,192,220998,1,0,0:0:0:0:
320,192,221148,1,8,0:0:0:0:
448,192,221148,1,0,0:0:0:70:Cymbol.wav
192,192,221298,1,0,0:0:0:0:
64,192,221448,1,8,0:0:0:0:
448,192,221448,1,0,0:0:0:0:
448,192,221598,1,0,0:0:0:0:
192,192,221748,1,0,0:0:0:0:
320,192,221748,1,0,0:0:0:0:
320,192,221898,1,0,0:0:0:0:
64,192,222048,1,8,0:0:0:0:
192,192,222048,1,0,0:0:0:0:
192,192,222198,1,0,0:0:0:0:
64,192,222348,1,8,0:0:0:0:
448,192,222348,1,0,0:0:0:0:
64,192,222498,1,0,0:0:0:0:
192,192,222648,1,8,0:0:0:0:
448,192,222648,1,0,0:0:0:0:
448,192,222798,1,0,0:0:0:0:
320,192,222948,1,8,0:0:0:0:
64,192,222948,1,0,0:0:0:0:
64,192,223098,1,0,0:0:0:0:
192,192,223248,1,8,0:0:0:0:
320,192,223248,1,0,0:0:0:0:
448,192,223248,1,0,0:0:0:0:
448,192,223398,1,0,0:0:0:0:
192,192,223548,1,8,0:0:0:0:
64,192,223548,1,0,0:0:0:0:
64,192,223698,1,0,0:0:0:0:
320,192,223848,1,8,0:0:0:0:
448,192,223848,1,0,0:0:0:0:
192,192,223923,1,0,0:0:0:0:
448,192,223998,1,0,0:0:0:0:
320,192,224073,1,0,0:0:0:0:
192,192,224148,1,8,0:0:0:0:
64,192,224148,1,0,0:0:0:0:
320,192,224298,1,0,0:0:0:0:
448,192,224298,1,0,0:0:0:0:
192,192,224448,1,8,0:0:0:0:
64,192,224448,1,0,0:0:0:0:
448,192,224523,1,0,0:0:0:0:
320,192,224598,1,0,0:0:0:0:
192,192,224673,1,0,0:0:0:0:
320,192,224748,1,8,0:0:0:0:
448,192,224748,1,0,0:0:0:0:
192,192,224898,1,0,0:0:0:0:
320,192,224973,1,0,0:0:0:0:
192,192,225048,1,8,0:0:0:0:
64,192,225048,1,0,0:0:0:0:
320,192,225198,1,8,0:0:0:0:
448,192,225198,1,0,0:0:0:0:
192,192,225348,1,0,0:0:0:70:Snare.wav
64,192,225348,1,0,0:0:0:0:
448,192,225348,1,0,0:0:0:0:
64,192,225648,128,0,225948:0:0:0:0:
320,192,225648,1,0,0:0:0:0:
192,192,225948,128,0,226098:0:0:0:0:
320,192,226098,128,0,226248:0:0:0:0:
64,192,226248,1,8,0:0:0:0:
448,192,226248,1,0,0:0:0:70:Cymbol.wav
192,192,226398,1,0,0:0:0:0:
320,192,226548,1,0,0:0:0:70:Snare.wav
448,192,226548,1,0,0:0:0:0:
64,192,226698,1,0,0:0:0:0:
320,192,226848,1,0,0:0:0:0:
192,192,226998,1,0,0:0:0:70:Snare.wav
64,192,226998,1,0,0:0:0:0:
320,192,227073,1,0,0:0:0:0:
448,192,227148,1,0,0:0:0:0:
320,192,227298,1,0,0:0:0:0:
192,192,227448,1,0,0:0:0:70:Snare.wav
64,192,227448,1,0,0:0:0:0:
320,192,227598,1,0,0:0:0:0:
64,192,227748,1,8,0:0:0:0:
448,192,227748,1,0,0:0:0:0:
192,192,227823,1,0,0:0:0:0:
320,192,227898,1,0,0:0:0:0:
448,192,227973,1,0,0:0:0:0:
192,192,228048,1,0,0:0:0:70:Cymbol.wav
64,192,228048,1,8,0:0:0:0:
320,192,228198,1,0,0:0:0:0:
192,192,228273,1,8,0:0:0:0:
64,192,228273,1,0,0:0:0:0:
448,192,228423,1,0,0:0:0:0:
320,192,228498,1,8,0:0:0:0:
64,192,228498,1,0,0:0:0:0:
192,192,228648,1,8,0:0:0:0:
448,192,228648,1,0,0:0:0:0:
320,192,228723,1,0,0:0:0:0:
64,192,228798,1,0,0:0:0:0:
192,192,228873,1,0,0:0:0:0:
320,192,228948,1,8,0:0:0:0:
448,192,228948,1,0,0:0:0:70:Cymbol.wav
192,192,229098,1,0,0:0:0:0:
320,192,229173,1,0,0:0:0:0:
448,192,229248,1,8,0:0:0:0:
64,192,229248,128,0,229548:0:0:0:0:
320,192,229548,1,8,0:0:0:0:
192,192,229848,1,8,0:0:0:0:
64,192,229848,1,0,0:0:0:0:
448,192,229998,1,0,0:0:0:0:
320,192,230148,1,0,0:0:0:0:
192,192,230298,1,0,0:0:0:0:
64,192,230448,1,8,0:0:0:0:
448,192,230448,1,0,0:0:0:40:Cymbol.wav
320,192,230748,1,8,0:0:0:0:
448,192,230748,1,0,0:0:0:0:
64,192,231048,1,8,0:0:0:0:
448,192,231048,1,0,0:0:0:0:
320,192,231348,1,8,0:0:0:0:
64,192,231348,1,0,0:0:0:0:
192,192,231648,1,8,0:0:0:0:
64,192,231648,1,0,0:0:0:0:
320,192,231948,1,8,0:0:0:0:
448,192,231948,1,0,0:0:0:0:
64,192,232248,1,8,0:0:0:0:
320,192,232248,1,0,0:0:0:0:
192,192,232548,1,8,0:0:0:0:
448,192,232548,1,0,0:0:0:0:
64,192,232848,1,8,0:0:0:0:
192,192,232848,1,0,0:0:0:0:
320,192,233148,1,8,0:0:0:0:
448,192,233148,1,0,0:0:0:0:
64,192,233448,1,8,0:0:0:0:
448,192,233448,1,0,0:0:0:0:
320,192,233748,1,8,0:0:0:0:
192,192,233748,1,0,0:0:0:0:
64,192,234048,1,8,0:0:0:0:
320,192,234048,1,0,0:0:0:0:
192,192,234348,1,8,0:0:0:0:
448,192,234348,1,0,0:0:0:0:
320,192,234648,128,8,234948:0:0:0:0:
64,192,234648,1,0,0:0:0:0:
192,192,234948,1,0,0:0:0:0:
320,192,235098,1,0,0:0:0:0:
64,192,235248,1,8,0:0:0:0:
448,192,235248,1,0,0:0:0:0:
192,192,235548,1,8,0:0:0:0:
64,192,235548,1,0,0:0:0:0:
320,192,235848,1,8,0:0:0:0:
448,192,235848,1,0,0:0:0:0:
192,192,236148,1,8,0:0:0:0:
448,192,236148,1,0,0:0:0:0:
192,192,236448,1,8,0:0:0:0:
64,192,236448,1,0,0:0:0:0:
64,192,236748,1,8,0:0:0:0:
448,192,236748,1,0,0:0:0:0:
320,192,237048,1,8,0:0:0:0:
448,192,237048,1,0,0:0:0:0:
192,192,237348,1,8,0:0:0:0:
64,192,237348,1,0,0:0:0:0:
192,192,237648,1,8,0:0:0:0:
448,192,237648,1,0,0:0:0:0:
320,192,237948,1,8,0:0:0:0:
192,192,237948,1,0,0:0:0:0:
64,192,238248,1,8,0:0:0:0:
448,192,238248,1,0,0:0:0:0:
192,192,238323,1,0,0:0:0:0:
320,192,238398,1,0,0:0:0:0:
448,192,238473,1,0,0:0:0:0:
64,192,238548,1,8,0:0:0:0:
192,192,238548,1,0,0:0:0:0:
64,192,238848,1,0,0:0:0:70:Cymbol.wav
320,192,238848,1,8,0:0:0:0:
448,192,238848,1,0,0:0:0:0:
192,192,239148,128,0,239448:0:0:0:0:
448,192,239448,1,8,0:0:0:0:
320,192,239598,1,8,0:0:0:0:
64,192,239748,1,0,0:0:0:0:
192,192,239898,1,8,0:0:0:0:
320,192,239973,1,8,0:0:0:0:
448,192,240048,1,0,0:0:0:70:Cymbol.wav
64,192,240048,1,8,0:0:0:0:
192,192,240348,1,8,0:0:0:0:
64,192,240348,1,0,0:0:0:0:
448,192,240498,128,0,240648:0:0:0:0:
320,192,240648,1,8,0:0:0:0:
64,192,240648,1,0,0:0:0:0:
192,192,240798,128,0,240948:0:0:0:0:
320,192,240948,1,8,0:0:0:0:
448,192,240948,1,0,0:0:0:0:
192,192,241248,1,8,0:0:0:0:
64,192,241248,128,0,241398:0:0:0:0:
320,192,241548,1,8,0:0:0:0:
448,192,241548,1,0,0:0:0:0:
192,192,241698,128,0,241848:0:0:0:0:
64,192,241848,1,8,0:0:0:0:
448,192,241848,1,0,0:0:0:0:
320,192,242148,128,8,242298:0:0:0:0:
64,192,242148,1,0,0:0:0:0:
192,192,242298,128,0,242448:0:0:0:0:
320,192,242448,1,8,0:0:0:0:
448,192,242448,1,0,0:0:0:0:
192,192,242748,1,8,0:0:0:0:
64,192,242748,1,0,0:0:0:0:
448,192,242898,128,0,243048:0:0:0:0:
192,192,243048,1,8,0:0:0:0:
64,192,243048,1,0,0:0:0:0:
320,192,243198,128,0,243348:0:0:0:0:
192,192,243348,1,8,0:0:0:0:
64,192,243348,1,0,0:0:0:0:
320,192,243648,1,8,0:0:0:0:
448,192,243648,128,0,243798:0:0:0:0:
192,192,243948,1,8,0:0:0:0:
64,192,243948,1,0,0:0:0:0:
320,192,244098,128,0,244248:0:0:0:0:
448,192,244248,1,8,0:0:0:0:
192,192,244248,128,0,244548:0:0:0:0:
64,192,244548,1,0,0:0:0:0:
192,192,244698,1,0,0:0:0:0:
320,192,244848,1,0,0:0:0:70:Cymbol.wav
448,192,244848,1,8,0:0:0:0:
64,192,244848,1,0,0:0:0:0:
448,192,245148,1,8,0:0:0:0:
320,192,245148,1,0,0:0:0:0:
320,192,245448,1,8,0:0:0:0:
448,192,245448,1,0,0:0:0:0:
320,192,245748,1,8,0:0:0:0:
448,192,245748,1,0,0:0:0:0:
192,192,245973,1,0,0:0:0:0:
64,192,245973,1,0,0:0:0:0:
320,192,246048,1,8,0:0:0:0:
448,192,246048,1,0,0:0:0:0:
192,192,246348,1,8,0:0:0:0:
64,192,246348,1,0,0:0:0:0:
448,192,246498,1,0,0:0:0:0:
320,192,246498,1,0,0:0:0:0:
192,192,246648,1,8,0:0:0:0:
64,192,246648,1,0,0:0:0:0:
192,192,246948,1,8,0:0:0:0:
64,192,246948,1,0,0:0:0:0:
192,192,247098,1,0,0:0:0:0:
320,192,247098,1,0,0:0:0:0:
448,192,247248,1,8,0:0:0:0:
320,192,247248,1,0,0:0:0:70:Cymbol.wav
64,192,247323,1,0,0:0:0:0:
192,192,247398,1,0,0:0:0:0:
320,192,247473,1,0,0:0:0:0:
448,192,247548,1,0,0:0:0:0:
64,192,247623,1,0,0:0:0:0:
192,192,247698,1,0,0:0:0:0:
320,192,247773,1,0,0:0:0:0:
448,192,247848,1,0,0:0:0:0:
64,192,247923,1,0,0:0:0:0:
192,192,247998,1,0,0:0:0:0:
320,192,248073,1,0,0:0:0:0:
448,192,248148,1,0,0:0:0:0:
64,192,248223,1,0,0:0:0:0:
192,192,248298,1,0,0:0:0:0:
320,192,248373,1,0,0:0:0:0:
448,192,248448,1,8,0:0:0:0:
64,192,248448,1,0,0:0:0:0:
320,192,248523,1,0,0:0:0:0:
192,192,248598,1,0,0:0:0:0:
448,192,248748,1,0,0:0:0:0:
320,192,248898,1,0,0:0:0:0:
192,192,249048,1,0,0:0:0:70:Snare.wav
64,192,249048,1,0,0:0:0:0:
448,192,249198,1,0,0:0:0:0:
320,192,249348,128,0,249648:0:0:0:0:
64,192,249648,1,8,0:0:0:0:
448,192,249648,1,0,0:0:0:0:
192,192,249648,1,0,0:0:0:0:
