osu file format v14

[General]
AudioFilename: audio.mp3
AudioLeadIn: 0
PreviewTime: 76850
Countdown: 0
SampleSet: Soft
StackLeniency: 0.7
Mode: 3
LetterboxInBreaks: 0
SpecialStyle: 0
WidescreenStoryboard: 0

[Editor]
Bookmarks: 230448,249648
DistanceSpacing: 0.8
BeatDivisor: 4
GridSize: 32
TimelineZoom: 1.4

[Metadata]
Title:Trigger (Zekk Remix)
TitleUnicode:Trigger (Zekk Remix)
Artist:Dustvoxx
ArtistUnicode:Dustvoxx
Creator:Wonki
Version:Trigger
Source:
Tags:SUPERNATURAL Pumpcore Hardtek CYCLIK CONTROL.
BeatmapID:1174927
BeatmapSetID:555076

[Difficulty]
HPDrainRate:8.5
CircleSize:4
OverallDifficulty:8
ApproachRate:5
SliderMultiplier:1.4
SliderTickRate:1

[Events]
//Background and Video events
0,0,"1234.jpg",0,0
//Break Periods
//Storyboard Layer 0 (Background)
//Storyboard Layer 1 (Fail)
//Storyboard Layer 2 (Pass)
//Storyboard Layer 3 (Foreground)
//Storyboard Sound Samples

[TimingPoints]
48,300,4,2,1,40,1,0
76848,-62.5,4,2,1,40,0,0
76998,-250,4,2,1,40,0,0
77148,-100,4,2,1,40,0,0
77448,-40,4,2,1,40,0,1
77485,-250,4,2,1,40,0,1
77598,-40,4,2,1,40,0,1
77635,-250,4,2,1,40,0,1
77748,-40,4,2,1,40,0,1
77785,-250,4,2,1,40,0,1
77898,-40,4,2,1,40,0,1
77935,-250,4,2,1,40,0,1
78048,-40,4,2,1,40,0,1
78085,-250,4,2,1,40,0,1
78198,-40,4,2,1,40,0,1
78235,-250,4,2,1,40,0,1
78348,-40,4,2,1,40,0,1
78385,-250,4,2,1,40,0,1
78498,-40,4,2,1,40,0,1
78535,-250,4,2,1,40,0,1
78648,-40,4,2,1,40,0,1
78685,-250,4,2,1,40,0,1
78798,-40,4,2,1,40,0,1
78835,-250,4,2,1,40,0,1
78948,-40,4,2,1,40,0,1
78985,-250,4,2,1,40,0,1
79098,-40,4,2,1,40,0,1
79135,-250,4,2,1,40,0,1
79248,-40,4,2,1,40,0,1
79285,-250,4,2,1,40,0,1
79398,-40,4,2,1,40,0,1
79435,-250,4,2,1,40,0,1
79548,-40,4,2,1,40,0,1
79585,-250,4,2,1,40,0,1
79698,-40,4,2,1,40,0,1
79735,-250,4,2,1,40,0,1
79848,-40,4,2,1,40,0,1
79885,-250,4,2,1,40,0,1
79998,-40,4,2,1,40,0,1
80035,-250,4,2,1,40,0,1
80148,-40,4,2,1,40,0,1
80185,-250,4,2,1,40,0,1
80298,-40,4,2,1,40,0,1
80335,-250,4,2,1,40,0,1
80448,-40,4,2,1,40,0,1
80485,-250,4,2,1,40,0,1
80598,-40,4,2,1,40,0,1
80635,-250,4,2,1,40,0,1
80748,-40,4,2,1,40,0,1
80785,-250,4,2,1,40,0,1
80898,-40,4,2,1,40,0,1
80935,-250,4,2,1,40,0,1
81048,-100,4,2,1,40,0,1
82248,-40,4,2,1,40,0,1
82285,-250,4,2,1,40,0,1
82398,-40,4,2,1,40,0,1
82435,-250,4,2,1,40,0,1
82548,-40,4,2,1,40,0,1
82585,-250,4,2,1,40,0,1
82698,-40,4,2,1,40,0,1
82735,-250,4,2,1,40,0,1
82848,-40,4,2,1,40,0,1
82885,-250,4,2,1,40,0,1
82998,-40,4,2,1,40,0,1
83035,-250,4,2,1,40,0,1
83148,-40,4,2,1,40,0,1
83185,-250,4,2,1,40,0,1
83298,-40,4,2,1,40,0,1
83335,-250,4,2,1,40,0,1
83448,-40,4,2,1,40,0,1
83485,-250,4,2,1,40,0,1
83598,-40,4,2,1,40,0,1
83635,-250,4,2,1,40,0,1
83748,-40,4,2,1,40,0,1
83785,-250,4,2,1,40,0,1
83898,-40,4,2,1,40,0,1
83935,-250,4,2,1,40,0,1
84048,-40,4,2,1,40,0,1
84085,-250,4,2,1,40,0,1
84198,-40,4,2,1,40,0,1
84235,-250,4,2,1,40,0,1
84348,-100,4,2,1,40,0,1
84498,-40,4,2,1,40,0,1
84535,-250,4,2,1,40,0,1
84648,-40,4,2,1,40,0,1
84685,-250,4,2,1,40,0,1
84798,-40,4,2,1,40,0,1
84835,-250,4,2,1,40,0,1
84948,-40,4,2,1,40,0,1
84985,-250,4,2,1,40,0,1
85098,-40,4,2,1,40,0,1
85135,-250,4,2,1,40,0,1
85248,-100,4,2,1,40,0,1
87048,-40,4,2,1,40,0,1
87085,-250,4,2,1,40,0,1
87198,-40,4,2,1,40,0,1
87235,-250,4,2,1,40,0,1
87348,-40,4,2,1,40,0,1
87385,-250,4,2,1,40,0,1
87498,-40,4,2,1,40,0,1
87535,-250,4,2,1,40,0,1
87648,-40,4,2,1,40,0,1
87685,-250,4,2,1,40,0,1
87798,-40,4,2,1,40,0,1
87835,-250,4,2,1,40,0,1
87948,-40,4,2,1,40,0,1
87985,-250,4,2,1,40,0,1
88098,-40,4,2,1,40,0,1
88135,-250,4,2,1,40,0,1
88248,-40,4,2,1,40,0,1
88285,-250,4,2,1,40,0,1
88398,-40,4,2,1,40,0,1
88435,-250,4,2,1,40,0,1
88548,-40,4,2,1,40,0,1
88585,-250,4,2,1,40,0,1
88698,-40,4,2,1,40,0,1
88735,-250,4,2,1,40,0,1
88848,-40,4,2,1,40,0,1
88885,-250,4,2,1,40,0,1
88998,-40,4,2,1,40,0,1
89035,-250,4,2,1,40,0,1
89148,-40,4,2,1,40,0,1
89185,-250,4,2,1,40,0,1
89298,-40,4,2,1,40,0,1
89335,-250,4,2,1,40,0,1
89448,-40,4,2,1,40,0,1
89485,-250,4,2,1,40,0,1
89598,-40,4,2,1,40,0,1
89635,-250,4,2,1,40,0,1
89748,-40,4,2,1,40,0,1
89785,-250,4,2,1,40,0,1
89898,-40,4,2,1,40,0,1
89935,-250,4,2,1,40,0,1
90048,-40,4,2,1,40,0,1
90085,-250,4,2,1,40,0,1
90198,-40,4,2,1,40,0,1
90235,-250,4,2,1,40,0,1
90348,-40,4,2,1,40,0,1
90385,-250,4,2,1,40,0,1
90498,-40,4,2,1,40,0,1
90535,-250,4,2,1,40,0,1
90648,-100,4,2,1,40,0,1
91848,-40,4,2,1,40,0,1
91885,-250,4,2,1,40,0,1
91998,-40,4,2,1,40,0,1
92035,-250,4,2,1,40,0,1
92148,-40,4,2,1,40,0,1
92185,-250,4,2,1,40,0,1
92298,-40,4,2,1,40,0,1
92335,-250,4,2,1,40,0,1
92448,-40,4,2,1,40,0,1
92485,-250,4,2,1,40,0,1
92598,-100,4,2,1,40,0,1
92748,-40,4,2,1,40,0,1
92785,-250,4,2,1,40,0,1
92898,-40,4,2,1,40,0,1
92935,-250,4,2,1,40,0,1
93048,-40,4,2,1,40,0,1
93085,-250,4,2,1,40,0,1
93198,-40,4,2,1,40,0,1
93235,-250,4,2,1,40,0,1
93348,-100,4,2,1,40,0,1
94848,-100,4,2,1,40,0,0
115848,-40,4,2,1,40,0,0
115885,-250,4,2,1,40,0,0
115998,-40,4,2,1,40,0,0
116035,-250,4,2,1,40,0,0
116148,-40,4,2,1,40,0,0
116185,-250,4,2,1,40,0,0
116298,-40,4,2,1,40,0,0
116335,-250,4,2,1,40,0,0
116448,-40,4,2,1,40,0,0
116485,-250,4,2,1,40,0,0
116598,-40,4,2,1,40,0,0
116635,-250,4,2,1,40,0,0
116748,-40,4,2,1,40,0,0
116785,-250,4,2,1,40,0,0
116898,-40,4,2,1,40,0,0
116935,-250,4,2,1,40,0,0
117048,-40,4,2,1,40,0,0
117085,-250,4,2,1,40,0,0
117198,-40,4,2,1,40,0,0
117235,-250,4,2,1,40,0,0
117348,-40,4,2,1,40,0,0
117385,-250,4,2,1,40,0,0
117498,-40,4,2,1,40,0,0
117535,-250,4,2,1,40,0,0
117648,-40,4,2,1,40,0,0
117685,-250,4,2,1,40,0,0
117798,-40,4,2,1,40,0,0
117835,-250,4,2,1,40,0,0
117948,-40,4,2,1,40,0,0
117985,-250,4,2,1,40,0,0
118098,-40,4,2,1,40,0,0
118135,-250,4,2,1,40,0,0
118248,-100,4,2,1,40,0,0
118548,-40,4,2,1,40,0,0
118585,-250,4,2,1,40,0,0
118698,-40,4,2,1,40,0,0
118735,-250,4,2,1,40,0,0
118848,-100,4,2,1,40,0,0
120648,-40,4,2,1,40,0,0
120685,-250,4,2,1,40,0,0
120798,-40,4,2,1,40,0,0
120835,-250,4,2,1,40,0,0
120948,-40,4,2,1,40,0,0
120985,-250,4,2,1,40,0,0
121098,-40,4,2,1,40,0,0
121135,-250,4,2,1,40,0,0
121248,-40,4,2,1,40,0,0
121285,-250,4,2,1,40,0,0
121398,-40,4,2,1,40,0,0
121435,-250,4,2,1,40,0,0
121548,-40,4,2,1,40,0,0
121585,-250,4,2,1,40,0,0
121698,-40,4,2,1,40,0,0
121735,-250,4,2,1,40,0,0
121848,-40,4,2,1,40,0,0
121885,-250,4,2,1,40,0,0
121998,-40,4,2,1,40,0,0
122035,-250,4,2,1,40,0,0
122148,-40,4,2,1,40,0,0
122185,-250,4,2,1,40,0,0
122298,-40,4,2,1,40,0,0
122335,-250,4,2,1,40,0,0
122448,-40,4,2,1,40,0,0
122485,-250,4,2,1,40,0,0
122598,-40,4,2,1,40,0,0
122635,-250,4,2,1,40,0,0
122748,-100,4,2,1,40,0,0
122898,-40,4,2,1,40,0,0
122935,-250,4,2,1,40,0,0
123048,-100,4,2,1,40,0,0
123348,-40,4,2,1,40,0,0
123385,-250,4,2,1,40,0,0
123498,-40,4,2,1,40,0,0
123535,-250,4,2,1,40,0,0
123648,-100,4,2,1,40,0,0
125448,-40,4,2,1,40,0,0
125485,-250,4,2,1,40,0,0
125598,-40,4,2,1,40,0,0
125635,-250,4,2,1,40,0,0
125748,-40,4,2,1,40,0,0
125785,-250,4,2,1,40,0,0
125898,-40,4,2,1,40,0,0
125935,-250,4,2,1,40,0,0
126048,-40,4,2,1,40,0,0
126085,-250,4,2,1,40,0,0
126198,-40,4,2,1,40,0,0
126235,-250,4,2,1,40,0,0
126348,-40,4,2,1,40,0,0
126385,-250,4,2,1,40,0,0
126498,-40,4,2,1,40,0,0
126535,-250,4,2,1,40,0,0
126648,-40,4,2,1,40,0,0
126685,-250,4,2,1,40,0,0
126798,-40,4,2,1,40,0,0
126835,-250,4,2,1,40,0,0
126948,-40,4,2,1,40,0,0
126985,-250,4,2,1,40,0,0
127098,-40,4,2,1,40,0,0
127135,-250,4,2,1,40,0,0
127248,-40,4,2,1,40,0,0
127285,-250,4,2,1,40,0,0
127398,-40,4,2,1,40,0,0
127435,-250,4,2,1,40,0,0
127548,-40,4,2,1,40,0,0
127585,-250,4,2,1,40,0,0
127698,-40,4,2,1,40,0,0
127735,-250,4,2,1,40,0,0
127848,-100,4,2,1,40,0,0
128148,-40,4,2,1,40,0,0
128185,-250,4,2,1,40,0,0
128298,-40,4,2,1,40,0,0
128335,-250,4,2,1,40,0,0
128448,-100,4,2,1,40,0,0
130248,-40,4,2,1,40,0,0
130285,-250,4,2,1,40,0,0
130398,-40,4,2,1,40,0,0
130435,-250,4,2,1,40,0,0
130548,-40,4,2,1,40,0,0
130585,-250,4,2,1,40,0,0
130698,-40,4,2,1,40,0,0
130735,-250,4,2,1,40,0,0
130848,-40,4,2,1,40,0,0
130885,-250,4,2,1,40,0,0
130998,-100,4,2,1,40,0,0
131148,-40,4,2,1,40,0,0
131185,-250,4,2,1,40,0,0
131298,-40,4,2,1,40,0,0
131335,-250,4,2,1,40,0,0
131448,-40,4,2,1,40,0,0
131485,-250,4,2,1,40,0,0
131598,-40,4,2,1,40,0,0
131635,-250,4,2,1,40,0,0
131748,-100,4,2,1,40,0,0
133248,-33.3333333333333,4,2,1,40,0,0
133285,-200,4,2,1,40,0,0
133473,-33.3333333333333,4,2,1,40,0,0
133548,-200,4,2,1,40,0,0
133848,-33.3333333333333,4,2,1,40,0,0
133923,-142.857142857143,4,2,1,40,0,0
134448,-100,4,2,1,40,0,0
172848,-117.647058823529,4,2,1,40,0,0
174648,-153.846153846153,4,2,1,40,0,0
175248,-100,4,2,1,40,0,1
190848,-100,4,2,1,40,0,0
211848,-40,4,2,1,40,0,0
211885,-250,4,2,1,40,0,0
211998,-100,4,2,1,40,0,0
212148,-40,4,2,1,40,0,0
212185,-250,4,2,1,40,0,0
212298,-100,4,2,1,40,0,0
212448,-40,4,2,1,40,0,0
212485,-250,4,2,1,40,0,0
212598,-100,4,2,1,40,0,0
212748,-40,4,2,1,40,0,0
212785,-250,4,2,1,40,0,0
212898,-100,4,2,1,40,0,0
213048,-40,4,2,1,40,0,0
213085,-250,4,2,1,40,0,0
213198,-100,4,2,1,40,0,0
213348,-40,4,2,1,40,0,0
213385,-250,4,2,1,40,0,0
213498,-40,4,2,1,40,0,0
213535,-250,4,2,1,40,0,0
213648,-40,4,2,1,40,0,0
213685,-250,4,2,1,40,0,0
213798,-40,4,2,1,40,0,0
213835,-250,4,2,1,40,0,0
213948,-100,4,2,1,40,0,0
214548,-40,4,2,1,40,0,0
214585,-250,4,2,1,40,0,0
214698,-40,4,2,1,40,0,0
214735,-250,4,2,1,40,0,0
214848,-100,4,2,1,40,0,0
216348,-40,4,2,1,40,0,0
216385,-250,4,2,1,40,0,0
216498,-100,4,2,1,40,0,0
216648,-40,4,2,1,40,0,0
216685,-250,4,2,1,40,0,0
216798,-100,4,2,1,40,0,0
216948,-40,4,2,1,40,0,0
216985,-250,4,2,1,40,0,0
217098,-100,4,2,1,40,0,0
217248,-40,4,2,1,40,0,0
217285,-250,4,2,1,40,0,0
217398,-100,4,2,1,40,0,0
217548,-40,4,2,1,40,0,0
217585,-250,4,2,1,40,0,0
217698,-100,4,2,1,40,0,0
217848,-40,4,2,1,40,0,0
217885,-250,4,2,1,40,0,0
217998,-100,4,2,1,40,0,0
218148,-40,4,2,1,40,0,0
218185,-250,4,2,1,40,0,0
218298,-40,4,2,1,40,0,0
218335,-250,4,2,1,40,0,0
218448,-40,4,2,1,40,0,0
218485,-250,4,2,1,40,0,0
218598,-40,4,2,1,40,0,0
218635,-250,4,2,1,40,0,0
218748,-100,4,2,1,40,0,0
219348,-40,4,2,1,40,0,0
219385,-250,4,2,1,40,0,0
219498,-40,4,2,1,40,0,0
219535,-250,4,2,1,40,0,0
219648,-100,4,2,1,40,0,0
221448,-40,4,2,1,40,0,0
221485,-250,4,2,1,40,0,0
221598,-100,4,2,1,40,0,0
221748,-40,4,2,1,40,0,0
221785,-250,4,2,1,40,0,0
221898,-100,4,2,1,40,0,0
222048,-40,4,2,1,40,0,0
222085,-250,4,2,1,40,0,0
222198,-100,4,2,1,40,0,0
222348,-40,4,2,1,40,0,0
222385,-250,4,2,1,40,0,0
222498,-100,4,2,1,40,0,0
222648,-40,4,2,1,40,0,0
222685,-250,4,2,1,40,0,0
222798,-100,4,2,1,40,0,0
222948,-40,4,2,1,40,0,0
222985,-250,4,2,1,40,0,0
223098,-40,4,2,1,40,0,0
223135,-250,4,2,1,40,0,0
223248,-100,4,2,1,40,0,0
224148,-40,4,2,1,40,0,0
224185,-250,4,2,1,40,0,0
224298,-40,4,2,1,40,0,0
224335,-250,4,2,1,40,0,0
224448,-100,4,2,1,40,0,0
226248,-40,4,2,1,40,0,0
226285,-250,4,2,1,40,0,0
226398,-40,4,2,1,40,0,0
226435,-250,4,2,1,40,0,0
226548,-40,4,2,1,40,0,0
226585,-250,4,2,1,40,0,0
226698,-40,4,2,1,40,0,0
226735,-250,4,2,1,40,0,0
226848,-40,4,2,1,40,0,0
226885,-250,4,2,1,40,0,0
226998,-100,4,2,1,40,0,0
227148,-40,4,2,1,40,0,0
227185,-250,4,2,1,40,0,0
227298,-40,4,2,1,40,0,0
227335,-250,4,2,1,40,0,0
227448,-40,4,2,1,40,0,0
227485,-250,4,2,1,40,0,0
227598,-40,4,2,1,40,0,0
227635,-250,4,2,1,40,0,0
227748,-100,4,2,1,40,0,0

[HitObjects]
192,192,48,5,0,0:0:0:0:
64,192,48,1,8,0:0:0:0:
320,192,198,1,0,0:0:0:0:
192,192,273,1,0,0:0:0:0:
448,192,348,1,0,0:0:0:0:
64,192,348,1,8,0:0:0:0:
320,192,498,1,0,0:0:0:0:
448,192,573,1,0,0:0:0:0:
192,192,648,1,0,0:0:0:0:
64,192,648,1,8,0:0:0:0:
448,192,798,1,0,0:0:0:0:
320,192,873,1,0,0:0:0:0:
192,192,948,1,0,0:0:0:0:
64,192,948,1,8,0:0:0:0:
320,192,1098,1,0,0:0:0:0:
448,192,1173,1,0,0:0:0:0:
192,192,1248,1,0,0:0:0:0:
64,192,1248,1,8,0:0:0:0:
320,192,1398,1,0,0:0:0:0:
192,192,1473,1,0,0:0:0:0:
64,192,1548,1,8,0:0:0:0:
448,192,1548,1,0,0:0:0:0:
192,192,1698,1,0,0:0:0:0:
320,192,1773,1,0,0:0:0:0:
448,192,1848,1,0,0:0:0:0:
64,192,1848,1,8,0:0:0:0:
192,192,1923,1,0,0:0:0:0:
448,192,1998,1,0,0:0:0:0:
320,192,2073,1,0,0:0:0:0:
192,192,2148,1,0,0:0:0:0:
64,192,2148,1,8,0:0:0:0:
320,192,2298,1,0,0:0:0:0:
192,192,2373,1,0,0:0:0:0:
64,192,2448,1,8,0:0:0:0:
448,192,2448,1,0,0:0:0:0:
192,192,2598,1,0,0:0:0:0:
64,192,2673,1,0,0:0:0:0:
320,192,2748,1,0,0:0:0:0:
448,192,2748,1,8,0:0:0:0:
64,192,2898,128,0,3048:0:0:0:0:
192,192,2898,1,0,0:0:0:0:
320,192,2973,1,0,0:0:0:0:
448,192,3048,1,8,0:0:0:0:
64,192,3198,128,0,3348:0:0:0:0:
192,192,3198,1,0,0:0:0:0:
320,192,3273,1,0,0:0:0:0:
448,192,3348,1,8,0:0:0:0:
192,192,3498,1,0,0:0:0:0:
320,192,3573,1,0,0:0:0:0:
448,192,3648,1,8,0:0:0:0:
64,192,3648,128,0,3798:0:0:0:0:
320,192,3798,1,0,0:0:0:0:
192,192,3873,1,0,0:0:0:0:
448,192,3948,1,8,0:0:0:0:
320,192,3948,1,0,0:0:0:0:
64,192,4098,128,0,4248:0:0:0:0:
448,192,4248,1,8,0:0:0:0:
320,192,4285,1,0,0:0:0:0:
64,192,4323,1,0,0:0:0:0:
192,192,4360,1,0,0:0:0:0:
320,192,4398,1,0,0:0:0:0:
448,192,4548,128,0,4623:0:0:0:0:
448,192,4698,128,0,4773:0:0:0:0:
192,192,4848,1,0,0:0:0:0:
64,192,4848,1,8,0:0:0:0:
320,192,4998,1,0,0:0:0:0:
192,192,5073,1,0,0:0:0:0:
64,192,5148,1,8,0:0:0:0:
448,192,5148,1,0,0:0:0:0:
320,192,5298,1,0,0:0:0:0:
448,192,5373,1,0,0:0:0:0:
64,192,5448,1,8,0:0:0:0:
192,192,5448,1,0,0:0:0:0:
320,192,5598,1,0,0:0:0:0:
192,192,5673,1,0,0:0:0:0:
64,192,5748,1,8,0:0:0:0:
448,192,5748,1,0,0:0:0:0:
192,192,5898,1,0,0:0:0:0:
320,192,5973,1,0,0:0:0:0:
448,192,6048,1,0,0:0:0:0:
64,192,6048,1,8,0:0:0:0:
192,192,6198,1,0,0:0:0:0:
64,192,6273,1,0,0:0:0:0:
320,192,6348,1,0,0:0:0:0:
448,192,6348,1,8,0:0:0:0:
192,192,6498,1,0,0:0:0:0:
320,192,6573,1,0,0:0:0:0:
448,192,6648,1,8,0:0:0:0:
64,192,6648,1,0,0:0:0:0:
320,192,6723,1,0,0:0:0:0:
64,192,6798,1,0,0:0:0:0:
192,192,6873,1,0,0:0:0:0:
320,192,6948,1,0,0:0:0:0:
448,192,6948,1,8,0:0:0:0:
192,192,7098,1,0,0:0:0:0:
64,192,7173,1,0,0:0:0:0:
320,192,7248,1,0,0:0:0:0:
448,192,7248,1,8,0:0:0:0:
192,192,7398,1,0,0:0:0:0:
320,192,7473,1,0,0:0:0:0:
448,192,7548,1,8,0:0:0:0:
64,192,7548,1,0,0:0:0:0:
192,192,7698,1,0,0:0:0:0:
64,192,7773,1,0,0:0:0:0:
448,192,7848,1,8,0:0:0:0:
320,192,7848,128,0,7923:0:0:0:0:
192,192,7923,128,0,7998:0:0:0:0:
320,192,7998,128,0,8073:0:0:0:0:
192,192,8073,128,0,8148:0:0:0:0:
320,192,8148,1,0,0:0:0:0:
448,192,8148,1,8,0:0:0:0:
64,192,8298,1,0,0:0:0:0:
192,192,8373,1,0,0:0:0:0:
320,192,8448,1,0,0:0:0:0:
448,192,8448,1,8,0:0:0:0:
64,192,8448,1,0,0:0:0:0:
64,192,8748,128,0,8823:0:0:0:0:
192,192,8823,128,0,8898:0:0:0:0:
448,192,8898,128,0,8973:0:0:0:0:
320,192,8973,128,0,9048:0:0:0:0:
192,192,9048,1,0,0:0:0:0:
64,192,9048,1,0,0:0:0:0:
192,192,9198,1,0,0:0:0:0:
64,192,9198,1,0,0:0:0:0:
320,192,9348,128,0,9423:0:0:0:0:
448,192,9348,128,0,9423:0:0:0:0:
192,192,9498,1,0,0:0:0:0:
64,192,9498,1,0,0:0:0:0:
320,192,9573,1,0,0:0:0:0:
448,192,9573,1,0,0:0:0:0:
192,192,9648,1,0,0:0:0:0:
64,192,9648,1,8,0:0:0:0:
448,192,9648,1,0,0:0:0:0:
320,192,9798,1,0,0:0:0:0:
192,192,9873,1,0,0:0:0:0:
64,192,9948,1,8,0:0:0:0:
448,192,9948,1,0,0:0:0:0:
320,192,10098,1,0,0:0:0:0:
448,192,10173,1,0,0:0:0:0:
192,192,10248,1,0,0:0:0:0:
64,192,10248,1,8,0:0:0:0:
320,192,10323,1,0,0:0:0:0:
64,192,10398,1,0,0:0:0:0:
192,192,10473,1,0,0:0:0:0:
320,192,10548,1,0,0:0:0:0:
448,192,10548,1,8,0:0:0:0:
192,192,10623,1,0,0:0:0:0:
448,192,10698,1,0,0:0:0:0:
320,192,10773,1,0,0:0:0:0:
192,192,10848,1,0,0:0:0:0:
64,192,10848,1,8,0:0:0:0:
448,192,10923,1,0,0:0:0:0:
320,192,10998,1,0,0:0:0:0:
64,192,11073,1,0,0:0:0:0:
192,192,11148,1,0,0:0:0:0:
448,192,11148,1,8,0:0:0:0:
320,192,11223,1,0,0:0:0:0:
64,192,11298,1,0,0:0:0:0:
192,192,11373,1,0,0:0:0:0:
320,192,11448,1,0,0:0:0:0:
448,192,11448,1,8,0:0:0:0:
64,192,11523,1,0,0:0:0:0:
448,192,11598,1,0,0:0:0:0:
192,192,11673,1,0,0:0:0:0:
64,192,11748,1,8,0:0:0:0:
448,192,11748,128,0,11898:0:0:0:0:
320,192,11823,1,0,0:0:0:0:
64,192,11898,128,0,12048:0:0:0:0:
192,192,11973,1,0,0:0:0:0:
320,192,12048,1,0,0:0:0:0:
448,192,12048,1,8,0:0:0:0:
64,192,12123,1,0,0:0:0:0:
192,192,12198,1,0,0:0:0:0:
320,192,12273,1,0,0:0:0:0:
64,192,12348,1,0,0:0:0:0:
448,192,12348,1,8,0:0:0:0:
192,192,12423,1,0,0:0:0:0:
448,192,12498,1,0,0:0:0:0:
320,192,12573,1,0,0:0:0:0:
192,192,12648,1,0,0:0:0:0:
64,192,12648,1,8,0:0:0:0:
320,192,12723,1,0,0:0:0:0:
448,192,12798,1,0,0:0:0:0:
64,192,12873,1,0,0:0:0:0:
192,192,12948,1,8,0:0:0:0:
320,192,12948,1,0,0:0:0:0:
448,192,13023,1,0,0:0:0:0:
64,192,13098,1,0,0:0:0:0:
192,192,13173,1,0,0:0:0:0:
320,192,13248,1,8,0:0:0:0:
448,192,13248,1,0,0:0:0:0:
64,192,13323,1,0,0:0:0:0:
320,192,13398,1,0,0:0:0:0:
192,192,13473,1,0,0:0:0:0:
64,192,13548,1,8,0:0:0:0:
448,192,13548,1,0,0:0:0:0:
320,192,13623,1,0,0:0:0:0:
192,192,13698,1,0,0:0:0:0:
320,192,13773,1,0,0:0:0:0:
448,192,13848,1,8,0:0:0:0:
64,192,13848,1,0,0:0:0:0:
192,192,13885,1,0,0:0:0:0:
320,192,13923,1,0,0:0:0:0:
448,192,13960,1,0,0:0:0:0:
192,192,13998,1,0,0:0:0:0:
64,192,14148,128,0,14223:0:0:0:0:
64,192,14298,128,0,14373:0:0:0:0:
320,192,14448,1,0,0:0:0:70:Cymbol.wav
448,192,14448,1,8,0:0:0:0:
192,192,14448,1,0,0:0:0:0:
64,192,14598,1,0,0:0:0:0:
192,192,14673,1,0,0:0:0:0:
448,192,14748,1,8,0:0:0:0:
64,192,14748,1,0,0:0:0:0:
320,192,14748,1,0,0:0:0:0:
192,192,14898,1,0,0:0:0:0:
320,192,14973,1,0,0:0:0:0:
448,192,15048,1,8,0:0:0:0:
192,192,15048,1,0,0:0:0:0:
64,192,15048,1,0,0:0:0:0:
320,192,15198,1,0,0:0:0:0:
192,192,15273,1,0,0:0:0:0:
64,192,15348,1,0,0:0:0:0:
448,192,15348,1,8,0:0:0:0:
320,192,15348,1,0,0:0:0:0:
192,192,15498,1,0,0:0:0:0:
448,192,15573,1,0,0:0:0:0:
320,192,15573,1,0,0:0:0:0:
64,192,15648,1,8,0:0:0:0:
192,192,15648,1,0,0:0:0:0:
320,192,15798,1,0,0:0:0:0:
192,192,15873,1,0,0:0:0:0:
64,192,15948,1,8,0:0:0:0:
448,192,15948,1,0,0:0:0:0:
320,192,15948,1,0,0:0:0:0:
448,192,16098,1,0,0:0:0:0:
320,192,16098,1,0,0:0:0:0:
192,192,16098,1,0,0:0:0:0:
64,192,16248,1,8,0:0:0:0:
448,192,16248,1,0,0:0:0:0:
192,192,16248,1,0,0:0:0:0:
320,192,16323,1,0,0:0:0:0:
64,192,16398,1,0,0:0:0:0:
192,192,16473,1,0,0:0:0:0:
448,192,16548,1,0,0:0:0:0:
64,192,16548,1,8,0:0:0:0:
320,192,16548,1,0,0:0:0:0:
320,192,16698,1,0,0:0:0:0:
64,192,16698,1,0,0:0:0:0:
192,192,16698,1,0,0:0:0:0:
320,192,16848,1,0,0:0:0:0:
448,192,16848,128,0,16923:0:0:0:0:
192,192,16923,1,0,0:0:0:0:
64,192,16923,1,0,0:0:0:0:
448,192,16998,1,0,0:0:0:0:
320,192,16998,128,0,17073:0:0:0:0:
192,192,17073,1,0,0:0:0:0:
64,192,17073,1,0,0:0:0:0:
320,192,17148,1,0,0:0:0:0:
448,192,17148,128,0,17223:0:0:0:0:
192,192,17223,1,0,0:0:0:0:
64,192,17223,1,0,0:0:0:0:
448,192,17298,1,0,0:0:0:0:
320,192,17298,128,0,17373:0:0:0:0:
192,192,17373,1,0,0:0:0:0:
64,192,17373,1,0,0:0:0:0:
320,192,17448,1,0,0:0:0:0:
448,192,17448,128,0,17523:0:0:0:0:
192,192,17523,1,0,0:0:0:0:
64,192,17523,1,0,0:0:0:0:
448,192,17598,1,0,0:0:0:0:
320,192,17598,128,0,17673:0:0:0:0:
192,192,17673,1,0,0:0:0:0:
64,192,17673,1,0,0:0:0:0:
320,192,17748,1,0,0:0:0:0:
448,192,17748,128,0,17823:0:0:0:0:
192,192,17823,1,0,0:0:0:0:
64,192,17823,1,0,0:0:0:0:
448,192,17898,1,0,0:0:0:0:
320,192,17898,128,0,17973:0:0:0:0:
192,192,17973,1,0,0:0:0:0:
64,192,17973,1,0,0:0:0:0:
320,192,18048,1,0,0:0:0:0:
448,192,18048,1,8,0:0:0:0:
192,192,18123,1,0,0:0:0:0:
64,192,18123,1,0,0:0:0:0:
320,192,18198,128,0,18273:0:0:0:0:
448,192,18198,128,0,18273:0:0:0:0:
64,192,18348,128,0,18498:0:0:0:0:
448,192,18498,1,0,0:0:0:0:
320,192,18498,1,0,0:0:0:0:
64,192,18648,1,0,0:0:0:0:
192,192,18648,1,0,0:0:0:70:Snare.wav
320,192,18798,1,0,0:0:0:0:
448,192,18798,1,0,0:0:0:0:
320,192,18948,1,0,0:0:0:0:
448,192,18948,1,0,0:0:0:0:
320,192,19098,1,0,0:0:0:0:
448,192,19098,1,0,0:0:0:0:
448,192,19248,1,8,0:0:0:0:
192,192,19248,1,0,0:0:0:0:
64,192,19248,1,0,0:0:0:0:
64,192,19398,1,0,0:0:0:0:
192,192,19398,1,8,0:0:0:0:
320,192,19548,1,0,0:0:0:70:Cymbol.wav
448,192,19548,1,8,0:0:0:0:
64,192,19548,128,0,19698:0:0:0:0:
192,192,19698,1,0,0:0:0:0:
448,192,19698,1,0,0:0:0:0:
320,192,19773,1,0,0:0:0:0:
192,192,19848,1,8,0:0:0:0:
64,192,19848,1,0,0:0:0:0:
320,192,19998,1,0,0:0:0:0:
448,192,19998,1,0,0:0:0:0:
192,192,20073,1,0,0:0:0:0:
64,192,20148,1,8,0:0:0:0:
448,192,20148,128,0,20298:0:0:0:0:
192,192,20298,1,0,0:0:0:0:
64,192,20298,1,0,0:0:0:0:
320,192,20373,1,0,0:0:0:0:
192,192,20448,1,8,0:0:0:0:
448,192,20448,1,0,0:0:0:0:
320,192,20598,1,0,0:0:0:0:
64,192,20598,1,0,0:0:0:0:
192,192,20673,1,0,0:0:0:0:
64,192,20748,1,0,0:0:0:0:
448,192,20748,128,0,20898:0:0:0:0:
320,192,20898,1,0,0:0:0:0:
192,192,20898,1,0,0:0:0:0:
448,192,20973,1,0,0:0:0:0:
192,192,21048,1,8,0:0:0:0:
64,192,21048,1,0,0:0:0:0:
320,192,21198,1,0,0:0:0:0:
448,192,21198,1,0,0:0:0:0:
192,192,21273,1,0,0:0:0:0:
64,192,21348,1,8,0:0:0:0:
448,192,21348,128,0,21498:0:0:0:0:
192,192,21498,128,0,21648:0:0:0:0:
64,192,21648,128,0,21798:0:0:0:0:
320,192,21648,1,8,0:0:0:0:
448,192,21798,1,0,0:0:0:0:
192,192,21798,1,0,0:0:0:0:
320,192,21873,1,0,0:0:0:0:
64,192,21948,1,8,0:0:0:0:
192,192,21948,1,0,0:0:0:0:
320,192,22098,1,0,0:0:0:0:
448,192,22098,1,0,0:0:0:0:
192,192,22173,1,0,0:0:0:0:
64,192,22248,1,0,0:0:0:0:
448,192,22248,1,8,0:0:0:0:
320,192,22323,1,0,0:0:0:0:
64,192,22398,1,0,0:0:0:0:
192,192,22473,1,0,0:0:0:0:
448,192,22548,1,8,0:0:0:0:
320,192,22548,128,0,22698:0:0:0:0:
64,192,22698,1,0,0:0:0:0:
192,192,22698,1,0,0:0:0:0:
320,192,22848,1,8,0:0:0:0:
448,192,22848,1,0,0:0:0:0:
192,192,22998,1,0,0:0:0:0:
64,192,22998,1,0,0:0:0:0:
320,192,23073,1,0,0:0:0:0:
64,192,23148,1,8,0:0:0:0:
448,192,23148,1,0,0:0:0:0:
192,192,23223,1,0,0:0:0:0:
320,192,23298,1,0,0:0:0:0:
192,192,23373,1,0,0:0:0:0:
64,192,23448,1,0,0:0:0:0:
448,192,23448,1,0,0:0:0:0:
320,192,23448,1,8,0:0:0:0:
192,192,23598,1,8,0:0:0:0:
64,192,23598,1,0,0:0:0:0:
448,192,23598,1,0,0:0:0:0:
192,192,23748,1,0,0:0:0:0:
64,192,23748,1,0,0:0:0:0:
448,192,23748,128,0,23823:0:0:0:0:
320,192,23748,1,0,0:0:0:70:Snare.wav
320,192,23898,128,0,23973:0:0:0:0:
448,192,23898,1,0,0:0:0:0:
192,192,24048,1,8,0:0:0:0:
64,192,24048,128,0,24198:0:0:0:0:
448,192,24198,128,0,24498:0:0:0:0:
320,192,24198,1,0,0:0:0:0:
192,192,24273,1,0,0:0:0:0:
64,192,24348,1,8,0:0:0:0:
192,192,24498,1,0,0:0:0:0:
64,192,24498,128,0,24648:0:0:0:0:
320,192,24573,1,0,0:0:0:0:
448,192,24648,1,8,0:0:0:0:
192,192,24648,128,0,24798:0:0:0:0:
320,192,24798,128,0,24948:0:0:0:0:
64,192,24798,1,0,0:0:0:0:
448,192,24948,128,0,25098:0:0:0:0:
192,192,24948,1,8,0:0:0:0:
64,192,25098,128,0,25248:0:0:0:0:
320,192,25098,1,0,0:0:0:0:
192,192,25248,128,0,25398:0:0:0:0:
448,192,25248,1,8,0:0:0:0:
64,192,25398,128,0,25698:0:0:0:0:
320,192,25398,1,0,0:0:0:0:
448,192,25473,1,0,0:0:0:0:
192,192,25548,1,8,0:0:0:0:
320,192,25623,1,0,0:0:0:0:
448,192,25698,1,0,0:0:0:0:
192,192,25698,128,0,25998:0:0:0:0:
320,192,25773,1,0,0:0:0:0:
64,192,25848,1,8,0:0:0:0:
448,192,25998,128,0,26148:0:0:0:0:
320,192,25998,1,0,0:0:0:0:
64,192,26073,1,0,0:0:0:0:
192,192,26148,1,8,0:0:0:0:
320,192,26148,128,0,26448:0:0:0:0:
64,192,26298,1,0,0:0:0:0:
448,192,26373,1,0,0:0:0:0:
192,192,26448,1,0,0:0:0:0:
64,192,26448,1,8,0:0:0:0:
448,192,26598,1,0,0:0:0:0:
320,192,26673,1,0,0:0:0:0:
192,192,26748,1,8,0:0:0:0:
64,192,26748,1,0,0:0:0:0:
320,192,26823,1,0,0:0:0:0:
448,192,26898,1,0,0:0:0:0:
64,192,26973,1,0,0:0:0:0:
192,192,27048,1,8,0:0:0:0:
448,192,27048,128,0,27198:0:0:0:0:
320,192,27198,128,0,27348:0:0:0:0:
64,192,27198,1,0,0:0:0:0:
192,192,27273,1,0,0:0:0:0:
64,192,27348,128,0,27498:0:0:0:0:
448,192,27348,1,8,0:0:0:0:
320,192,27498,1,0,0:0:0:0:
192,192,27498,128,0,27648:0:0:0:0:
320,192,27648,1,0,0:0:0:70:Cymbol.wav
64,192,27648,1,8,0:0:0:0:
448,192,27648,128,0,27798:0:0:0:0:
64,192,27798,128,0,27948:0:0:0:0:
192,192,27948,128,0,28098:0:0:0:0:
64,192,28098,128,0,28248:0:0:0:0:
320,192,28248,1,0,0:0:0:70:Snare.wav
448,192,28248,128,0,28773:0:0:0:0:
192,192,28548,1,0,0:0:0:0:
64,192,28548,1,0,0:0:0:0:
64,192,28698,1,0,0:0:0:0:
320,192,28698,1,0,0:0:0:0:
192,192,28773,1,0,0:0:0:0:
64,192,28848,1,0,0:0:0:0:
320,192,28848,1,8,0:0:0:0:
448,192,28848,1,0,0:0:0:0:
192,192,28998,1,0,0:0:0:0:
320,192,28998,1,8,0:0:0:0:
448,192,28998,1,0,0:0:0:0:
64,192,29148,1,0,0:0:0:70:Cymbol.wav
192,192,29148,1,8,0:0:0:0:
448,192,29148,128,0,29298:0:0:0:0:
320,192,29298,128,0,29448:0:0:0:0:
64,192,29298,1,0,0:0:0:0:
192,192,29373,1,0,0:0:0:0:
64,192,29448,128,0,29598:0:0:0:0:
448,192,29448,1,8,0:0:0:0:
192,192,29598,128,0,29748:0:0:0:0:
320,192,29598,1,0,0:0:0:0:
448,192,29673,1,0,0:0:0:0:
320,192,29748,128,0,30048:0:0:0:0:
64,192,29748,1,8,0:0:0:0:
64,192,29898,1,0,0:0:0:0:
192,192,29973,1,0,0:0:0:0:
64,192,30048,128,0,30198:0:0:0:0:
448,192,30048,1,8,0:0:0:0:
448,192,30198,128,0,30498:0:0:0:0:
192,192,30198,1,0,0:0:0:0:
320,192,30273,1,0,0:0:0:0:
64,192,30348,1,8,0:0:0:0:
192,192,30498,128,0,30648:0:0:0:0:
320,192,30498,1,0,0:0:0:0:
64,192,30573,1,0,0:0:0:0:
448,192,30648,1,0,0:0:0:0:
320,192,30648,1,8,0:0:0:0:
64,192,30798,1,0,0:0:0:0:
192,192,30873,1,0,0:0:0:0:
320,192,30948,1,8,0:0:0:0:
448,192,30948,128,0,31098:0:0:0:0:
192,192,31098,128,0,31248:0:0:0:0:
64,192,31248,128,0,31548:0:0:0:0:
448,192,31248,1,8,0:0:0:0:
320,192,31398,1,0,0:0:0:0:
448,192,31473,1,0,0:0:0:0:
320,192,31548,128,0,31698:0:0:0:0:
192,192,31548,1,8,0:0:0:0:
448,192,31698,128,0,31848:0:0:0:0:
64,192,31698,1,0,0:0:0:0:
192,192,31773,1,0,0:0:0:0:
320,192,31848,128,0,31998:0:0:0:0:
64,192,31848,1,8,0:0:0:0:
448,192,31998,128,0,32148:0:0:0:0:
192,192,31998,1,0,0:0:0:0:
320,192,32073,1,0,0:0:0:0:
64,192,32148,128,0,32298:0:0:0:0:
192,192,32148,1,8,0:0:0:0:
192,192,32298,128,0,32448:0:0:0:0:
448,192,32298,1,0,0:0:0:0:
320,192,32373,1,0,0:0:0:0:
64,192,32448,128,0,32598:0:0:0:0:
448,192,32448,1,8,0:0:0:0:
320,192,32598,1,0,0:0:0:0:
192,192,32598,1,0,0:0:0:0:
64,192,32673,1,0,0:0:0:0:
448,192,32673,1,0,0:0:0:0:
192,192,32748,1,8,0:0:0:0:
320,192,32748,1,0,0:0:0:0:
448,192,32823,1,0,0:0:0:0:
64,192,32898,1,0,0:0:0:0:
320,192,32973,1,0,0:0:0:0:
64,192,33048,1,8,0:0:0:0:
448,192,33048,1,0,0:0:0:0:
192,192,33048,1,0,0:0:0:0:
64,192,33198,1,0,0:0:0:0:
448,192,33198,1,0,0:0:0:0:
320,192,33198,1,8,0:0:0:0:
192,192,33273,1,0,0:0:0:0:
64,192,33348,1,0,0:0:0:0:
320,192,33348,1,0,0:0:0:70:Snare.wav
448,192,33348,1,0,0:0:0:0:
320,192,33498,1,0,0:0:0:0:
448,192,33498,1,0,0:0:0:0:
64,192,33648,128,0,33798:0:0:0:0:
192,192,33648,128,0,33798:0:0:0:0:
320,192,33648,128,0,33798:0:0:0:0:
448,192,33648,128,0,33798:0:0:0:0:
64,192,33948,128,0,34098:0:0:0:0:
192,192,34098,128,0,34248:0:0:0:0:
320,192,34248,1,0,0:0:0:0:
64,192,34248,1,0,0:0:0:0:
448,192,34248,1,8,0:0:0:0:
192,192,34398,1,0,0:0:0:0:
64,192,34398,1,0,0:0:0:0:
192,192,34548,1,0,0:0:0:0:
320,192,34548,1,0,0:0:0:0:
448,192,34548,1,0,0:0:0:70:Snare.wav
64,192,34698,1,0,0:0:0:0:
448,192,34698,1,0,0:0:0:0:
320,192,34848,1,0,0:0:0:0:
64,192,34848,1,0,0:0:0:0:
192,192,34998,1,0,0:0:0:0:
320,192,34998,1,0,0:0:0:0:
448,192,34998,1,0,0:0:0:70:Snare.wav
64,192,35148,1,0,0:0:0:0:
192,192,35148,1,0,0:0:0:0:
320,192,35223,1,0,0:0:0:0:
64,192,35298,1,0,0:0:0:0:
448,192,35298,1,0,0:0:0:0:
192,192,35373,1,0,0:0:0:0:
320,192,35448,1,0,0:0:0:0:
448,192,35448,1,0,0:0:0:70:Snare.wav
64,192,35448,1,0,0:0:0:0:
192,192,35598,1,0,0:0:0:0:
448,192,35598,1,0,0:0:0:0:
320,192,35673,1,0,0:0:0:0:
192,192,35748,1,0,0:0:0:0:
64,192,35748,1,0,0:0:0:0:
448,192,35748,1,8,0:0:0:0:
320,192,35898,1,0,0:0:0:0:
192,192,35898,1,0,0:0:0:0:
320,192,36048,1,0,0:0:0:0:
448,192,36048,1,8,0:0:0:0:
64,192,36048,1,0,0:0:0:0:
192,192,36198,1,0,0:0:0:0:
320,192,36273,1,0,0:0:0:0:
448,192,36273,1,8,0:0:0:0:
64,192,36273,1,0,0:0:0:0:
192,192,36348,1,0,0:0:0:0:
320,192,36423,1,0,0:0:0:0:
192,192,36498,1,0,0:0:0:0:
64,192,36498,1,0,0:0:0:0:
448,192,36498,1,8,0:0:0:0:
320,192,36648,1,0,0:0:0:0:
448,192,36648,1,0,0:0:0:0:
64,192,36648,1,0,0:0:0:0:
192,192,36723,1,0,0:0:0:0:
64,192,36760,1,0,0:0:0:0:
448,192,36798,1,0,0:0:0:0:
320,192,36835,1,0,0:0:0:0:
192,192,36873,1,0,0:0:0:0:
64,192,36910,1,0,0:0:0:0:
320,192,36948,1,0,0:0:0:0:
448,192,36948,1,8,0:0:0:0:
192,192,37098,1,0,0:0:0:0:
64,192,37098,1,0,0:0:0:0:
320,192,37173,1,0,0:0:0:0:
64,192,37248,1,0,0:0:0:0:
192,192,37248,1,0,0:0:0:70:Cymbol.wav
448,192,37248,1,0,0:0:0:0:
320,192,37398,128,0,37548:0:0:0:0:
192,192,37548,128,0,37698:0:0:0:0:
64,192,37548,128,0,37623:0:0:0:0:
448,192,37623,128,0,37698:0:0:0:0:
320,192,37698,128,0,37848:0:0:0:0:
192,192,37848,128,0,38148:0:0:0:0:
64,192,37848,1,0,0:0:0:0:
448,192,37998,128,0,38148:0:0:0:0:
320,192,38148,128,0,38298:0:0:0:0:
192,192,38298,128,0,38448:0:0:0:0:
448,192,38448,128,0,42048:0:0:0:20:bell.wav
64,192,38448,128,0,42048:0:0:0:0:
320,192,38448,1,8,0:0:0:0:
192,192,39348,1,0,0:0:0:0:
320,192,39498,1,0,0:0:0:0:
192,192,39648,1,0,0:0:0:0:
320,192,39798,1,0,0:0:0:0:
192,192,39948,1,0,0:0:0:0:
320,192,40098,1,0,0:0:0:0:
192,192,40248,1,0,0:0:0:0:
320,192,40398,1,0,0:0:0:0:
192,192,40548,1,0,0:0:0:0:
320,192,40848,1,0,0:0:0:0:
192,192,41148,1,0,0:0:0:0:
320,192,41298,1,0,0:0:0:0:
192,192,41448,1,0,0:0:0:0:
320,192,41598,1,0,0:0:0:0:
192,192,41748,1,0,0:0:0:0:
320,192,41898,1,0,0:0:0:0:
192,192,42048,1,0,0:0:0:0:
448,192,42198,1,0,0:0:0:0:
320,192,42273,1,0,0:0:0:0:
192,192,42348,1,0,0:0:0:0:
64,192,42498,1,0,0:0:0:0:
320,192,42648,1,0,0:0:0:0:
192,192,42948,1,0,0:0:0:0:
448,192,43248,1,0,0:0:0:0:
320,192,43398,1,0,0:0:0:0:
64,192,43548,1,0,0:0:0:0:
192,192,43623,1,0,0:0:0:0:
320,192,43698,1,0,0:0:0:0:
448,192,43848,1,0,0:0:0:0:
192,192,43998,1,0,0:0:0:0:
320,192,44148,1,0,0:0:0:0:
448,192,44298,1,0,0:0:0:0:
64,192,44448,1,0,0:0:0:0:
192,192,44598,1,0,0:0:0:0:
448,192,44748,1,0,0:0:0:0:
320,192,44898,1,0,0:0:0:0:
192,192,45198,1,0,0:0:0:0:
320,192,45348,1,0,0:0:0:0:
448,192,45498,1,0,0:0:0:0:
64,192,45648,1,0,0:0:0:0:
320,192,45948,1,0,0:0:0:0:
192,192,46098,1,0,0:0:0:0:
448,192,46248,1,0,0:0:0:0:
320,192,46398,1,0,0:0:0:0:
64,192,46548,1,0,0:0:0:0:
192,192,46698,1,0,0:0:0:0:
320,192,46998,1,0,0:0:0:0:
192,192,47148,1,0,0:0:0:0:
320,192,47298,1,0,0:0:0:0:
448,192,47448,1,0,0:0:0:0:
192,192,47748,1,0,0:0:0:0:
320,192,48048,1,0,0:0:0:20:bell.wav
448,192,48048,1,8,0:0:0:0:
64,192,48048,1,0,0:0:0:0:
192,192,48198,1,0,0:0:0:0:
320,192,48273,1,0,0:0:0:0:
448,192,48348,1,0,0:0:0:0:
192,192,48423,1,0,0:0:0:0:
64,192,48498,1,0,0:0:0:0:
320,192,48573,1,0,0:0:0:0:
192,192,48648,1,0,0:0:0:0:
448,192,48723,1,0,0:0:0:0:
320,192,48798,1,0,0:0:0:0:
192,192,48873,1,0,0:0:0:0:
64,192,48948,1,0,0:0:0:0:
320,192,49023,1,0,0:0:0:0:
192,192,49098,1,0,0:0:0:0:
448,192,49173,1,0,0:0:0:0:
64,192,49248,1,0,0:0:0:0:
448,192,49398,1,0,0:0:0:0:
320,192,49473,1,0,0:0:0:0:
192,192,49548,1,0,0:0:0:0:
320,192,49623,1,0,0:0:0:0:
64,192,49698,1,0,0:0:0:0:
192,192,49773,1,0,0:0:0:0:
448,192,49848,1,0,0:0:0:0:
320,192,49923,1,0,0:0:0:0:
192,192,49998,1,0,0:0:0:0:
64,192,50073,1,0,0:0:0:0:
320,192,50148,1,0,0:0:0:0:
448,192,50223,1,0,0:0:0:0:
192,192,50298,1,0,0:0:0:0:
320,192,50373,1,0,0:0:0:0:
448,192,50448,1,0,0:0:0:0:
192,192,50598,1,0,0:0:0:0:
320,192,50673,1,0,0:0:0:0:
448,192,50748,1,0,0:0:0:0:
64,192,50823,1,0,0:0:0:0:
192,192,50898,1,0,0:0:0:0:
320,192,50973,1,0,0:0:0:0:
448,192,51048,1,0,0:0:0:0:
64,192,51123,1,0,0:0:0:0:
320,192,51198,1,0,0:0:0:0:
192,192,51273,1,0,0:0:0:0:
64,192,51348,1,0,0:0:0:0:
448,192,51423,1,0,0:0:0:0:
192,192,51498,1,0,0:0:0:0:
320,192,51573,1,0,0:0:0:0:
448,192,51648,1,0,0:0:0:0:
192,192,51798,1,0,0:0:0:0:
64,192,51873,1,0,0:0:0:0:
448,192,51948,1,0,0:0:0:0:
320,192,52023,1,0,0:0:0:0:
64,192,52098,1,0,0:0:0:0:
192,192,52173,1,0,0:0:0:0:
320,192,52248,1,0,0:0:0:0:
64,192,52323,1,0,0:0:0:0:
448,192,52398,1,0,0:0:0:0:
192,192,52473,1,0,0:0:0:0:
320,192,52548,1,0,0:0:0:0:
448,192,52623,1,0,0:0:0:0:
64,192,52698,1,0,0:0:0:0:
320,192,52848,1,0,0:0:0:0:
192,192,52998,1,0,0:0:0:0:
320,192,53073,1,0,0:0:0:0:
448,192,53148,1,0,0:0:0:0:
64,192,53223,1,0,0:0:0:0:
192,192,53298,1,0,0:0:0:0:
320,192,53373,1,0,0:0:0:0:
64,192,53448,1,0,0:0:0:0:
448,192,53523,1,0,0:0:0:0:
320,192,53598,1,0,0:0:0:0:
192,192,53673,1,0,0:0:0:0:
64,192,53748,1,0,0:0:0:0:
448,192,53823,1,0,0:0:0:0:
192,192,53898,1,0,0:0:0:0:
320,192,53973,1,0,0:0:0:0:
64,192,54048,1,0,0:0:0:0:
192,192,54198,1,0,0:0:0:0:
320,192,54273,1,0,0:0:0:0:
448,192,54348,1,0,0:0:0:0:
192,192,54423,1,0,0:0:0:0:
320,192,54498,1,0,0:0:0:0:
64,192,54573,1,0,0:0:0:0:
448,192,54648,1,0,0:0:0:0:
320,192,54723,1,0,0:0:0:0:
192,192,54798,1,0,0:0:0:0:
64,192,54873,1,0,0:0:0:0:
320,192,54948,1,0,0:0:0:0:
448,192,55023,1,0,0:0:0:0:
64,192,55098,1,0,0:0:0:0:
320,192,55248,1,0,0:0:0:0:
192,192,55398,1,0,0:0:0:0:
64,192,55473,1,0,0:0:0:0:
448,192,55548,1,0,0:0:0:0:
320,192,55623,1,0,0:0:0:0:
192,192,55698,1,0,0:0:0:0:
320,192,55773,1,0,0:0:0:0:
448,192,55848,1,0,0:0:0:0:
64,192,55923,1,0,0:0:0:0:
192,192,55998,1,0,0:0:0:0:
320,192,56073,1,0,0:0:0:0:
448,192,56148,1,0,0:0:0:0:
192,192,56223,1,0,0:0:0:0:
320,192,56298,128,0,56448:0:0:0:0:
448,192,56448,1,8,0:0:0:0:
64,192,56448,1,0,0:0:0:70:Snare.wav
192,192,56448,128,0,56598:0:0:0:0:
320,192,56598,128,0,56748:0:0:0:0:
192,192,56748,128,0,56898:0:0:0:0:
64,192,56748,1,0,0:0:0:0:
320,192,56898,128,0,57048:0:0:0:0:
64,192,57048,1,0,0:0:0:0:
192,192,57048,1,0,0:0:0:0:
448,192,57198,1,0,0:0:0:0:
320,192,57198,1,0,0:0:0:0:
192,192,57273,1,0,0:0:0:0:
64,192,57273,1,0,0:0:0:0:
320,192,57348,1,0,0:0:0:0:
448,192,57348,1,0,0:0:0:0:
64,192,57498,1,0,0:0:0:0:
192,192,57498,1,0,0:0:0:0:
320,192,57573,1,0,0:0:0:0:
448,192,57573,1,0,0:0:0:0:
192,192,57648,1,8,0:0:0:0:
64,192,57648,1,8,0:0:0:70:Snare.wav
448,192,57648,128,0,57873:0:0:0:20:Clap.wav
448,192,57948,128,0,58098:0:0:0:20:Clap.wav
192,192,57948,1,0,0:0:0:0:
64,192,57948,1,0,0:0:0:0:
448,192,58248,128,0,58398:0:0:0:20:Clap.wav
192,192,58248,1,0,0:0:0:0:
64,192,58248,1,0,0:0:0:0:
448,192,58548,128,0,58698:0:0:0:20:Clap.wav
192,192,58548,1,0,0:0:0:0:
64,192,58548,1,0,0:0:0:0:
320,192,58698,128,0,58848:0:0:0:0:
448,192,58848,128,0,58998:0:0:0:20:Clap.wav
192,192,58848,1,0,0:0:0:0:
64,192,58848,1,0,0:0:0:0:
320,192,59148,128,0,59298:0:0:0:20:Clap.wav
192,192,59148,1,0,0:0:0:0:
64,192,59148,1,0,0:0:0:0:
192,192,59448,128,0,59598:0:0:0:20:Clap.wav
64,192,59448,1,0,0:0:0:0:
448,192,59448,1,0,0:0:0:0:
320,192,59598,128,0,59748:0:0:0:0:
192,192,59748,128,0,59898:0:0:0:20:Clap.wav
64,192,59748,1,0,0:0:0:0:
448,192,59748,1,0,0:0:0:0:
64,192,59898,128,0,60048:0:0:0:0:
192,192,60048,128,0,60198:0:0:0:20:Clap.wav
320,192,60048,1,0,0:0:0:0:
448,192,60048,1,0,0:0:0:0:
64,192,60198,1,0,0:0:0:0:
192,192,60348,128,0,60498:0:0:0:20:Clap.wav
320,192,60348,1,0,0:0:0:0:
448,192,60348,1,0,0:0:0:0:
320,192,60498,128,0,60648:0:0:0:0:
64,192,60648,1,0,0:0:0:0:
448,192,60648,1,0,0:0:0:0:
192,192,60648,128,0,60798:0:0:0:20:Clap.wav
320,192,60798,1,0,0:0:0:0:
64,192,60948,1,0,0:0:0:0:
192,192,60948,1,0,0:0:0:0:
448,192,60948,128,0,61098:0:0:0:20:Clap.wav
320,192,61098,128,0,61248:0:0:0:0:
192,192,61248,1,0,0:0:0:0:
64,192,61248,1,0,0:0:0:0:
448,192,61248,128,0,61398:0:0:0:20:Clap.wav
320,192,61398,128,0,61548:0:0:0:0:
192,192,61548,1,0,0:0:0:0:
64,192,61548,1,0,0:0:0:0:
448,192,61548,128,0,61698:0:0:0:20:Clap.wav
192,192,61698,1,0,0:0:0:0:
64,192,61848,1,0,0:0:0:0:
448,192,61848,1,0,0:0:0:0:
320,192,61848,128,0,61998:0:0:0:20:Clap.wav
64,192,61998,128,0,62148:0:0:0:0:
448,192,62148,1,0,0:0:0:0:
320,192,62148,1,0,0:0:0:0:
192,192,62148,128,0,62298:0:0:0:20:Clap.wav
320,192,62298,128,0,62448:0:0:0:0:
64,192,62448,1,8,0:0:0:0:
192,192,62448,1,0,0:0:0:0:
448,192,62448,1,0,0:0:0:0:
320,192,62748,1,0,0:0:0:0:
448,192,62748,1,0,0:0:0:0:
192,192,63048,1,0,0:0:0:0:
64,192,63048,1,0,0:0:0:70:Snare.wav
320,192,63048,1,0,0:0:0:0:
448,192,63048,1,0,0:0:0:0:
192,192,63348,1,0,0:0:0:0:
64,192,63348,1,8,0:0:0:0:
448,192,63348,1,0,0:0:0:0:
320,192,63498,1,0,0:0:0:0:
64,192,63498,1,0,0:0:0:0:
192,192,63648,1,0,0:0:0:0:
448,192,63648,1,0,0:0:0:0:
320,192,63798,1,0,0:0:0:0:
64,192,63948,1,0,0:0:0:0:
448,192,63948,1,0,0:0:0:0:
192,192,64098,1,0,0:0:0:0:
64,192,64248,1,0,0:0:0:70:Snare.wav
192,192,64248,1,0,0:0:0:0:
320,192,64248,1,0,0:0:0:0:
448,192,64248,1,0,0:0:0:0:
320,192,64398,1,0,0:0:0:0:
64,192,64548,1,0,0:0:0:0:
448,192,64548,1,0,0:0:0:0:
192,192,64698,1,0,0:0:0:0:
320,192,64848,1,0,0:0:0:0:
448,192,64848,1,0,0:0:0:0:
64,192,64848,1,8,0:0:0:0:
192,192,64998,1,0,0:0:0:0:
320,192,65148,1,0,0:0:0:0:
448,192,65148,1,0,0:0:0:0:
192,192,65298,1,0,0:0:0:0:
64,192,65448,1,0,0:0:0:70:Snare.wav
192,192,65448,1,0,0:0:0:0:
320,192,65448,1,0,0:0:0:0:
448,192,65448,1,0,0:0:0:0:
448,192,65598,1,0,0:0:0:0:
64,192,65748,1,8,0:0:0:0:
192,192,65748,1,0,0:0:0:0:
320,192,65748,1,0,0:0:0:0:
448,192,65898,1,0,0:0:0:0:
64,192,66048,1,0,0:0:0:0:
192,192,66048,1,0,0:0:0:0:
320,192,66198,1,0,0:0:0:0:
64,192,66348,1,0,0:0:0:70:Snare.wav
192,192,66348,1,0,0:0:0:0:
448,192,66348,1,0,0:0:0:0:
320,192,66348,1,0,0:0:0:0:
64,192,66498,1,8,0:0:0:0:
192,192,66498,1,0,0:0:0:0:
448,192,66498,1,0,0:0:0:0:
320,192,66648,1,0,0:0:0:0:
448,192,66648,1,0,0:0:0:0:
192,192,66723,1,0,0:0:0:0:
64,192,66723,1,0,0:0:0:0:
320,192,66798,1,0,0:0:0:70:Snare.wav
448,192,66798,1,0,0:0:0:0:
448,192,66948,1,0,0:0:0:0:
192,192,66948,128,0,67098:0:0:0:0:
64,192,66948,128,0,67098:0:0:0:0:
448,192,67098,1,0,0:0:0:0:
64,192,67248,1,8,0:0:0:0:
192,192,67248,1,0,0:0:0:0:
448,192,67248,1,0,0:0:0:0:
320,192,67398,1,0,0:0:0:0:
192,192,67473,1,0,0:0:0:0:
64,192,67548,1,8,0:0:0:0:
320,192,67548,1,0,0:0:0:0:
448,192,67548,1,0,0:0:0:0:
192,192,67698,1,0,0:0:0:0:
320,192,67773,1,0,0:0:0:0:
448,192,67848,1,0,0:0:0:0:
192,192,67848,1,0,0:0:0:0:
64,192,67848,1,8,0:0:0:0:
448,192,67998,1,0,0:0:0:0:
64,192,68073,1,0,0:0:0:0:
192,192,68148,1,0,0:0:0:0:
320,192,68148,1,8,0:0:0:0:
448,192,68148,1,0,0:0:0:0:
320,192,68298,1,0,0:0:0:0:
448,192,68373,1,0,0:0:0:0:
320,192,68448,1,0,0:0:0:0:
64,192,68448,1,8,0:0:0:0:
192,192,68448,1,0,0:0:0:0:
192,192,68598,1,0,0:0:0:0:
320,192,68673,1,0,0:0:0:0:
448,192,68748,1,0,0:0:0:0:
192,192,68748,1,0,0:0:0:0:
64,192,68748,1,8,0:0:0:0:
64,192,68898,1,0,0:0:0:0:
192,192,68973,1,0,0:0:0:0:
64,192,69048,1,0,0:0:0:0:
320,192,69048,1,0,0:0:0:0:
448,192,69048,1,8,0:0:0:0:
192,192,69198,1,0,0:0:0:0:
320,192,69273,1,0,0:0:0:0:
192,192,69348,1,0,0:0:0:0:
64,192,69348,1,0,0:0:0:0:
448,192,69348,1,8,0:0:0:0:
320,192,69498,1,0,0:0:0:0:
192,192,69573,1,0,0:0:0:0:
64,192,69648,1,0,0:0:0:0:
320,192,69648,1,0,0:0:0:0:
448,192,69648,1,8,0:0:0:0:
192,192,69798,1,0,0:0:0:0:
320,192,69873,1,0,0:0:0:0:
192,192,69948,1,0,0:0:0:0:
64,192,69948,1,0,0:0:0:0:
448,192,69948,1,8,0:0:0:0:
448,192,70098,1,0,0:0:0:0:
320,192,70173,1,0,0:0:0:0:
192,192,70248,1,0,0:0:0:0:
64,192,70248,1,8,0:0:0:0:
448,192,70248,1,0,0:0:0:0:
64,192,70398,1,0,0:0:0:0:
192,192,70473,1,0,0:0:0:0:
320,192,70548,1,0,0:0:0:0:
448,192,70548,1,0,0:0:0:0:
64,192,70548,1,8,0:0:0:0:
192,192,70698,1,0,0:0:0:0:
320,192,70773,1,0,0:0:0:0:
192,192,70848,1,0,0:0:0:0:
64,192,70848,1,8,0:0:0:0:
448,192,70848,1,0,0:0:0:0:
320,192,70998,1,0,0:0:0:0:
192,192,71073,1,0,0:0:0:0:
320,192,71148,1,0,0:0:0:0:
448,192,71148,1,0,0:0:0:0:
64,192,71148,1,8,0:0:0:0:
192,192,71298,1,0,0:0:0:0:
320,192,71373,1,0,0:0:0:0:
448,192,71448,1,0,0:0:0:0:
192,192,71448,1,0,0:0:0:0:
64,192,71448,1,8,0:0:0:0:
320,192,71598,128,0,71673:0:0:0:0:
448,192,71598,128,0,71673:0:0:0:0:
192,192,71748,1,0,0:0:0:0:
64,192,71748,1,8,0:0:0:0:
448,192,71748,1,0,0:0:0:0:
320,192,71898,1,0,0:0:0:0:
192,192,71898,1,0,0:0:0:0:
64,192,72048,1,0,0:0:0:0:
320,192,72048,1,0,0:0:0:0:
448,192,72048,1,0,0:0:0:0:
192,192,72198,1,0,0:0:0:0:
64,192,72198,1,0,0:0:0:0:
448,192,72198,1,0,0:0:0:0:
64,192,72348,1,0,0:0:0:0:
192,192,72348,1,0,0:0:0:0:
320,192,72348,1,0,0:0:0:0:
448,192,72498,1,0,0:0:0:0:
320,192,72498,1,0,0:0:0:0:
192,192,72498,1,0,0:0:0:0:
64,192,72648,1,0,0:0:0:0:
320,192,72648,1,0,0:0:0:0:
448,192,72648,1,0,0:0:0:0:
64,192,72798,1,0,0:0:0:0:
192,192,72798,1,0,0:0:0:0:
448,192,72798,1,0,0:0:0:0:
320,192,72948,1,0,0:0:0:0:
192,192,72948,1,0,0:0:0:0:
64,192,72948,1,0,0:0:0:0:
320,192,73098,1,0,0:0:0:0:
448,192,73098,1,0,0:0:0:0:
192,192,73098,1,0,0:0:0:0:
192,192,73248,1,0,0:0:0:0:
64,192,73248,1,0,0:0:0:0:
320,192,73323,1,0,0:0:0:0:
448,192,73323,1,0,0:0:0:0:
192,192,73398,1,0,0:0:0:0:
64,192,73398,1,0,0:0:0:0:
320,192,73473,1,0,0:0:0:0:
448,192,73473,1,0,0:0:0:0:
192,192,73548,1,0,0:0:0:0:
64,192,73548,1,0,0:0:0:0:
320,192,73623,1,0,0:0:0:0:
448,192,73623,1,0,0:0:0:0:
192,192,73698,1,0,0:0:0:0:
64,192,73698,1,0,0:0:0:0:
320,192,73773,1,0,0:0:0:0:
448,192,73773,1,0,0:0:0:0:
64,192,73848,1,0,0:0:0:0:
192,192,73848,1,0,0:0:0:0:
320,192,73923,1,0,0:0:0:0:
448,192,73998,1,0,0:0:0:0:
64,192,73998,1,0,0:0:0:0:
192,192,74073,1,0,0:0:0:0:
320,192,74148,1,0,0:0:0:0:
448,192,74148,1,0,0:0:0:0:
64,192,74223,1,0,0:0:0:0:
320,192,74298,1,0,0:0:0:0:
448,192,74298,1,0,0:0:0:0:
192,192,74373,1,0,0:0:0:0:
448,192,74448,1,0,0:0:0:70:Cymbol.wav
64,192,74448,1,8,0:0:0:0:
320,192,74448,1,0,0:0:0:0:
64,192,75648,1,8,0:0:0:0:
320,192,75648,1,0,0:0:0:0:
448,192,75648,1,0,0:0:0:0:
192,192,75798,1,0,0:0:0:0:
320,192,75873,1,0,0:0:0:0:
192,192,75948,1,0,0:0:0:0:
320,192,76023,1,0,0:0:0:0:
192,192,76098,1,0,0:0:0:0:
320,192,76248,1,0,0:0:0:0:
448,192,76248,1,0,0:0:0:0:
192,192,76398,1,0,0:0:0:0:
64,192,76398,1,0,0:0:0:0:
320,192,76548,1,0,0:0:0:0:
448,192,76548,1,0,0:0:0:0:
192,192,76698,1,0,0:0:0:0:
320,192,76773,1,0,0:0:0:0:
64,192,76848,128,0,77148:0:0:0:0:
192,192,76848,128,0,77148:0:0:0:0:
448,192,76848,128,0,77148:0:0:0:0:
320,192,77148,1,0,0:0:0:0:
64,192,77298,1,0,0:0:0:0:
448,192,77298,1,0,0:0:0:0:
64,192,77448,1,8,0:0:0:0:
192,192,77448,1,0,0:0:0:70:Cymbol.wav
320,192,77448,1,0,0:0:0:70:Snare.wav
448,192,77448,1,0,0:0:0:0:
320,192,77598,1,0,0:0:0:0:
192,192,77598,1,0,0:0:0:0:
320,192,77748,1,0,0:0:0:0:
448,192,77748,1,0,0:0:0:0:
64,192,77748,1,8,0:0:0:0:
192,192,77898,1,0,0:0:0:0:
448,192,77898,1,0,0:0:0:0:
64,192,78048,1,0,0:0:0:0:
192,192,78048,1,0,0:0:0:0:
320,192,78198,1,0,0:0:0:0:
448,192,78198,1,0,0:0:0:0:
64,192,78198,1,8,0:0:0:0:
192,192,78348,1,0,0:0:0:0:
448,192,78348,1,0,0:0:0:0:
320,192,78498,1,0,0:0:0:0:
64,192,78498,1,0,0:0:0:0:
192,192,78648,1,0,0:0:0:0:
64,192,78648,1,0,0:0:0:70:Snare.wav
320,192,78648,1,0,0:0:0:0:
448,192,78648,1,0,0:0:0:0:
192,192,78798,1,0,0:0:0:0:
448,192,78798,1,0,0:0:0:0:
320,192,78948,1,0,0:0:0:0:
448,192,78948,1,0,0:0:0:0:
64,192,78948,1,8,0:0:0:0:
192,192,79098,1,0,0:0:0:0:
64,192,79098,1,0,0:0:0:0:
320,192,79248,1,0,0:0:0:0:
448,192,79248,1,8,0:0:0:0:
192,192,79248,1,0,0:0:0:0:
64,192,79398,1,0,0:0:0:0:
448,192,79398,1,0,0:0:0:0:
320,192,79548,1,0,0:0:0:0:
64,192,79548,1,0,0:0:0:0:
448,192,79698,1,0,0:0:0:0:
192,192,79698,1,0,0:0:0:0:
64,192,79848,1,0,0:0:0:0:
192,192,79848,1,0,0:0:0:0:
320,192,79848,1,0,0:0:0:0:
448,192,79848,1,0,0:0:0:70:Snare.wav
64,192,79998,1,0,0:0:0:0:
320,192,79998,1,0,0:0:0:0:
192,192,80148,1,0,0:0:0:0:
448,192,80148,1,8,0:0:0:0:
320,192,80148,1,0,0:0:0:0:
64,192,80298,1,0,0:0:0:0:
448,192,80298,1,0,0:0:0:0:
192,192,80448,1,0,0:0:0:0:
320,192,80448,1,0,0:0:0:0:
64,192,80598,1,0,0:0:0:0:
192,192,80598,1,0,0:0:0:0:
448,192,80598,1,8,0:0:0:0:
320,192,80748,1,0,0:0:0:0:
448,192,80748,1,0,0:0:0:0:
192,192,80898,1,0,0:0:0:0:
64,192,80898,1,0,0:0:0:70:Snare.wav
320,192,80898,1,0,0:0:0:0:
448,192,80898,1,0,0:0:0:0:
64,192,81048,1,8,0:0:0:0:
192,192,81048,1,0,0:0:0:0:
448,192,81048,1,0,0:0:0:0:
320,192,81123,1,0,0:0:0:0:
192,192,81160,1,0,0:0:0:0:
64,192,81198,1,0,0:0:0:0:
448,192,81235,1,0,0:0:0:0:
320,192,81273,1,0,0:0:0:0:
192,192,81310,1,0,0:0:0:0:
64,192,81348,1,0,0:0:0:0:
448,192,81348,128,0,81498:0:0:0:0:
192,192,81498,128,0,81648:0:0:0:0:
64,192,81648,1,8,0:0:0:0:
320,192,81648,1,0,0:0:0:0:
448,192,81648,1,0,0:0:0:0:
192,192,81798,1,0,0:0:0:0:
320,192,81948,128,0,82098:0:0:0:0:
448,192,81948,128,0,82098:0:0:0:0:
192,192,82098,1,0,0:0:0:0:
64,192,82098,1,0,0:0:0:0:
64,192,82248,1,0,0:0:0:70:Snare.wav
320,192,82248,1,0,0:0:0:0:
192,192,82248,1,8,0:0:0:0:
448,192,82248,1,0,0:0:0:0:
320,192,82398,1,0,0:0:0:0:
448,192,82398,1,0,0:0:0:0:
192,192,82548,1,8,0:0:0:0:
64,192,82548,1,0,0:0:0:0:
448,192,82548,1,0,0:0:0:0:
320,192,82698,1,0,0:0:0:0:
64,192,82698,1,0,0:0:0:0:
192,192,82848,1,0,0:0:0:0:
448,192,82848,1,0,0:0:0:0:
320,192,82998,1,0,0:0:0:0:
448,192,82998,1,0,0:0:0:0:
64,192,82998,1,8,0:0:0:0:
192,192,83148,1,0,0:0:0:0:
64,192,83148,1,0,0:0:0:0:
320,192,83298,1,0,0:0:0:0:
448,192,83298,1,0,0:0:0:0:
64,192,83448,1,0,0:0:0:70:Snare.wav
192,192,83448,1,0,0:0:0:0:
320,192,83448,1,0,0:0:0:0:
448,192,83448,1,0,0:0:0:0:
192,192,83598,1,0,0:0:0:0:
64,192,83598,1,0,0:0:0:0:
320,192,83748,1,0,0:0:0:0:
448,192,83748,1,0,0:0:0:0:
64,192,83748,1,8,0:0:0:0:
192,192,83898,1,0,0:0:0:0:
320,192,83898,1,0,0:0:0:0:
64,192,84048,1,8,0:0:0:0:
192,192,84048,1,0,0:0:0:70:Snare.wav
320,192,84048,1,0,0:0:0:0:
448,192,84048,1,0,0:0:0:0:
64,192,84198,1,0,0:0:0:0:
448,192,84198,1,0,0:0:0:0:
320,192,84348,1,0,0:0:0:0:
192,192,84348,1,0,0:0:0:0:
448,192,84423,1,0,0:0:0:0:
64,192,84498,1,8,0:0:0:0:
320,192,84498,1,0,0:0:0:0:
192,192,84498,1,0,0:0:0:0:
192,192,84648,1,0,0:0:0:0:
64,192,84648,1,8,0:0:0:0:
320,192,84798,1,0,0:0:0:0:
448,192,84798,1,0,0:0:0:0:
192,192,84948,1,0,0:0:0:0:
64,192,84948,1,8,0:0:0:0:
448,192,84948,1,0,0:0:0:0:
320,192,85098,1,0,0:0:0:0:
192,192,85098,1,0,0:0:0:0:
64,192,85098,1,8,0:0:0:0:
192,192,85248,1,8,0:0:0:0:
320,192,85248,1,0,0:0:0:0:
448,192,85248,128,0,85548:0:0:0:0:
64,192,85548,128,0,85698:0:0:0:0:
448,192,85698,1,0,0:0:0:0:
192,192,85848,1,0,0:0:0:0:
64,192,85848,1,0,0:0:0:0:
320,192,85923,1,0,0:0:0:0:
448,192,85923,1,0,0:0:0:0:
192,192,85998,1,0,0:0:0:0:
64,192,85998,1,0,0:0:0:0:
320,192,86073,1,0,0:0:0:0:
448,192,86073,1,0,0:0:0:0:
192,192,86148,128,0,86223:0:0:0:0:
64,192,86148,128,0,86223:0:0:0:0:
320,192,86298,1,0,0:0:0:0:
448,192,86298,1,0,0:0:0:0:
192,192,86373,1,0,0:0:0:0:
320,192,86448,128,0,86748:0:0:0:0:
448,192,86448,128,0,86748:0:0:0:0:
64,192,86448,1,0,0:0:0:0:
64,192,86598,1,0,0:0:0:0:
192,192,86748,1,0,0:0:0:0:
64,192,86898,1,0,0:0:0:0:
448,192,86898,1,0,0:0:0:0:
64,192,87048,1,8,0:0:0:0:
192,192,87048,1,0,0:0:0:70:Snare.wav
320,192,87048,1,0,0:0:0:0:
448,192,87048,1,0,0:0:0:0:
192,192,87198,1,0,0:0:0:0:
320,192,87198,1,0,0:0:0:0:
64,192,87348,1,8,0:0:0:0:
448,192,87348,1,0,0:0:0:0:
192,192,87348,1,0,0:0:0:0:
320,192,87498,1,0,0:0:0:0:
448,192,87498,1,0,0:0:0:0:
192,192,87648,1,0,0:0:0:0:
64,192,87648,1,0,0:0:0:0:
320,192,87798,1,0,0:0:0:0:
448,192,87798,1,0,0:0:0:0:
64,192,87798,1,8,0:0:0:0:
192,192,87948,1,0,0:0:0:0:
448,192,87948,1,0,0:0:0:0:
320,192,88098,1,0,0:0:0:0:
64,192,88098,1,0,0:0:0:0:
192,192,88248,1,0,0:0:0:0:
64,192,88248,1,0,0:0:0:70:Snare.wav
448,192,88248,1,0,0:0:0:0:
320,192,88248,1,0,0:0:0:0:
192,192,88398,1,0,0:0:0:0:
448,192,88398,1,0,0:0:0:0:
192,192,88548,1,0,0:0:0:0:
64,192,88548,1,8,0:0:0:0:
320,192,88548,1,0,0:0:0:0:
64,192,88698,1,0,0:0:0:0:
448,192,88698,1,0,0:0:0:0:
192,192,88848,1,8,0:0:0:0:
320,192,88848,1,0,0:0:0:0:
448,192,88848,1,0,0:0:0:0:
64,192,88998,1,0,0:0:0:0:
320,192,88998,1,0,0:0:0:0:
448,192,89148,1,0,0:0:0:0:
320,192,89148,1,0,0:0:0:0:
192,192,89298,1,0,0:0:0:0:
64,192,89298,1,0,0:0:0:0:
192,192,89448,1,0,0:0:0:70:Snare.wav
64,192,89448,1,0,0:0:0:0:
320,192,89448,1,0,0:0:0:0:
448,192,89448,1,0,0:0:0:0:
320,192,89598,1,0,0:0:0:0:
448,192,89598,1,0,0:0:0:0:
64,192,89748,1,8,0:0:0:0:
192,192,89748,1,0,0:0:0:0:
448,192,89748,1,0,0:0:0:0:
320,192,89898,1,0,0:0:0:0:
64,192,89898,1,0,0:0:0:0:
192,192,90048,1,0,0:0:0:0:
64,192,90048,1,0,0:0:0:0:
320,192,90198,1,0,0:0:0:0:
448,192,90198,1,0,0:0:0:0:
192,192,90198,1,8,0:0:0:0:
320,192,90348,1,0,0:0:0:0:
448,192,90348,1,0,0:0:0:0:
320,192,90498,1,0,0:0:0:0:
192,192,90498,1,0,0:0:0:0:
64,192,90498,1,0,0:0:0:70:Snare.wav
448,192,90498,1,0,0:0:0:0:
64,192,90648,1,8,0:0:0:0:
192,192,90648,1,0,0:0:0:0:
448,192,90648,1,0,0:0:0:0:
320,192,90723,1,0,0:0:0:0:
192,192,90760,1,0,0:0:0:0:
64,192,90798,1,0,0:0:0:0:
448,192,90835,1,0,0:0:0:0:
320,192,90873,1,0,0:0:0:0:
192,192,90910,1,0,0:0:0:0:
64,192,90948,1,0,0:0:0:0:
448,192,90948,128,0,91098:0:0:0:0:
192,192,91098,1,0,0:0:0:0:
64,192,91248,1,8,0:0:0:0:
320,192,91248,1,0,0:0:0:0:
448,192,91248,1,0,0:0:0:0:
192,192,91398,1,0,0:0:0:0:
448,192,91548,128,0,91698:0:0:0:0:
320,192,91548,128,0,91698:0:0:0:0:
192,192,91698,1,0,0:0:0:0:
64,192,91698,1,0,0:0:0:0:
64,192,91848,1,0,0:0:0:70:Snare.wav
192,192,91848,1,8,0:0:0:0:
320,192,91848,1,0,0:0:0:0:
448,192,91848,1,0,0:0:0:0:
320,192,91998,1,0,0:0:0:0:
448,192,91998,1,0,0:0:0:0:
192,192,92148,1,0,0:0:0:0:
64,192,92148,1,8,0:0:0:0:
448,192,92148,1,0,0:0:0:0:
320,192,92298,1,0,0:0:0:0:
64,192,92298,1,0,0:0:0:0:
192,192,92448,1,0,0:0:0:0:
448,192,92448,1,0,0:0:0:0:
64,192,92598,1,8,0:0:0:0:
448,192,92598,1,0,0:0:0:0:
192,192,92673,1,0,0:0:0:0:
320,192,92673,1,0,0:0:0:0:
64,192,92748,1,0,0:0:0:0:
448,192,92748,1,0,0:0:0:0:
192,192,92898,1,0,0:0:0:0:
320,192,92898,1,0,0:0:0:0:
192,192,93048,1,0,0:0:0:0:
64,192,93048,1,0,0:0:0:70:Snare.wav
320,192,93048,1,0,0:0:0:0:
448,192,93048,1,0,0:0:0:0:
64,192,93198,1,0,0:0:0:0:
448,192,93198,1,0,0:0:0:0:
64,192,93348,1,8,0:0:0:0:
192,192,93348,1,0,0:0:0:0:
448,192,93348,1,0,0:0:0:0:
320,192,93423,1,0,0:0:0:0:
64,192,93460,1,0,0:0:0:0:
192,192,93498,1,0,0:0:0:0:
448,192,93535,1,0,0:0:0:0:
320,192,93573,1,0,0:0:0:0:
64,192,93610,1,0,0:0:0:0:
448,192,93648,1,0,0:0:0:0:
192,192,93648,1,8,0:0:0:0:
64,192,93798,1,0,0:0:0:0:
192,192,93798,1,0,0:0:0:0:
320,192,93873,1,8,0:0:0:0:
448,192,93873,1,0,0:0:0:0:
192,192,93948,1,0,0:0:0:0:
64,192,94023,1,0,0:0:0:0:
192,192,94098,1,0,0:0:0:0:
320,192,94098,1,8,0:0:0:0:
448,192,94098,1,0,0:0:0:0:
448,192,94248,1,8,0:0:0:0:
320,192,94248,1,0,0:0:0:0:
64,192,94248,1,0,0:0:0:0:
192,192,94323,1,0,0:0:0:0:
320,192,94360,1,0,0:0:0:0:
448,192,94398,1,0,0:0:0:0:
64,192,94435,1,0,0:0:0:0:
192,192,94473,1,0,0:0:0:0:
320,192,94510,1,0,0:0:0:0:
448,192,94548,1,0,0:0:0:0:
64,192,94548,1,0,0:0:0:70:Snare.wav
192,192,94698,1,0,0:0:0:0:
320,192,94698,1,0,0:0:0:0:
64,192,94848,128,0,95073:0:0:0:0:
192,192,94848,128,0,95073:0:0:0:0:
448,192,94848,128,8,95073:0:0:0:0:
192,192,95148,1,8,0:0:0:0:
64,192,95148,1,0,0:0:0:0:
320,192,95298,1,0,0:0:0:0:
448,192,95298,1,0,0:0:0:0:
64,192,95448,128,0,95523:0:0:0:0:
192,192,95448,1,0,0:0:0:0:
320,192,95523,1,0,0:0:0:0:
448,192,95523,128,0,95598:0:0:0:0:
64,192,95598,128,0,95673:0:0:0:0:
192,192,95598,1,0,0:0:0:0:
320,192,95673,1,0,0:0:0:0:
448,192,95673,128,0,95748:0:0:0:0:
192,192,95748,128,0,95898:0:0:0:0:
320,192,95898,128,0,96048:0:0:0:0:
64,192,96048,1,0,0:0:0:0:
192,192,96123,1,0,0:0:0:0:
448,192,96198,1,0,0:0:0:0:
320,192,96273,1,0,0:0:0:0:
192,192,96348,1,0,0:0:0:0:
64,192,96348,1,0,0:0:0:0:
320,192,96498,1,0,0:0:0:0:
448,192,96498,1,0,0:0:0:0:
192,192,96648,1,0,0:0:0:70:Cymbol.wav
64,192,96648,1,8,0:0:0:0:
320,192,96723,1,0,0:0:0:0:
448,192,96723,1,0,0:0:0:0:
192,192,96798,1,0,0:0:0:0:
64,192,96798,1,0,0:0:0:0:
320,192,96873,1,0,0:0:0:0:
64,192,96948,1,8,0:0:0:0:
448,192,96948,1,0,0:0:0:0:
192,192,97023,1,0,0:0:0:0:
320,192,97023,1,0,0:0:0:0:
64,192,97098,1,0,0:0:0:0:
448,192,97098,1,0,0:0:0:0:
320,192,97173,1,0,0:0:0:0:
192,192,97248,1,0,0:0:0:0:
64,192,97248,1,8,0:0:0:0:
320,192,97323,1,0,0:0:0:0:
448,192,97323,1,0,0:0:0:0:
192,192,97398,1,0,0:0:0:0:
64,192,97398,1,0,0:0:0:0:
320,192,97473,1,0,0:0:0:0:
448,192,97548,1,0,0:0:0:0:
64,192,97548,1,8,0:0:0:0:
192,192,97623,1,0,0:0:0:0:
320,192,97623,1,0,0:0:0:0:
64,192,97698,1,0,0:0:0:0:
448,192,97698,1,0,0:0:0:0:
192,192,97773,1,0,0:0:0:0:
320,192,97848,1,8,0:0:0:0:
448,192,97848,1,0,0:0:0:0:
192,192,97923,1,0,0:0:0:0:
64,192,97923,1,0,0:0:0:0:
320,192,97998,1,0,0:0:0:0:
448,192,97998,1,0,0:0:0:0:
192,192,98073,1,0,0:0:0:0:
64,192,98148,1,0,0:0:0:0:
448,192,98148,1,8,0:0:0:0:
320,192,98223,1,0,0:0:0:0:
192,192,98223,1,0,0:0:0:0:
64,192,98298,1,0,0:0:0:0:
448,192,98298,1,0,0:0:0:0:
320,192,98373,1,0,0:0:0:0:
192,192,98448,1,8,0:0:0:0:
64,192,98448,1,0,0:0:0:0:
320,192,98523,1,0,0:0:0:0:
448,192,98523,1,0,0:0:0:0:
64,192,98598,1,0,0:0:0:0:
192,192,98598,1,0,0:0:0:0:
320,192,98673,1,0,0:0:0:0:
448,192,98673,1,0,0:0:0:0:
192,192,98748,1,0,0:0:0:0:
64,192,98748,1,0,0:0:0:0:
192,192,98898,1,0,0:0:0:0:
448,192,98898,1,8,0:0:0:0:
320,192,98973,1,0,0:0:0:0:
64,192,98973,1,0,0:0:0:0:
192,192,99048,1,0,0:0:0:0:
448,192,99048,1,0,0:0:0:0:
320,192,99123,1,0,0:0:0:0:
64,192,99123,1,0,0:0:0:0:
192,192,99198,1,0,0:0:0:0:
448,192,99198,1,0,0:0:0:0:
64,192,99348,1,8,0:0:0:0:
448,192,99348,1,0,0:0:0:0:
192,192,99423,1,0,0:0:0:0:
320,192,99423,1,0,0:0:0:0:
64,192,99498,1,0,0:0:0:0:
448,192,99498,1,0,0:0:0:0:
192,192,99573,1,0,0:0:0:0:
320,192,99573,1,0,0:0:0:0:
64,192,99648,1,0,0:0:0:0:
448,192,99648,1,0,0:0:0:0:
320,192,99798,1,8,0:0:0:0:
448,192,99798,1,0,0:0:0:0:
192,192,99873,1,0,0:0:0:0:
64,192,99873,1,0,0:0:0:0:
320,192,99948,1,0,0:0:0:0:
448,192,99948,1,0,0:0:0:0:
192,192,100023,1,0,0:0:0:0:
64,192,100023,1,0,0:0:0:0:
320,192,100098,1,0,0:0:0:0:
448,192,100098,1,0,0:0:0:0:
192,192,100173,1,0,0:0:0:0:
64,192,100173,1,0,0:0:0:0:
320,192,100248,1,8,0:0:0:0:
448,192,100248,1,0,0:0:0:0:
64,192,100323,1,0,0:0:0:0:
192,192,100360,1,0,0:0:0:0:
448,192,100398,1,0,0:0:0:0:
320,192,100435,1,0,0:0:0:0:
64,192,100473,1,0,0:0:0:0:
192,192,100510,1,0,0:0:0:0:
320,192,100548,1,0,0:0:0:0:
448,192,100548,128,0,100848:0:0:0:0:
192,192,100848,1,8,0:0:0:0:
320,192,100848,1,0,0:0:0:0:
64,192,100848,1,0,0:0:0:0:
448,192,100923,1,0,0:0:0:0:
64,192,100998,1,0,0:0:0:0:
320,192,101073,1,0,0:0:0:0:
192,192,101073,1,8,0:0:0:0:
448,192,101073,1,0,0:0:0:0:
64,192,101148,1,0,0:0:0:0:
448,192,101223,1,0,0:0:0:0:
192,192,101298,1,8,0:0:0:0:
320,192,101298,1,0,0:0:0:0:
64,192,101298,1,0,0:0:0:0:
192,192,101448,1,8,0:0:0:0:
64,192,101448,1,0,0:0:0:70:Cymbol.wav
448,192,101448,1,0,0:0:0:0:
320,192,101523,1,0,0:0:0:0:
192,192,101598,1,0,0:0:0:0:
64,192,101598,1,0,0:0:0:0:
320,192,101673,1,0,0:0:0:0:
448,192,101748,1,0,0:0:0:0:
64,192,101748,1,8,0:0:0:0:
192,192,101823,1,0,0:0:0:0:
320,192,101823,1,0,0:0:0:0:
64,192,101898,1,0,0:0:0:0:
448,192,101898,1,0,0:0:0:0:
192,192,101973,1,0,0:0:0:0:
320,192,102048,1,8,0:0:0:0:
448,192,102048,1,0,0:0:0:0:
192,192,102123,1,0,0:0:0:0:
64,192,102123,1,0,0:0:0:0:
320,192,102198,1,0,0:0:0:0:
448,192,102198,1,0,0:0:0:0:
192,192,102273,1,0,0:0:0:0:
64,192,102348,1,8,0:0:0:0:
448,192,102348,1,0,0:0:0:0:
192,192,102423,1,0,0:0:0:0:
320,192,102423,1,0,0:0:0:0:
64,192,102498,1,0,0:0:0:0:
448,192,102498,1,0,0:0:0:0:
320,192,102573,1,0,0:0:0:0:
192,192,102648,1,0,0:0:0:0:
64,192,102648,1,8,0:0:0:0:
320,192,102723,1,0,0:0:0:0:
448,192,102723,1,0,0:0:0:0:
192,192,102798,1,0,0:0:0:0:
64,192,102798,1,0,0:0:0:0:
448,192,102873,1,0,0:0:0:0:
320,192,102948,1,0,0:0:0:0:
64,192,102948,1,8,0:0:0:0:
192,192,103023,1,0,0:0:0:0:
448,192,103023,1,0,0:0:0:0:
320,192,103098,1,0,0:0:0:0:
64,192,103098,1,0,0:0:0:0:
192,192,103173,1,0,0:0:0:0:
320,192,103248,1,0,0:0:0:0:
448,192,103248,1,0,0:0:0:0:
64,192,103248,1,8,0:0:0:0:
192,192,103398,1,0,0:0:0:0:
448,192,103398,1,0,0:0:0:0:
64,192,103548,1,0,0:0:0:0:
448,192,103548,1,0,0:0:0:0:
320,192,103548,1,8,0:0:0:0:
192,192,103623,1,0,0:0:0:0:
64,192,103698,1,0,0:0:0:0:
320,192,103698,1,8,0:0:0:0:
192,192,103848,1,8,0:0:0:0:
448,192,103848,1,0,0:0:0:0:
320,192,103998,1,8,0:0:0:0:
448,192,103998,1,0,0:0:0:0:
64,192,103998,1,0,0:0:0:0:
192,192,104073,1,0,0:0:0:0:
64,192,104148,1,8,0:0:0:0:
320,192,104148,1,0,0:0:0:0:
192,192,104298,1,8,0:0:0:0:
448,192,104298,1,0,0:0:0:0:
320,192,104448,1,8,0:0:0:0:
448,192,104448,1,0,0:0:0:70:Cymbol.wav
64,192,104448,1,0,0:0:0:0:
192,192,105048,1,8,0:0:0:0:
64,192,105048,1,0,0:0:0:0:
320,192,105198,1,8,0:0:0:0:
448,192,105198,1,0,0:0:0:0:
64,192,105348,1,0,0:0:0:0:
192,192,105348,1,0,0:0:0:70:Snare.wav
448,192,105348,1,0,0:0:0:0:
320,192,105498,1,8,0:0:0:0:
192,192,105573,1,8,0:0:0:0:
64,192,105573,1,0,0:0:0:0:
320,192,105648,128,8,105948:0:0:0:0:
448,192,105648,128,0,105948:0:0:0:0:
192,192,105798,1,8,0:0:0:0:
64,192,105798,1,0,0:0:0:0:
192,192,105948,1,0,0:0:0:70:Cymbol.wav
64,192,105948,1,8,0:0:0:0:
320,192,106023,1,0,0:0:0:0:
448,192,106023,1,0,0:0:0:0:
192,192,106098,1,0,0:0:0:0:
64,192,106098,1,0,0:0:0:0:
320,192,106173,1,0,0:0:0:0:
64,192,106248,1,8,0:0:0:0:
448,192,106248,1,0,0:0:0:0:
320,192,106323,1,0,0:0:0:0:
192,192,106323,1,0,0:0:0:0:
64,192,106398,1,0,0:0:0:0:
448,192,106398,1,0,0:0:0:0:
192,192,106473,1,0,0:0:0:0:
320,192,106548,1,8,0:0:0:0:
448,192,106548,1,0,0:0:0:0:
64,192,106623,1,0,0:0:0:0:
192,192,106623,1,0,0:0:0:0:
320,192,106698,1,0,0:0:0:0:
448,192,106698,1,0,0:0:0:0:
192,192,106773,1,0,0:0:0:0:
64,192,106848,1,8,0:0:0:0:
320,192,106848,1,0,0:0:0:0:
192,192,106923,1,0,0:0:0:0:
448,192,106923,1,0,0:0:0:0:
320,192,106998,1,0,0:0:0:0:
64,192,106998,1,0,0:0:0:0:
192,192,107073,1,0,0:0:0:0:
320,192,107148,1,8,0:0:0:0:
448,192,107148,1,0,0:0:0:0:
192,192,107223,1,0,0:0:0:0:
64,192,107223,1,0,0:0:0:0:
320,192,107298,1,0,0:0:0:0:
448,192,107298,1,0,0:0:0:0:
192,192,107373,1,0,0:0:0:0:
64,192,107448,1,8,0:0:0:0:
448,192,107448,1,0,0:0:0:0:
320,192,107523,1,0,0:0:0:0:
192,192,107523,1,0,0:0:0:0:
64,192,107598,1,0,0:0:0:0:
448,192,107598,1,0,0:0:0:0:
320,192,107673,1,0,0:0:0:0:
192,192,107748,1,8,0:0:0:0:
64,192,107748,1,0,0:0:0:0:
320,192,107823,1,0,0:0:0:0:
448,192,107823,1,0,0:0:0:0:
192,192,107898,1,0,0:0:0:0:
64,192,107898,1,0,0:0:0:0:
320,192,107973,1,0,0:0:0:0:
64,192,108048,1,8,0:0:0:0:
448,192,108048,1,0,0:0:0:0:
192,192,108123,1,0,0:0:0:0:
320,192,108123,1,0,0:0:0:0:
64,192,108198,1,0,0:0:0:0:
448,192,108198,1,0,0:0:0:0:
192,192,108273,1,0,0:0:0:0:
320,192,108348,1,8,0:0:0:0:
448,192,108348,1,0,0:0:0:0:
192,192,108423,1,0,0:0:0:0:
64,192,108423,1,0,0:0:0:0:
320,192,108498,1,0,0:0:0:0:
448,192,108498,1,0,0:0:0:0:
64,192,108573,1,0,0:0:0:0:
192,192,108648,1,8,0:0:0:0:
448,192,108648,1,0,0:0:0:0:
320,192,108723,1,0,0:0:0:0:
64,192,108723,1,0,0:0:0:0:
192,192,108798,1,0,0:0:0:0:
448,192,108798,1,0,0:0:0:0:
320,192,108873,1,0,0:0:0:0:
192,192,108948,1,8,0:0:0:0:
64,192,108948,1,0,0:0:0:0:
320,192,109023,1,0,0:0:0:0:
448,192,109023,1,0,0:0:0:0:
192,192,109098,1,0,0:0:0:0:
64,192,109098,1,0,0:0:0:0:
320,192,109173,1,0,0:0:0:0:
448,192,109248,1,0,0:0:0:0:
64,192,109248,1,8,0:0:0:0:
192,192,109398,1,0,0:0:0:0:
320,192,109398,1,0,0:0:0:0:
64,192,109473,1,0,0:0:0:0:
448,192,109473,1,0,0:0:0:0:
192,192,109548,1,8,0:0:0:0:
320,192,109548,1,0,0:0:0:0:
64,192,109623,1,0,0:0:0:0:
320,192,109698,1,0,0:0:0:0:
448,192,109773,1,0,0:0:0:0:
192,192,109848,1,0,0:0:0:0:
64,192,109848,1,8,0:0:0:0:
320,192,109848,1,0,0:0:0:0:
448,192,109923,1,0,0:0:0:0:
320,192,109960,1,0,0:0:0:0:
64,192,109998,1,0,0:0:0:0:
192,192,110035,1,0,0:0:0:0:
448,192,110073,1,0,0:0:0:0:
320,192,110110,1,0,0:0:0:0:
192,192,110148,1,0,0:0:0:0:
64,192,110148,128,0,110298:0:0:0:0:
320,192,110298,1,0,0:0:0:0:
192,192,110448,1,0,0:0:0:0:
64,192,110448,1,8,0:0:0:0:
448,192,110448,1,0,0:0:0:0:
320,192,110523,1,0,0:0:0:0:
64,192,110598,1,0,0:0:0:0:
192,192,110673,1,8,0:0:0:0:
320,192,110673,1,0,0:0:0:0:
448,192,110673,1,0,0:0:0:0:
64,192,110748,1,0,0:0:0:0:
320,192,110823,1,0,0:0:0:0:
192,192,110898,1,0,0:0:0:0:
64,192,110898,1,8,0:0:0:0:
448,192,110898,1,0,0:0:0:0:
320,192,110973,1,0,0:0:0:0:
64,192,111048,1,0,0:0:0:70:Cymbol.wav
448,192,111048,1,8,0:0:0:0:
320,192,111123,1,0,0:0:0:0:
192,192,111123,1,0,0:0:0:0:
64,192,111198,1,0,0:0:0:0:
448,192,111198,1,0,0:0:0:0:
192,192,111273,1,0,0:0:0:0:
448,192,111348,1,0,0:0:0:0:
320,192,111348,1,8,0:0:0:0:
192,192,111423,1,0,0:0:0:0:
64,192,111423,1,0,0:0:0:0:
320,192,111498,1,0,0:0:0:0:
448,192,111498,1,0,0:0:0:0:
192,192,111573,1,0,0:0:0:0:
64,192,111648,1,8,0:0:0:0:
448,192,111648,1,0,0:0:0:0:
192,192,111723,1,0,0:0:0:0:
320,192,111723,1,0,0:0:0:0:
64,192,111798,1,0,0:0:0:0:
448,192,111798,1,0,0:0:0:0:
320,192,111873,1,0,0:0:0:0:
192,192,111948,1,8,0:0:0:0:
64,192,111948,1,0,0:0:0:0:
320,192,112023,1,0,0:0:0:0:
448,192,112023,1,0,0:0:0:0:
192,192,112098,1,0,0:0:0:0:
64,192,112098,1,0,0:0:0:0:
448,192,112173,1,0,0:0:0:0:
320,192,112248,1,0,0:0:0:0:
64,192,112248,1,8,0:0:0:0:
192,192,112323,1,0,0:0:0:0:
448,192,112323,1,0,0:0:0:0:
320,192,112398,1,0,0:0:0:0:
64,192,112398,1,0,0:0:0:0:
192,192,112473,1,0,0:0:0:0:
320,192,112548,1,8,0:0:0:0:
448,192,112548,1,0,0:0:0:0:
192,192,112623,1,0,0:0:0:0:
64,192,112623,1,0,0:0:0:0:
320,192,112698,1,0,0:0:0:0:
448,192,112698,1,0,0:0:0:0:
192,192,112773,1,0,0:0:0:0:
64,192,112848,1,8,0:0:0:0:
448,192,112848,1,0,0:0:0:0:
320,192,112923,1,0,0:0:0:0:
64,192,112998,1,0,0:0:0:0:
192,192,113073,1,0,0:0:0:0:
320,192,113148,1,8,0:0:0:0:
448,192,113148,128,0,113223:0:0:0:0:
64,192,113223,1,0,0:0:0:0:
192,192,113223,1,0,0:0:0:0:
320,192,113298,1,0,0:0:0:0:
448,192,113298,128,0,113373:0:0:0:0:
192,192,113373,1,0,0:0:0:0:
64,192,113373,1,0,0:0:0:0:
320,192,113448,1,0,0:0:0:0:
448,192,113448,128,0,113523:0:0:0:0:
192,192,113523,1,0,0:0:0:0:
64,192,113523,1,0,0:0:0:0:
320,192,113598,1,0,0:0:0:0:
448,192,113598,128,0,113673:0:0:0:0:
192,192,113673,1,0,0:0:0:0:
64,192,113673,1,0,0:0:0:0:
320,192,113748,1,0,0:0:0:0:
448,192,113748,128,0,113823:0:0:0:0:
192,192,113823,1,0,0:0:0:0:
64,192,113823,1,0,0:0:0:0:
320,192,113898,1,0,0:0:0:0:
448,192,113898,128,0,113973:0:0:0:0:
192,192,113973,1,0,0:0:0:0:
64,192,114048,1,8,0:0:0:0:
320,192,114048,1,0,0:0:0:70:Cymbol.wav
448,192,114048,1,0,0:0:0:0:
64,192,114235,1,0,0:0:0:0:
192,192,114235,1,8,0:0:0:0:
448,192,114235,1,0,0:0:0:0:
320,192,114348,1,0,0:0:0:0:
448,192,114348,1,0,0:0:0:0:
320,192,114648,1,0,0:0:0:0:
448,192,114648,1,8,0:0:0:0:
64,192,114648,1,0,0:0:0:0:
64,192,114948,1,0,0:0:0:0:
192,192,114948,1,0,0:0:0:0:
320,192,114948,1,0,0:0:0:0:
448,192,114948,1,0,0:0:0:70:Snare.wav
64,192,115248,128,0,115548:0:0:0:0:
320,192,115248,128,0,115548:0:0:0:0:
448,192,115248,128,0,115548:0:0:0:0:
192,192,115548,1,0,0:0:0:0:
64,192,115698,1,0,0:0:0:0:
448,192,115698,1,0,0:0:0:0:
64,192,115848,1,0,0:0:0:70:Snare.wav
192,192,115848,1,8,0:0:0:0:
320,192,115848,1,0,0:0:0:0:
448,192,115848,1,0,0:0:0:0:
64,192,115998,1,0,0:0:0:0:
192,192,115998,1,0,0:0:0:0:
448,192,116148,1,0,0:0:0:0:
320,192,116148,1,0,0:0:0:0:
192,192,116148,1,8,0:0:0:0:
64,192,116298,1,0,0:0:0:0:
320,192,116298,1,0,0:0:0:0:
192,192,116448,1,0,0:0:0:0:
448,192,116448,1,0,0:0:0:0:
320,192,116598,1,8,0:0:0:0:
448,192,116598,1,0,0:0:0:0:
64,192,116598,1,0,0:0:0:0:
192,192,116748,1,0,0:0:0:0:
64,192,116748,1,0,0:0:0:0:
320,192,116898,1,0,0:0:0:0:
448,192,116898,1,0,0:0:0:0:
64,192,117048,1,0,0:0:0:0:
192,192,117048,1,0,0:0:0:0:
320,192,117048,1,0,0:0:0:70:Snare.wav
448,192,117048,1,0,0:0:0:0:
64,192,117198,1,0,0:0:0:0:
192,192,117198,1,0,0:0:0:0:
320,192,117348,1,8,0:0:0:0:
448,192,117348,1,0,0:0:0:0:
64,192,117348,1,0,0:0:0:0:
192,192,117498,1,0,0:0:0:0:
448,192,117498,1,0,0:0:0:0:
320,192,117648,1,8,0:0:0:0:
448,192,117648,1,0,0:0:0:0:
64,192,117648,1,0,0:0:0:0:
192,192,117798,1,0,0:0:0:0:
64,192,117798,1,0,0:0:0:0:
448,192,117948,1,0,0:0:0:0:
320,192,117948,1,0,0:0:0:0:
192,192,118098,1,0,0:0:0:0:
64,192,118098,1,0,0:0:0:0:
320,192,118248,1,0,0:0:0:70:Snare.wav
448,192,118248,1,0,0:0:0:0:
64,192,118248,1,0,0:0:0:0:
192,192,118323,1,0,0:0:0:0:
64,192,118398,1,0,0:0:0:0:
448,192,118398,1,0,0:0:0:0:
192,192,118473,1,0,0:0:0:0:
320,192,118548,1,8,0:0:0:0:
448,192,118548,1,0,0:0:0:0:
192,192,118698,1,0,0:0:0:0:
64,192,118698,1,0,0:0:0:0:
320,192,118848,1,0,0:0:0:0:
448,192,118848,1,0,0:0:0:0:
192,192,118923,1,0,0:0:0:0:
64,192,118998,1,0,0:0:0:0:
448,192,118998,1,8,0:0:0:0:
320,192,119073,1,0,0:0:0:0:
192,192,119148,1,0,0:0:0:0:
64,192,119298,1,0,0:0:0:0:
192,192,119298,1,0,0:0:0:0:
320,192,119298,1,0,0:0:0:0:
448,192,119298,1,0,0:0:0:70:Snare.wav
192,192,119448,1,0,0:0:0:0:
448,192,119448,1,8,0:0:0:0:
64,192,119448,1,0,0:0:0:0:
320,192,119523,1,0,0:0:0:0:
448,192,119560,1,0,0:0:0:0:
64,192,119598,1,0,0:0:0:0:
192,192,119635,1,0,0:0:0:0:
320,192,119673,1,0,0:0:0:0:
448,192,119710,1,0,0:0:0:0:
192,192,119748,1,8,0:0:0:0:
64,192,119748,128,0,119898:0:0:0:0:
320,192,119898,1,0,0:0:0:0:
192,192,120048,1,0,0:0:0:0:
64,192,120048,1,8,0:0:0:0:
448,192,120048,1,0,0:0:0:0:
320,192,120198,1,0,0:0:0:0:
64,192,120348,1,0,0:0:0:0:
448,192,120348,128,0,120498:0:0:0:0:
192,192,120498,1,0,0:0:0:0:
64,192,120648,1,0,0:0:0:0:
192,192,120648,1,0,0:0:0:70:Snare.wav
320,192,120648,1,8,0:0:0:0:
448,192,120648,1,0,0:0:0:0:
320,192,120798,1,0,0:0:0:0:
448,192,120798,1,0,0:0:0:0:
192,192,120948,1,8,0:0:0:0:
64,192,120948,1,0,0:0:0:0:
448,192,120948,1,0,0:0:0:0:
320,192,121098,1,0,0:0:0:0:
64,192,121098,1,0,0:0:0:0:
192,192,121248,1,0,0:0:0:0:
448,192,121248,1,0,0:0:0:0:
192,192,121398,1,8,0:0:0:0:
64,192,121398,1,0,0:0:0:0:
320,192,121398,1,0,0:0:0:0:
64,192,121548,1,0,0:0:0:0:
448,192,121548,1,0,0:0:0:0:
192,192,121698,1,0,0:0:0:0:
320,192,121698,1,0,0:0:0:0:
64,192,121848,1,0,0:0:0:0:
192,192,121848,1,0,0:0:0:0:
320,192,121848,1,0,0:0:0:70:Snare.wav
448,192,121848,1,0,0:0:0:0:
64,192,121998,1,0,0:0:0:0:
448,192,121998,1,0,0:0:0:0:
192,192,122148,1,8,0:0:0:0:
320,192,122148,1,0,0:0:0:0:
448,192,122148,1,0,0:0:0:0:
192,192,122298,1,0,0:0:0:0:
64,192,122298,1,0,0:0:0:0:
64,192,122448,1,0,0:0:0:0:
320,192,122448,1,8,0:0:0:0:
448,192,122448,1,0,0:0:0:70:Cymbol.wav
192,192,122448,1,0,0:0:0:0:
320,192,122598,1,0,0:0:0:0:
448,192,122598,1,0,0:0:0:0:
192,192,122748,1,0,0:0:0:0:
64,192,122748,1,0,0:0:0:0:
448,192,122823,1,0,0:0:0:0:
320,192,122823,1,8,0:0:0:0:
192,192,122898,1,8,0:0:0:0:
64,192,122898,1,0,0:0:0:0:
320,192,123048,1,8,0:0:0:0:
448,192,123048,1,0,0:0:0:0:
192,192,123123,1,0,0:0:0:0:
64,192,123123,1,0,0:0:0:0:
320,192,123198,1,0,0:0:0:0:
448,192,123198,1,0,0:0:0:0:
192,192,123273,1,0,0:0:0:0:
64,192,123273,1,0,0:0:0:0:
320,192,123348,1,8,0:0:0:0:
448,192,123348,1,0,0:0:0:0:
192,192,123498,1,8,0:0:0:0:
64,192,123498,1,0,0:0:0:0:
64,192,123648,1,0,0:0:0:70:Snare.wav
192,192,123648,1,0,0:0:0:0:
320,192,123648,1,0,0:0:0:0:
448,192,123648,1,0,0:0:0:0:
320,192,123798,1,0,0:0:0:0:
64,192,123948,1,0,0:0:0:0:
448,192,123948,1,0,0:0:0:0:
192,192,124098,1,0,0:0:0:0:
320,192,124248,1,8,0:0:0:0:
448,192,124248,1,0,0:0:0:0:
64,192,124323,1,0,0:0:0:0:
320,192,124398,1,8,0:0:0:0:
448,192,124398,1,0,0:0:0:0:
192,192,124473,1,8,0:0:0:0:
64,192,124473,1,0,0:0:0:0:
320,192,124548,1,8,0:0:0:0:
448,192,124548,1,0,0:0:0:0:
192,192,124698,1,8,0:0:0:0:
64,192,124698,1,0,0:0:0:0:
320,192,124773,1,8,0:0:0:0:
448,192,124773,1,0,0:0:0:0:
448,192,124848,128,0,125148:0:0:0:0:
192,192,124848,128,8,125148:0:0:0:0:
64,192,124848,128,0,125148:0:0:0:0:
320,192,125148,1,0,0:0:0:0:
64,192,125298,1,0,0:0:0:0:
448,192,125298,1,0,0:0:0:0:
64,192,125448,1,0,0:0:0:0:
192,192,125448,1,0,0:0:0:70:Snare.wav
448,192,125448,1,0,0:0:0:0:
320,192,125448,1,8,0:0:0:0:
192,192,125598,1,0,0:0:0:0:
320,192,125598,1,0,0:0:0:0:
64,192,125748,1,0,0:0:0:0:
320,192,125748,1,8,0:0:0:0:
448,192,125748,1,0,0:0:0:0:
192,192,125898,1,0,0:0:0:0:
64,192,125898,1,0,0:0:0:0:
320,192,126048,1,0,0:0:0:0:
448,192,126048,1,0,0:0:0:0:
192,192,126198,1,8,0:0:0:0:
64,192,126198,1,0,0:0:0:0:
448,192,126198,1,0,0:0:0:0:
320,192,126348,1,0,0:0:0:0:
64,192,126348,1,0,0:0:0:0:
192,192,126498,1,0,0:0:0:0:
448,192,126498,1,0,0:0:0:0:
320,192,126648,1,0,0:0:0:0:
192,192,126648,1,0,0:0:0:70:Snare.wav
64,192,126648,1,0,0:0:0:0:
448,192,126648,1,0,0:0:0:0:
64,192,126798,1,0,0:0:0:0:
192,192,126798,1,0,0:0:0:0:
320,192,126948,1,8,0:0:0:0:
448,192,126948,1,0,0:0:0:0:
64,192,126948,1,0,0:0:0:0:
192,192,127098,1,0,0:0:0:0:
448,192,127098,1,0,0:0:0:0:
64,192,127248,1,0,0:0:0:0:
192,192,127248,1,8,0:0:0:0:
320,192,127248,1,0,0:0:0:0:
448,192,127398,1,0,0:0:0:0:
320,192,127398,1,0,0:0:0:0:
448,192,127548,1,0,0:0:0:0:
64,192,127548,1,0,0:0:0:0:
192,192,127698,1,0,0:0:0:0:
448,192,127698,1,0,0:0:0:0:
192,192,127848,1,0,0:0:0:0:
320,192,127848,1,0,0:0:0:70:Snare.wav
64,192,127848,1,0,0:0:0:0:
448,192,127923,1,0,0:0:0:0:
64,192,127998,1,0,0:0:0:0:
320,192,127998,1,0,0:0:0:0:
192,192,128073,1,0,0:0:0:0:
320,192,128148,1,0,0:0:0:0:
448,192,128148,1,8,0:0:0:0:
192,192,128298,1,0,0:0:0:0:
64,192,128298,1,0,0:0:0:0:
448,192,128448,1,0,0:0:0:0:
64,192,128448,1,0,0:0:0:0:
320,192,128523,1,0,0:0:0:0:
192,192,128598,1,8,0:0:0:0:
64,192,128598,1,0,0:0:0:0:
320,192,128673,1,0,0:0:0:0:
448,192,128748,1,0,0:0:0:0:
64,192,128748,1,0,0:0:0:0:
64,192,128898,1,0,0:0:0:0:
192,192,128898,1,0,0:0:0:70:Snare.wav
320,192,128898,1,0,0:0:0:0:
448,192,128898,1,0,0:0:0:0:
64,192,129048,1,8,0:0:0:0:
192,192,129048,1,0,0:0:0:0:
320,192,129048,1,0,0:0:0:0:
448,192,129123,1,0,0:0:0:0:
320,192,129160,1,0,0:0:0:0:
192,192,129198,1,0,0:0:0:0:
64,192,129235,1,0,0:0:0:0:
448,192,129273,1,0,0:0:0:0:
320,192,129310,1,0,0:0:0:0:
64,192,129348,1,0,0:0:0:0:
192,192,129348,128,8,129498:0:0:0:0:
448,192,129498,1,0,0:0:0:0:
64,192,129648,1,0,0:0:0:0:
320,192,129648,1,8,0:0:0:0:
448,192,129648,1,0,0:0:0:0:
192,192,129798,1,0,0:0:0:0:
320,192,129948,128,0,130098:0:0:0:0:
448,192,129948,128,0,130098:0:0:0:0:
192,192,130098,1,0,0:0:0:0:
64,192,130098,1,0,0:0:0:0:
448,192,130248,1,0,0:0:0:70:Cymbol.wav
192,192,130248,1,8,0:0:0:0:
64,192,130248,128,0,131448:0:0:0:0:
320,192,130398,1,0,0:0:0:0:
192,192,130548,1,0,0:0:0:70:Snare.wav
448,192,130548,1,0,0:0:0:0:
320,192,130698,1,0,0:0:0:0:
192,192,130848,1,0,0:0:0:0:
448,192,130998,1,0,0:0:0:0:
320,192,130998,1,0,0:0:0:70:Snare.wav
192,192,131073,1,0,0:0:0:0:
448,192,131148,1,0,0:0:0:0:
320,192,131298,1,0,0:0:0:0:
192,192,131448,1,0,0:0:0:70:Snare.wav
448,192,131448,1,0,0:0:0:0:
320,192,131598,1,0,0:0:0:0:
64,192,131598,1,0,0:0:0:0:
192,192,131748,1,8,0:0:0:0:
64,192,131748,1,0,0:0:0:0:
448,192,131785,1,0,0:0:0:0:
320,192,131823,1,0,0:0:0:0:
64,192,131860,1,0,0:0:0:0:
192,192,131898,1,0,0:0:0:0:
448,192,131935,1,0,0:0:0:0:
320,192,131973,1,0,0:0:0:0:
192,192,132010,1,0,0:0:0:0:
64,192,132048,1,0,0:0:0:0:
448,192,132048,1,8,0:0:0:0:
320,192,132198,1,0,0:0:0:0:
64,192,132273,1,0,0:0:0:0:
448,192,132273,1,8,0:0:0:0:
192,192,132273,1,0,0:0:0:0:
320,192,132348,1,0,0:0:0:0:
192,192,132423,1,0,0:0:0:0:
64,192,132498,1,0,0:0:0:0:
320,192,132498,1,0,0:0:0:0:
448,192,132498,1,8,0:0:0:0:
192,192,132573,1,0,0:0:0:0:
448,192,132648,1,0,0:0:0:0:
320,192,132648,1,0,0:0:0:0:
192,192,132685,1,0,0:0:0:0:
64,192,132723,1,0,0:0:0:0:
448,192,132760,1,0,0:0:0:0:
320,192,132798,1,0,0:0:0:0:
192,192,132835,1,0,0:0:0:0:
64,192,132873,1,0,0:0:0:0:
448,192,132910,1,0,0:0:0:0:
320,192,132948,1,0,0:0:0:0:
192,192,132948,1,0,0:0:0:0:
64,192,132948,1,0,0:0:0:70:Cymbol.wav
320,192,133098,1,0,0:0:0:0:
448,192,133098,1,0,0:0:0:0:
192,192,133173,1,0,0:0:0:0:
64,192,133248,1,0,0:0:0:0:
320,192,133248,1,8,0:0:0:0:
448,192,133248,1,0,0:0:0:0:
192,192,133473,1,8,0:0:0:0:
64,192,133473,1,0,0:0:0:0:
448,192,133473,1,0,0:0:0:0:
320,192,133848,1,8,0:0:0:0:
448,192,133848,1,0,0:0:0:0:
192,192,133848,1,0,0:0:0:0:
64,192,134448,1,8,0:0:0:0:
192,192,134448,1,0,0:0:0:20:bell.wav
448,192,134448,1,0,0:0:0:0:
320,192,134598,1,0,0:0:0:0:
64,192,134748,1,0,0:0:0:0:
320,192,134823,1,0,0:0:0:0:
192,192,134898,1,0,0:0:0:0:
64,192,135048,1,0,0:0:0:0:
192,192,135198,1,0,0:0:0:0:
448,192,135348,1,0,0:0:0:0:
320,192,135498,1,0,0:0:0:0:
192,192,135648,1,0,0:0:0:0:
448,192,135798,1,0,0:0:0:0:
64,192,135948,1,0,0:0:0:0:
320,192,136098,1,0,0:0:0:0:
192,192,136248,1,0,0:0:0:0:
448,192,136398,1,0,0:0:0:0:
64,192,136548,1,0,0:0:0:0:
320,192,136848,1,0,0:0:0:0:
192,192,137148,1,0,0:0:0:0:
320,192,137298,1,0,0:0:0:0:
64,192,137448,1,0,0:0:0:0:
448,192,137598,1,0,0:0:0:0:
320,192,137748,1,0,0:0:0:0:
192,192,137898,1,0,0:0:0:0:
64,192,138048,1,0,0:0:0:0:
448,192,138198,1,0,0:0:0:0:
64,192,138273,1,0,0:0:0:0:
192,192,138348,1,0,0:0:0:0:
320,192,138498,1,0,0:0:0:0:
448,192,138648,1,0,0:0:0:0:
192,192,138948,1,0,0:0:0:0:
320,192,139248,1,0,0:0:0:0:
64,192,139398,1,0,0:0:0:0:
448,192,139548,1,0,0:0:0:0:
64,192,139623,1,0,0:0:0:0:
192,192,139698,1,0,0:0:0:0:
320,192,139848,1,0,0:0:0:0:
192,192,139998,1,0,0:0:0:0:
448,192,140148,1,0,0:0:0:0:
320,192,140298,1,0,0:0:0:0:
192,192,140448,1,0,0:0:0:0:
64,192,140598,1,0,0:0:0:0:
448,192,140748,1,0,0:0:0:0:
192,192,140898,1,0,0:0:0:0:
320,192,141198,1,0,0:0:0:0:
64,192,141348,1,0,0:0:0:0:
448,192,141498,1,0,0:0:0:0:
320,192,141648,1,0,0:0:0:0:
192,192,141948,1,0,0:0:0:0:
320,192,142098,1,0,0:0:0:0:
64,192,142248,1,0,0:0:0:0:
192,192,142398,1,0,0:0:0:0:
320,192,142548,1,0,0:0:0:0:
64,192,142698,1,0,0:0:0:0:
448,192,142998,1,0,0:0:0:0:
192,192,143148,1,0,0:0:0:0:
320,192,143298,1,0,0:0:0:0:
64,192,143448,1,0,0:0:0:0:
448,192,143748,1,0,0:0:0:0:
64,192,144048,1,8,0:0:0:0:
320,192,144048,1,0,0:0:0:20:bell.wav
448,192,144048,1,0,0:0:0:0:
192,192,144198,1,0,0:0:0:0:
448,192,144348,1,0,0:0:0:0:
320,192,144423,1,0,0:0:0:0:
64,192,144498,1,0,0:0:0:0:
192,192,144573,1,0,0:0:0:0:
320,192,144648,1,0,0:0:0:0:
448,192,144723,1,0,0:0:0:0:
192,192,144798,1,0,0:0:0:0:
64,192,144873,1,0,0:0:0:0:
320,192,144948,1,0,0:0:0:0:
192,192,145023,1,0,0:0:0:0:
448,192,145098,1,0,0:0:0:0:
320,192,145173,1,0,0:0:0:0:
64,192,145248,1,0,0:0:0:0:
320,192,145398,1,0,0:0:0:0:
448,192,145473,1,0,0:0:0:0:
192,192,145548,1,0,0:0:0:0:
64,192,145623,1,0,0:0:0:0:
320,192,145698,1,0,0:0:0:0:
448,192,145773,1,0,0:0:0:0:
192,192,145848,1,0,0:0:0:0:
320,192,145923,1,0,0:0:0:0:
64,192,145998,1,0,0:0:0:0:
192,192,146073,1,0,0:0:0:0:
320,192,146148,1,0,0:0:0:0:
448,192,146223,1,0,0:0:0:0:
192,192,146298,1,0,0:0:0:0:
64,192,146373,1,0,0:0:0:0:
448,192,146448,1,0,0:0:0:0:
64,192,146598,1,0,0:0:0:0:
320,192,146673,1,0,0:0:0:0:
448,192,146748,1,0,0:0:0:0:
192,192,146823,1,0,0:0:0:0:
320,192,146898,1,0,0:0:0:0:
448,192,146973,1,0,0:0:0:0:
192,192,147048,1,0,0:0:0:0:
64,192,147123,1,0,0:0:0:0:
320,192,147198,1,0,0:0:0:0:
192,192,147273,1,0,0:0:0:0:
64,192,147348,1,0,0:0:0:0:
448,192,147423,1,0,0:0:0:0:
320,192,147498,1,0,0:0:0:0:
192,192,147573,1,0,0:0:0:0:
64,192,147648,1,0,0:0:0:0:
192,192,147798,1,0,0:0:0:0:
448,192,147873,1,0,0:0:0:0:
320,192,147948,1,0,0:0:0:0:
64,192,148023,1,0,0:0:0:0:
192,192,148098,1,0,0:0:0:0:
320,192,148173,1,0,0:0:0:0:
64,192,148248,1,0,0:0:0:0:
192,192,148323,1,0,0:0:0:0:
448,192,148398,1,0,0:0:0:0:
320,192,148473,1,0,0:0:0:0:
64,192,148548,1,0,0:0:0:0:
448,192,148623,1,0,0:0:0:0:
192,192,148698,1,0,0:0:0:0:
448,192,148773,1,0,0:0:0:0:
320,192,148848,1,0,0:0:0:0:
448,192,148998,1,0,0:0:0:0:
192,192,149148,1,0,0:0:0:0:
64,192,149223,1,0,0:0:0:0:
448,192,149298,1,0,0:0:0:0:
320,192,149373,1,0,0:0:0:0:
64,192,149448,1,0,0:0:0:0:
192,192,149523,1,0,0:0:0:0:
448,192,149598,1,0,0:0:0:0:
320,192,149673,1,0,0:0:0:0:
192,192,149748,1,0,0:0:0:0:
64,192,149823,1,0,0:0:0:0:
320,192,149898,1,0,0:0:0:0:
448,192,149973,1,0,0:0:0:0:
192,192,150048,1,0,0:0:0:0:
320,192,150198,1,0,0:0:0:0:
64,192,150348,1,0,0:0:0:0:
192,192,150423,1,0,0:0:0:0:
320,192,150498,1,0,0:0:0:0:
448,192,150573,1,0,0:0:0:0:
64,192,150648,1,0,0:0:0:0:
320,192,150723,1,0,0:0:0:0:
192,192,150798,1,0,0:0:0:0:
64,192,150873,1,0,0:0:0:0:
448,192,150948,1,0,0:0:0:0:
320,192,151098,1,0,0:0:0:0:
192,192,151248,1,0,0:0:0:0:
320,192,151398,1,0,0:0:0:0:
64,192,151548,1,0,0:0:0:0:
448,192,151623,1,0,0:0:0:0:
320,192,151698,1,0,0:0:0:0:
192,192,151773,1,0,0:0:0:0:
448,192,151848,1,0,0:0:0:0:
64,192,151923,1,0,0:0:0:0:
192,192,151998,1,0,0:0:0:0:
320,192,152073,1,0,0:0:0:0:
448,192,152148,1,0,0:0:0:0:
192,192,152223,1,0,0:0:0:0:
320,192,152298,1,0,0:0:0:0:
64,192,152373,1,0,0:0:0:0:
192,192,152448,1,8,0:0:0:0:
320,192,152448,1,0,0:0:0:50:Cymbol.wav
448,192,152448,1,0,0:0:0:0:
64,192,152598,1,0,0:0:0:0:
320,192,152748,1,0,0:0:0:0:
448,192,152748,1,0,0:0:0:0:
64,192,152898,1,0,0:0:0:0:
448,192,153048,128,0,153573:0:0:0:0:
320,192,153048,1,0,0:0:0:0:
64,192,153198,1,0,0:0:0:0:
320,192,153273,1,0,0:0:0:0:
192,192,153348,1,0,0:0:0:0:
64,192,153498,1,0,0:0:0:0:
192,192,153573,1,0,0:0:0:0:
320,192,153648,1,8,0:0:0:0:
448,192,153648,1,0,0:0:0:20:Clap.wav
64,192,153648,128,0,153873:0:0:0:50:Snare.wav
64,192,153948,128,0,154098:0:0:0:0:
320,192,153948,1,0,0:0:0:0:
448,192,153948,1,0,0:0:0:20:Clap.wav
64,192,154248,128,0,154398:0:0:0:0:
320,192,154248,1,0,0:0:0:0:
448,192,154248,1,0,0:0:0:20:Clap.wav
64,192,154548,128,0,154698:0:0:0:0:
320,192,154548,1,0,0:0:0:0:
448,192,154548,1,0,0:0:0:20:Clap.wav
192,192,154698,128,0,154848:0:0:0:0:
64,192,154848,128,0,154998:0:0:0:0:
320,192,154848,1,0,0:0:0:0:
448,192,154848,1,0,0:0:0:20:Clap.wav
192,192,155148,128,0,155298:0:0:0:0:
320,192,155148,1,0,0:0:0:0:
448,192,155148,1,0,0:0:0:20:Clap.wav
320,192,155448,128,0,155598:0:0:0:0:
448,192,155448,1,0,0:0:0:20:Clap.wav
64,192,155448,1,0,0:0:0:0:
192,192,155598,128,0,155748:0:0:0:0:
320,192,155748,128,0,155898:0:0:0:0:
448,192,155748,1,0,0:0:0:20:Clap.wav
64,192,155748,1,0,0:0:0:0:
448,192,155898,128,0,156048:0:0:0:0:
320,192,156048,128,0,156198:0:0:0:0:
192,192,156048,1,0,0:0:0:0:
64,192,156048,1,0,0:0:0:20:Clap.wav
448,192,156198,1,0,0:0:0:0:
320,192,156348,128,0,156498:0:0:0:0:
192,192,156348,1,0,0:0:0:0:
64,192,156348,1,0,0:0:0:20:Clap.wav
192,192,156498,128,0,156648:0:0:0:0:
448,192,156648,1,0,0:0:0:0:
64,192,156648,1,0,0:0:0:20:Clap.wav
320,192,156648,128,0,156798:0:0:0:0:
192,192,156798,1,0,0:0:0:0:
448,192,156948,1,0,0:0:0:20:Clap.wav
320,192,156948,1,0,0:0:0:0:
64,192,156948,128,0,157098:0:0:0:0:
192,192,157098,128,0,157248:0:0:0:0:
320,192,157248,1,0,0:0:0:0:
448,192,157248,1,0,0:0:0:20:Clap.wav
64,192,157248,128,0,157398:0:0:0:0:
192,192,157398,128,0,157548:0:0:0:0:
320,192,157548,1,0,0:0:0:0:
448,192,157548,1,0,0:0:0:20:Clap.wav
64,192,157548,128,0,157698:0:0:0:0:
320,192,157698,1,0,0:0:0:0:
448,192,157848,1,0,0:0:0:20:Clap.wav
64,192,157848,1,0,0:0:0:0:
192,192,157848,128,0,157998:0:0:0:0:
448,192,157998,128,0,158148:0:0:0:0:
64,192,158148,1,0,0:0:0:20:Clap.wav
192,192,158148,1,0,0:0:0:0:
320,192,158148,128,0,158298:0:0:0:0:
192,192,158298,128,0,158448:0:0:0:0:
448,192,158448,1,0,0:0:0:0:
320,192,158448,1,0,0:0:0:70:Cymbol.wav
64,192,158448,1,8,0:0:0:0:
64,192,158748,1,0,0:0:0:0:
192,192,158748,1,0,0:0:0:0:
192,192,159048,1,0,0:0:0:0:
64,192,159048,1,0,0:0:0:70:Snare.wav
320,192,159048,1,0,0:0:0:0:
448,192,159048,1,0,0:0:0:0:
64,192,159348,1,8,0:0:0:0:
448,192,159348,1,0,0:0:0:0:
320,192,159348,1,0,0:0:0:0:
448,192,159498,1,0,0:0:0:0:
192,192,159498,1,0,0:0:0:0:
64,192,159648,1,0,0:0:0:0:
320,192,159648,1,0,0:0:0:0:
192,192,159798,1,0,0:0:0:0:
64,192,159948,1,0,0:0:0:0:
448,192,159948,1,0,0:0:0:0:
320,192,160098,1,0,0:0:0:0:
192,192,160248,1,0,0:0:0:0:
64,192,160248,1,0,0:0:0:70:Snare.wav
448,192,160248,1,0,0:0:0:0:
320,192,160248,1,0,0:0:0:0:
192,192,160398,1,0,0:0:0:0:
64,192,160548,1,0,0:0:0:0:
448,192,160548,1,0,0:0:0:0:
320,192,160698,1,0,0:0:0:0:
448,192,160848,1,0,0:0:0:0:
64,192,160848,1,8,0:0:0:0:
192,192,160848,1,0,0:0:0:0:
320,192,160998,1,0,0:0:0:0:
64,192,161148,1,0,0:0:0:0:
192,192,161148,1,0,0:0:0:0:
320,192,161298,1,0,0:0:0:0:
192,192,161448,1,0,0:0:0:0:
64,192,161448,1,0,0:0:0:70:Snare.wav
448,192,161448,1,0,0:0:0:0:
320,192,161448,1,0,0:0:0:0:
64,192,161598,1,0,0:0:0:0:
192,192,161748,1,8,0:0:0:0:
320,192,161748,1,0,0:0:0:0:
448,192,161748,1,0,0:0:0:0:
64,192,161898,1,0,0:0:0:0:
320,192,162048,1,0,0:0:0:0:
448,192,162048,1,0,0:0:0:0:
192,192,162198,1,0,0:0:0:0:
64,192,162348,1,0,0:0:0:70:Snare.wav
192,192,162348,1,0,0:0:0:0:
448,192,162348,1,0,0:0:0:0:
320,192,162348,1,0,0:0:0:0:
64,192,162498,1,8,0:0:0:0:
448,192,162498,1,0,0:0:0:0:
320,192,162498,1,0,0:0:0:0:
64,192,162648,1,0,0:0:0:0:
192,192,162648,1,0,0:0:0:0:
320,192,162723,1,0,0:0:0:0:
448,192,162723,1,0,0:0:0:0:
64,192,162798,1,0,0:0:0:0:
192,192,162798,1,0,0:0:0:70:Snare.wav
320,192,162948,128,0,163098:0:0:0:0:
448,192,162948,128,0,163098:0:0:0:0:
64,192,162948,1,0,0:0:0:0:
64,192,163098,1,0,0:0:0:0:
64,192,163248,1,8,0:0:0:0:
320,192,163248,1,0,0:0:0:0:
448,192,163248,1,0,0:0:0:70:Cymbol.wav
192,192,163398,1,0,0:0:0:0:
320,192,163473,1,0,0:0:0:0:
448,192,163548,1,0,0:0:0:0:
192,192,163548,1,0,0:0:0:0:
64,192,163548,1,8,0:0:0:0:
320,192,163698,1,0,0:0:0:0:
192,192,163773,1,0,0:0:0:0:
64,192,163848,1,8,0:0:0:0:
320,192,163848,1,0,0:0:0:0:
448,192,163848,1,0,0:0:0:0:
64,192,163998,1,0,0:0:0:0:
320,192,164073,1,0,0:0:0:0:
192,192,164148,1,0,0:0:0:0:
448,192,164148,1,8,0:0:0:0:
64,192,164148,1,0,0:0:0:0:
192,192,164298,1,0,0:0:0:0:
64,192,164373,1,0,0:0:0:0:
192,192,164448,1,0,0:0:0:0:
448,192,164448,1,8,0:0:0:0:
320,192,164448,1,0,0:0:0:0:
320,192,164598,1,0,0:0:0:0:
192,192,164673,1,0,0:0:0:0:
64,192,164748,1,0,0:0:0:0:
320,192,164748,1,0,0:0:0:0:
448,192,164748,1,8,0:0:0:0:
448,192,164898,1,0,0:0:0:0:
320,192,164973,1,0,0:0:0:0:
448,192,165048,1,0,0:0:0:0:
192,192,165048,1,0,0:0:0:0:
64,192,165048,1,8,0:0:0:0:
320,192,165198,1,0,0:0:0:0:
192,192,165273,1,0,0:0:0:0:
320,192,165348,1,0,0:0:0:0:
448,192,165348,1,0,0:0:0:0:
64,192,165348,1,8,0:0:0:0:
192,192,165498,1,0,0:0:0:0:
320,192,165573,1,0,0:0:0:0:
448,192,165648,1,0,0:0:0:0:
192,192,165648,1,0,0:0:0:0:
64,192,165648,1,8,0:0:0:0:
320,192,165798,1,0,0:0:0:0:
192,192,165873,1,0,0:0:0:0:
320,192,165948,1,0,0:0:0:0:
448,192,165948,1,8,0:0:0:0:
64,192,165948,1,0,0:0:0:0:
64,192,166098,1,0,0:0:0:0:
192,192,166173,1,0,0:0:0:0:
320,192,166248,1,0,0:0:0:0:
448,192,166248,1,8,0:0:0:0:
64,192,166248,1,0,0:0:0:0:
448,192,166398,1,0,0:0:0:0:
320,192,166473,1,0,0:0:0:0:
192,192,166548,1,0,0:0:0:0:
64,192,166548,1,8,0:0:0:0:
448,192,166548,1,0,0:0:0:0:
320,192,166698,1,0,0:0:0:0:
192,192,166773,1,0,0:0:0:0:
320,192,166848,1,0,0:0:0:0:
448,192,166848,1,0,0:0:0:0:
64,192,166848,1,8,0:0:0:0:
192,192,166998,1,0,0:0:0:0:
320,192,167073,1,0,0:0:0:0:
192,192,167148,1,0,0:0:0:0:
64,192,167148,1,8,0:0:0:0:
448,192,167148,1,0,0:0:0:0:
320,192,167298,1,0,0:0:0:0:
448,192,167373,1,0,0:0:0:0:
320,192,167448,1,0,0:0:0:0:
192,192,167448,1,0,0:0:0:0:
64,192,167448,1,8,0:0:0:0:
320,192,167598,128,0,167673:0:0:0:0:
448,192,167598,128,0,167673:0:0:0:0:
192,192,167748,1,0,0:0:0:0:
64,192,167748,1,8,0:0:0:0:
448,192,167748,1,0,0:0:0:0:
320,192,167898,1,0,0:0:0:0:
192,192,167898,1,0,0:0:0:0:
64,192,168048,1,0,0:0:0:0:
320,192,168048,1,0,0:0:0:0:
448,192,168048,1,0,0:0:0:0:
192,192,168198,1,0,0:0:0:0:
64,192,168198,1,0,0:0:0:0:
448,192,168198,1,0,0:0:0:0:
64,192,168348,1,0,0:0:0:0:
192,192,168348,1,0,0:0:0:0:
320,192,168348,1,0,0:0:0:0:
448,192,168498,1,0,0:0:0:0:
320,192,168498,1,0,0:0:0:0:
192,192,168498,1,0,0:0:0:0:
64,192,168648,1,0,0:0:0:0:
320,192,168648,1,0,0:0:0:0:
448,192,168648,1,0,0:0:0:0:
64,192,168798,1,0,0:0:0:0:
192,192,168798,1,0,0:0:0:0:
448,192,168798,1,0,0:0:0:0:
320,192,168948,1,0,0:0:0:0:
192,192,168948,1,0,0:0:0:0:
64,192,168948,1,0,0:0:0:0:
320,192,169098,1,0,0:0:0:0:
448,192,169098,1,0,0:0:0:0:
192,192,169098,1,0,0:0:0:0:
192,192,169248,1,0,0:0:0:0:
64,192,169248,1,0,0:0:0:0:
320,192,169323,1,0,0:0:0:0:
448,192,169323,1,0,0:0:0:0:
192,192,169398,1,0,0:0:0:0:
64,192,169398,1,0,0:0:0:0:
320,192,169473,1,0,0:0:0:0:
448,192,169473,1,0,0:0:0:0:
192,192,169548,1,0,0:0:0:0:
64,192,169548,1,0,0:0:0:0:
320,192,169623,1,0,0:0:0:0:
448,192,169623,1,0,0:0:0:0:
192,192,169698,1,0,0:0:0:0:
64,192,169698,1,0,0:0:0:0:
320,192,169773,1,0,0:0:0:0:
448,192,169773,1,0,0:0:0:0:
64,192,169848,1,0,0:0:0:0:
192,192,169848,1,0,0:0:0:0:
320,192,169923,1,0,0:0:0:0:
448,192,169998,1,0,0:0:0:0:
64,192,169998,1,0,0:0:0:0:
192,192,170073,1,0,0:0:0:0:
320,192,170148,1,0,0:0:0:0:
448,192,170148,1,0,0:0:0:0:
64,192,170223,1,0,0:0:0:0:
192,192,170298,1,0,0:0:0:0:
320,192,170298,1,0,0:0:0:0:
448,192,170373,1,0,0:0:0:0:
320,192,170448,1,0,0:0:0:70:Cymbol.wav
192,192,170448,1,0,0:0:0:0:
64,192,170448,1,8,0:0:0:0:
64,192,171648,1,8,0:0:0:0:
192,192,171648,1,0,0:0:0:0:
448,192,171648,1,0,0:0:0:0:
320,192,171798,1,0,0:0:0:0:
192,192,171873,1,0,0:0:0:0:
320,192,171948,1,0,0:0:0:0:
192,192,172023,1,0,0:0:0:0:
320,192,172098,1,0,0:0:0:0:
192,192,172248,1,0,0:0:0:0:
64,192,172248,1,0,0:0:0:0:
320,192,172398,1,0,0:0:0:0:
448,192,172398,1,0,0:0:0:0:
192,192,172548,1,0,0:0:0:0:
64,192,172548,1,0,0:0:0:0:
320,192,172698,1,0,0:0:0:0:
448,192,172698,1,0,0:0:0:0:
192,192,172773,1,0,0:0:0:0:
320,192,172848,1,0,0:0:0:40:Cymbol.wav
448,192,172848,1,0,0:0:0:10:Clap.wav
64,192,172848,1,8,0:0:0:0:
192,192,173048,1,0,0:0:0:10:Clap.wav
320,192,173148,1,0,0:0:0:10:Clap.wav
448,192,173148,1,0,0:0:0:0:
64,192,173298,1,0,0:0:0:10:Clap.wav
192,192,173348,1,0,0:0:0:0:
320,192,173448,1,0,0:0:0:10:Clap.wav
448,192,173448,1,0,0:0:0:0:
192,192,173598,1,0,0:0:0:0:
64,192,173648,1,0,0:0:0:0:
320,192,173748,1,0,0:0:0:0:
448,192,173748,1,0,0:0:0:0:
192,192,173898,1,0,0:0:0:0:
64,192,174048,1,0,0:0:0:0:
320,192,174048,1,0,0:0:0:0:
448,192,174048,1,8,0:0:0:0:
192,192,174198,1,0,0:0:0:0:
320,192,174348,1,0,0:0:0:10:Clap.wav
448,192,174348,1,0,0:0:0:0:
192,192,174498,1,0,0:0:0:10:Clap.wav
64,192,174498,1,0,0:0:0:0:
320,192,174648,1,0,0:0:0:10:Clap.wav
448,192,174648,1,0,0:0:0:0:
64,192,174648,1,0,0:0:0:0:
192,192,175248,1,0,0:0:0:0:
64,192,175248,1,8,0:0:0:0:
448,192,175248,1,0,0:0:0:70:Cymbol.wav
320,192,175398,1,0,0:0:0:0:
448,192,175398,1,0,0:0:0:0:
64,192,175398,1,8,0:0:0:0:
192,192,175548,1,0,0:0:0:0:
64,192,175548,1,8,0:0:0:0:
320,192,175548,1,0,0:0:0:0:
320,192,175698,1,0,0:0:0:0:
448,192,175698,1,0,0:0:0:0:
192,192,175773,1,0,0:0:0:0:
64,192,175773,1,8,0:0:0:0:
320,192,175848,1,0,0:0:0:0:
448,192,175848,1,0,0:0:0:0:
192,192,175923,1,0,0:0:0:0:
64,192,175923,1,8,0:0:0:0:
320,192,175998,1,0,0:0:0:0:
448,192,175998,1,0,0:0:0:0:
192,192,176148,1,0,0:0:0:0:
64,192,176148,1,8,0:0:0:0:
448,192,176148,1,0,0:0:0:0:
320,192,176298,1,0,0:0:0:0:
192,192,176298,1,0,0:0:0:0:
64,192,176298,1,8,0:0:0:0:
64,192,176448,1,8,0:0:0:0:
320,192,176448,1,0,0:0:0:0:
448,192,176448,1,0,0:0:0:0:
192,192,176598,1,0,0:0:0:0:
64,192,176598,1,0,0:0:0:0:
448,192,176598,1,0,0:0:0:0:
320,192,176635,1,0,0:0:0:0:
192,192,176673,1,0,0:0:0:0:
64,192,176673,1,0,0:0:0:0:
448,192,176748,1,0,0:0:0:0:
320,192,176748,1,8,0:0:0:0:
320,192,176898,1,0,0:0:0:0:
448,192,176898,1,0,0:0:0:0:
192,192,176898,1,8,0:0:0:0:
64,192,177048,1,0,0:0:0:0:
448,192,177048,1,0,0:0:0:0:
320,192,177048,1,0,0:0:0:0:
192,192,177123,1,0,0:0:0:0:
320,192,177160,1,0,0:0:0:0:
448,192,177198,1,0,0:0:0:0:
192,192,177235,1,0,0:0:0:0:
320,192,177273,1,0,0:0:0:0:
448,192,177310,1,0,0:0:0:0:
64,192,177348,128,8,177573:0:0:0:0:
192,192,177348,128,0,177573:0:0:0:0:
320,192,177573,1,0,0:0:0:0:
192,192,177648,1,0,0:0:0:0:
64,192,177648,1,8,0:0:0:0:
448,192,177648,1,0,0:0:0:0:
320,192,177798,1,0,0:0:0:0:
64,192,177948,128,0,178098:0:0:0:0:
192,192,177948,128,0,178098:0:0:0:0:
320,192,178098,1,0,0:0:0:0:
448,192,178098,1,0,0:0:0:0:
64,192,178248,1,8,0:0:0:0:
192,192,178248,1,0,0:0:0:0:
448,192,178248,1,0,0:0:0:0:
320,192,178398,1,0,0:0:0:0:
192,192,178398,1,0,0:0:0:0:
64,192,178398,1,8,0:0:0:0:
320,192,178548,1,0,0:0:0:0:
448,192,178548,1,0,0:0:0:0:
64,192,178548,1,8,0:0:0:0:
192,192,178698,1,8,0:0:0:0:
320,192,178698,1,0,0:0:0:0:
448,192,178698,1,0,0:0:0:0:
64,192,178848,1,8,0:0:0:0:
192,192,178848,1,0,0:0:0:0:
448,192,178848,1,0,0:0:0:0:
320,192,178998,1,0,0:0:0:0:
448,192,178998,1,0,0:0:0:0:
64,192,178998,1,8,0:0:0:0:
64,192,179148,1,8,0:0:0:0:
192,192,179148,1,0,0:0:0:0:
320,192,179148,1,0,0:0:0:0:
192,192,179298,1,8,0:0:0:0:
320,192,179298,1,0,0:0:0:0:
448,192,179298,1,0,0:0:0:0:
64,192,179448,1,8,0:0:0:0:
448,192,179448,1,0,0:0:0:0:
192,192,179523,1,8,0:0:0:0:
320,192,179523,1,0,0:0:0:0:
64,192,179598,1,8,0:0:0:0:
448,192,179598,1,0,0:0:0:0:
192,192,179673,1,8,0:0:0:0:
320,192,179673,1,0,0:0:0:0:
64,192,179748,1,8,0:0:0:0:
448,192,179748,1,0,0:0:0:0:
192,192,179898,1,0,0:0:0:0:
64,192,179898,1,8,0:0:0:0:
320,192,179898,1,0,0:0:0:0:
320,192,180048,1,0,0:0:0:0:
448,192,180048,1,8,0:0:0:0:
192,192,180048,1,0,0:0:0:0:
448,192,180198,1,8,0:0:0:0:
320,192,180198,1,0,0:0:0:0:
64,192,180198,1,0,0:0:0:0:
192,192,180348,1,0,0:0:0:0:
64,192,180348,1,0,0:0:0:0:
448,192,180348,1,8,0:0:0:0:
320,192,180498,1,8,0:0:0:0:
192,192,180498,1,0,0:0:0:0:
64,192,180498,1,0,0:0:0:0:
192,192,180648,1,0,0:0:0:0:
320,192,180648,1,8,0:0:0:0:
448,192,180648,1,0,0:0:0:0:
320,192,180798,1,8,0:0:0:0:
448,192,180798,1,0,0:0:0:0:
64,192,180798,1,0,0:0:0:0:
192,192,180948,1,8,0:0:0:0:
64,192,180948,1,0,0:0:0:0:
448,192,180948,1,0,0:0:0:0:
320,192,181098,1,0,0:0:0:0:
192,192,181098,1,8,0:0:0:0:
64,192,181098,1,0,0:0:0:0:
320,192,181248,1,0,0:0:0:0:
448,192,181248,1,8,0:0:0:0:
64,192,181248,1,0,0:0:0:0:
192,192,181398,1,8,0:0:0:0:
64,192,181398,1,0,0:0:0:0:
448,192,181398,1,0,0:0:0:0:
320,192,181473,1,0,0:0:0:0:
64,192,181548,1,0,0:0:0:0:
448,192,181548,1,8,0:0:0:0:
192,192,181623,1,0,0:0:0:0:
320,192,181698,1,0,0:0:0:0:
448,192,181698,1,8,0:0:0:0:
64,192,181698,1,0,0:0:0:0:
192,192,181773,1,0,0:0:0:0:
320,192,181848,1,0,0:0:0:0:
448,192,181848,1,0,0:0:0:0:
192,192,181885,1,0,0:0:0:0:
64,192,181923,1,0,0:0:0:0:
448,192,181960,1,0,0:0:0:0:
320,192,181998,1,0,0:0:0:0:
192,192,182035,1,0,0:0:0:0:
64,192,182073,1,0,0:0:0:0:
320,192,182110,1,0,0:0:0:0:
64,192,182148,1,0,0:0:0:70:Cymbol.wav
448,192,182148,1,8,0:0:0:0:
192,192,182148,1,0,0:0:0:0:
192,192,182298,1,0,0:0:0:0:
448,192,182298,1,0,0:0:0:0:
448,192,182448,1,0,0:0:0:0:
192,192,182448,128,0,182598:0:0:0:0:
64,192,182448,128,0,182598:0:0:0:0:
448,192,182598,1,0,0:0:0:0:
192,192,182748,1,0,0:0:0:0:
64,192,182748,1,8,0:0:0:0:
448,192,182748,1,0,0:0:0:0:
320,192,182898,128,0,182973:0:0:0:0:
448,192,182898,128,0,182973:0:0:0:0:
64,192,183048,1,8,0:0:0:0:
320,192,183048,1,0,0:0:0:70:Cymbol.wav
448,192,183048,1,0,0:0:0:0:
192,192,183048,1,0,0:0:0:0:
64,192,183198,1,0,0:0:0:0:
192,192,183198,1,0,0:0:0:0:
64,192,183348,1,8,0:0:0:0:
192,192,183348,1,0,0:0:0:0:
320,192,183348,1,0,0:0:0:0:
448,192,183348,1,0,0:0:0:0:
320,192,183498,1,0,0:0:0:0:
448,192,183498,1,0,0:0:0:0:
64,192,183648,1,8,0:0:0:0:
192,192,183648,1,0,0:0:0:0:
320,192,183648,1,0,0:0:0:0:
448,192,183648,1,0,0:0:0:0:
192,192,183798,1,0,0:0:0:0:
320,192,183798,1,0,0:0:0:0:
64,192,183948,1,8,0:0:0:0:
192,192,183948,1,0,0:0:0:0:
320,192,183948,1,0,0:0:0:0:
448,192,183948,1,0,0:0:0:0:
64,192,184098,1,0,0:0:0:0:
448,192,184098,1,0,0:0:0:0:
64,192,184248,1,8,0:0:0:0:
192,192,184248,1,0,0:0:0:0:
320,192,184248,1,0,0:0:0:0:
448,192,184248,1,0,0:0:0:0:
192,192,184398,1,0,0:0:0:0:
64,192,184398,1,0,0:0:0:0:
64,192,184548,1,8,0:0:0:0:
192,192,184548,1,0,0:0:0:0:
320,192,184548,1,0,0:0:0:0:
448,192,184548,1,0,0:0:0:0:
320,192,184698,1,0,0:0:0:0:
448,192,184698,1,0,0:0:0:0:
64,192,184848,1,8,0:0:0:0:
192,192,184848,1,0,0:0:0:0:
320,192,184848,1,0,0:0:0:0:
448,192,184848,1,0,0:0:0:0:
320,192,184998,1,0,0:0:0:0:
64,192,184998,1,0,0:0:0:0:
192,192,185148,1,0,0:0:0:0:
64,192,185148,1,8,0:0:0:0:
320,192,185148,1,0,0:0:0:0:
448,192,185148,1,0,0:0:0:0:
192,192,185298,1,0,0:0:0:0:
448,192,185298,1,0,0:0:0:0:
448,192,185448,1,0,0:0:0:0:
320,192,185448,1,0,0:0:0:0:
64,192,185448,1,8,0:0:0:0:
192,192,185448,1,0,0:0:0:0:
320,192,185598,1,0,0:0:0:0:
448,192,185598,1,0,0:0:0:0:
320,192,185748,1,0,0:0:0:0:
448,192,185748,1,0,0:0:0:0:
192,192,185748,1,0,0:0:0:0:
64,192,185748,1,8,0:0:0:0:
64,192,185898,1,0,0:0:0:0:
192,192,185898,1,0,0:0:0:0:
64,192,186048,1,8,0:0:0:0:
192,192,186048,1,0,0:0:0:0:
320,192,186048,1,0,0:0:0:0:
448,192,186048,1,0,0:0:0:0:
320,192,186198,1,0,0:0:0:0:
448,192,186198,1,0,0:0:0:0:
448,192,186348,1,0,0:0:0:0:
320,192,186348,1,0,0:0:0:0:
192,192,186348,1,0,0:0:0:0:
64,192,186348,1,8,0:0:0:0:
192,192,186498,1,0,0:0:0:0:
320,192,186498,1,0,0:0:0:0:
320,192,186648,1,0,0:0:0:0:
448,192,186648,1,8,0:0:0:0:
64,192,186648,1,0,0:0:0:0:
192,192,186723,1,0,0:0:0:0:
320,192,186760,1,0,0:0:0:0:
448,192,186798,1,0,0:0:0:0:
64,192,186835,1,0,0:0:0:0:
192,192,186873,1,0,0:0:0:0:
320,192,186910,1,0,0:0:0:0:
64,192,186948,1,0,0:0:0:0:
448,192,186948,128,0,187173:0:0:0:0:
192,192,187173,1,0,0:0:0:0:
64,192,187248,1,0,0:0:0:70:Cymbol.wav
320,192,187248,1,8,0:0:0:0:
448,192,187248,1,0,0:0:0:0:
192,192,187323,1,0,0:0:0:0:
448,192,187398,1,0,0:0:0:0:
320,192,187473,1,0,0:0:0:0:
448,192,187548,1,0,0:0:0:0:
64,192,187548,128,0,187698:0:0:0:0:
192,192,187548,128,0,187698:0:0:0:0:
320,192,187698,1,0,0:0:0:0:
448,192,187698,1,0,0:0:0:0:
64,192,187848,1,8,0:0:0:0:
192,192,187848,1,0,0:0:0:0:
320,192,187848,1,0,0:0:0:0:
448,192,187848,1,0,0:0:0:0:
64,192,187998,1,0,0:0:0:0:
192,192,187998,1,0,0:0:0:0:
64,192,188148,1,8,0:0:0:0:
320,192,188148,1,0,0:0:0:0:
192,192,188148,1,0,0:0:0:0:
448,192,188148,1,0,0:0:0:0:
192,192,188298,1,0,0:0:0:0:
448,192,188298,1,0,0:0:0:0:
448,192,188448,1,0,0:0:0:0:
320,192,188448,1,0,0:0:0:0:
192,192,188448,1,0,0:0:0:0:
64,192,188448,1,8,0:0:0:0:
64,192,188598,1,0,0:0:0:0:
320,192,188598,1,0,0:0:0:0:
192,192,188673,1,0,0:0:0:0:
448,192,188673,1,0,0:0:0:0:
64,192,188748,1,8,0:0:0:0:
320,192,188748,1,0,0:0:0:0:
192,192,188898,1,0,0:0:0:0:
448,192,188898,1,0,0:0:0:0:
64,192,189048,1,8,0:0:0:0:
192,192,189048,1,0,0:0:0:0:
320,192,189048,1,0,0:0:0:0:
448,192,189048,1,0,0:0:0:0:
320,192,189198,1,0,0:0:0:0:
448,192,189198,1,0,0:0:0:0:
64,192,189348,1,8,0:0:0:0:
192,192,189348,1,0,0:0:0:0:
320,192,189423,1,0,0:0:0:0:
448,192,189460,1,0,0:0:0:0:
64,192,189498,1,0,0:0:0:0:
192,192,189535,1,0,0:0:0:0:
320,192,189573,1,0,0:0:0:0:
448,192,189610,1,0,0:0:0:0:
192,192,189648,1,0,0:0:0:0:
64,192,189648,1,8,0:0:0:0:
320,192,189798,1,0,0:0:0:0:
448,192,189798,1,0,0:0:0:0:
64,192,189948,1,8,0:0:0:0:
320,192,189948,1,0,0:0:0:0:
448,192,189948,1,0,0:0:0:0:
192,192,190023,1,0,0:0:0:0:
448,192,190098,1,0,0:0:0:0:
64,192,190098,1,0,0:0:0:0:
320,192,190173,1,0,0:0:0:0:
192,192,190248,1,0,0:0:0:0:
64,192,190248,1,0,0:0:0:0:
448,192,190323,1,0,0:0:0:0:
320,192,190398,1,0,0:0:0:0:
64,192,190398,1,0,0:0:0:0:
192,192,190473,1,0,0:0:0:0:
64,192,190548,1,0,0:0:0:0:
448,192,190548,1,0,0:0:0:0:
320,192,190623,1,0,0:0:0:0:
192,192,190698,1,0,0:0:0:0:
64,192,190698,1,0,0:0:0:0:
320,192,190773,1,0,0:0:0:0:
448,192,190848,1,0,0:0:0:0:
192,192,190848,1,0,0:0:0:0:
64,192,190848,1,8,0:0:0:0:
320,192,191035,1,0,0:0:0:0:
448,192,191035,1,0,0:0:0:0:
192,192,191148,1,0,0:0:0:0:
64,192,191148,1,0,0:0:0:0:
320,192,191298,128,0,191448:0:0:0:0:
448,192,191448,1,0,0:0:0:0:
192,192,191448,1,0,0:0:0:0:
64,192,191448,1,8,0:0:0:0:
320,192,191598,1,0,0:0:0:0:
64,192,191748,1,0,0:0:0:0:
192,192,191748,1,0,0:0:0:70:Snare.wav
320,192,191748,1,0,0:0:0:0:
448,192,191748,1,0,0:0:0:0:
192,192,191898,1,0,0:0:0:0:
64,192,192048,1,0,0:0:0:0:
448,192,192048,1,0,0:0:0:0:
192,192,192123,1,0,0:0:0:0:
64,192,192198,1,0,0:0:0:0:
448,192,192198,1,0,0:0:0:0:
320,192,192273,1,0,0:0:0:0:
192,192,192348,1,0,0:0:0:0:
64,192,192348,1,0,0:0:0:0:
448,192,192348,1,0,0:0:0:0:
320,192,192498,1,0,0:0:0:0:
448,192,192498,1,0,0:0:0:0:
64,192,192498,1,0,0:0:0:0:
64,192,192648,1,0,0:0:0:0:
192,192,192648,1,8,0:0:0:0:
448,192,192648,1,0,0:0:0:0:
320,192,192648,1,0,0:0:0:70:Cymbol.wav
320,192,192723,1,0,0:0:0:0:
448,192,192798,1,0,0:0:0:0:
64,192,192798,1,0,0:0:0:0:
192,192,192873,1,0,0:0:0:0:
320,192,192948,1,0,0:0:0:0:
448,192,192948,1,0,0:0:0:0:
64,192,192948,1,8,0:0:0:0:
192,192,193023,1,0,0:0:0:0:
320,192,193098,1,0,0:0:0:0:
448,192,193098,1,0,0:0:0:0:
192,192,193173,1,0,0:0:0:0:
64,192,193248,1,8,0:0:0:0:
320,192,193248,1,0,0:0:0:0:
448,192,193248,1,0,0:0:0:0:
192,192,193323,1,0,0:0:0:0:
64,192,193398,1,0,0:0:0:0:
448,192,193398,1,0,0:0:0:0:
320,192,193473,1,0,0:0:0:0:
192,192,193548,1,0,0:0:0:0:
64,192,193548,1,8,0:0:0:0:
448,192,193548,1,0,0:0:0:0:
320,192,193623,1,0,0:0:0:0:
64,192,193698,1,0,0:0:0:0:
448,192,193698,1,0,0:0:0:0:
192,192,193773,1,0,0:0:0:0:
320,192,193848,1,0,0:0:0:0:
448,192,193848,1,0,0:0:0:0:
64,192,193848,1,8,0:0:0:0:
192,192,193923,1,0,0:0:0:0:
320,192,193998,1,0,0:0:0:0:
64,192,193998,1,0,0:0:0:0:
448,192,194073,1,0,0:0:0:0:
64,192,194148,1,8,0:0:0:0:
192,192,194148,1,0,0:0:0:0:
320,192,194148,1,0,0:0:0:0:
448,192,194223,1,0,0:0:0:0:
64,192,194298,1,0,0:0:0:0:
192,192,194298,1,0,0:0:0:0:
320,192,194373,1,0,0:0:0:0:
448,192,194448,1,0,0:0:0:0:
192,192,194448,1,0,0:0:0:0:
64,192,194448,1,8,0:0:0:0:
320,192,194523,1,0,0:0:0:0:
192,192,194598,1,0,0:0:0:0:
64,192,194598,1,0,0:0:0:0:
448,192,194598,1,0,0:0:0:0:
320,192,194673,1,0,0:0:0:0:
192,192,194748,1,0,0:0:0:0:
64,192,194748,1,0,0:0:0:0:
448,192,194748,1,0,0:0:0:0:
320,192,194898,1,0,0:0:0:0:
448,192,194898,1,0,0:0:0:0:
64,192,194898,1,8,0:0:0:0:
192,192,194973,1,0,0:0:0:0:
64,192,195048,1,0,0:0:0:0:
448,192,195048,1,0,0:0:0:0:
320,192,195048,1,0,0:0:0:0:
192,192,195123,1,0,0:0:0:0:
64,192,195198,1,0,0:0:0:0:
320,192,195198,1,0,0:0:0:0:
448,192,195198,1,0,0:0:0:0:
192,192,195273,1,0,0:0:0:0:
64,192,195348,1,8,0:0:0:0:
320,192,195348,1,0,0:0:0:0:
448,192,195348,1,0,0:0:0:0:
192,192,195423,1,0,0:0:0:0:
320,192,195498,1,0,0:0:0:0:
448,192,195498,1,0,0:0:0:0:
192,192,195573,1,0,0:0:0:0:
64,192,195648,1,0,0:0:0:0:
448,192,195648,1,0,0:0:0:0:
320,192,195723,1,0,0:0:0:0:
192,192,195798,1,0,0:0:0:0:
64,192,195798,1,8,0:0:0:0:
448,192,195798,1,0,0:0:0:0:
320,192,195873,1,0,0:0:0:0:
192,192,195948,1,0,0:0:0:0:
64,192,195948,1,0,0:0:0:0:
320,192,196023,1,0,0:0:0:0:
64,192,196098,1,0,0:0:0:0:
448,192,196098,1,0,0:0:0:0:
192,192,196173,1,0,0:0:0:0:
320,192,196173,1,0,0:0:0:0:
64,192,196248,1,8,0:0:0:0:
448,192,196248,1,0,0:0:0:0:
192,192,196323,1,0,0:0:0:0:
320,192,196360,1,0,0:0:0:0:
448,192,196398,1,0,0:0:0:0:
192,192,196435,1,0,0:0:0:0:
320,192,196473,1,0,0:0:0:0:
448,192,196510,1,0,0:0:0:0:
192,192,196548,1,0,0:0:0:0:
64,192,196548,128,0,196698:0:0:0:0:
320,192,196698,1,0,0:0:0:0:
192,192,196848,1,0,0:0:0:0:
64,192,196848,1,8,0:0:0:0:
448,192,196848,1,0,0:0:0:0:
320,192,196923,1,0,0:0:0:0:
192,192,196998,1,0,0:0:0:0:
320,192,197073,1,8,0:0:0:0:
448,192,197073,1,0,0:0:0:0:
192,192,197148,1,0,0:0:0:0:
64,192,197148,1,0,0:0:0:0:
320,192,197223,1,0,0:0:0:0:
192,192,197298,1,0,0:0:0:0:
64,192,197298,1,8,0:0:0:0:
448,192,197298,1,0,0:0:0:0:
320,192,197448,1,0,0:0:0:70:Cymbol.wav
192,192,197448,1,0,0:0:0:0:
64,192,197448,1,8,0:0:0:0:
448,192,197448,1,0,0:0:0:0:
320,192,197523,1,0,0:0:0:0:
192,192,197598,1,0,0:0:0:0:
64,192,197598,1,0,0:0:0:0:
448,192,197673,1,0,0:0:0:0:
320,192,197748,1,0,0:0:0:0:
192,192,197748,1,0,0:0:0:0:
64,192,197748,1,8,0:0:0:0:
448,192,197823,1,0,0:0:0:0:
64,192,197898,1,0,0:0:0:0:
192,192,197898,1,0,0:0:0:0:
320,192,197973,1,0,0:0:0:0:
448,192,198048,1,0,0:0:0:0:
192,192,198048,1,0,0:0:0:0:
64,192,198048,1,8,0:0:0:0:
320,192,198123,1,0,0:0:0:0:
64,192,198198,1,0,0:0:0:0:
448,192,198198,1,0,0:0:0:0:
192,192,198273,1,0,0:0:0:0:
320,192,198348,1,0,0:0:0:0:
448,192,198348,1,0,0:0:0:0:
64,192,198348,1,8,0:0:0:0:
192,192,198423,1,0,0:0:0:0:
320,192,198498,1,0,0:0:0:0:
448,192,198498,1,0,0:0:0:0:
192,192,198573,1,0,0:0:0:0:
64,192,198648,1,8,0:0:0:0:
320,192,198648,1,0,0:0:0:0:
448,192,198648,1,0,0:0:0:0:
192,192,198723,1,0,0:0:0:0:
64,192,198798,1,0,0:0:0:0:
448,192,198798,1,0,0:0:0:0:
320,192,198873,1,0,0:0:0:0:
192,192,198948,1,0,0:0:0:0:
64,192,198948,1,8,0:0:0:0:
448,192,198948,1,0,0:0:0:0:
320,192,199023,1,0,0:0:0:0:
192,192,199098,1,0,0:0:0:0:
64,192,199098,1,0,0:0:0:0:
320,192,199173,1,0,0:0:0:0:
448,192,199248,1,0,0:0:0:70:Cymbol.wav
192,192,199248,1,0,0:0:0:0:
64,192,199248,1,8,0:0:0:0:
320,192,199398,1,0,0:0:0:0:
64,192,199398,1,0,0:0:0:0:
192,192,199548,1,0,0:0:0:0:
64,192,199548,1,0,0:0:0:0:
320,192,199623,1,8,0:0:0:0:
448,192,199623,1,0,0:0:0:0:
192,192,199698,1,8,0:0:0:0:
64,192,199698,1,0,0:0:0:0:
448,192,199848,1,0,0:0:0:0:
192,192,199848,1,8,0:0:0:0:
320,192,199923,1,0,0:0:0:0:
64,192,199998,1,0,0:0:0:0:
448,192,199998,1,0,0:0:0:0:
192,192,200073,1,0,0:0:0:0:
64,192,200148,1,0,0:0:0:0:
320,192,200148,1,0,0:0:0:0:
448,192,200148,1,8,0:0:0:0:
192,192,200298,1,0,0:0:0:0:
64,192,200298,1,0,0:0:0:0:
448,192,200298,1,8,0:0:0:0:
64,192,200448,1,0,0:0:0:70:Cymbol.wav
192,192,200448,1,0,0:0:0:0:
320,192,200448,1,0,0:0:0:0:
448,192,200448,1,8,0:0:0:0:
64,192,201048,1,8,0:0:0:0:
192,192,201048,1,0,0:0:0:0:
192,192,201198,1,0,0:0:0:0:
64,192,201198,1,8,0:0:0:0:
192,192,201348,1,0,0:0:0:0:
64,192,201348,1,0,0:0:0:70:Snare.wav
320,192,201348,1,0,0:0:0:0:
448,192,201348,1,0,0:0:0:0:
320,192,201498,1,0,0:0:0:0:
448,192,201498,1,0,0:0:0:0:
192,192,201573,1,0,0:0:0:0:
64,192,201648,128,0,201798:0:0:0:0:
320,192,201648,128,0,201798:0:0:0:0:
448,192,201648,128,0,201798:0:0:0:0:
192,192,201798,1,0,0:0:0:0:
64,192,201948,1,8,0:0:0:0:
320,192,201948,1,0,0:0:0:0:
448,192,201948,1,0,0:0:0:70:Cymbol.wav
192,192,202023,1,0,0:0:0:0:
320,192,202098,1,0,0:0:0:0:
448,192,202098,1,0,0:0:0:0:
192,192,202173,1,0,0:0:0:0:
64,192,202248,1,8,0:0:0:0:
320,192,202248,1,0,0:0:0:0:
448,192,202248,1,0,0:0:0:0:
192,192,202323,1,0,0:0:0:0:
64,192,202398,1,0,0:0:0:0:
448,192,202398,1,0,0:0:0:0:
320,192,202473,1,0,0:0:0:0:
192,192,202548,1,0,0:0:0:0:
64,192,202548,1,8,0:0:0:0:
448,192,202548,1,0,0:0:0:0:
320,192,202623,1,0,0:0:0:0:
192,192,202698,1,0,0:0:0:0:
64,192,202698,1,0,0:0:0:0:
320,192,202773,1,0,0:0:0:0:
448,192,202848,1,0,0:0:0:0:
192,192,202848,1,0,0:0:0:0:
64,192,202848,1,8,0:0:0:0:
320,192,202923,1,0,0:0:0:0:
64,192,202998,1,0,0:0:0:0:
448,192,202998,1,0,0:0:0:0:
192,192,203073,1,0,0:0:0:0:
320,192,203148,1,0,0:0:0:0:
448,192,203148,1,0,0:0:0:0:
64,192,203148,1,8,0:0:0:0:
192,192,203223,1,0,0:0:0:0:
320,192,203298,1,0,0:0:0:0:
448,192,203298,1,0,0:0:0:0:
192,192,203373,1,0,0:0:0:0:
64,192,203448,1,8,0:0:0:0:
320,192,203448,1,0,0:0:0:0:
448,192,203448,1,0,0:0:0:0:
192,192,203523,1,0,0:0:0:0:
64,192,203598,1,0,0:0:0:0:
320,192,203598,1,0,0:0:0:0:
448,192,203673,1,0,0:0:0:0:
64,192,203748,1,8,0:0:0:0:
192,192,203748,1,0,0:0:0:0:
320,192,203748,1,0,0:0:0:0:
448,192,203823,1,0,0:0:0:0:
64,192,203898,1,0,0:0:0:0:
192,192,203898,1,0,0:0:0:0:
320,192,203973,1,0,0:0:0:0:
448,192,204048,1,0,0:0:0:0:
192,192,204048,1,0,0:0:0:0:
64,192,204048,1,8,0:0:0:0:
320,192,204123,1,0,0:0:0:0:
64,192,204198,1,0,0:0:0:0:
192,192,204198,1,0,0:0:0:0:
320,192,204273,1,0,0:0:0:0:
448,192,204348,1,0,0:0:0:0:
192,192,204348,1,0,0:0:0:0:
64,192,204348,1,8,0:0:0:0:
320,192,204423,1,0,0:0:0:0:
64,192,204498,1,0,0:0:0:0:
448,192,204498,1,0,0:0:0:0:
192,192,204573,1,0,0:0:0:0:
320,192,204648,1,0,0:0:0:0:
448,192,204648,1,0,0:0:0:0:
64,192,204648,1,8,0:0:0:0:
192,192,204723,1,0,0:0:0:0:
64,192,204798,1,0,0:0:0:0:
448,192,204798,1,0,0:0:0:0:
320,192,204873,1,0,0:0:0:0:
192,192,204948,1,0,0:0:0:0:
64,192,204948,1,8,0:0:0:0:
448,192,204948,1,0,0:0:0:0:
320,192,205023,1,0,0:0:0:0:
192,192,205098,1,0,0:0:0:0:
448,192,205098,1,0,0:0:0:0:
64,192,205173,1,0,0:0:0:0:
192,192,205248,1,8,0:0:0:0:
320,192,205248,1,0,0:0:0:0:
448,192,205248,1,0,0:0:0:0:
64,192,205323,1,0,0:0:0:0:
320,192,205398,1,0,0:0:0:0:
448,192,205398,1,0,0:0:0:0:
192,192,205473,1,0,0:0:0:0:
64,192,205548,1,8,0:0:0:0:
320,192,205548,1,0,0:0:0:0:
448,192,205548,1,0,0:0:0:0:
192,192,205623,1,0,0:0:0:0:
320,192,205698,1,0,0:0:0:0:
448,192,205698,1,0,0:0:0:0:
192,192,205773,1,0,0:0:0:0:
448,192,205848,1,0,0:0:0:0:
320,192,205848,1,8,0:0:0:0:
64,192,205848,1,0,0:0:0:0:
192,192,205923,1,0,0:0:0:0:
320,192,205960,1,0,0:0:0:0:
448,192,205998,1,0,0:0:0:0:
64,192,206035,1,0,0:0:0:0:
192,192,206073,1,0,0:0:0:0:
320,192,206110,1,0,0:0:0:0:
448,192,206148,1,0,0:0:0:0:
64,192,206148,128,0,206298:0:0:0:0:
320,192,206298,1,0,0:0:0:0:
64,192,206448,1,8,0:0:0:0:
192,192,206448,1,0,0:0:0:0:
448,192,206448,1,0,0:0:0:0:
320,192,206523,1,0,0:0:0:0:
192,192,206598,1,0,0:0:0:0:
64,192,206598,1,0,0:0:0:0:
320,192,206673,1,8,0:0:0:0:
448,192,206673,1,0,0:0:0:0:
192,192,206748,1,0,0:0:0:0:
64,192,206748,1,0,0:0:0:0:
320,192,206823,1,0,0:0:0:0:
192,192,206898,1,0,0:0:0:0:
448,192,206898,1,0,0:0:0:0:
64,192,206898,1,8,0:0:0:0:
320,192,207048,1,0,0:0:0:0:
448,192,207048,1,0,0:0:0:0:
64,192,207048,1,8,0:0:0:0:
192,192,207048,1,0,0:0:0:70:Cymbol.wav
192,192,207123,1,0,0:0:0:0:
320,192,207198,1,0,0:0:0:0:
448,192,207198,1,0,0:0:0:0:
64,192,207198,1,0,0:0:0:0:
64,192,207348,1,8,0:0:0:0:
192,192,207348,1,0,0:0:0:40:Cymbol.wav
320,192,207348,1,0,0:0:0:0:
448,192,207348,1,0,0:0:0:0:
320,192,207423,1,0,0:0:0:0:
448,192,207498,1,0,0:0:0:0:
64,192,207498,1,0,0:0:0:0:
192,192,207573,1,0,0:0:0:0:
320,192,207648,1,0,0:0:0:0:
448,192,207648,1,8,0:0:0:0:
64,192,207648,1,0,0:0:0:0:
192,192,207723,1,0,0:0:0:0:
320,192,207798,1,0,0:0:0:0:
448,192,207798,1,0,0:0:0:0:
192,192,207873,1,0,0:0:0:0:
64,192,207948,1,0,0:0:0:0:
320,192,207948,1,0,0:0:0:0:
448,192,207948,1,8,0:0:0:0:
192,192,208023,1,0,0:0:0:0:
448,192,208098,1,0,0:0:0:0:
64,192,208098,1,0,0:0:0:0:
320,192,208173,1,0,0:0:0:0:
192,192,208248,1,0,0:0:0:0:
64,192,208248,1,0,0:0:0:0:
448,192,208248,1,8,0:0:0:0:
320,192,208323,1,0,0:0:0:0:
192,192,208398,1,0,0:0:0:0:
64,192,208398,1,0,0:0:0:0:
320,192,208473,1,0,0:0:0:0:
448,192,208548,1,8,0:0:0:0:
192,192,208548,1,0,0:0:0:0:
64,192,208548,1,0,0:0:0:0:
320,192,208623,1,0,0:0:0:0:
448,192,208698,1,0,0:0:0:0:
192,192,208698,1,0,0:0:0:0:
64,192,208773,1,0,0:0:0:0:
192,192,208848,1,0,0:0:0:0:
448,192,208848,1,8,0:0:0:0:
320,192,208848,1,0,0:0:0:0:
320,192,208998,1,0,0:0:0:0:
192,192,208998,1,0,0:0:0:0:
64,192,208998,1,0,0:0:0:0:
320,192,209148,1,0,0:0:0:0:
448,192,209148,128,0,209223:0:0:0:0:
64,192,209148,1,8,0:0:0:0:
192,192,209223,1,0,0:0:0:0:
320,192,209298,1,0,0:0:0:0:
448,192,209298,128,0,209373:0:0:0:0:
64,192,209298,1,0,0:0:0:0:
192,192,209373,1,0,0:0:0:0:
320,192,209448,1,0,0:0:0:0:
448,192,209448,128,0,209523:0:0:0:0:
64,192,209448,1,0,0:0:0:0:
192,192,209523,1,0,0:0:0:0:
320,192,209598,1,0,0:0:0:0:
448,192,209598,128,0,209673:0:0:0:0:
64,192,209598,1,0,0:0:0:0:
192,192,209673,1,0,0:0:0:0:
320,192,209748,1,0,0:0:0:0:
448,192,209748,128,0,209823:0:0:0:0:
64,192,209748,1,0,0:0:0:0:
192,192,209823,1,0,0:0:0:0:
320,192,209898,1,0,0:0:0:0:
448,192,209898,128,0,209973:0:0:0:0:
64,192,209973,1,0,0:0:0:0:
320,192,210048,1,0,0:0:0:70:Cymbol.wav
448,192,210048,1,8,0:0:0:0:
192,192,210048,1,0,0:0:0:0:
448,192,210235,1,0,0:0:0:0:
192,192,210235,1,0,0:0:0:0:
64,192,210235,1,0,0:0:0:0:
320,192,210348,1,0,0:0:0:0:
448,192,210348,1,8,0:0:0:0:
448,192,210648,1,8,0:0:0:0:
192,192,210648,1,0,0:0:0:0:
64,192,210648,1,0,0:0:0:0:
320,192,210948,1,0,0:0:0:0:
448,192,210948,1,0,0:0:0:0:
192,192,210948,1,0,0:0:0:0:
64,192,210948,1,0,0:0:0:70:Snare.wav
448,192,211248,1,0,0:0:0:0:
320,192,211248,1,0,0:0:0:0:
64,192,211248,1,8,0:0:0:0:
64,192,211398,1,8,0:0:0:0:
320,192,211398,1,0,0:0:0:0:
448,192,211398,1,0,0:0:0:0:
64,192,211548,1,8,0:0:0:0:
320,192,211548,1,0,0:0:0:0:
448,192,211548,1,0,0:0:0:0:
192,192,211623,1,0,0:0:0:0:
448,192,211698,1,0,0:0:0:0:
320,192,211773,1,0,0:0:0:0:
192,192,211848,1,0,0:0:0:0:
64,192,211848,1,8,0:0:0:0:
448,192,211848,1,0,0:0:0:0:
448,192,211998,1,0,0:0:0:0:
64,192,211998,1,0,0:0:0:0:
192,192,212073,1,0,0:0:0:0:
64,192,212148,1,8,0:0:0:0:
320,192,212148,1,0,0:0:0:0:
448,192,212148,1,0,0:0:0:0:
64,192,212298,1,0,0:0:0:0:
448,192,212298,1,0,0:0:0:0:
320,192,212373,1,0,0:0:0:0:
192,192,212448,1,0,0:0:0:0:
64,192,212448,1,8,0:0:0:0:
448,192,212448,1,0,0:0:0:0:
320,192,212598,1,0,0:0:0:0:
448,192,212598,1,0,0:0:0:0:
192,192,212673,1,0,0:0:0:0:
64,192,212748,1,8,0:0:0:0:
320,192,212748,1,0,0:0:0:0:
448,192,212748,1,0,0:0:0:0:
192,192,212898,1,0,0:0:0:0:
64,192,212898,1,0,0:0:0:0:
320,192,212973,1,0,0:0:0:0:
448,192,213048,1,0,0:0:0:0:
192,192,213048,1,0,0:0:0:0:
64,192,213048,1,8,0:0:0:0:
320,192,213198,1,0,0:0:0:0:
64,192,213198,1,0,0:0:0:0:
192,192,213273,1,0,0:0:0:0:
320,192,213348,1,0,0:0:0:0:
448,192,213348,1,0,0:0:0:0:
64,192,213348,1,8,0:0:0:0:
192,192,213498,1,0,0:0:0:0:
448,192,213498,1,0,0:0:0:0:
64,192,213648,1,8,0:0:0:0:
192,192,213648,1,0,0:0:0:0:
320,192,213648,1,0,0:0:0:0:
448,192,213648,1,0,0:0:0:0:
64,192,213798,1,0,0:0:0:0:
320,192,213798,1,0,0:0:0:0:
192,192,213948,1,0,0:0:0:0:
64,192,213948,1,8,0:0:0:0:
448,192,213948,1,0,0:0:0:0:
320,192,214023,1,0,0:0:0:0:
64,192,214098,1,0,0:0:0:0:
448,192,214098,1,0,0:0:0:0:
192,192,214173,1,0,0:0:0:0:
320,192,214248,1,8,0:0:0:0:
448,192,214248,1,0,0:0:0:0:
192,192,214323,1,0,0:0:0:0:
64,192,214323,1,0,0:0:0:0:
320,192,214398,1,0,0:0:0:0:
448,192,214398,1,0,0:0:0:0:
192,192,214473,1,0,0:0:0:0:
64,192,214473,1,0,0:0:0:0:
320,192,214548,1,8,0:0:0:0:
448,192,214548,1,0,0:0:0:0:
192,192,214698,1,0,0:0:0:0:
320,192,214698,1,0,0:0:0:0:
64,192,214848,1,8,0:0:0:0:
448,192,214848,1,0,0:0:0:0:
320,192,214923,1,0,0:0:0:0:
192,192,214923,1,0,0:0:0:0:
64,192,214998,1,0,0:0:0:0:
448,192,214998,1,0,0:0:0:0:
192,192,215073,1,0,0:0:0:0:
320,192,215148,1,0,0:0:0:0:
448,192,215148,1,0,0:0:0:0:
64,192,215148,1,8,0:0:0:0:
192,192,215223,1,0,0:0:0:0:
320,192,215298,1,0,0:0:0:0:
448,192,215298,1,0,0:0:0:0:
192,192,215373,1,0,0:0:0:0:
64,192,215373,1,0,0:0:0:0:
320,192,215448,1,0,0:0:0:0:
448,192,215448,1,8,0:0:0:0:
320,192,215598,1,0,0:0:0:0:
448,192,215598,1,8,0:0:0:0:
64,192,215748,1,0,0:0:0:0:
192,192,215748,1,0,0:0:0:0:
320,192,215748,1,0,0:0:0:0:
448,192,215748,1,0,0:0:0:70:Snare.wav
192,192,215898,1,0,0:0:0:0:
64,192,215898,1,0,0:0:0:0:
64,192,216048,1,0,0:0:0:0:
448,192,216048,1,8,0:0:0:0:
320,192,216048,1,0,0:0:0:0:
192,192,216123,1,0,0:0:0:0:
448,192,216198,1,0,0:0:0:0:
320,192,216273,1,0,0:0:0:0:
192,192,216348,1,0,0:0:0:0:
64,192,216348,1,0,0:0:0:0:
448,192,216348,1,8,0:0:0:0:
320,192,216498,1,0,0:0:0:0:
64,192,216498,1,0,0:0:0:0:
192,192,216573,1,0,0:0:0:0:
64,192,216648,1,0,0:0:0:0:
320,192,216648,1,0,0:0:0:0:
448,192,216648,1,8,0:0:0:0:
192,192,216798,1,0,0:0:0:0:
448,192,216798,1,0,0:0:0:0:
320,192,216873,1,0,0:0:0:0:
192,192,216948,1,0,0:0:0:0:
64,192,216948,1,0,0:0:0:0:
448,192,216948,1,8,0:0:0:0:
64,192,217098,1,0,0:0:0:0:
192,192,217098,1,0,0:0:0:0:
320,192,217173,1,0,0:0:0:0:
448,192,217248,1,8,0:0:0:0:
192,192,217248,1,0,0:0:0:0:
64,192,217248,1,0,0:0:0:0:
320,192,217398,1,0,0:0:0:0:
448,192,217398,1,0,0:0:0:0:
192,192,217473,1,0,0:0:0:0:
64,192,217548,1,0,0:0:0:0:
320,192,217548,1,0,0:0:0:0:
448,192,217548,1,8,0:0:0:0:
192,192,217698,1,0,0:0:0:0:
448,192,217698,1,0,0:0:0:0:
320,192,217773,1,0,0:0:0:0:
192,192,217848,1,0,0:0:0:0:
64,192,217848,1,0,0:0:0:0:
448,192,217848,1,8,0:0:0:0:
64,192,217998,1,0,0:0:0:0:
192,192,217998,1,0,0:0:0:0:
320,192,218073,1,0,0:0:0:0:
448,192,218148,1,8,0:0:0:0:
192,192,218148,1,0,0:0:0:0:
64,192,218148,1,0,0:0:0:0:
320,192,218298,1,0,0:0:0:0:
448,192,218298,1,0,0:0:0:0:
64,192,218448,1,0,0:0:0:0:
192,192,218448,1,0,0:0:0:0:
320,192,218448,1,0,0:0:0:0:
448,192,218448,1,8,0:0:0:0:
64,192,218598,1,0,0:0:0:0:
192,192,218598,1,0,0:0:0:0:
320,192,218748,1,0,0:0:0:0:
448,192,218748,1,8,0:0:0:0:
64,192,218748,1,0,0:0:0:0:
192,192,218823,1,0,0:0:0:0:
448,192,218898,1,0,0:0:0:0:
64,192,218898,1,0,0:0:0:0:
320,192,218973,1,0,0:0:0:0:
192,192,219048,1,8,0:0:0:0:
64,192,219048,1,0,0:0:0:0:
320,192,219123,1,0,0:0:0:0:
448,192,219123,1,0,0:0:0:0:
192,192,219198,1,0,0:0:0:0:
64,192,219198,1,0,0:0:0:0:
320,192,219273,1,0,0:0:0:0:
448,192,219273,1,0,0:0:0:0:
192,192,219348,1,8,0:0:0:0:
64,192,219348,1,0,0:0:0:0:
320,192,219498,1,0,0:0:0:0:
192,192,219498,1,0,0:0:0:0:
192,192,219648,1,0,0:0:0:70:Cymbol.wav
64,192,219648,1,8,0:0:0:0:
320,192,219648,1,0,0:0:0:0:
448,192,219648,1,0,0:0:0:0:
64,192,219948,1,0,0:0:0:0:
448,192,219948,1,0,0:0:0:0:
192,192,220248,1,0,0:0:0:0:
64,192,220248,1,0,0:0:0:0:
320,192,220323,1,0,0:0:0:0:
448,192,220323,1,0,0:0:0:0:
192,192,220398,1,0,0:0:0:0:
64,192,220398,1,0,0:0:0:0:
64,192,220548,1,0,0:0:0:70:Snare.wav
320,192,220548,1,0,0:0:0:0:
448,192,220548,1,0,0:0:0:0:
192,192,220698,1,0,0:0:0:0:
64,192,220698,1,0,0:0:0:0:
320,192,220773,1,0,0:0:0:0:
192,192,220848,1,0,0:0:0:0:
64,192,220848,1,8,0:0:0:0:
448,192,220848,1,0,0:0:0:0:
192,192,220998,1,0,0:0:0:0:
448,192,220998,1,0,0:0:0:0:
64,192,220998,1,8,0:0:0:0:
192,192,221148,1,0,0:0:0:0:
64,192,221148,1,8,0:0:0:0:
448,192,221148,1,0,0:0:0:70:Cymbol.wav
320,192,221223,1,0,0:0:0:0:
64,192,221298,1,0,0:0:0:0:
192,192,221373,1,0,0:0:0:0:
320,192,221448,1,0,0:0:0:0:
448,192,221448,1,0,0:0:0:0:
64,192,221448,1,8,0:0:0:0:
192,192,221598,1,0,0:0:0:0:
320,192,221598,1,0,0:0:0:0:
64,192,221673,1,0,0:0:0:0:
192,192,221748,1,0,0:0:0:0:
448,192,221748,1,0,0:0:0:0:
320,192,221748,1,0,0:0:0:0:
64,192,221898,1,0,0:0:0:0:
320,192,221898,1,0,0:0:0:0:
192,192,221973,1,0,0:0:0:0:
64,192,222048,1,8,0:0:0:0:
448,192,222048,1,0,0:0:0:0:
320,192,222048,1,0,0:0:0:0:
192,192,222198,1,0,0:0:0:0:
448,192,222198,1,0,0:0:0:0:
320,192,222273,1,0,0:0:0:0:
192,192,222348,1,0,0:0:0:0:
64,192,222348,1,8,0:0:0:0:
448,192,222348,1,0,0:0:0:0:
320,192,222498,1,0,0:0:0:0:
448,192,222498,1,0,0:0:0:0:
192,192,222573,1,0,0:0:0:0:
64,192,222648,1,8,0:0:0:0:
320,192,222648,1,0,0:0:0:0:
448,192,222648,1,0,0:0:0:0:
192,192,222798,1,0,0:0:0:0:
64,192,222798,1,0,0:0:0:0:
448,192,222873,1,0,0:0:0:0:
320,192,222948,1,0,0:0:0:0:
64,192,222948,1,8,0:0:0:0:
192,192,222948,1,0,0:0:0:0:
320,192,223098,1,0,0:0:0:0:
448,192,223098,1,0,0:0:0:0:
64,192,223248,1,8,0:0:0:0:
320,192,223248,1,0,0:0:0:0:
448,192,223248,1,0,0:0:0:0:
192,192,223323,1,0,0:0:0:0:
64,192,223398,1,0,0:0:0:0:
448,192,223398,1,0,0:0:0:0:
320,192,223473,1,0,0:0:0:0:
192,192,223548,1,0,0:0:0:0:
64,192,223548,1,8,0:0:0:0:
448,192,223548,1,0,0:0:0:0:
320,192,223623,1,0,0:0:0:0:
192,192,223698,1,0,0:0:0:0:
64,192,223698,1,0,0:0:0:0:
320,192,223773,1,0,0:0:0:0:
64,192,223848,1,8,0:0:0:0:
448,192,223848,1,0,0:0:0:0:
192,192,223923,1,0,0:0:0:0:
320,192,223923,1,0,0:0:0:0:
64,192,223998,1,0,0:0:0:0:
448,192,223998,1,0,0:0:0:0:
320,192,224073,1,0,0:0:0:0:
192,192,224073,1,0,0:0:0:0:
64,192,224148,1,8,0:0:0:0:
448,192,224148,1,0,0:0:0:0:
192,192,224298,1,0,0:0:0:0:
320,192,224298,1,0,0:0:0:0:
64,192,224448,1,8,0:0:0:0:
192,192,224448,1,0,0:0:0:0:
448,192,224448,1,0,0:0:0:0:
320,192,224523,1,0,0:0:0:0:
192,192,224598,1,0,0:0:0:0:
64,192,224598,1,0,0:0:0:0:
320,192,224673,1,0,0:0:0:0:
448,192,224673,1,0,0:0:0:0:
192,192,224748,1,0,0:0:0:0:
64,192,224748,1,8,0:0:0:0:
320,192,224823,1,0,0:0:0:0:
448,192,224898,1,0,0:0:0:0:
64,192,224898,1,0,0:0:0:0:
192,192,224973,1,0,0:0:0:0:
320,192,225048,1,0,0:0:0:0:
448,192,225048,1,0,0:0:0:0:
64,192,225048,1,8,0:0:0:0:
64,192,225198,1,8,0:0:0:0:
192,192,225198,1,0,0:0:0:0:
448,192,225198,1,0,0:0:0:0:
320,192,225348,1,0,0:0:0:0:
448,192,225348,1,0,0:0:0:0:
64,192,225348,1,0,0:0:0:70:Snare.wav
192,192,225348,1,0,0:0:0:0:
320,192,225498,1,0,0:0:0:0:
448,192,225498,1,0,0:0:0:0:
64,192,225648,128,0,225798:0:0:0:0:
192,192,225648,128,0,225798:0:0:0:0:
320,192,225648,128,0,225798:0:0:0:0:
448,192,225648,128,0,225798:0:0:0:0:
192,192,225948,128,0,226098:0:0:0:0:
64,192,225948,128,0,226098:0:0:0:0:
320,192,226098,1,0,0:0:0:0:
448,192,226098,1,0,0:0:0:0:
64,192,226248,1,8,0:0:0:0:
192,192,226248,1,0,0:0:0:70:Cymbol.wav
448,192,226248,1,0,0:0:0:0:
320,192,226398,1,0,0:0:0:0:
64,192,226398,1,0,0:0:0:0:
192,192,226548,1,0,0:0:0:0:
320,192,226548,1,0,0:0:0:0:
448,192,226548,1,0,0:0:0:0:
64,192,226548,1,0,0:0:0:70:Snare.wav
320,192,226698,1,0,0:0:0:0:
192,192,226698,1,0,0:0:0:0:
64,192,226848,1,0,0:0:0:0:
448,192,226848,1,0,0:0:0:0:
192,192,226998,1,0,0:0:0:70:Snare.wav
320,192,226998,1,0,0:0:0:0:
64,192,227073,1,0,0:0:0:0:
448,192,227073,1,0,0:0:0:0:
192,192,227148,1,0,0:0:0:0:
320,192,227148,1,0,0:0:0:0:
448,192,227298,1,0,0:0:0:0:
64,192,227298,1,0,0:0:0:0:
192,192,227448,1,0,0:0:0:0:
64,192,227448,1,0,0:0:0:70:Snare.wav
320,192,227448,1,0,0:0:0:0:
448,192,227448,1,0,0:0:0:0:
192,192,227598,1,0,0:0:0:0:
64,192,227598,1,0,0:0:0:0:
320,192,227748,1,8,0:0:0:0:
448,192,227748,1,0,0:0:0:0:
64,192,227785,1,0,0:0:0:0:
192,192,227823,1,0,0:0:0:0:
320,192,227860,1,0,0:0:0:0:
448,192,227898,1,0,0:0:0:0:
64,192,227935,1,0,0:0:0:0:
192,192,227973,1,0,0:0:0:0:
320,192,228010,1,0,0:0:0:0:
448,192,228048,1,0,0:0:0:70:Cymbol.wav
64,192,228048,1,8,0:0:0:0:
192,192,228048,1,0,0:0:0:0:
192,192,228198,1,0,0:0:0:0:
64,192,228273,1,8,0:0:0:0:
320,192,228273,1,0,0:0:0:0:
448,192,228273,1,0,0:0:0:0:
192,192,228348,1,0,0:0:0:0:
320,192,228423,1,0,0:0:0:0:
448,192,228498,1,0,0:0:0:0:
192,192,228498,1,0,0:0:0:0:
64,192,228498,1,8,0:0:0:0:
320,192,228573,1,0,0:0:0:0:
192,192,228648,1,0,0:0:0:0:
64,192,228648,1,8,0:0:0:0:
320,192,228723,1,0,0:0:0:0:
448,192,228798,1,0,0:0:0:0:
64,192,228798,1,0,0:0:0:0:
192,192,228873,1,0,0:0:0:0:
64,192,228948,1,8,0:0:0:0:
448,192,228948,1,0,0:0:0:0:
320,192,228948,1,0,0:0:0:70:Cymbol.wav
192,192,229098,1,0,0:0:0:0:
448,192,229098,1,0,0:0:0:0:
320,192,229173,1,0,0:0:0:0:
64,192,229248,1,8,0:0:0:0:
192,192,229248,1,0,0:0:0:0:
448,192,229248,1,0,0:0:0:0:
320,192,229548,1,0,0:0:0:0:
448,192,229548,1,0,0:0:0:0:
192,192,229548,1,8,0:0:0:0:
64,192,229848,1,8,0:0:0:0:
192,192,229848,1,0,0:0:0:0:
448,192,229848,1,0,0:0:0:0:
320,192,230148,1,0,0:0:0:0:
448,192,230148,1,0,0:0:0:0:
64,192,230448,1,8,0:0:0:0:
448,192,230448,1,0,0:0:0:40:Cymbol.wav
192,192,230448,1,0,0:0:0:40:Snare.wav
320,192,230598,1,0,0:0:0:0:
192,192,230673,1,0,0:0:0:0:
448,192,230748,1,0,0:0:0:0:
64,192,230748,1,8,0:0:0:0:
320,192,230898,1,0,0:0:0:0:
448,192,230973,1,0,0:0:0:0:
192,192,231048,1,0,0:0:0:0:
64,192,231048,1,8,0:0:0:0:
448,192,231198,1,0,0:0:0:0:
320,192,231273,1,0,0:0:0:0:
192,192,231348,1,0,0:0:0:0:
64,192,231348,1,8,0:0:0:0:
320,192,231498,1,0,0:0:0:0:
448,192,231573,1,0,0:0:0:0:
192,192,231648,1,0,0:0:0:0:
64,192,231648,1,8,0:0:0:0:
320,192,231798,1,0,0:0:0:0:
192,192,231873,1,0,0:0:0:0:
64,192,231948,1,8,0:0:0:0:
448,192,231948,1,0,0:0:0:0:
192,192,232098,1,0,0:0:0:0:
320,192,232173,1,0,0:0:0:0:
448,192,232248,1,0,0:0:0:0:
64,192,232248,1,8,0:0:0:0:
192,192,232323,1,0,0:0:0:0:
448,192,232398,1,0,0:0:0:0:
320,192,232473,1,0,0:0:0:0:
192,192,232548,1,0,0:0:0:0:
64,192,232548,1,8,0:0:0:0:
320,192,232698,1,0,0:0:0:0:
192,192,232773,1,0,0:0:0:0:
64,192,232848,1,8,0:0:0:0:
448,192,232848,1,0,0:0:0:0:
192,192,232998,1,0,0:0:0:0:
64,192,233073,1,0,0:0:0:0:
320,192,233148,1,0,0:0:0:0:
448,192,233148,1,8,0:0:0:0:
64,192,233298,128,0,233448:0:0:0:0:
192,192,233298,1,0,0:0:0:0:
320,192,233373,1,0,0:0:0:0:
448,192,233448,1,8,0:0:0:0:
64,192,233598,128,0,233748:0:0:0:0:
192,192,233598,1,0,0:0:0:0:
320,192,233673,1,0,0:0:0:0:
448,192,233748,1,8,0:0:0:0:
192,192,233898,1,0,0:0:0:0:
320,192,233973,1,0,0:0:0:0:
448,192,234048,1,8,0:0:0:0:
64,192,234048,128,0,234198:0:0:0:0:
320,192,234198,1,0,0:0:0:0:
192,192,234273,1,0,0:0:0:0:
448,192,234348,1,8,0:0:0:0:
320,192,234348,1,0,0:0:0:0:
64,192,234498,128,0,234648:0:0:0:0:
448,192,234648,1,8,0:0:0:0:
320,192,234685,1,0,0:0:0:0:
64,192,234723,1,0,0:0:0:0:
192,192,234760,1,0,0:0:0:0:
320,192,234798,1,0,0:0:0:0:
448,192,234948,128,0,235023:0:0:0:0:
448,192,235098,128,0,235173:0:0:0:0:
192,192,235248,1,0,0:0:0:0:
64,192,235248,1,8,0:0:0:0:
320,192,235398,1,0,0:0:0:0:
192,192,235473,1,0,0:0:0:0:
64,192,235548,1,8,0:0:0:0:
448,192,235548,1,0,0:0:0:0:
320,192,235698,1,0,0:0:0:0:
448,192,235773,1,0,0:0:0:0:
64,192,235848,1,8,0:0:0:0:
192,192,235848,1,0,0:0:0:0:
320,192,235998,1,0,0:0:0:0:
192,192,236073,1,0,0:0:0:0:
64,192,236148,1,8,0:0:0:0:
448,192,236148,1,0,0:0:0:0:
192,192,236298,1,0,0:0:0:0:
320,192,236373,1,0,0:0:0:0:
448,192,236448,1,0,0:0:0:0:
64,192,236448,1,8,0:0:0:0:
192,192,236598,1,0,0:0:0:0:
64,192,236673,1,0,0:0:0:0:
320,192,236748,1,0,0:0:0:0:
448,192,236748,1,8,0:0:0:0:
192,192,236898,1,0,0:0:0:0:
320,192,236973,1,0,0:0:0:0:
448,192,237048,1,8,0:0:0:0:
64,192,237048,1,0,0:0:0:0:
320,192,237123,1,0,0:0:0:0:
64,192,237198,1,0,0:0:0:0:
192,192,237273,1,0,0:0:0:0:
320,192,237348,1,0,0:0:0:0:
448,192,237348,1,8,0:0:0:0:
192,192,237498,1,0,0:0:0:0:
64,192,237573,1,0,0:0:0:0:
320,192,237648,1,0,0:0:0:0:
448,192,237648,1,8,0:0:0:0:
192,192,237798,1,0,0:0:0:0:
320,192,237873,1,0,0:0:0:0:
448,192,237948,1,8,0:0:0:0:
64,192,237948,1,0,0:0:0:0:
192,192,238098,1,0,0:0:0:0:
64,192,238173,1,0,0:0:0:0:
448,192,238248,1,8,0:0:0:0:
320,192,238248,128,0,238323:0:0:0:0:
192,192,238323,128,0,238398:0:0:0:0:
320,192,238398,128,0,238473:0:0:0:0:
192,192,238473,128,0,238548:0:0:0:0:
320,192,238548,1,0,0:0:0:0:
448,192,238548,1,8,0:0:0:0:
64,192,238698,1,0,0:0:0:0:
192,192,238773,1,0,0:0:0:0:
64,192,238848,1,0,0:0:0:70:Cymbol.wav
320,192,238848,1,0,0:0:0:0:
448,192,238848,1,8,0:0:0:0:
64,192,239148,128,0,239223:0:0:0:0:
192,192,239223,128,0,239298:0:0:0:0:
448,192,239298,128,0,239373:0:0:0:0:
320,192,239373,128,0,239448:0:0:0:0:
192,192,239448,1,0,0:0:0:0:
64,192,239448,1,8,0:0:0:0:
192,192,239598,1,0,0:0:0:0:
64,192,239598,1,8,0:0:0:0:
320,192,239748,128,0,239823:0:0:0:0:
448,192,239748,128,0,239823:0:0:0:0:
192,192,239898,1,0,0:0:0:0:
64,192,239898,1,8,0:0:0:0:
320,192,239973,1,8,0:0:0:0:
448,192,239973,1,0,0:0:0:0:
192,192,240048,1,0,0:0:0:70:Cymbol.wav
64,192,240048,1,8,0:0:0:0:
448,192,240048,1,0,0:0:0:0:
320,192,240198,1,0,0:0:0:0:
64,192,240348,1,8,0:0:0:0:
448,192,240348,1,0,0:0:0:0:
192,192,240498,128,0,240648:0:0:0:0:
320,192,240648,1,0,0:0:0:0:
64,192,240648,1,8,0:0:0:0:
448,192,240798,128,0,240948:0:0:0:0:
192,192,240948,1,0,0:0:0:0:
64,192,240948,1,8,0:0:0:0:
320,192,241248,1,8,0:0:0:0:
448,192,241248,128,0,241398:0:0:0:0:
192,192,241548,1,0,0:0:0:0:
64,192,241548,1,8,0:0:0:0:
192,192,241698,128,0,241848:0:0:0:0:
320,192,241848,1,0,0:0:0:0:
448,192,241848,1,8,0:0:0:0:
192,192,242148,1,8,0:0:0:0:
64,192,242148,128,0,242298:0:0:0:0:
320,192,242298,128,0,242448:0:0:0:0:
64,192,242448,1,0,0:0:0:0:
448,192,242448,1,8,0:0:0:0:
192,192,242598,1,0,0:0:0:0:
320,192,242748,1,0,0:0:0:0:
448,192,242748,1,8,0:0:0:0:
64,192,242898,128,0,243048:0:0:0:0:
320,192,243048,1,0,0:0:0:0:
448,192,243048,1,8,0:0:0:0:
64,192,243198,128,0,243348:0:0:0:0:
320,192,243348,1,0,0:0:0:0:
448,192,243348,1,8,0:0:0:0:
64,192,243648,128,0,243798:0:0:0:0:
320,192,243648,1,8,0:0:0:0:
192,192,243948,1,8,0:0:0:0:
448,192,243948,1,0,0:0:0:0:
320,192,244098,128,0,244248:0:0:0:0:
64,192,244248,1,8,0:0:0:0:
448,192,244248,1,0,0:0:0:0:
192,192,244285,1,0,0:0:0:0:
320,192,244323,1,0,0:0:0:0:
448,192,244360,1,0,0:0:0:0:
192,192,244398,1,0,0:0:0:0:
64,192,244548,128,0,244623:0:0:0:0:
64,192,244698,128,0,244773:0:0:0:0:
192,192,244848,1,0,0:0:0:0:
320,192,244848,1,0,0:0:0:70:Cymbol.wav
448,192,244848,1,8,0:0:0:0:
64,192,244998,1,0,0:0:0:0:
448,192,245148,1,8,0:0:0:0:
64,192,245148,1,0,0:0:0:0:
320,192,245148,1,0,0:0:0:0:
192,192,245298,128,0,245448:0:0:0:0:
64,192,245448,1,0,0:0:0:0:
320,192,245448,1,0,0:0:0:0:
448,192,245448,1,8,0:0:0:0:
192,192,245598,128,0,245748:0:0:0:0:
64,192,245748,1,0,0:0:0:0:
320,192,245748,1,0,0:0:0:0:
448,192,245748,1,8,0:0:0:0:
64,192,245973,1,0,0:0:0:0:
192,192,245973,1,0,0:0:0:0:
320,192,246048,1,0,0:0:0:0:
448,192,246048,1,8,0:0:0:0:
192,192,246198,1,0,0:0:0:0:
64,192,246348,1,0,0:0:0:0:
320,192,246348,1,0,0:0:0:0:
448,192,246348,1,8,0:0:0:0:
64,192,246498,1,0,0:0:0:0:
448,192,246498,1,0,0:0:0:0:
64,192,246648,1,0,0:0:0:0:
192,192,246648,1,0,0:0:0:0:
448,192,246648,1,8,0:0:0:0:
320,192,246798,1,0,0:0:0:0:
192,192,246948,1,0,0:0:0:0:
64,192,246948,1,0,0:0:0:0:
448,192,246948,1,8,0:0:0:0:
192,192,247098,1,0,0:0:0:0:
64,192,247098,1,0,0:0:0:0:
320,192,247248,1,8,0:0:0:0:
448,192,247248,128,0,247323:0:0:0:70:Cymbol.wav
64,192,247323,1,0,0:0:0:0:
192,192,247323,1,0,0:0:0:0:
448,192,247398,1,0,0:0:0:0:
320,192,247398,128,0,247473:0:0:0:0:
192,192,247473,1,0,0:0:0:0:
64,192,247473,1,0,0:0:0:0:
320,192,247548,1,0,0:0:0:0:
448,192,247548,128,0,247623:0:0:0:0:
192,192,247623,1,0,0:0:0:0:
64,192,247623,1,0,0:0:0:0:
448,192,247698,1,0,0:0:0:0:
320,192,247698,128,0,247773:0:0:0:0:
192,192,247773,1,0,0:0:0:0:
64,192,247773,1,0,0:0:0:0:
320,192,247848,1,0,0:0:0:0:
448,192,247848,128,0,247923:0:0:0:0:
192,192,247923,1,0,0:0:0:0:
64,192,247923,1,0,0:0:0:0:
448,192,247998,1,0,0:0:0:0:
320,192,247998,128,0,248073:0:0:0:0:
192,192,248073,1,0,0:0:0:0:
64,192,248073,1,0,0:0:0:0:
320,192,248148,1,0,0:0:0:0:
448,192,248148,128,0,248223:0:0:0:0:
192,192,248223,1,0,0:0:0:0:
64,192,248223,1,0,0:0:0:0:
448,192,248298,1,0,0:0:0:0:
320,192,248298,128,0,248373:0:0:0:0:
64,192,248373,1,0,0:0:0:0:
192,192,248373,1,0,0:0:0:0:
320,192,248448,1,8,0:0:0:0:
448,192,248448,1,0,0:0:0:0:
64,192,248523,1,0,0:0:0:0:
192,192,248523,1,0,0:0:0:0:
320,192,248598,128,0,248673:0:0:0:0:
448,192,248598,128,0,248673:0:0:0:0:
64,192,248748,128,0,248898:0:0:0:0:
448,192,248898,1,0,0:0:0:0:
320,192,248898,1,0,0:0:0:0:
192,192,249048,1,0,0:0:0:70:Snare.wav
64,192,249048,1,0,0:0:0:0:
320,192,249198,1,0,0:0:0:0:
448,192,249198,1,0,0:0:0:0:
64,192,249348,128,0,249573:0:0:0:0:
192,192,249348,128,0,249573:0:0:0:0:
320,192,249348,128,0,249573:0:0:0:0:
448,192,249348,128,0,249573:0:0:0:0:
320,192,249648,1,0,0:0:0:0:
192,192,249648,1,0,0:0:0:0:
64,192,249648,1,8,0:0:0:0:
448,192,249648,1,0,0:0:0:0:
