osu file format v14

[General]
AudioFilename: audio.mp3
AudioLeadIn: 0
PreviewTime: 76842
Countdown: 0
SampleSet: None
StackLeniency: 0.7
Mode: 1
LetterboxInBreaks: 0
WidescreenStoryboard: 0

[Editor]
Bookmarks: 40,19240,38440,57640,76840,96040,115240,134440,153640,172840,211240,230440,249640
DistanceSpacing: 0.8
BeatDivisor: 4
GridSize: 32
TimelineZoom: 2.9

[Metadata]
Title:Trigger (Zekk Remix)
TitleUnicode:Trigger (Zekk Remix)
Artist:Dustvoxx
ArtistUnicode:Dustvoxx
Creator:Ulqui
Version:Overlapse Oni
Source:
Tags:
BeatmapID:1439337
BeatmapSetID:680756

[Difficulty]
HPDrainRate:6
CircleSize:2
OverallDifficulty:5
ApproachRate:0
SliderMultiplier:1.4
SliderTickRate:1

[Events]
//Background and Video events
0,0,"descarga (1).jpg",0,0
//Break Periods
2,38640,40240
2,42240,43840
//Storyboard Layer 0 (Background)
//Storyboard Layer 1 (Fail)
//Storyboard Layer 2 (Pass)
//Storyboard Layer 3 (Foreground)
//Storyboard Sound Samples

[TimingPoints]
40,300,4,1,0,100,1,0
7765,-98.0392156862745,4,1,0,100,0,0
7840,-96.1538461538461,4,1,0,100,0,0
7915,-94.3396226415094,4,1,0,100,0,0
7990,-92.5925925925926,4,1,0,100,0,0
8065,-90.9090909090909,4,1,0,100,0,0
8140,-89.2857142857143,4,1,0,100,0,0
8290,-86.2068965517241,4,1,0,100,0,0
8365,-84.7457627118644,4,1,0,100,0,0
8440,-83.3333333333333,4,1,0,100,0,0
8740,-100,4,1,0,100,0,0
16840,-100,4,1,0,100,0,0
16915,-98.0392156862745,4,1,0,100,0,0
16990,-96.1538461538461,4,1,0,100,0,0
17065,-94.3396226415094,4,1,0,100,0,0
17140,-92.5925925925926,4,1,0,100,0,0
17215,-90.9090909090909,4,1,0,100,0,0
17290,-89.2857142857143,4,1,0,100,0,0
17365,-87.719298245614,4,1,0,100,0,0
17440,-86.2068965517241,4,1,0,100,0,0
17515,-84.7457627118644,4,1,0,100,0,0
17590,-83.3333333333333,4,1,0,100,0,0
17665,-81.9672131147541,4,1,0,100,0,0
17740,-80.6451612903226,4,1,0,100,0,0
17815,-79.3650793650794,4,1,0,100,0,0
17890,-78.125,4,1,0,100,0,0
17965,-76.9230769230769,4,1,0,100,0,0
18040,-75.7575757575758,4,1,0,100,0,0
18115,-74.6268656716418,4,1,0,100,0,0
18190,-73.5294117647059,4,1,0,100,0,0
18790,-79.3650793650794,4,1,0,100,0,0
18940,-86.2068965517241,4,1,0,100,0,0
19240,-100,4,1,0,100,0,0
19390,-95.2380952380952,4,1,0,100,0,0
19540,-90.9090909090909,4,1,0,100,0,0
33640,-111.111111111111,4,1,0,100,0,0
33940,-125,4,1,0,100,0,0
34240,-142.857142857143,4,1,0,100,0,0
34540,-133.333333333333,4,1,0,100,0,0
34990,-125,4,1,0,100,0,0
35440,-117.647058823529,4,1,0,100,0,0
35740,-111.111111111111,4,1,0,100,0,0
35890,-105.263157894737,4,1,0,100,0,0
36040,-100,4,1,0,100,0,0
39640,-125,4,1,0,30,0,0
40840,-166.666666666667,4,1,0,30,0,0
42040,-250.000000000001,4,1,0,30,0,0
46840,-166.666666666667,4,1,0,30,0,0
48040,-125,4,1,0,50,0,0
56290,-111.111111111111,4,1,0,50,0,0
56440,-100,4,1,0,100,0,0
56740,-90.9090909090909,4,1,0,100,0,0
57040,-83.3333333333333,4,1,0,100,0,0
57190,-76.9230769230769,4,1,0,100,0,0
57265,-75.187969924812,4,1,0,100,0,0
57340,-74.0740740740741,4,1,0,100,0,0
57490,-71.4285714285714,4,1,0,100,0,0
57565,-69.9300699300699,4,1,0,100,0,0
57640,-68.9655172413793,4,1,0,100,0,0
57940,-69.9300699300699,4,1,0,100,0,0
58240,-71.4285714285714,4,1,0,100,0,0
58540,-74.0740740740741,4,1,0,100,0,0
58690,-75.187969924812,4,1,0,100,0,0
58840,-76.9230769230769,4,1,0,100,0,0
59140,-80,4,1,0,100,0,0
59440,-83.3333333333333,4,1,0,100,0,0
59590,-85.4700854700855,4,1,0,100,0,0
59740,-86.9565217391304,4,1,0,100,0,0
60040,-90.9090909090909,4,1,0,100,0,0
60340,-95.2380952380952,4,1,0,100,0,0
60490,-97.0873786407767,4,1,0,100,0,0
60640,-100,4,1,0,100,0,0
60940,-105.263157894737,4,1,0,100,0,0
61240,-111.111111111111,4,1,0,100,0,0
61390,-114.942528735632,4,1,0,100,0,0
61540,-117.647058823529,4,1,0,100,0,0
61840,-125,4,1,0,100,0,0
61990,-129.87012987013,4,1,0,100,0,0
62140,-133.333333333333,4,1,0,100,0,0
62440,-142.857142857143,4,1,0,100,0,0
67240,-142.857142857143,4,1,0,100,0,0
67390,-136.986301369863,4,1,0,100,0,0
67465,-135.135135135135,4,1,0,100,0,0
67540,-133.333333333333,4,1,0,100,0,0
67690,-128.205128205128,4,1,0,100,0,0
67765,-126.582278481013,4,1,0,100,0,0
67840,-125,4,1,0,100,0,0
67990,-120.481927710843,4,1,0,100,0,0
68065,-119.047619047619,4,1,0,100,0,0
68140,-117.647058823529,4,1,0,100,0,0
68290,-113.636363636364,4,1,0,100,0,0
68365,-112.359550561798,4,1,0,100,0,0
68440,-111.111111111111,4,1,0,100,0,0
68590,-107.52688172043,4,1,0,100,0,0
68665,-106.382978723404,4,1,0,100,0,0
68740,-105.263157894737,4,1,0,100,0,0
68890,-102.040816326531,4,1,0,100,0,0
68965,-101.010101010101,4,1,0,100,0,0
69040,-100,4,1,0,100,0,0
69190,-97.0873786407767,4,1,0,100,0,0
69265,-96.1538461538461,4,1,0,100,0,0
69340,-95.2380952380952,4,1,0,100,0,0
69490,-92.5925925925926,4,1,0,100,0,0
69565,-91.743119266055,4,1,0,100,0,0
69640,-90.9090909090909,4,1,0,100,0,0
69790,-88.4955752212389,4,1,0,100,0,0
69865,-87.719298245614,4,1,0,100,0,0
69940,-86.9565217391304,4,1,0,100,0,0
70090,-84.7457627118644,4,1,0,100,0,0
70165,-84.0336134453781,4,1,0,100,0,0
70240,-83.3333333333333,4,1,0,100,0,0
70390,-81.3008130081301,4,1,0,100,0,0
70465,-80.6451612903226,4,1,0,100,0,0
70540,-80,4,1,0,100,0,0
70690,-78.125,4,1,0,100,0,0
70765,-77.5193798449612,4,1,0,100,0,0
70840,-76.9230769230769,4,1,0,100,0,0
70990,-75.187969924812,4,1,0,100,0,0
71065,-74.6268656716418,4,1,0,100,0,0
71140,-74.0740740740741,4,1,0,100,0,0
71290,-72.463768115942,4,1,0,100,0,0
71365,-71.9424460431655,4,1,0,100,0,0
71440,-71.4285714285714,4,1,0,100,0,0
71590,-69.9300699300699,4,1,0,100,0,0
71740,-68.9655172413793,4,1,0,100,0,0
72040,-83.3333333333333,4,1,0,100,0,0
72190,-81.3008130081301,4,1,0,100,0,0
72340,-80,4,1,0,100,0,0
72490,-78.7401574803149,4,1,0,100,0,0
72640,-76.9230769230769,4,1,0,100,0,0
72790,-75.187969924812,4,1,0,100,0,0
72940,-74.0740740740741,4,1,0,100,0,0
73090,-72.992700729927,4,1,0,100,0,0
73240,-71.4285714285714,4,1,0,100,0,0
75640,-100,4,1,0,100,0,0
77290,-83.3333333333333,4,1,0,100,0,0
77440,-71.4285714285714,4,1,0,100,0,1
81490,-83.3333333333333,4,1,0,100,0,1
81640,-100,4,1,0,100,0,0
82090,-83.3333333333333,4,1,0,100,0,0
82240,-71.4285714285714,4,1,0,100,0,1
85090,-83.3333333333333,4,1,0,100,0,1
85240,-100,4,1,0,100,0,1
86440,-100,4,1,0,100,0,0
86890,-83.3333333333333,4,1,0,100,0,0
87040,-71.4285714285714,4,1,0,100,0,1
91090,-83.3333333333333,4,1,0,100,0,0
91240,-100,4,1,0,100,0,0
91690,-83.3333333333333,4,1,0,100,0,0
91840,-71.4285714285714,4,1,0,100,0,1
94690,-83.3333333333333,4,1,0,100,0,0
94840,-100,4,1,0,100,0,0
96490,-90.9090909090909,4,1,0,100,0,0
96640,-83.3333333333333,4,1,0,100,0,1
104440,-83.3333333333333,4,1,0,100,0,0
105040,-100,4,1,0,100,0,0
105940,-83.3333333333333,4,1,0,100,0,1
114040,-83.3333333333333,4,1,0,100,0,0
114640,-90.9090909090909,4,1,0,100,0,0
114940,-100,4,1,0,100,0,0
115240,-111.111111111111,4,1,0,100,0,0
115690,-105.263157894737,4,1,0,100,0,0
115840,-99.9999999999999,4,1,0,100,0,0

[HitObjects]
224,64,40,5,0,0:0:0:0:
192,128,190,1,8,0:0:0:0:
224,64,265,1,8,0:0:0:0:
224,64,340,1,0,0:0:0:0:
128,96,490,1,8,0:0:0:0:
160,96,565,1,8,0:0:0:0:
160,96,640,1,0,0:0:0:0:
192,64,715,1,8,0:0:0:0:
192,96,865,1,8,0:0:0:0:
192,96,940,1,0,0:0:0:0:
160,64,1090,1,8,0:0:0:0:
160,64,1165,1,8,0:0:0:0:
160,64,1240,1,0,0:0:0:0:
192,96,1390,1,8,0:0:0:0:
224,96,1465,1,8,0:0:0:0:
160,32,1540,1,0,0:0:0:0:
192,64,1690,1,8,0:0:0:0:
160,64,1765,1,8,0:0:0:0:
160,64,1840,1,0,0:0:0:0:
160,64,1915,1,8,0:0:0:0:
160,64,2065,1,8,0:0:0:0:
160,64,2140,1,0,0:0:0:0:
192,64,2290,1,8,0:0:0:0:
160,64,2440,1,0,0:0:0:0:
224,160,2590,1,8,0:0:0:0:
224,160,2665,1,8,0:0:0:0:
224,160,2740,1,0,0:0:0:0:
160,128,2890,1,8,0:0:0:0:
160,128,2965,1,8,0:0:0:0:
160,128,3040,1,0,0:0:0:0:
160,128,3115,1,8,0:0:0:0:
128,192,3265,1,8,0:0:0:0:
128,192,3340,1,0,0:0:0:0:
160,96,3490,1,8,0:0:0:0:
160,96,3565,1,8,0:0:0:0:
160,96,3640,1,0,0:0:0:0:
160,96,3790,1,8,0:0:0:0:
160,96,3865,1,8,0:0:0:0:
160,96,3940,1,0,0:0:0:0:
160,128,4090,1,0,0:0:0:0:
160,128,4165,1,0,0:0:0:0:
160,128,4240,1,8,0:0:0:0:
160,128,4315,1,8,0:0:0:0:
160,96,4390,1,0,0:0:0:0:
160,96,4540,1,8,0:0:0:0:
192,128,4577,1,8,0:0:0:0:
160,96,4690,1,8,0:0:0:0:
192,128,4727,1,8,0:0:0:0:
160,96,4840,1,0,0:0:0:0:
160,64,4990,1,8,0:0:0:0:
160,64,5065,1,8,0:0:0:0:
160,64,5140,1,0,0:0:0:0:
160,64,5290,1,8,0:0:0:0:
160,64,5365,1,8,0:0:0:0:
160,64,5440,1,0,0:0:0:0:
160,64,5515,1,8,0:0:0:0:
128,96,5665,1,8,0:0:0:0:
128,96,5740,1,0,0:0:0:0:
160,64,5890,1,8,0:0:0:0:
160,64,5965,1,8,0:0:0:0:
160,64,6040,1,0,0:0:0:0:
128,64,6190,1,8,0:0:0:0:
128,64,6265,1,8,0:0:0:0:
128,64,6340,1,0,0:0:0:0:
160,96,6490,1,8,0:0:0:0:
160,96,6565,1,8,0:0:0:0:
160,96,6640,1,0,0:0:0:0:
160,96,6715,1,8,0:0:0:0:
160,128,6865,1,8,0:0:0:0:
160,128,6940,1,0,0:0:0:0:
160,96,7090,1,8,0:0:0:0:
160,96,7165,1,8,0:0:0:0:
192,96,7240,1,0,0:0:0:0:
160,96,7390,1,8,0:0:0:0:
160,96,7465,1,8,0:0:0:0:
160,32,7540,1,0,0:0:0:0:
160,96,7690,1,0,0:0:0:0:
160,96,7765,1,0,0:0:0:0:
160,96,7840,1,8,0:0:0:0:
160,96,7915,1,8,0:0:0:0:
128,64,7990,1,8,0:0:0:0:
128,64,8065,1,8,0:0:0:0:
128,64,8140,1,0,0:0:0:0:
128,96,8290,1,0,0:0:0:0:
160,32,8365,1,0,0:0:0:0:
160,32,8440,1,12,0:0:0:0:
160,96,8740,1,8,0:0:0:0:
160,96,8815,1,8,0:0:0:0:
160,96,8890,1,8,0:0:0:0:
160,64,8965,1,8,0:0:0:0:
96,32,9040,1,0,0:0:0:0:
128,128,9190,1,0,0:0:0:0:
128,128,9340,1,8,0:0:0:0:
128,128,9490,1,0,0:0:0:0:
128,128,9565,1,0,0:0:0:0:
160,128,9640,1,12,0:0:0:0:
192,64,9790,1,0,0:0:0:0:
192,64,9865,1,0,0:0:0:0:
192,64,9940,1,8,0:0:0:0:
192,32,10015,1,0,0:0:0:0:
192,32,10090,1,8,0:0:0:0:
192,32,10165,1,8,0:0:0:0:
192,32,10240,1,0,0:0:0:0:
160,64,10390,1,8,0:0:0:0:
160,64,10465,1,8,0:0:0:0:
96,32,10540,1,0,0:0:0:0:
192,128,10690,1,0,0:0:0:0:
192,128,10840,1,8,0:0:0:0:
160,96,10915,1,8,0:0:0:0:
160,96,10990,1,0,0:0:0:0:
160,96,11065,1,8,0:0:0:0:
160,96,11140,1,0,0:0:0:0:
160,32,11290,1,8,0:0:0:0:
160,32,11365,1,8,0:0:0:0:
160,32,11440,1,0,0:0:0:0:
160,64,11590,1,0,0:0:0:0:
160,64,11665,1,0,0:0:0:0:
160,32,11740,1,8,0:0:0:0:
160,32,11815,1,8,0:0:0:0:
160,32,11890,1,0,0:0:0:0:
160,32,12040,1,0,0:0:0:0:
128,64,12190,1,0,0:0:0:0:
128,64,12265,1,0,0:0:0:0:
128,64,12340,1,8,0:0:0:0:
192,64,12415,1,0,0:0:0:0:
192,64,12490,1,8,0:0:0:0:
160,64,12565,1,8,0:0:0:0:
192,64,12640,1,0,0:0:0:0:
160,96,12790,1,8,0:0:0:0:
160,96,12865,1,8,0:0:0:0:
160,96,12940,1,0,0:0:0:0:
160,96,13090,1,0,0:0:0:0:
160,96,13240,1,8,0:0:0:0:
160,96,13315,1,8,0:0:0:0:
160,96,13390,1,0,0:0:0:0:
160,96,13540,1,0,0:0:0:0:
160,96,13690,1,8,0:0:0:0:
160,64,13765,1,0,0:0:0:0:
160,96,13840,1,8,0:0:0:0:
160,64,13915,1,8,0:0:0:0:
160,64,13990,1,0,0:0:0:0:
160,64,14140,1,8,0:0:0:0:
160,96,14177,1,8,0:0:0:0:
160,96,14290,1,8,0:0:0:0:
160,64,14327,1,8,0:0:0:0:
160,96,14440,1,4,0:0:0:0:
160,96,14740,1,8,0:0:0:0:
160,32,14890,1,0,0:0:0:0:
160,32,14965,1,0,0:0:0:0:
160,96,15040,1,8,0:0:0:0:
160,32,15190,1,0,0:0:0:0:
160,96,15340,1,8,0:0:0:0:
160,96,15565,1,0,0:0:0:0:
160,96,15640,1,8,0:0:0:0:
160,64,15940,1,8,0:0:0:0:
160,64,16090,1,0,0:0:0:0:
160,64,16240,1,8,0:0:0:0:
160,32,16390,1,0,0:0:0:0:
160,32,16465,1,0,0:0:0:0:
160,64,16540,1,8,0:0:0:0:
160,96,16690,1,8,0:0:0:0:
160,96,16840,1,0,0:0:0:0:
160,96,16915,1,0,0:0:0:0:
160,96,16990,1,0,0:0:0:0:
160,96,17065,1,0,0:0:0:0:
160,96,17140,1,0,0:0:0:0:
160,96,17215,1,0,0:0:0:0:
160,96,17290,1,0,0:0:0:0:
160,96,17365,1,0,0:0:0:0:
160,96,17440,1,0,0:0:0:0:
160,96,17515,1,0,0:0:0:0:
160,96,17590,1,0,0:0:0:0:
160,96,17665,1,0,0:0:0:0:
160,96,17740,1,0,0:0:0:0:
160,96,17815,1,0,0:0:0:0:
160,96,17890,1,0,0:0:0:0:
160,96,17965,1,0,0:0:0:0:
160,96,18040,1,8,0:0:0:0:
160,64,18115,1,8,0:0:0:0:
160,64,18190,1,0,0:0:0:0:
160,64,18340,1,0,0:0:0:0:
160,64,18490,1,0,0:0:0:0:
160,64,18640,1,8,0:0:0:0:
192,32,18790,1,8,0:0:0:0:
192,32,18940,1,0,0:0:0:0:
160,32,19240,1,8,0:0:0:0:
192,32,19390,1,8,0:0:0:0:
160,64,19540,1,8,0:0:0:0:
160,32,19615,1,8,0:0:0:0:
160,96,19690,1,0,0:0:0:0:
160,96,19840,1,0,0:0:0:0:
192,128,19915,1,0,0:0:0:0:
160,96,19990,1,0,0:0:0:0:
128,96,20140,1,8,0:0:0:0:
160,64,20215,1,8,0:0:0:0:
160,64,20290,1,0,0:0:0:0:
192,128,20440,1,0,0:0:0:0:
160,64,20515,1,0,0:0:0:0:
160,64,20590,1,0,0:0:0:0:
160,64,20740,1,8,0:0:0:0:
160,64,20815,1,8,0:0:0:0:
160,64,20890,1,0,0:0:0:0:
224,96,21040,1,0,0:0:0:0:
192,96,21115,1,0,0:0:0:0:
224,96,21190,1,0,0:0:0:0:
192,96,21340,1,8,0:0:0:0:
160,64,21490,1,0,0:0:0:0:
160,64,21640,1,0,0:0:0:0:
160,64,21715,1,0,0:0:0:0:
160,64,21790,1,0,0:0:0:0:
192,96,21940,1,8,0:0:0:0:
192,96,22015,1,8,0:0:0:0:
192,96,22090,1,0,0:0:0:0:
192,96,22240,1,0,0:0:0:0:
192,96,22390,1,0,0:0:0:0:
192,64,22465,1,0,0:0:0:0:
192,64,22540,1,8,0:0:0:0:
192,64,22615,1,8,0:0:0:0:
192,64,22690,1,0,0:0:0:0:
160,64,22840,1,0,0:0:0:0:
160,64,22990,1,0,0:0:0:0:
160,32,23065,1,0,0:0:0:0:
160,64,23140,1,8,0:0:0:0:
160,96,23290,1,0,0:0:0:0:
128,96,23365,1,0,0:0:0:0:
160,96,23440,1,0,0:0:0:0:
128,96,23590,1,0,0:0:0:0:
128,96,23740,1,8,0:0:0:0:
128,96,24040,1,0,0:0:0:0:
160,96,24190,1,0,0:0:0:0:
160,96,24265,1,0,0:0:0:0:
160,96,24340,1,8,0:0:0:0:
160,64,24415,1,8,0:0:0:0:
128,96,24490,1,0,0:0:0:0:
128,96,24640,1,0,0:0:0:0:
128,96,24715,1,0,0:0:0:0:
128,128,24790,1,0,0:0:0:0:
128,128,24940,1,8,0:0:0:0:
160,64,25015,1,8,0:0:0:0:
160,64,25090,1,0,0:0:0:0:
160,64,25240,1,0,0:0:0:0:
160,64,25315,1,0,0:0:0:0:
160,64,25390,1,0,0:0:0:0:
128,96,25540,1,8,0:0:0:0:
128,96,25615,1,8,0:0:0:0:
128,64,25690,1,0,0:0:0:0:
160,64,25840,1,0,0:0:0:0:
160,64,25915,1,0,0:0:0:0:
160,64,25990,1,0,0:0:0:0:
128,0,26140,1,8,0:0:0:0:
160,64,26290,1,0,0:0:0:0:
128,64,26440,1,0,0:0:0:0:
128,64,26515,1,0,0:0:0:0:
128,64,26590,1,0,0:0:0:0:
128,64,26740,1,8,0:0:0:0:
128,64,26815,1,8,0:0:0:0:
128,64,26890,1,0,0:0:0:0:
128,64,26965,1,0,0:0:0:0:
128,64,27040,1,0,0:0:0:0:
128,64,27190,1,0,0:0:0:0:
160,96,27265,1,0,0:0:0:0:
128,64,27340,1,8,0:0:0:0:
160,64,27415,1,8,0:0:0:0:
160,96,27490,1,0,0:0:0:0:
160,96,27640,1,12,0:0:0:0:
160,160,28240,1,0,0:0:0:0:
160,160,28540,1,8,0:0:0:0:
160,96,28690,1,8,0:0:0:0:
192,32,28765,1,8,0:0:0:0:
160,96,28840,1,0,0:0:0:0:
192,96,28990,1,0,0:0:0:0:
192,96,29140,1,8,0:0:0:0:
160,32,29215,1,8,0:0:0:0:
160,64,29290,1,0,0:0:0:0:
160,64,29440,1,0,0:0:0:0:
160,64,29515,1,0,0:0:0:0:
160,64,29590,1,0,0:0:0:0:
160,96,29740,1,8,0:0:0:0:
160,96,29815,1,8,0:0:0:0:
160,32,29890,1,0,0:0:0:0:
160,64,30040,1,0,0:0:0:0:
160,64,30115,1,0,0:0:0:0:
160,64,30190,1,0,0:0:0:0:
160,64,30340,1,8,0:0:0:0:
160,64,30415,1,8,0:0:0:0:
160,64,30490,1,0,0:0:0:0:
160,32,30640,1,0,0:0:0:0:
160,32,30715,1,0,0:0:0:0:
160,32,30790,1,0,0:0:0:0:
160,32,30865,1,0,0:0:0:0:
160,32,30940,1,8,0:0:0:0:
160,32,31090,1,0,0:0:0:0:
160,32,31240,1,0,0:0:0:0:
160,32,31315,1,0,0:0:0:0:
160,32,31390,1,0,0:0:0:0:
160,32,31540,1,8,0:0:0:0:
160,32,31615,1,8,0:0:0:0:
160,32,31690,1,0,0:0:0:0:
160,160,31840,1,0,0:0:0:0:
160,64,31915,1,0,0:0:0:0:
160,64,31990,1,0,0:0:0:0:
160,96,32140,1,8,0:0:0:0:
160,96,32215,1,8,0:0:0:0:
160,96,32290,1,0,0:0:0:0:
128,96,32440,1,0,0:0:0:0:
128,96,32515,1,8,0:0:0:0:
128,96,32590,1,0,0:0:0:0:
128,96,32665,1,0,0:0:0:0:
128,96,32740,1,8,0:0:0:0:
128,96,32815,1,8,0:0:0:0:
128,96,32890,1,0,0:0:0:0:
160,32,33040,1,0,0:0:0:0:
128,64,33190,1,0,0:0:0:0:
128,64,33340,1,8,0:0:0:0:
160,64,33640,1,0,0:0:0:0:
160,64,33940,1,8,0:0:0:0:
160,64,34240,1,4,0:0:0:0:
192,96,34540,1,8,0:0:0:0:
192,96,34990,1,8,0:0:0:0:
192,96,35440,1,8,0:0:0:0:
192,96,35740,1,0,0:0:0:0:
192,32,35890,1,0,0:0:0:0:
160,96,36040,1,8,0:0:0:0:
160,32,36115,1,0,0:0:0:0:
160,64,36190,1,0,0:0:0:0:
160,64,36265,1,8,0:0:0:0:
160,32,36340,1,0,0:0:0:0:
160,32,36415,1,0,0:0:0:0:
160,32,36490,1,8,0:0:0:0:
192,32,36565,1,0,0:0:0:0:
160,32,36640,1,8,0:0:0:0:
160,32,36790,1,0,0:0:0:0:
160,64,36940,1,8,0:0:0:0:
160,64,37090,1,8,0:0:0:0:
160,64,37240,1,0,0:0:0:0:
160,32,37540,1,0,0:0:0:0:
160,32,37840,1,8,0:0:0:0:
128,64,38440,1,4,0:0:0:0:
160,128,42040,5,0,0:0:0:0:
160,160,45640,5,0,0:0:0:0:
160,128,46840,1,8,0:0:0:0:
160,64,48040,1,0,0:0:0:0:
192,160,48190,1,0,0:0:0:0:
192,160,48340,1,8,0:0:0:0:
96,96,48490,1,0,0:0:0:0:
96,96,48565,1,0,0:0:0:0:
128,96,48640,1,0,0:0:0:0:
96,96,48715,1,8,0:0:0:0:
128,96,48790,1,0,0:0:0:0:
128,64,48940,1,8,0:0:0:0:
128,64,49090,1,0,0:0:0:0:
128,96,49165,1,0,0:0:0:0:
128,64,49240,1,0,0:0:0:0:
160,96,49390,1,0,0:0:0:0:
160,96,49540,1,8,0:0:0:0:
160,64,49615,1,8,0:0:0:0:
160,96,49690,1,0,0:0:0:0:
160,64,49765,1,0,0:0:0:0:
160,64,49840,1,0,0:0:0:0:
160,32,49990,1,0,0:0:0:0:
192,64,50065,1,0,0:0:0:0:
160,64,50140,1,8,0:0:0:0:
160,64,50215,1,0,0:0:0:0:
192,96,50290,1,8,0:0:0:0:
160,64,50365,1,8,0:0:0:0:
192,96,50440,1,0,0:0:0:0:
128,96,50590,1,0,0:0:0:0:
128,96,50665,1,0,0:0:0:0:
160,32,50740,1,8,0:0:0:0:
160,64,50890,1,0,0:0:0:0:
160,64,51040,1,0,0:0:0:0:
160,64,51115,1,0,0:0:0:0:
160,64,51190,1,0,0:0:0:0:
160,64,51265,1,0,0:0:0:0:
160,32,51340,1,8,0:0:0:0:
160,96,51490,1,8,0:0:0:0:
160,96,51565,1,8,0:0:0:0:
160,96,51640,1,0,0:0:0:0:
128,64,51790,1,0,0:0:0:0:
128,64,51940,1,8,0:0:0:0:
128,96,52090,1,0,0:0:0:0:
128,96,52165,1,0,0:0:0:0:
128,96,52240,1,0,0:0:0:0:
128,96,52390,1,0,0:0:0:0:
128,96,52540,1,8,0:0:0:0:
160,64,52615,1,0,0:0:0:0:
160,64,52690,1,8,0:0:0:0:
192,64,52840,1,0,0:0:0:0:
192,64,52990,1,0,0:0:0:0:
192,64,53140,1,8,0:0:0:0:
160,64,53290,1,0,0:0:0:0:
160,64,53365,1,0,0:0:0:0:
160,64,53440,1,0,0:0:0:0:
160,64,53515,1,8,0:0:0:0:
160,64,53590,1,0,0:0:0:0:
128,96,53740,1,8,0:0:0:0:
160,96,53815,1,8,0:0:0:0:
128,96,53890,1,0,0:0:0:0:
128,96,54040,1,0,0:0:0:0:
192,96,54190,1,0,0:0:0:0:
192,64,54265,1,0,0:0:0:0:
192,96,54340,1,8,0:0:0:0:
160,96,54490,1,0,0:0:0:0:
160,96,54640,1,0,0:0:0:0:
160,0,54715,1,0,0:0:0:0:
160,32,54790,1,0,0:0:0:0:
160,96,54865,1,0,0:0:0:0:
160,64,54940,1,8,0:0:0:0:
160,128,55090,1,8,0:0:0:0:
160,128,55165,1,8,0:0:0:0:
160,96,55240,1,0,0:0:0:0:
160,128,55390,1,0,0:0:0:0:
160,128,55540,1,8,0:0:0:0:
160,96,55615,1,8,0:0:0:0:
160,96,55690,1,0,0:0:0:0:
160,64,55765,1,0,0:0:0:0:
160,96,55840,1,8,0:0:0:0:
160,64,55915,1,8,0:0:0:0:
160,64,55990,1,0,0:0:0:0:
160,64,56140,1,8,0:0:0:0:
160,96,56290,1,8,0:0:0:0:
160,96,56440,1,4,0:0:0:0:
128,64,56740,1,0,0:0:0:0:
128,64,57040,1,8,0:0:0:0:
160,96,57190,1,8,0:0:0:0:
160,96,57265,1,8,0:0:0:0:
160,96,57340,1,0,0:0:0:0:
160,64,57490,1,8,0:0:0:0:
160,64,57565,1,8,0:0:0:0:
160,64,57640,1,4,0:0:0:0:
128,96,57940,1,0,0:0:0:0:
128,96,58240,1,8,0:0:0:0:
128,96,58540,1,0,0:0:0:0:
192,64,58690,1,8,0:0:0:0:
128,96,58840,1,0,0:0:0:0:
192,96,59140,1,0,0:0:0:0:
192,96,59440,1,8,0:0:0:0:
192,96,59590,1,8,0:0:0:0:
192,96,59740,1,0,0:0:0:0:
192,96,60040,1,0,0:0:0:0:
192,96,60340,1,0,0:0:0:0:
160,64,60490,1,0,0:0:0:0:
192,96,60640,1,8,0:0:0:0:
192,128,60940,1,0,0:0:0:0:
192,128,61240,1,0,0:0:0:0:
160,64,61390,1,8,0:0:0:0:
192,128,61540,1,0,0:0:0:0:
192,128,61840,1,8,0:0:0:0:
160,64,61990,1,0,0:0:0:0:
192,64,62140,1,8,0:0:0:0:
192,64,62440,1,4,0:0:0:0:
192,128,63040,1,8,0:0:0:0:
192,128,63340,1,0,0:0:0:0:
192,128,63490,1,0,0:0:0:0:
192,128,63640,1,0,0:0:0:0:
224,160,63940,1,0,0:0:0:0:
224,160,64240,1,8,0:0:0:0:
224,160,64390,1,0,0:0:0:0:
224,160,64540,1,0,0:0:0:0:
224,160,64690,1,8,0:0:0:0:
224,160,64840,1,0,0:0:0:0:
192,96,64990,1,8,0:0:0:0:
192,64,65140,1,0,0:0:0:0:
192,64,65290,1,0,0:0:0:0:
192,64,65440,1,8,0:0:0:0:
192,96,65740,1,0,0:0:0:0:
224,128,66040,1,0,0:0:0:0:
192,96,66340,1,8,0:0:0:0:
224,160,66490,1,0,0:0:0:0:
192,96,66640,1,8,0:0:0:0:
224,128,66715,1,8,0:0:0:0:
160,64,66790,1,0,0:0:0:0:
160,96,66940,1,8,0:0:0:0:
192,64,67240,1,0,0:0:0:0:
160,96,67390,1,8,0:0:0:0:
160,96,67465,1,8,0:0:0:0:
160,64,67540,1,0,0:0:0:0:
160,96,67690,1,8,0:0:0:0:
160,96,67765,1,8,0:0:0:0:
160,64,67840,1,0,0:0:0:0:
160,96,67990,1,8,0:0:0:0:
160,96,68065,1,8,0:0:0:0:
160,64,68140,1,0,0:0:0:0:
160,96,68290,1,8,0:0:0:0:
160,96,68365,1,8,0:0:0:0:
160,64,68440,1,0,0:0:0:0:
160,96,68590,1,8,0:0:0:0:
160,96,68665,1,8,0:0:0:0:
160,64,68740,1,0,0:0:0:0:
160,96,68890,1,8,0:0:0:0:
160,96,68965,1,8,0:0:0:0:
160,64,69040,1,0,0:0:0:0:
160,96,69190,1,8,0:0:0:0:
160,96,69265,1,8,0:0:0:0:
160,64,69340,1,0,0:0:0:0:
192,64,69490,1,8,0:0:0:0:
192,64,69565,1,8,0:0:0:0:
160,64,69640,1,0,0:0:0:0:
128,96,69790,1,8,0:0:0:0:
128,96,69865,1,8,0:0:0:0:
160,96,69940,1,0,0:0:0:0:
128,96,70090,1,8,0:0:0:0:
160,96,70165,1,8,0:0:0:0:
160,96,70240,1,0,0:0:0:0:
160,96,70390,1,8,0:0:0:0:
160,96,70465,1,8,0:0:0:0:
160,96,70540,1,0,0:0:0:0:
160,96,70690,1,8,0:0:0:0:
160,96,70765,1,8,0:0:0:0:
160,96,70840,1,0,0:0:0:0:
160,96,70990,1,8,0:0:0:0:
160,96,71065,1,8,0:0:0:0:
160,96,71140,1,0,0:0:0:0:
160,96,71290,1,8,0:0:0:0:
160,96,71365,1,8,0:0:0:0:
160,96,71440,1,0,0:0:0:0:
160,96,71590,1,8,0:0:0:0:
160,96,71740,1,0,0:0:0:0:
160,96,72040,1,0,0:0:0:0:
160,96,72190,1,0,0:0:0:0:
160,96,72340,1,0,0:0:0:0:
160,96,72490,1,0,0:0:0:0:
160,96,72640,1,0,0:0:0:0:
160,96,72790,1,0,0:0:0:0:
160,96,72940,1,0,0:0:0:0:
160,96,73090,1,0,0:0:0:0:
160,96,73240,1,0,0:0:0:0:
160,96,73315,1,0,0:0:0:0:
160,96,73390,1,0,0:0:0:0:
160,96,73465,1,0,0:0:0:0:
160,96,73540,1,0,0:0:0:0:
160,96,73615,1,0,0:0:0:0:
160,96,73690,1,0,0:0:0:0:
160,96,73765,1,0,0:0:0:0:
160,96,73840,1,0,0:0:0:0:
160,96,73915,1,0,0:0:0:0:
160,96,73990,1,0,0:0:0:0:
160,96,74065,1,0,0:0:0:0:
160,96,74140,1,0,0:0:0:0:
160,96,74215,1,0,0:0:0:0:
160,96,74290,1,0,0:0:0:0:
160,96,74365,1,0,0:0:0:0:
160,96,74440,1,12,0:0:0:0:
160,64,75640,1,0,0:0:0:0:
160,64,75790,1,8,0:0:0:0:
160,96,75865,1,8,0:0:0:0:
160,64,75940,1,8,0:0:0:0:
160,96,76015,1,8,0:0:0:0:
160,64,76090,1,0,0:0:0:0:
192,32,76240,1,8,0:0:0:0:
160,32,76390,1,8,0:0:0:0:
160,32,76540,1,0,0:0:0:0:
128,32,76690,1,0,0:0:0:0:
128,32,76840,1,8,0:0:0:0:
128,32,77140,1,0,0:0:0:0:
128,32,77290,1,0,0:0:0:0:
128,32,77440,1,8,0:0:0:0:
160,64,77477,1,8,0:0:0:0:
192,128,77590,1,8,0:0:0:0:
192,64,77627,1,8,0:0:0:0:
192,128,77740,1,0,0:0:0:0:
160,64,77777,1,0,0:0:0:0:
192,128,77890,1,8,0:0:0:0:
160,64,77927,1,8,0:0:0:0:
192,128,78040,1,0,0:0:0:0:
160,64,78077,1,0,0:0:0:0:
192,128,78190,1,8,0:0:0:0:
160,64,78227,1,8,0:0:0:0:
192,128,78340,1,0,0:0:0:0:
160,32,78377,1,0,0:0:0:0:
192,128,78490,1,0,0:0:0:0:
160,64,78527,1,0,0:0:0:0:
192,128,78640,1,8,0:0:0:0:
160,64,78677,1,8,0:0:0:0:
192,128,78790,1,8,0:0:0:0:
192,64,78827,1,8,0:0:0:0:
192,128,78940,1,0,0:0:0:0:
192,64,78977,1,0,0:0:0:0:
192,128,79090,1,0,0:0:0:0:
160,32,79127,1,0,0:0:0:0:
192,128,79240,1,8,0:0:0:0:
160,32,79277,1,8,0:0:0:0:
192,128,79390,1,8,0:0:0:0:
160,64,79427,1,8,0:0:0:0:
192,128,79540,1,0,0:0:0:0:
160,64,79577,1,0,0:0:0:0:
192,128,79690,1,8,0:0:0:0:
160,64,79727,1,8,0:0:0:0:
192,128,79840,1,8,0:0:0:0:
160,64,79877,1,8,0:0:0:0:
192,128,79990,1,8,0:0:0:0:
160,64,80027,1,8,0:0:0:0:
192,128,80140,1,0,0:0:0:0:
160,64,80177,1,0,0:0:0:0:
192,128,80290,1,8,0:0:0:0:
160,64,80327,1,8,0:0:0:0:
192,128,80440,1,0,0:0:0:0:
160,96,80477,1,0,0:0:0:0:
192,128,80590,1,8,0:0:0:0:
160,96,80627,1,8,0:0:0:0:
192,192,80740,1,8,0:0:0:0:
160,64,80777,1,8,0:0:0:0:
192,192,80890,1,0,0:0:0:0:
160,32,81040,1,8,0:0:0:0:
160,32,81090,1,8,0:0:0:0:
160,32,81140,1,8,0:0:0:0:
160,32,81190,1,0,0:0:0:0:
192,192,81340,1,8,0:0:0:0:
192,32,81490,1,8,0:0:0:0:
192,192,81640,1,0,0:0:0:0:
160,0,81940,1,0,0:0:0:0:
160,32,82090,1,0,0:0:0:0:
192,64,82240,1,8,0:0:0:0:
224,96,82277,1,8,0:0:0:0:
160,64,82390,1,8,0:0:0:0:
192,32,82427,1,8,0:0:0:0:
160,64,82540,1,0,0:0:0:0:
192,32,82577,1,0,0:0:0:0:
160,64,82690,1,8,0:0:0:0:
192,32,82727,1,8,0:0:0:0:
160,64,82840,1,0,0:0:0:0:
192,32,82877,1,0,0:0:0:0:
160,96,82990,1,8,0:0:0:0:
192,32,83027,1,8,0:0:0:0:
160,96,83140,1,0,0:0:0:0:
192,32,83177,1,0,0:0:0:0:
160,96,83290,1,0,0:0:0:0:
160,32,83327,1,0,0:0:0:0:
160,96,83440,1,8,0:0:0:0:
160,64,83477,1,8,0:0:0:0:
160,96,83590,1,0,0:0:0:0:
160,64,83627,1,0,0:0:0:0:
160,96,83740,1,0,0:0:0:0:
160,64,83777,1,0,0:0:0:0:
160,96,83890,1,0,0:0:0:0:
160,64,83927,1,0,0:0:0:0:
160,96,84040,1,8,0:0:0:0:
160,64,84190,1,0,0:0:0:0:
160,64,84340,1,8,0:0:0:0:
160,64,84415,1,8,0:0:0:0:
160,64,84490,1,0,0:0:0:0:
160,64,84640,1,0,0:0:0:0:
160,32,84790,1,8,0:0:0:0:
160,32,84940,1,0,0:0:0:0:
192,32,85090,1,0,0:0:0:0:
192,32,85240,1,8,0:0:0:0:
192,32,85540,1,8,0:0:0:0:
160,64,85690,1,0,0:0:0:0:
160,64,85840,1,8,0:0:0:0:
160,32,85915,1,8,0:0:0:0:
160,32,85990,1,8,0:0:0:0:
160,32,86065,1,8,0:0:0:0:
160,32,86140,1,0,0:0:0:0:
192,64,86290,1,0,0:0:0:0:
160,64,86365,1,0,0:0:0:0:
192,64,86440,1,8,0:0:0:0:
160,64,86740,1,0,0:0:0:0:
160,64,86890,1,0,0:0:0:0:
160,64,87040,1,8,0:0:0:0:
160,32,87077,1,8,0:0:0:0:
192,128,87190,1,8,0:0:0:0:
192,64,87227,1,8,0:0:0:0:
192,128,87340,1,0,0:0:0:0:
192,64,87377,1,0,0:0:0:0:
192,160,87490,1,0,0:0:0:0:
192,64,87527,1,0,0:0:0:0:
192,96,87640,1,0,0:0:0:0:
192,64,87677,1,0,0:0:0:0:
192,96,87790,1,8,0:0:0:0:
160,64,87827,1,8,0:0:0:0:
192,96,87940,1,0,0:0:0:0:
160,64,87977,1,0,0:0:0:0:
192,96,88090,1,0,0:0:0:0:
160,64,88127,1,0,0:0:0:0:
192,96,88240,1,8,0:0:0:0:
160,64,88277,1,8,0:0:0:0:
192,96,88390,1,8,0:0:0:0:
160,64,88427,1,8,0:0:0:0:
192,96,88540,1,0,0:0:0:0:
160,64,88577,1,0,0:0:0:0:
192,96,88690,1,8,0:0:0:0:
160,64,88727,1,8,0:0:0:0:
192,96,88840,1,0,0:0:0:0:
160,64,88877,1,0,0:0:0:0:
192,96,88990,1,8,0:0:0:0:
160,64,89027,1,8,0:0:0:0:
192,96,89140,1,0,0:0:0:0:
160,64,89177,1,0,0:0:0:0:
192,96,89290,1,0,0:0:0:0:
160,64,89327,1,0,0:0:0:0:
192,96,89440,1,0,0:0:0:0:
160,64,89477,1,0,0:0:0:0:
192,96,89590,1,8,0:0:0:0:
224,64,89627,1,8,0:0:0:0:
192,96,89740,1,0,0:0:0:0:
224,64,89777,1,0,0:0:0:0:
192,96,89890,1,8,0:0:0:0:
224,64,89927,1,8,0:0:0:0:
192,96,90040,1,0,0:0:0:0:
224,64,90077,1,0,0:0:0:0:
192,96,90190,1,8,0:0:0:0:
224,64,90227,1,8,0:0:0:0:
192,96,90340,1,8,0:0:0:0:
224,96,90377,1,8,0:0:0:0:
192,96,90490,1,0,0:0:0:0:
224,96,90527,1,0,0:0:0:0:
192,96,90640,1,8,0:0:0:0:
256,64,90690,1,8,0:0:0:0:
224,64,90740,1,8,0:0:0:0:
192,32,90790,1,0,0:0:0:0:
160,128,90940,1,8,0:0:0:0:
160,96,91090,1,0,0:0:0:0:
160,128,91240,1,8,0:0:0:0:
192,96,91540,1,0,0:0:0:0:
192,96,91690,1,0,0:0:0:0:
192,96,91840,1,8,0:0:0:0:
192,96,91877,1,8,0:0:0:0:
192,128,91990,1,8,0:0:0:0:
192,96,92027,1,8,0:0:0:0:
192,128,92140,1,0,0:0:0:0:
192,96,92177,1,0,0:0:0:0:
192,128,92290,1,0,0:0:0:0:
192,96,92327,1,0,0:0:0:0:
192,128,92440,1,0,0:0:0:0:
192,128,92590,1,8,0:0:0:0:
192,128,92665,1,8,0:0:0:0:
192,128,92740,1,0,0:0:0:0:
192,128,92890,1,0,0:0:0:0:
160,128,93040,1,8,0:0:0:0:
160,128,93190,1,8,0:0:0:0:
160,128,93340,1,0,0:0:0:0:
224,96,93390,1,0,0:0:0:0:
224,96,93440,1,0,0:0:0:0:
192,96,93490,1,0,0:0:0:0:
224,96,93540,1,0,0:0:0:0:
224,64,93590,1,0,0:0:0:0:
192,96,93640,1,8,0:0:0:0:
192,32,93715,1,0,0:0:0:0:
160,64,93790,1,0,0:0:0:0:
160,64,93865,1,8,0:0:0:0:
160,64,93940,1,0,0:0:0:0:
160,64,94015,1,0,0:0:0:0:
160,64,94090,1,8,0:0:0:0:
160,32,94240,1,0,0:0:0:0:
160,64,94315,1,0,0:0:0:0:
160,64,94390,1,0,0:0:0:0:
160,64,94465,1,0,0:0:0:0:
160,64,94540,1,8,0:0:0:0:
192,64,94690,1,8,0:0:0:0:
192,64,94840,1,4,0:0:0:0:
160,96,95140,1,8,0:0:0:0:
160,96,95290,1,0,0:0:0:0:
160,96,95440,1,8,0:0:0:0:
160,64,95515,1,0,0:0:0:0:
160,64,95590,1,0,0:0:0:0:
160,64,95665,1,0,0:0:0:0:
160,64,95740,1,8,0:0:0:0:
160,64,96040,1,0,0:0:0:0:
160,64,96115,1,0,0:0:0:0:
160,64,96190,1,8,0:0:0:0:
128,64,96340,1,8,0:0:0:0:
128,64,96490,1,0,0:0:0:0:
128,64,96640,1,8,0:0:0:0:
160,160,96715,1,8,0:0:0:0:
128,160,96790,1,0,0:0:0:0:
160,160,96865,1,0,0:0:0:0:
128,160,96940,1,8,0:0:0:0:
128,160,97015,1,8,0:0:0:0:
128,160,97090,1,0,0:0:0:0:
128,160,97165,1,0,0:0:0:0:
128,160,97240,1,8,0:0:0:0:
128,160,97315,1,0,0:0:0:0:
128,160,97390,1,8,0:0:0:0:
128,160,97465,1,8,0:0:0:0:
128,160,97540,1,0,0:0:0:0:
128,160,97615,1,8,0:0:0:0:
128,160,97690,1,0,0:0:0:0:
128,160,97765,1,0,0:0:0:0:
128,160,97840,1,8,0:0:0:0:
128,160,97915,1,8,0:0:0:0:
128,160,97990,1,0,0:0:0:0:
128,160,98065,1,0,0:0:0:0:
128,160,98140,1,8,0:0:0:0:
128,128,98215,1,8,0:0:0:0:
128,160,98290,1,0,0:0:0:0:
160,64,98365,1,0,0:0:0:0:
128,160,98440,1,8,0:0:0:0:
128,160,98515,1,0,0:0:0:0:
128,160,98590,1,0,0:0:0:0:
128,160,98665,1,0,0:0:0:0:
128,160,98740,1,0,0:0:0:0:
160,32,98815,1,0,0:0:0:0:
128,160,98890,1,8,0:0:0:0:
160,32,98965,1,0,0:0:0:0:
160,32,99040,1,0,0:0:0:0:
160,64,99115,1,0,0:0:0:0:
160,64,99190,1,0,0:0:0:0:
128,64,99265,1,0,0:0:0:0:
160,64,99340,1,8,0:0:0:0:
128,64,99415,1,0,0:0:0:0:
128,64,99490,1,0,0:0:0:0:
160,64,99565,1,0,0:0:0:0:
160,64,99640,1,0,0:0:0:0:
160,0,99715,1,0,0:0:0:0:
160,32,99790,1,8,0:0:0:0:
160,32,99865,1,0,0:0:0:0:
160,32,99940,1,0,0:0:0:0:
160,32,100015,1,0,0:0:0:0:
160,32,100090,1,0,0:0:0:0:
160,32,100165,1,0,0:0:0:0:
160,64,100240,1,8,0:0:0:0:
288,64,100290,1,8,0:0:0:0:
192,64,100340,1,8,0:0:0:0:
192,64,100390,1,0,0:0:0:0:
160,64,100540,1,8,0:0:0:0:
192,96,100690,1,0,0:0:0:0:
128,64,100840,1,8,0:0:0:0:
160,96,100915,1,0,0:0:0:0:
160,64,100990,1,0,0:0:0:0:
160,64,101065,1,8,0:0:0:0:
160,32,101140,1,0,0:0:0:0:
160,96,101215,1,0,0:0:0:0:
160,96,101290,1,8,0:0:0:0:
160,32,101365,1,0,0:0:0:0:
160,96,101440,1,8,0:0:0:0:
160,32,101515,1,0,0:0:0:0:
160,32,101590,1,0,0:0:0:0:
160,64,101665,1,0,0:0:0:0:
160,32,101740,1,8,0:0:0:0:
160,64,101815,1,8,0:0:0:0:
160,64,101890,1,0,0:0:0:0:
128,32,101965,1,0,0:0:0:0:
160,32,102040,1,8,0:0:0:0:
128,32,102115,1,0,0:0:0:0:
128,32,102190,1,0,0:0:0:0:
160,128,102265,1,0,0:0:0:0:
128,32,102340,1,8,0:0:0:0:
160,128,102415,1,8,0:0:0:0:
160,128,102490,1,0,0:0:0:0:
160,128,102565,1,0,0:0:0:0:
128,32,102640,1,8,0:0:0:0:
128,32,102715,1,0,0:0:0:0:
160,96,102790,1,0,0:0:0:0:
160,32,102865,1,0,0:0:0:0:
192,96,102940,1,8,0:0:0:0:
192,64,103015,1,8,0:0:0:0:
192,96,103090,1,0,0:0:0:0:
224,64,103165,1,0,0:0:0:0:
224,64,103240,1,8,0:0:0:0:
192,64,103390,1,0,0:0:0:0:
192,64,103540,1,8,0:0:0:0:
160,32,103615,1,8,0:0:0:0:
192,64,103690,1,0,0:0:0:0:
160,0,103840,1,0,0:0:0:0:
160,0,103990,1,8,0:0:0:0:
160,32,104065,1,8,0:0:0:0:
160,0,104140,1,0,0:0:0:0:
192,64,104290,1,8,0:0:0:0:
192,64,104440,1,4,0:0:0:0:
128,128,105040,1,0,0:0:0:0:
128,128,105190,1,0,0:0:0:0:
128,128,105340,1,8,0:0:0:0:
128,128,105490,1,8,0:0:0:0:
128,128,105640,1,0,0:0:0:0:
128,128,105940,1,0,0:0:0:0:
224,128,106015,1,8,0:0:0:0:
224,128,106090,1,0,0:0:0:0:
224,128,106165,1,0,0:0:0:0:
224,128,106240,1,8,0:0:0:0:
192,96,106315,1,8,0:0:0:0:
192,96,106390,1,0,0:0:0:0:
192,96,106465,1,0,0:0:0:0:
192,128,106540,1,8,0:0:0:0:
192,128,106615,1,0,0:0:0:0:
192,128,106690,1,8,0:0:0:0:
192,128,106765,1,8,0:0:0:0:
192,128,106840,1,0,0:0:0:0:
192,32,106915,1,0,0:0:0:0:
192,32,106990,1,8,0:0:0:0:
160,64,107065,1,0,0:0:0:0:
192,32,107140,1,8,0:0:0:0:
192,32,107215,1,8,0:0:0:0:
160,64,107290,1,0,0:0:0:0:
192,32,107365,1,0,0:0:0:0:
192,32,107440,1,8,0:0:0:0:
160,64,107515,1,0,0:0:0:0:
192,32,107590,1,8,0:0:0:0:
192,32,107665,1,0,0:0:0:0:
160,64,107740,1,8,0:0:0:0:
192,32,107815,1,0,0:0:0:0:
192,32,107890,1,8,0:0:0:0:
192,32,107965,1,8,0:0:0:0:
192,32,108040,1,0,0:0:0:0:
160,32,108115,1,0,0:0:0:0:
160,32,108190,1,0,0:0:0:0:
160,32,108265,1,0,0:0:0:0:
160,32,108340,1,8,0:0:0:0:
160,32,108415,1,0,0:0:0:0:
160,32,108490,1,8,0:0:0:0:
160,32,108565,1,0,0:0:0:0:
160,32,108640,1,8,0:0:0:0:
128,32,108715,1,8,0:0:0:0:
160,32,108790,1,0,0:0:0:0:
192,32,108865,1,8,0:0:0:0:
160,0,108940,1,0,0:0:0:0:
160,64,109015,1,0,0:0:0:0:
160,32,109090,1,8,0:0:0:0:
160,64,109165,1,8,0:0:0:0:
160,64,109240,1,0,0:0:0:0:
160,64,109315,1,8,0:0:0:0:
160,64,109390,1,0,0:0:0:0:
160,64,109465,1,0,0:0:0:0:
160,64,109540,1,8,0:0:0:0:
160,96,109615,1,0,0:0:0:0:
160,64,109690,1,8,0:0:0:0:
160,96,109765,1,8,0:0:0:0:
160,96,109840,1,8,0:0:0:0:
256,32,109890,1,8,0:0:0:0:
256,32,109940,5,8,0:0:0:0:
160,32,109990,1,0,0:0:0:0:
160,64,110140,1,8,0:0:0:0:
160,64,110290,1,0,0:0:0:0:
160,64,110440,1,8,0:0:0:0:
128,64,110515,1,0,0:0:0:0:
128,64,110590,1,0,0:0:0:0:
160,64,110665,1,8,0:0:0:0:
128,64,110740,1,0,0:0:0:0:
160,64,110815,1,0,0:0:0:0:
160,64,110890,1,8,0:0:0:0:
160,64,110965,1,0,0:0:0:0:
160,64,111040,1,8,0:0:0:0:
128,160,111115,1,0,0:0:0:0:
128,160,111190,1,0,0:0:0:0:
128,160,111265,1,0,0:0:0:0:
128,160,111340,1,8,0:0:0:0:
128,160,111415,1,0,0:0:0:0:
128,160,111490,1,8,0:0:0:0:
128,160,111565,1,8,0:0:0:0:
160,96,111640,1,0,0:0:0:0:
128,160,111715,1,0,0:0:0:0:
160,96,111790,1,8,0:0:0:0:
160,96,111865,1,0,0:0:0:0:
160,96,111940,1,8,0:0:0:0:
160,96,112015,1,8,0:0:0:0:
160,96,112090,1,0,0:0:0:0:
160,96,112165,1,0,0:0:0:0:
160,96,112240,1,8,0:0:0:0:
160,96,112315,1,8,0:0:0:0:
160,96,112390,1,0,0:0:0:0:
160,96,112465,1,0,0:0:0:0:
160,96,112540,1,8,0:0:0:0:
160,96,112615,1,8,0:0:0:0:
160,96,112690,1,0,0:0:0:0:
160,96,112765,1,0,0:0:0:0:
160,96,112840,1,8,0:0:0:0:
160,64,112990,1,0,0:0:0:0:
160,96,113140,1,0,0:0:0:0:
160,96,113215,1,0,0:0:0:0:
160,96,113290,1,0,0:0:0:0:
160,96,113365,1,0,0:0:0:0:
160,96,113440,1,0,0:0:0:0:
160,96,113515,1,0,0:0:0:0:
160,96,113590,1,8,0:0:0:0:
128,96,113740,1,0,0:0:0:0:
160,96,113815,1,0,0:0:0:0:
160,96,113890,1,0,0:0:0:0:
160,96,113965,1,0,0:0:0:0:
160,96,114040,1,12,0:0:0:0:
256,96,114240,1,0,0:0:0:0:
256,96,114340,1,8,0:0:0:0:
256,96,114640,1,0,0:0:0:0:
256,96,114940,1,8,0:0:0:0:
224,96,115240,1,8,0:0:0:0:
192,96,115540,1,0,0:0:0:0:
192,96,115690,1,0,0:0:0:0:
192,96,115840,1,12,0:0:0:0:
256,128,115990,1,0,0:0:0:0:
256,128,116140,1,0,0:0:0:0:
224,128,116290,1,0,0:0:0:0:
224,160,116440,1,0,0:0:0:0:
224,160,116590,1,8,0:0:0:0:
224,160,116740,1,0,0:0:0:0:
224,160,116890,1,0,0:0:0:0:
224,160,117040,1,8,0:0:0:0:
224,160,117190,1,8,0:0:0:0:
192,160,117340,1,0,0:0:0:0:
192,160,117490,1,0,0:0:0:0:
192,160,117640,1,8,0:0:0:0:
160,64,117790,1,0,0:0:0:0:
160,64,118090,1,0,0:0:0:0:
160,64,118240,1,8,0:0:0:0:
160,64,118315,1,0,0:0:0:0:
160,64,118390,1,0,0:0:0:0:
160,64,118465,1,8,0:0:0:0:
160,64,118540,1,0,0:0:0:0:
160,64,118690,1,8,0:0:0:0:
160,32,118840,1,0,0:0:0:0:
160,64,118915,1,8,0:0:0:0:
160,64,119065,1,8,0:0:0:0:
192,64,119140,1,0,0:0:0:0:
128,96,119290,1,8,0:0:0:0:
128,128,119440,1,0,0:0:0:0:
192,96,119740,1,8,0:0:0:0:
160,64,120040,1,0,0:0:0:0:
160,96,120340,1,0,0:0:0:0:
160,96,120490,1,0,0:0:0:0:
160,96,120640,1,12,0:0:0:0:
224,128,120790,1,0,0:0:0:0:
224,128,120940,1,0,0:0:0:0:
224,128,121090,1,0,0:0:0:0:
224,128,121240,1,0,0:0:0:0:
224,128,121390,1,8,0:0:0:0:
224,128,121540,1,0,0:0:0:0:
160,96,121690,1,0,0:0:0:0:
160,96,121840,1,8,0:0:0:0:
160,96,121990,1,8,0:0:0:0:
160,96,122140,1,0,0:0:0:0:
160,96,122290,1,0,0:0:0:0:
160,96,122440,1,8,0:0:0:0:
128,64,122590,1,0,0:0:0:0:
160,64,122740,1,0,0:0:0:0:
128,96,122815,1,8,0:0:0:0:
128,96,122890,1,0,0:0:0:0:
160,96,123040,1,0,0:0:0:0:
160,96,123115,1,8,0:0:0:0:
160,96,123190,1,0,0:0:0:0:
160,96,123265,1,8,0:0:0:0:
160,96,123340,1,0,0:0:0:0:
160,32,123490,1,0,0:0:0:0:
192,64,123640,1,8,0:0:0:0:
192,96,123940,1,0,0:0:0:0:
192,96,124240,1,0,0:0:0:0:
192,64,124315,1,0,0:0:0:0:
192,64,124390,1,8,0:0:0:0:
192,64,124465,1,8,0:0:0:0:
192,96,124540,1,0,0:0:0:0:
160,64,124690,1,0,0:0:0:0:
160,64,124765,1,0,0:0:0:0:
160,64,124840,1,8,0:0:0:0:
160,128,124990,1,0,0:0:0:0:
160,128,125140,1,0,0:0:0:0:
160,128,125290,1,0,0:0:0:0:
160,128,125440,1,12,0:0:0:0:
160,96,125590,1,0,0:0:0:0:
160,96,125740,1,0,0:0:0:0:
160,96,125890,1,0,0:0:0:0:
160,96,126040,1,0,0:0:0:0:
160,96,126190,1,8,0:0:0:0:
160,96,126340,1,0,0:0:0:0:
160,96,126490,1,0,0:0:0:0:
160,96,126640,1,8,0:0:0:0:
160,96,126790,1,8,0:0:0:0:
160,96,126940,1,0,0:0:0:0:
160,96,127090,1,0,0:0:0:0:
160,96,127240,1,8,0:0:0:0:
160,64,127390,1,0,0:0:0:0:
160,64,127690,1,0,0:0:0:0:
160,64,127840,1,8,0:0:0:0:
160,64,127915,1,0,0:0:0:0:
160,64,127990,1,0,0:0:0:0:
160,64,128065,1,8,0:0:0:0:
160,64,128140,1,0,0:0:0:0:
128,96,128290,1,8,0:0:0:0:
128,96,128440,1,0,0:0:0:0:
160,96,128515,1,8,0:0:0:0:
128,96,128590,1,0,0:0:0:0:
160,96,128665,1,8,0:0:0:0:
128,96,128740,1,0,0:0:0:0:
160,96,128890,1,8,0:0:0:0:
160,96,129040,1,0,0:0:0:0:
160,64,129340,1,8,0:0:0:0:
160,64,129490,1,8,0:0:0:0:
160,64,129640,1,0,0:0:0:0:
160,96,129940,1,0,0:0:0:0:
160,96,130090,1,0,0:0:0:0:
160,96,130240,1,12,0:0:0:0:
192,128,130540,1,8,0:0:0:0:
160,128,130990,1,8,0:0:0:0:
160,128,131440,1,8,0:0:0:0:
128,160,131740,1,0,0:0:0:0:
128,160,132040,1,8,0:0:0:0:
160,128,132265,1,8,0:0:0:0:
160,128,132490,1,8,0:0:0:0:
160,128,132640,1,0,0:0:0:0:
160,128,132940,1,8,0:0:0:0:
128,96,133240,1,0,0:0:0:0:
160,64,133465,1,0,0:0:0:0:
128,96,133840,1,0,0:0:0:0:
128,128,134140,1,8,0:0:0:0:
128,128,134440,1,4,0:0:0:0:
