osu file format v14

[General]
AudioFilename: audio.mp3
AudioLeadIn: 0
PreviewTime: 96083
Countdown: 0
SampleSet: Normal
StackLeniency: 0
Mode: 1
LetterboxInBreaks: 0
WidescreenStoryboard: 0

[Editor]
Bookmarks: 19283,38483,57683,76883,115283,134483,153683,172883,211283,230483,249683
DistanceSpacing: 4
BeatDivisor: 4
GridSize: 32
TimelineZoom: 2.600001

[Metadata]
Title:Trigger (Zekk Remix)
TitleUnicode:Trigger (Zekk Remix)
Artist:Dustvoxx
ArtistUnicode:Dustvoxx
Creator:Nifty
Version:Muzukashii
Source:
Tags:sv supernatural pumpcore hardtek cyclik control electronic instrumental genjuro
BeatmapID:2952410
BeatmapSetID:1004571

[Difficulty]
HPDrainRate:6
CircleSize:2
OverallDifficulty:4
ApproachRate:10
SliderMultiplier:1.4
SliderTickRate:1

[Events]
//Background and Video events
0,0,"DDM.jpg",0,100
//Break Periods
2,38739,47689
2,134739,143689
//Storyboard Layer 0 (Background)
//Storyboard Layer 1 (Fail)
//Storyboard Layer 2 (Pass)
//Storyboard Layer 3 (Foreground)
//Storyboard Layer 4 (Overlay)
//Storyboard Sound Samples

[TimingPoints]
139,300,4,1,0,75,1,0
9664,-100,4,1,0,88,0,0
14464,-100,4,1,0,100,0,0
38689,-100,4,1,0,33,0,0
48064,-100,4,1,0,100,0,0
48289,-100,4,1,0,33,0,0
56464,-100,4,1,0,100,0,0
57889,-100,4,1,0,75,0,0
67264,-100,4,1,0,88,0,0
74464,-100,4,1,0,100,0,0
96739,-100,4,1,0,100,0,1
104539,-100,4,1,0,100,0,0
106039,-100,4,1,0,100,0,1
114139,-100,4,1,0,100,0,0
134689,-100,4,1,0,33,0,0
144064,-100,4,1,0,100,0,0
144289,-100,4,1,0,33,0,0
152464,-100,4,1,0,100,0,0
153889,-100,4,1,0,75,0,0
163264,-100,4,1,0,88,0,0
170464,-100,4,1,0,100,0,0
175339,-100,4,1,0,100,0,1
177739,-100,4,1,0,100,0,0
178339,-100,4,1,0,100,0,1
182539,-100,4,1,0,100,0,0
192739,-100,4,1,0,100,0,1
200539,-100,4,1,0,100,0,0
202039,-100,4,1,0,100,0,1
210139,-100,4,1,0,100,0,0
230689,-100,4,1,0,75,0,0
244864,-100,4,1,0,100,0,0

[HitObjects]
346,126,139,5,0,0:0:0:0:
346,126,289,1,0,0:0:0:0:
346,126,439,1,8,0:0:0:0:
346,126,589,1,0,0:0:0:0:
361,115,739,1,0,0:0:0:0:
362,115,1039,1,8,0:0:0:0:
368,107,1339,1,0,0:0:0:0:
367,117,1639,1,8,0:0:0:0:
362,115,1789,1,0,0:0:0:0:
362,115,1939,1,0,0:0:0:0:
312,107,2239,1,8,0:0:0:0:
366,92,2539,1,0,0:0:0:0:
366,92,2689,1,0,0:0:0:0:
366,92,2839,1,8,0:0:0:0:
371,94,2989,1,0,0:0:0:0:
366,92,3289,1,0,0:0:0:0:
366,92,3439,1,8,0:0:0:0:
374,90,3739,1,0,0:0:0:0:
368,84,4039,1,8,0:0:0:0:
369,84,4339,1,0,0:0:0:0:
356,77,4939,1,0,0:0:0:0:
372,90,5089,1,0,0:0:0:0:
356,75,5239,1,8,0:0:0:0:
372,91,5389,1,0,0:0:0:0:
356,77,5539,1,0,0:0:0:0:
394,111,5839,1,8,0:0:0:0:
374,83,6139,1,0,0:0:0:0:
372,91,6439,1,8,0:0:0:0:
384,85,6589,1,0,0:0:0:0:
377,90,6739,1,0,0:0:0:0:
385,85,7039,1,8,0:0:0:0:
382,88,7339,1,0,0:0:0:0:
389,86,7489,1,0,0:0:0:0:
384,85,7639,1,8,0:0:0:0:
389,82,7939,1,8,0:0:0:0:
369,75,8014,1,8,0:0:0:0:
385,85,8089,1,8,0:0:0:0:
389,82,8239,1,0,0:0:0:0:
389,74,8539,1,12,0:0:0:0:
399,88,9139,1,0,0:0:0:0:
402,89,9289,1,0,0:0:0:0:
409,77,9439,1,8,0:0:0:0:
386,73,9739,1,12,0:0:0:0:
409,78,10039,1,8,0:0:0:0:
409,85,10189,1,0,0:0:0:0:
409,77,10489,1,0,0:0:0:0:
402,79,10639,1,8,0:0:0:0:
409,78,10939,1,0,0:0:0:0:
409,85,11239,1,8,0:0:0:0:
409,77,11389,1,0,0:0:0:0:
409,78,11839,1,8,0:0:0:0:
419,66,11914,1,8,0:0:0:0:
419,67,11989,1,8,0:0:0:0:
418,68,12139,1,0,0:0:0:0:
416,69,12439,1,8,0:0:0:0:
412,69,12589,1,0,0:0:0:0:
415,68,12889,1,0,0:0:0:0:
418,68,13039,1,8,0:0:0:0:
416,69,13339,1,0,0:0:0:0:
422,69,13639,1,8,0:0:0:0:
415,68,13789,1,0,0:0:0:0:
415,68,13939,1,8,0:0:0:0:
413,67,14539,1,4,0:0:0:0:
415,68,14839,1,8,0:0:0:0:
413,67,15139,1,8,0:0:0:0:
413,67,15439,1,8,0:0:0:0:
415,68,15664,1,0,0:0:0:0:
415,68,15739,1,0,0:0:0:0:
413,67,16039,1,0,0:0:0:0:
421,64,16189,1,0,0:0:0:0:
413,67,16339,1,0,0:0:0:0:
415,68,16639,1,0,0:0:0:0:
422,65,16939,1,8,0:0:0:0:
422,66,17089,1,8,0:0:0:0:
421,64,17239,1,0,0:0:0:0:
422,66,17389,1,0,0:0:0:0:
425,74,17539,1,8,0:0:0:0:
422,65,17839,1,8,0:0:0:0:
430,69,18139,1,0,0:0:0:0:
412,71,18214,1,0,0:0:0:0:
412,70,18289,1,0,0:0:0:0:
414,71,18439,1,8,0:0:0:0:
414,71,18589,1,0,0:0:0:0:
411,73,18739,1,8,0:0:0:0:
412,70,19339,1,8,0:0:0:0:
414,71,19414,1,8,0:0:0:0:
414,71,19489,1,8,0:0:0:0:
406,63,19639,1,0,0:0:0:0:
415,79,19789,1,8,0:0:0:0:
417,79,20089,1,8,0:0:0:0:
414,82,20239,1,0,0:0:0:0:
414,82,20389,1,8,0:0:0:0:
410,69,20689,1,0,0:0:0:0:
408,75,20839,1,0,0:0:0:0:
407,73,20989,1,8,0:0:0:0:
406,79,21139,1,0,0:0:0:0:
404,78,21439,1,8,0:0:0:0:
410,69,21514,1,8,0:0:0:0:
410,69,21589,1,8,0:0:0:0:
372,90,21739,1,0,0:0:0:0:
411,83,22039,1,8,0:0:0:0:
404,78,22189,1,0,0:0:0:0:
399,84,22489,1,0,0:0:0:0:
400,84,22639,1,8,0:0:0:0:
400,84,22789,1,0,0:0:0:0:
400,84,22939,1,0,0:0:0:0:
401,93,23239,1,8,0:0:0:0:
401,93,23539,1,0,0:0:0:0:
407,85,23689,1,0,0:0:0:0:
407,85,23839,1,8,0:0:0:0:
407,98,24139,1,0,0:0:0:0:
403,95,24589,1,8,0:0:0:0:
403,95,24739,1,0,0:0:0:0:
402,95,24889,1,0,0:0:0:0:
407,98,25039,1,8,0:0:0:0:
403,95,25339,1,0,0:0:0:0:
403,95,25489,1,0,0:0:0:0:
403,95,25789,1,8,0:0:0:0:
409,102,26089,1,0,0:0:0:0:
409,101,26239,1,8,0:0:0:0:
409,97,26314,1,8,0:0:0:0:
409,94,26389,1,8,0:0:0:0:
416,98,26539,1,0,0:0:0:0:
403,95,26839,1,8,0:0:0:0:
406,94,27139,1,0,0:0:0:0:
409,97,27289,1,0,0:0:0:0:
409,94,27439,1,8,0:0:0:0:
409,101,27589,1,0,0:0:0:0:
409,101,27739,1,12,0:0:0:0:
409,94,28339,1,8,0:0:0:0:
412,94,28539,1,0,0:0:0:0:
410,78,28639,1,8,0:0:0:0:
423,98,28939,1,0,0:0:0:0:
423,88,29089,1,0,0:0:0:0:
423,88,29239,1,12,0:0:0:0:
412,94,29539,1,0,0:0:0:0:
414,94,29839,1,8,0:0:0:0:
416,118,29989,1,0,0:0:0:0:
431,105,30139,1,0,0:0:0:0:
434,100,30289,1,8,0:0:0:0:
417,105,30589,1,8,0:0:0:0:
417,101,30739,1,0,0:0:0:0:
417,100,31039,1,8,0:0:0:0:
417,100,31114,1,8,0:0:0:0:
417,100,31189,1,8,0:0:0:0:
417,105,31339,1,0,0:0:0:0:
425,90,31639,1,0,0:0:0:0:
426,93,31789,1,8,0:0:0:0:
425,90,31939,1,0,0:0:0:0:
427,89,32089,1,8,0:0:0:0:
425,84,32389,1,8,0:0:0:0:
425,90,32539,1,8,0:0:0:0:
426,93,32689,1,0,0:0:0:0:
426,93,32764,1,0,0:0:0:0:
425,90,32839,1,0,0:0:0:0:
427,89,33139,1,0,0:0:0:0:
426,91,33289,1,0,0:0:0:0:
425,90,33439,1,8,0:0:0:0:
425,90,33589,1,8,0:0:0:0:
426,93,33739,1,0,0:0:0:0:
408,86,34339,1,12,0:0:0:0:
425,90,34639,1,8,0:0:0:0:
426,93,34789,1,0,0:0:0:0:
420,89,35089,1,8,0:0:0:0:
418,89,35239,1,0,0:0:0:0:
425,90,35539,1,8,0:0:0:0:
429,98,35839,1,0,0:0:0:0:
436,90,35989,1,8,0:0:0:0:
436,90,36139,1,0,0:0:0:0:
425,90,36364,1,0,0:0:0:0:
425,90,36589,1,0,0:0:0:0:
419,88,36739,1,8,0:0:0:0:
442,84,36814,1,8,0:0:0:0:
440,83,36889,1,8,0:0:0:0:
419,88,37039,1,0,0:0:0:0:
431,77,37339,1,8,0:0:0:0:
431,77,37639,1,0,0:0:0:0:
431,77,37789,1,0,0:0:0:0:
431,73,37939,1,8,0:0:0:0:
433,86,38239,1,8,0:0:0:0:
434,84,38539,1,4,0:0:0:0:
312,168,48139,5,4,0:0:0:0:
312,168,48589,1,8,0:0:0:0:
312,168,48889,1,8,0:0:0:0:
312,168,49339,1,8,0:0:0:0:
312,168,49789,1,8,0:0:0:0:
344,155,50539,1,8,0:0:0:0:
344,155,50989,1,8,0:0:0:0:
344,155,51289,1,8,0:0:0:0:
344,155,51739,1,8,0:0:0:0:
344,155,52039,1,8,0:0:0:0:
344,155,52339,1,8,0:0:0:0:
344,155,52939,1,8,0:0:0:0:
344,155,53389,1,8,0:0:0:0:
344,155,53689,1,8,0:0:0:0:
344,155,54139,1,8,0:0:0:0:
344,155,54589,1,8,0:0:0:0:
344,155,55339,1,8,0:0:0:0:
344,155,55789,1,8,0:0:0:0:
344,155,56089,1,8,0:0:0:0:
342,140,56539,1,12,0:0:0:0:
357,144,56839,1,0,0:0:0:0:
357,144,56989,1,0,0:0:0:0:
356,142,57139,1,8,0:0:0:0:
367,136,57739,1,12,0:0:0:0:
378,133,58039,1,0,0:0:0:0:
378,133,58189,1,0,0:0:0:0:
378,133,58339,1,8,0:0:0:0:
367,136,58639,1,0,0:0:0:0:
367,136,58789,1,0,0:0:0:0:
371,138,58939,1,8,0:0:0:0:
378,133,59239,1,0,0:0:0:0:
376,129,59539,1,8,0:0:0:0:
378,128,59689,1,0,0:0:0:0:
378,128,59839,1,0,0:0:0:0:
378,126,59989,1,0,0:0:0:0:
378,133,60139,1,8,0:0:0:0:
374,112,60439,1,0,0:0:0:0:
390,131,60589,1,8,0:0:0:0:
374,112,60739,1,8,0:0:0:0:
389,131,61039,1,0,0:0:0:0:
378,133,61189,1,8,0:0:0:0:
385,118,61339,1,0,0:0:0:0:
384,118,61489,1,0,0:0:0:0:
377,120,61639,1,8,0:0:0:0:
377,120,61939,1,8,0:0:0:0:
377,120,62089,1,8,0:0:0:0:
381,110,62239,1,0,0:0:0:0:
369,104,62539,1,12,0:0:0:0:
372,113,62989,1,0,0:0:0:0:
372,113,63139,1,8,0:0:0:0:
369,104,63439,1,0,0:0:0:0:
383,109,63589,1,0,0:0:0:0:
383,109,63739,1,8,0:0:0:0:
390,115,64039,1,0,0:0:0:0:
376,115,64339,1,8,0:0:0:0:
375,113,64489,1,0,0:0:0:0:
376,115,64639,1,0,0:0:0:0:
376,115,64789,1,0,0:0:0:0:
375,112,64939,1,8,0:0:0:0:
377,99,65239,1,0,0:0:0:0:
377,99,65389,1,8,0:0:0:0:
377,101,65539,1,8,0:0:0:0:
388,104,65839,1,0,0:0:0:0:
385,95,65989,1,8,0:0:0:0:
383,103,66139,1,8,0:0:0:0:
397,108,66439,1,8,0:0:0:0:
386,94,66589,1,0,0:0:0:0:
388,104,66739,1,8,0:0:0:0:
379,98,66814,1,8,0:0:0:0:
385,95,66889,1,8,0:0:0:0:
371,98,67039,1,0,0:0:0:0:
371,98,67339,1,12,0:0:0:0:
388,104,67789,1,8,0:0:0:0:
371,101,67939,1,0,0:0:0:0:
366,108,68239,1,8,0:0:0:0:
366,108,68389,1,0,0:0:0:0:
370,101,68539,1,8,0:0:0:0:
371,101,68839,1,0,0:0:0:0:
366,108,69139,1,8,0:0:0:0:
364,94,69289,1,8,0:0:0:0:
364,94,69439,1,0,0:0:0:0:
362,94,69589,1,0,0:0:0:0:
361,92,69739,1,8,0:0:0:0:
368,95,70039,1,0,0:0:0:0:
368,88,70189,1,8,0:0:0:0:
364,94,70339,1,8,0:0:0:0:
373,92,70639,1,0,0:0:0:0:
371,89,70789,1,8,0:0:0:0:
368,95,70939,1,0,0:0:0:0:
369,95,71089,1,0,0:0:0:0:
364,94,71239,1,8,0:0:0:0:
367,96,71539,1,8,0:0:0:0:
367,97,71689,1,8,0:0:0:0:
372,84,71839,1,0,0:0:0:0:
369,95,71989,1,0,0:0:0:0:
371,91,72139,1,8,0:0:0:0:
389,101,72439,1,0,0:0:0:0:
385,94,72589,1,0,0:0:0:0:
380,92,72739,1,8,0:0:0:0:
377,92,73039,1,0,0:0:0:0:
371,91,73189,1,0,0:0:0:0:
379,95,73339,1,8,0:0:0:0:
379,95,73414,1,8,0:0:0:0:
376,98,73489,1,8,0:0:0:0:
380,98,73639,1,0,0:0:0:0:
385,106,73789,1,0,0:0:0:0:
377,92,73939,1,8,0:0:0:0:
386,96,74014,1,8,0:0:0:0:
388,96,74089,1,8,0:0:0:0:
379,95,74239,1,8,0:0:0:0:
382,78,74539,1,4,0:0:0:0:
390,90,75739,1,8,0:0:0:0:
390,90,75889,1,0,0:0:0:0:
390,90,75964,1,0,0:0:0:0:
381,83,76039,1,0,0:0:0:0:
382,82,76189,1,0,0:0:0:0:
372,95,76339,1,8,0:0:0:0:
384,83,76489,1,0,0:0:0:0:
384,82,76639,1,8,0:0:0:0:
376,90,76939,1,4,0:0:0:0:
373,93,77539,1,12,0:0:0:0:
352,84,77839,1,0,0:0:0:0:
358,85,77989,1,0,0:0:0:0:
373,93,78139,1,8,0:0:0:0:
373,85,78289,1,0,0:0:0:0:
376,83,78439,1,8,0:0:0:0:
376,83,78589,1,8,0:0:0:0:
371,82,78739,1,0,0:0:0:0:
358,85,78889,1,8,0:0:0:0:
362,80,79039,1,0,0:0:0:0:
362,80,79189,1,0,0:0:0:0:
362,79,79339,1,8,0:0:0:0:
371,75,79639,1,0,0:0:0:0:
371,82,79789,1,0,0:0:0:0:
389,76,79939,1,8,0:0:0:0:
376,74,80239,1,8,0:0:0:0:
387,84,80389,1,0,0:0:0:0:
385,83,80539,1,8,0:0:0:0:
385,80,80689,1,0,0:0:0:0:
385,83,80839,1,0,0:0:0:0:
394,84,80989,1,8,0:0:0:0:
393,84,81139,1,0,0:0:0:0:
379,84,81439,1,8,0:0:0:0:
385,83,81589,1,8,0:0:0:0:
385,80,81739,1,0,0:0:0:0:
379,84,82339,1,12,0:0:0:0:
385,83,82639,1,0,0:0:0:0:
385,80,82789,1,0,0:0:0:0:
379,84,82939,1,8,0:0:0:0:
379,84,83089,1,0,0:0:0:0:
385,83,83239,1,8,0:0:0:0:
385,83,83389,1,8,0:0:0:0:
396,80,83539,1,0,0:0:0:0:
394,84,83689,1,8,0:0:0:0:
394,84,83839,1,0,0:0:0:0:
390,90,84139,1,12,0:0:0:0:
394,74,84439,1,8,0:0:0:0:
396,80,84514,1,8,0:0:0:0:
392,75,84589,1,8,0:0:0:0:
392,74,84739,1,0,0:0:0:0:
397,73,85039,1,0,0:0:0:0:
394,74,85189,1,0,0:0:0:0:
394,74,85339,1,12,0:0:0:0:
397,73,85939,1,8,0:0:0:0:
397,73,86014,1,8,0:0:0:0:
401,68,86089,1,8,0:0:0:0:
401,68,86239,1,0,0:0:0:0:
401,68,86389,1,8,0:0:0:0:
397,73,86539,1,4,0:0:0:0:
401,68,87139,1,12,0:0:0:0:
390,83,87439,1,0,0:0:0:0:
390,83,87589,1,0,0:0:0:0:
390,83,87739,1,8,0:0:0:0:
401,68,87889,1,0,0:0:0:0:
401,68,88039,1,8,0:0:0:0:
401,68,88189,1,8,0:0:0:0:
396,72,88339,1,0,0:0:0:0:
396,72,88489,1,0,0:0:0:0:
390,74,88639,1,8,0:0:0:0:
390,74,88789,1,8,0:0:0:0:
400,78,88939,1,0,0:0:0:0:
401,77,89239,1,0,0:0:0:0:
401,77,89389,1,0,0:0:0:0:
401,77,89539,1,8,0:0:0:0:
402,71,89839,1,0,0:0:0:0:
402,71,89989,1,8,0:0:0:0:
401,77,90139,1,0,0:0:0:0:
401,77,90289,1,0,0:0:0:0:
401,77,90439,1,8,0:0:0:0:
402,71,90589,1,8,0:0:0:0:
402,71,90739,1,0,0:0:0:0:
402,71,91039,1,8,0:0:0:0:
394,72,91114,1,8,0:0:0:0:
394,72,91189,1,8,0:0:0:0:
394,72,91339,1,0,0:0:0:0:
402,71,91939,1,12,0:0:0:0:
398,104,92239,1,0,0:0:0:0:
398,104,92389,1,0,0:0:0:0:
399,104,92539,1,8,0:0:0:0:
396,97,92689,1,0,0:0:0:0:
399,85,92764,1,0,0:0:0:0:
399,85,92839,1,0,0:0:0:0:
399,85,92989,1,0,0:0:0:0:
399,85,93139,1,8,0:0:0:0:
405,90,93439,1,8,0:0:0:0:
405,91,93514,1,8,0:0:0:0:
403,91,93589,1,8,0:0:0:0:
412,95,93739,1,0,0:0:0:0:
398,96,93964,1,0,0:0:0:0:
398,96,94189,1,0,0:0:0:0:
398,96,94339,1,8,0:0:0:0:
400,96,94639,1,8,0:0:0:0:
390,93,94939,1,4,0:0:0:0:
405,91,95539,1,8,0:0:0:0:
405,91,95614,1,8,0:0:0:0:
406,90,95689,1,8,0:0:0:0:
406,89,95839,1,0,0:0:0:0:
397,89,96139,1,0,0:0:0:0:
388,83,96214,1,0,0:0:0:0:
388,83,96289,1,0,0:0:0:0:
382,83,96439,1,8,0:0:0:0:
392,78,96589,1,0,0:0:0:0:
394,80,96739,1,12,0:0:0:0:
397,89,97039,1,0,0:0:0:0:
397,89,97189,1,0,0:0:0:0:
394,84,97339,1,8,0:0:0:0:
394,80,97639,1,8,0:0:0:0:
397,89,97789,1,0,0:0:0:0:
397,89,97939,1,8,0:0:0:0:
397,89,98089,1,8,0:0:0:0:
397,89,98239,1,0,0:0:0:0:
405,80,98539,1,8,0:0:0:0:
403,81,98614,1,8,0:0:0:0:
403,81,98689,1,8,0:0:0:0:
403,81,98839,1,0,0:0:0:0:
403,81,98989,1,8,0:0:0:0:
407,85,99289,1,0,0:0:0:0:
405,80,99439,1,8,0:0:0:0:
403,81,99589,1,0,0:0:0:0:
403,81,99664,1,0,0:0:0:0:
403,81,99739,1,0,0:0:0:0:
410,84,99889,1,8,0:0:0:0:
412,85,100339,1,4,0:0:0:0:
380,79,100639,1,8,0:0:0:0:
430,97,100789,1,8,0:0:0:0:
412,85,100939,1,0,0:0:0:0:
412,85,101239,1,8,0:0:0:0:
411,81,101389,1,0,0:0:0:0:
400,78,101539,1,12,0:0:0:0:
396,73,101839,1,8,0:0:0:0:
396,73,102139,1,0,0:0:0:0:
391,69,102289,1,0,0:0:0:0:
391,69,102439,1,8,0:0:0:0:
391,69,102589,1,8,0:0:0:0:
396,73,102739,1,0,0:0:0:0:
396,73,103039,1,8,0:0:0:0:
391,69,103339,1,0,0:0:0:0:
391,69,103414,1,0,0:0:0:0:
391,69,103489,1,0,0:0:0:0:
391,69,103639,1,8,0:0:0:0:
396,73,103789,1,0,0:0:0:0:
403,72,103939,1,0,0:0:0:0:
390,81,104239,1,8,0:0:0:0:
390,81,104389,1,0,0:0:0:0:
388,84,104539,1,12,0:0:0:0:
390,81,105139,1,0,0:0:0:0:
390,81,105289,1,0,0:0:0:0:
390,81,105439,1,8,0:0:0:0:
375,82,105589,1,0,0:0:0:0:
375,78,105739,1,4,0:0:0:0:
388,84,106039,1,12,0:0:0:0:
392,73,106339,1,0,0:0:0:0:
390,68,106489,1,0,0:0:0:0:
391,67,106639,1,8,0:0:0:0:
396,71,106789,1,8,0:0:0:0:
393,77,106939,1,0,0:0:0:0:
392,73,107239,1,8,0:0:0:0:
392,73,107389,1,0,0:0:0:0:
390,77,107539,1,8,0:0:0:0:
390,77,107689,1,8,0:0:0:0:
393,77,107839,1,0,0:0:0:0:
392,73,108139,1,0,0:0:0:0:
392,73,108214,1,0,0:0:0:0:
392,73,108289,1,0,0:0:0:0:
392,73,108439,1,8,0:0:0:0:
388,69,108589,1,8,0:0:0:0:
416,76,108739,1,0,0:0:0:0:
415,76,109039,1,8,0:0:0:0:
401,72,109189,1,0,0:0:0:0:
401,73,109339,1,8,0:0:0:0:
401,73,109414,1,8,0:0:0:0:
400,69,109489,1,8,0:0:0:0:
408,74,109639,1,0,0:0:0:0:
408,72,109939,1,4,0:0:0:0:
400,64,110539,1,0,0:0:0:0:
407,64,110764,1,0,0:0:0:0:
407,64,110989,1,0,0:0:0:0:
416,66,111139,1,12,0:0:0:0:
400,72,111439,1,0,0:0:0:0:
400,72,111589,1,0,0:0:0:0:
400,72,111739,1,8,0:0:0:0:
401,71,112039,1,0,0:0:0:0:
400,72,112189,1,8,0:0:0:0:
400,72,112339,1,0,0:0:0:0:
400,72,112489,1,0,0:0:0:0:
400,72,112639,1,8,0:0:0:0:
401,71,112939,1,0,0:0:0:0:
401,71,113014,1,0,0:0:0:0:
400,72,113089,1,0,0:0:0:0:
400,72,113239,1,8,0:0:0:0:
400,72,113389,1,0,0:0:0:0:
401,71,113839,1,8,0:0:0:0:
401,71,113989,1,8,0:0:0:0:
400,72,114139,1,4,0:0:0:0:
407,66,114439,1,8,0:0:0:0:
407,74,114739,1,0,0:0:0:0:
401,71,115039,1,8,0:0:0:0:
400,72,115189,1,8,0:0:0:0:
399,72,115339,1,4,0:0:0:0:
401,71,115939,1,12,0:0:0:0:
417,86,116239,1,0,0:0:0:0:
417,86,116389,1,0,0:0:0:0:
410,79,116539,1,8,0:0:0:0:
410,79,116689,1,0,0:0:0:0:
410,79,116839,1,8,0:0:0:0:
420,82,116989,1,8,0:0:0:0:
417,86,117139,1,0,0:0:0:0:
425,83,117289,1,8,0:0:0:0:
426,83,117439,1,0,0:0:0:0:
430,83,117739,1,0,0:0:0:0:
426,86,117889,1,8,0:0:0:0:
429,85,118189,1,0,0:0:0:0:
425,83,118339,1,8,0:0:0:0:
421,73,118564,1,0,0:0:0:0:
421,73,118639,1,0,0:0:0:0:
440,87,118939,1,0,0:0:0:0:
437,81,119164,1,8,0:0:0:0:
440,78,119239,1,8,0:0:0:0:
431,84,119539,1,4,0:0:0:0:
420,80,119839,1,8,0:0:0:0:
420,80,119989,1,8,0:0:0:0:
418,92,120139,1,0,0:0:0:0:
431,90,120739,1,12,0:0:0:0:
435,91,121039,1,0,0:0:0:0:
435,91,121189,1,0,0:0:0:0:
431,90,121339,1,8,0:0:0:0:
431,90,121489,1,0,0:0:0:0:
431,90,121639,1,8,0:0:0:0:
431,90,121789,1,8,0:0:0:0:
435,91,121939,1,0,0:0:0:0:
435,91,122089,1,8,0:0:0:0:
437,95,122239,1,0,0:0:0:0:
440,94,122539,1,12,0:0:0:0:
437,92,122839,1,8,0:0:0:0:
435,91,122914,1,8,0:0:0:0:
435,91,122989,1,8,0:0:0:0:
456,102,123139,1,0,0:0:0:0:
450,93,123289,1,8,0:0:0:0:
449,90,123439,1,0,0:0:0:0:
422,91,123739,1,12,0:0:0:0:
450,93,124339,1,0,0:0:0:0:
449,90,124414,1,0,0:0:0:0:
445,92,124489,1,0,0:0:0:0:
443,92,124639,1,8,0:0:0:0:
441,90,124789,1,8,0:0:0:0:
452,97,124939,1,4,0:0:0:0:
455,91,125539,1,12,0:0:0:0:
462,87,125839,1,0,0:0:0:0:
462,87,125989,1,0,0:0:0:0:
455,91,126139,1,8,0:0:0:0:
455,91,126289,1,0,0:0:0:0:
455,91,126439,1,8,0:0:0:0:
455,91,126589,1,8,0:0:0:0:
462,87,126739,1,0,0:0:0:0:
451,81,126889,1,8,0:0:0:0:
451,81,127039,1,0,0:0:0:0:
447,86,127339,1,8,0:0:0:0:
447,86,127489,1,0,0:0:0:0:
436,86,127789,1,8,0:0:0:0:
454,87,127939,1,0,0:0:0:0:
437,81,128164,1,8,0:0:0:0:
429,75,128239,1,8,0:0:0:0:
449,79,128539,1,8,0:0:0:0:
449,79,128764,1,0,0:0:0:0:
447,79,128839,1,0,0:0:0:0:
437,81,128989,1,8,0:0:0:0:
428,81,129139,1,4,0:0:0:0:
427,81,129439,1,8,0:0:0:0:
426,81,129514,1,8,0:0:0:0:
426,80,129589,1,8,0:0:0:0:
425,80,129739,1,0,0:0:0:0:
427,81,130339,1,12,0:0:0:0:
426,80,130639,1,8,0:0:0:0:
427,81,130789,1,0,0:0:0:0:
427,81,130939,1,0,0:0:0:0:
427,81,131089,1,8,0:0:0:0:
427,81,131164,1,8,0:0:0:0:
427,81,131239,1,8,0:0:0:0:
412,88,131389,1,0,0:0:0:0:
434,90,131539,1,8,0:0:0:0:
418,87,131689,1,0,0:0:0:0:
415,80,131839,1,8,0:0:0:0:
415,80,131989,1,0,0:0:0:0:
412,79,132064,1,0,0:0:0:0:
409,79,132139,1,0,0:0:0:0:
412,88,132364,1,0,0:0:0:0:
411,84,132589,1,0,0:0:0:0:
415,80,132739,1,8,0:0:0:0:
412,79,133039,1,8,0:0:0:0:
412,88,133189,1,8,0:0:0:0:
412,88,133339,1,0,0:0:0:0:
423,88,133939,1,0,0:0:0:0:
412,88,134239,1,8,0:0:0:0:
413,90,134539,1,4,0:0:0:0:
312,168,144139,5,4,0:0:0:0:
312,168,144589,1,8,0:0:0:0:
312,168,144889,1,8,0:0:0:0:
312,168,145339,1,8,0:0:0:0:
312,168,145789,1,8,0:0:0:0:
344,155,146539,1,8,0:0:0:0:
344,155,146989,1,8,0:0:0:0:
344,155,147289,1,8,0:0:0:0:
344,155,147739,1,8,0:0:0:0:
344,155,148039,1,8,0:0:0:0:
344,155,148339,1,8,0:0:0:0:
344,155,148939,1,8,0:0:0:0:
344,155,149389,1,8,0:0:0:0:
344,155,149689,1,8,0:0:0:0:
344,155,150139,1,8,0:0:0:0:
344,155,150589,1,8,0:0:0:0:
344,155,151339,1,8,0:0:0:0:
344,155,151789,1,8,0:0:0:0:
344,155,152089,1,8,0:0:0:0:
342,140,152539,1,12,0:0:0:0:
357,144,152839,1,0,0:0:0:0:
357,144,152989,1,0,0:0:0:0:
356,142,153139,1,8,0:0:0:0:
367,136,153739,1,12,0:0:0:0:
378,133,154039,1,0,0:0:0:0:
378,133,154189,1,0,0:0:0:0:
378,133,154339,1,8,0:0:0:0:
367,136,154639,1,0,0:0:0:0:
367,136,154789,1,0,0:0:0:0:
371,138,154939,1,8,0:0:0:0:
378,133,155239,1,0,0:0:0:0:
376,129,155539,1,8,0:0:0:0:
378,128,155689,1,0,0:0:0:0:
378,128,155839,1,0,0:0:0:0:
378,126,155989,1,0,0:0:0:0:
378,133,156139,1,8,0:0:0:0:
374,112,156439,1,0,0:0:0:0:
390,131,156589,1,8,0:0:0:0:
374,112,156739,1,8,0:0:0:0:
389,131,157039,1,0,0:0:0:0:
378,133,157189,1,8,0:0:0:0:
385,118,157339,1,0,0:0:0:0:
384,118,157489,1,0,0:0:0:0:
377,120,157639,1,8,0:0:0:0:
377,120,157939,1,8,0:0:0:0:
377,120,158089,1,8,0:0:0:0:
381,110,158239,1,0,0:0:0:0:
369,104,158539,1,12,0:0:0:0:
372,113,158989,1,0,0:0:0:0:
372,113,159139,1,8,0:0:0:0:
369,104,159439,1,0,0:0:0:0:
383,109,159589,1,0,0:0:0:0:
383,109,159739,1,8,0:0:0:0:
390,115,160039,1,0,0:0:0:0:
376,115,160339,1,8,0:0:0:0:
375,113,160489,1,0,0:0:0:0:
376,115,160639,1,0,0:0:0:0:
376,115,160789,1,0,0:0:0:0:
375,112,160939,1,8,0:0:0:0:
377,99,161239,1,0,0:0:0:0:
377,99,161389,1,8,0:0:0:0:
377,101,161539,1,8,0:0:0:0:
388,104,161839,1,0,0:0:0:0:
385,95,161989,1,8,0:0:0:0:
383,103,162139,1,8,0:0:0:0:
397,108,162439,1,8,0:0:0:0:
386,94,162589,1,0,0:0:0:0:
388,104,162739,1,8,0:0:0:0:
379,98,162814,1,8,0:0:0:0:
385,95,162889,1,8,0:0:0:0:
371,98,163039,1,0,0:0:0:0:
371,98,163339,1,12,0:0:0:0:
379,98,163789,1,8,0:0:0:0:
371,101,163939,1,0,0:0:0:0:
366,108,164239,1,8,0:0:0:0:
366,108,164389,1,0,0:0:0:0:
370,101,164539,1,8,0:0:0:0:
371,101,164839,1,0,0:0:0:0:
366,108,165139,1,8,0:0:0:0:
364,94,165289,1,8,0:0:0:0:
364,94,165439,1,0,0:0:0:0:
362,94,165589,1,0,0:0:0:0:
361,92,165739,1,8,0:0:0:0:
368,95,166039,1,0,0:0:0:0:
368,88,166189,1,8,0:0:0:0:
364,94,166339,1,8,0:0:0:0:
373,92,166639,1,0,0:0:0:0:
371,89,166789,1,8,0:0:0:0:
368,95,166939,1,0,0:0:0:0:
369,95,167089,1,0,0:0:0:0:
364,94,167239,1,8,0:0:0:0:
367,96,167539,1,8,0:0:0:0:
367,97,167689,1,8,0:0:0:0:
372,84,167839,1,0,0:0:0:0:
369,95,167989,1,0,0:0:0:0:
371,91,168139,1,8,0:0:0:0:
389,101,168439,1,0,0:0:0:0:
385,94,168589,1,0,0:0:0:0:
380,92,168739,1,8,0:0:0:0:
377,92,169039,1,0,0:0:0:0:
371,91,169189,1,0,0:0:0:0:
379,95,169339,1,8,0:0:0:0:
379,95,169414,1,8,0:0:0:0:
376,98,169489,1,8,0:0:0:0:
380,98,169639,1,0,0:0:0:0:
377,92,169939,1,8,0:0:0:0:
377,92,170089,1,0,0:0:0:0:
379,95,170239,1,8,0:0:0:0:
379,95,170314,1,8,0:0:0:0:
379,95,170389,1,8,0:0:0:0:
382,78,170539,1,4,0:0:0:0:
390,90,171739,1,8,0:0:0:0:
390,90,171889,1,0,0:0:0:0:
390,90,171964,1,0,0:0:0:0:
381,83,172039,1,0,0:0:0:0:
382,82,172189,1,0,0:0:0:0:
372,95,172339,1,8,0:0:0:0:
384,83,172489,1,0,0:0:0:0:
384,82,172639,1,8,0:0:0:0:
390,90,172939,1,12,0:0:0:0:
416,94,173239,1,0,0:0:0:0:
410,100,173439,1,0,0:0:0:0:
407,101,173539,1,8,0:0:0:0:
415,96,173839,1,8,0:0:0:0:
416,94,174139,1,0,0:0:0:0:
410,100,174339,1,8,0:0:0:0:
424,107,174439,1,0,0:0:0:0:
424,107,174739,1,8,0:0:0:0:
426,97,175339,1,12,0:0:0:0:
424,107,175639,1,0,0:0:0:0:
419,117,175789,1,8,0:0:0:0:
437,115,175864,1,8,0:0:0:0:
442,115,175939,1,8,0:0:0:0:
437,114,176089,1,8,0:0:0:0:
437,114,176239,1,0,0:0:0:0:
446,118,176539,1,8,0:0:0:0:
435,117,176689,1,0,0:0:0:0:
435,117,176764,1,0,0:0:0:0:
437,115,176839,1,0,0:0:0:0:
428,115,176989,1,8,0:0:0:0:
437,114,177139,1,0,0:0:0:0:
453,127,177439,1,8,0:0:0:0:
441,128,177589,1,8,0:0:0:0:
435,117,177739,1,4,0:0:0:0:
435,117,178339,1,12,0:0:0:0:
442,118,178639,1,0,0:0:0:0:
442,118,178789,1,0,0:0:0:0:
442,117,178939,1,8,0:0:0:0:
435,117,179089,1,8,0:0:0:0:
435,117,179239,1,0,0:0:0:0:
435,117,179389,1,8,0:0:0:0:
442,118,179539,1,0,0:0:0:0:
442,118,179614,1,0,0:0:0:0:
442,118,179689,1,0,0:0:0:0:
442,117,179839,1,8,0:0:0:0:
435,117,180139,1,0,0:0:0:0:
435,117,180289,1,8,0:0:0:0:
435,114,180439,1,0,0:0:0:0:
435,114,180589,1,0,0:0:0:0:
435,114,180739,1,0,0:0:0:0:
435,114,180889,1,8,0:0:0:0:
435,117,181039,1,0,0:0:0:0:
435,117,181189,1,0,0:0:0:0:
435,114,181339,1,8,0:0:0:0:
435,114,181489,1,0,0:0:0:0:
435,114,181564,1,0,0:0:0:0:
435,114,181639,1,0,0:0:0:0:
435,117,181939,1,8,0:0:0:0:
422,115,182089,1,0,0:0:0:0:
422,115,182239,1,8,0:0:0:0:
423,131,182539,1,4,0:0:0:0:
424,135,183139,1,12,0:0:0:0:
386,144,183439,1,0,0:0:0:0:
397,128,183589,1,0,0:0:0:0:
421,158,183739,1,8,0:0:0:0:
422,150,183889,1,0,0:0:0:0:
424,148,184039,1,8,0:0:0:0:
411,144,184189,1,8,0:0:0:0:
411,144,184339,1,0,0:0:0:0:
401,143,184489,1,8,0:0:0:0:
432,136,184639,1,0,0:0:0:0:
421,134,184714,1,0,0:0:0:0:
432,136,184789,1,0,0:0:0:0:
428,137,184939,1,8,0:0:0:0:
419,126,185239,1,0,0:0:0:0:
419,126,185389,1,0,0:0:0:0:
418,125,185539,1,8,0:0:0:0:
418,129,185839,1,0,0:0:0:0:
420,129,185989,1,8,0:0:0:0:
419,126,186139,1,0,0:0:0:0:
419,126,186289,1,0,0:0:0:0:
419,126,186439,1,8,0:0:0:0:
418,129,186739,1,0,0:0:0:0:
414,117,187039,1,8,0:0:0:0:
414,117,187189,1,8,0:0:0:0:
414,117,187339,1,4,0:0:0:0:
414,117,187939,1,12,0:0:0:0:
428,118,188239,1,0,0:0:0:0:
420,123,188389,1,8,0:0:0:0:
420,124,188539,1,0,0:0:0:0:
419,121,188689,1,8,0:0:0:0:
419,121,188764,1,8,0:0:0:0:
419,121,188839,1,8,0:0:0:0:
419,121,188989,1,0,0:0:0:0:
421,124,189139,1,8,0:0:0:0:
420,123,189289,1,8,0:0:0:0:
420,123,189439,1,0,0:0:0:0:
420,124,189514,1,0,0:0:0:0:
426,120,189589,1,0,0:0:0:0:
419,121,189739,1,8,0:0:0:0:
420,117,190039,1,0,0:0:0:0:
420,117,190189,1,0,0:0:0:0:
424,117,190339,1,8,0:0:0:0:
430,114,190639,1,0,0:0:0:0:
430,113,190939,1,12,0:0:0:0:
405,91,191539,5,8,0:0:0:0:
405,91,191614,1,8,0:0:0:0:
406,90,191689,1,8,0:0:0:0:
406,89,191839,1,0,0:0:0:0:
397,89,192139,1,0,0:0:0:0:
388,83,192214,1,0,0:0:0:0:
388,83,192289,1,0,0:0:0:0:
382,83,192439,1,8,0:0:0:0:
392,78,192589,1,0,0:0:0:0:
394,80,192739,1,12,0:0:0:0:
397,89,193039,1,0,0:0:0:0:
397,89,193189,1,0,0:0:0:0:
394,84,193339,1,8,0:0:0:0:
394,80,193639,1,8,0:0:0:0:
397,89,193789,1,0,0:0:0:0:
397,89,193939,1,8,0:0:0:0:
397,89,194089,1,8,0:0:0:0:
397,89,194239,1,0,0:0:0:0:
405,80,194539,1,8,0:0:0:0:
403,81,194614,1,8,0:0:0:0:
403,81,194689,1,8,0:0:0:0:
403,81,194839,1,0,0:0:0:0:
403,81,194989,1,8,0:0:0:0:
407,85,195289,1,0,0:0:0:0:
405,80,195439,1,8,0:0:0:0:
403,81,195589,1,0,0:0:0:0:
403,81,195664,1,0,0:0:0:0:
403,81,195739,1,0,0:0:0:0:
410,84,195889,1,8,0:0:0:0:
412,85,196339,1,0,0:0:0:0:
380,79,196639,1,8,0:0:0:0:
430,97,196789,1,8,0:0:0:0:
412,85,196939,1,0,0:0:0:0:
412,85,197239,1,8,0:0:0:0:
411,81,197389,1,0,0:0:0:0:
400,78,197539,1,12,0:0:0:0:
396,73,197839,1,8,0:0:0:0:
396,73,198139,1,0,0:0:0:0:
391,69,198289,1,0,0:0:0:0:
391,69,198439,1,8,0:0:0:0:
391,69,198589,1,8,0:0:0:0:
396,73,198739,1,0,0:0:0:0:
396,73,199039,1,8,0:0:0:0:
391,69,199339,1,0,0:0:0:0:
391,69,199414,1,0,0:0:0:0:
391,69,199489,1,0,0:0:0:0:
391,69,199639,1,8,0:0:0:0:
396,73,199789,1,8,0:0:0:0:
403,72,199939,1,0,0:0:0:0:
390,81,200239,1,0,0:0:0:0:
390,81,200389,1,0,0:0:0:0:
388,84,200539,1,12,0:0:0:0:
390,81,201139,1,0,0:0:0:0:
390,81,201289,1,0,0:0:0:0:
390,81,201439,1,8,0:0:0:0:
375,82,201589,1,0,0:0:0:0:
375,78,201739,1,4,0:0:0:0:
388,84,202039,1,12,0:0:0:0:
392,73,202339,1,0,0:0:0:0:
390,68,202489,1,0,0:0:0:0:
391,67,202639,1,8,0:0:0:0:
396,71,202789,1,8,0:0:0:0:
393,77,202939,1,0,0:0:0:0:
392,73,203239,1,8,0:0:0:0:
392,73,203389,1,0,0:0:0:0:
390,77,203539,1,8,0:0:0:0:
390,77,203689,1,8,0:0:0:0:
393,77,203839,1,0,0:0:0:0:
392,73,204139,1,0,0:0:0:0:
392,73,204214,1,0,0:0:0:0:
392,73,204289,1,0,0:0:0:0:
392,73,204439,1,8,0:0:0:0:
388,69,204589,1,8,0:0:0:0:
416,76,204739,1,0,0:0:0:0:
415,76,205039,1,8,0:0:0:0:
401,72,205189,1,0,0:0:0:0:
401,73,205339,1,8,0:0:0:0:
401,73,205414,1,8,0:0:0:0:
400,69,205489,1,8,0:0:0:0:
408,74,205639,1,0,0:0:0:0:
408,72,205939,1,4,0:0:0:0:
400,64,206539,1,0,0:0:0:0:
407,64,206764,1,0,0:0:0:0:
407,64,206989,1,0,0:0:0:0:
416,66,207139,1,12,0:0:0:0:
400,72,207439,1,0,0:0:0:0:
400,72,207589,1,0,0:0:0:0:
400,72,207739,1,8,0:0:0:0:
401,71,208039,1,0,0:0:0:0:
400,72,208189,1,8,0:0:0:0:
400,72,208339,1,0,0:0:0:0:
400,72,208489,1,0,0:0:0:0:
400,72,208639,1,8,0:0:0:0:
401,71,208939,1,0,0:0:0:0:
401,71,209014,1,0,0:0:0:0:
400,72,209089,1,0,0:0:0:0:
400,72,209239,1,8,0:0:0:0:
400,72,209389,1,0,0:0:0:0:
401,71,209839,1,8,0:0:0:0:
401,71,209989,1,8,0:0:0:0:
400,72,210139,1,4,0:0:0:0:
407,66,210439,1,8,0:0:0:0:
407,74,210739,1,0,0:0:0:0:
401,71,211039,1,8,0:0:0:0:
400,72,211189,1,8,0:0:0:0:
399,72,211339,1,4,0:0:0:0:
401,71,211639,1,12,0:0:0:0:
405,86,211939,1,8,0:0:0:0:
397,78,212089,1,8,0:0:0:0:
417,86,212239,1,0,0:0:0:0:
417,86,212389,1,0,0:0:0:0:
410,79,212539,1,8,0:0:0:0:
410,79,212689,1,0,0:0:0:0:
410,79,212839,1,8,0:0:0:0:
417,86,213139,1,0,0:0:0:0:
425,83,213289,1,8,0:0:0:0:
426,83,213439,1,0,0:0:0:0:
410,79,213514,1,0,0:0:0:0:
410,79,213589,1,0,0:0:0:0:
430,83,213739,1,0,0:0:0:0:
426,86,213889,1,8,0:0:0:0:
429,85,214189,1,8,0:0:0:0:
425,83,214339,1,0,0:0:0:0:
421,73,214564,1,8,0:0:0:0:
421,73,214639,1,8,0:0:0:0:
440,87,214939,1,8,0:0:0:0:
437,81,215164,1,0,0:0:0:0:
440,78,215239,1,0,0:0:0:0:
431,84,215539,1,0,0:0:0:0:
425,83,215614,1,0,0:0:0:0:
423,81,215689,1,0,0:0:0:0:
420,80,215839,1,8,0:0:0:0:
420,80,215989,1,8,0:0:0:0:
412,89,216139,1,0,0:0:0:0:
403,92,216739,1,8,0:0:0:0:
405,92,216889,1,8,0:0:0:0:
435,91,217039,1,0,0:0:0:0:
435,91,217189,1,0,0:0:0:0:
431,90,217339,1,8,0:0:0:0:
431,90,217489,1,0,0:0:0:0:
431,90,217639,1,8,0:0:0:0:
435,91,217939,1,0,0:0:0:0:
435,91,218089,1,8,0:0:0:0:
437,95,218239,1,0,0:0:0:0:
399,97,218314,1,0,0:0:0:0:
398,91,218389,1,0,0:0:0:0:
440,94,218539,1,0,0:0:0:0:
437,92,218689,1,8,0:0:0:0:
435,91,218989,1,8,0:0:0:0:
456,102,219139,1,0,0:0:0:0:
450,93,219289,1,8,0:0:0:0:
449,90,219439,1,0,0:0:0:0:
422,91,219739,1,4,0:0:0:0:
450,93,220339,1,0,0:0:0:0:
449,90,220414,1,0,0:0:0:0:
445,92,220489,1,0,0:0:0:0:
443,92,220639,1,8,0:0:0:0:
441,90,220789,1,8,0:0:0:0:
452,97,220939,1,0,0:0:0:0:
439,91,221089,1,0,0:0:0:0:
432,90,221239,1,12,0:0:0:0:
455,91,221539,1,8,0:0:0:0:
456,91,221689,1,8,0:0:0:0:
462,87,221839,1,0,0:0:0:0:
462,87,221989,1,0,0:0:0:0:
455,91,222139,1,8,0:0:0:0:
455,91,222289,1,0,0:0:0:0:
455,91,222439,1,8,0:0:0:0:
462,87,222739,1,0,0:0:0:0:
451,81,222889,1,8,0:0:0:0:
451,81,223039,1,0,0:0:0:0:
445,81,223114,1,0,0:0:0:0:
446,81,223189,1,0,0:0:0:0:
447,86,223339,1,8,0:0:0:0:
447,86,223489,1,8,0:0:0:0:
436,86,223789,1,8,0:0:0:0:
454,87,223939,1,0,0:0:0:0:
437,81,224164,1,8,0:0:0:0:
429,75,224239,1,8,0:0:0:0:
449,79,224539,1,8,0:0:0:0:
449,79,224764,1,0,0:0:0:0:
447,79,224839,1,0,0:0:0:0:
437,81,224989,1,8,0:0:0:0:
428,81,225139,1,0,0:0:0:0:
449,83,225289,1,0,0:0:0:0:
427,81,225439,1,8,0:0:0:0:
426,80,225589,1,8,0:0:0:0:
425,80,225739,1,4,0:0:0:0:
427,81,226339,1,12,0:0:0:0:
426,80,226639,1,8,0:0:0:0:
427,81,226789,1,0,0:0:0:0:
427,81,226939,1,0,0:0:0:0:
427,81,227089,1,8,0:0:0:0:
427,81,227164,1,8,0:0:0:0:
427,81,227239,1,8,0:0:0:0:
412,88,227389,1,0,0:0:0:0:
434,90,227539,1,8,0:0:0:0:
418,87,227689,1,0,0:0:0:0:
415,80,227839,1,8,0:0:0:0:
415,80,227989,1,0,0:0:0:0:
412,79,228064,1,0,0:0:0:0:
409,79,228139,1,0,0:0:0:0:
412,88,228364,1,0,0:0:0:0:
411,84,228589,1,0,0:0:0:0:
415,80,228739,1,8,0:0:0:0:
412,79,229039,1,8,0:0:0:0:
412,88,229189,1,8,0:0:0:0:
412,88,229339,1,4,0:0:0:0:
420,87,229939,1,8,0:0:0:0:
376,100,230239,1,8,0:0:0:0:
403,83,230389,1,8,0:0:0:0:
346,126,230539,5,4,0:0:0:0:
346,126,230839,1,8,0:0:0:0:
346,126,230989,1,0,0:0:0:0:
361,115,231139,1,0,0:0:0:0:
362,115,231439,1,8,0:0:0:0:
368,107,231739,1,0,0:0:0:0:
367,117,232039,1,8,0:0:0:0:
362,115,232189,1,0,0:0:0:0:
362,115,232339,1,0,0:0:0:0:
312,107,232639,1,8,0:0:0:0:
366,92,232939,1,0,0:0:0:0:
366,92,233089,1,0,0:0:0:0:
366,92,233239,1,8,0:0:0:0:
371,94,233389,1,0,0:0:0:0:
366,92,233689,1,0,0:0:0:0:
366,92,233839,1,8,0:0:0:0:
374,90,234139,1,0,0:0:0:0:
368,84,234439,1,8,0:0:0:0:
369,84,234739,1,0,0:0:0:0:
356,77,235339,1,0,0:0:0:0:
372,90,235489,1,0,0:0:0:0:
356,75,235639,1,8,0:0:0:0:
372,91,235789,1,0,0:0:0:0:
356,77,235939,1,0,0:0:0:0:
394,111,236239,1,8,0:0:0:0:
374,83,236539,1,0,0:0:0:0:
372,91,236839,1,8,0:0:0:0:
384,85,236989,1,0,0:0:0:0:
377,90,237139,1,0,0:0:0:0:
385,85,237439,1,8,0:0:0:0:
382,88,237739,1,0,0:0:0:0:
389,86,237889,1,0,0:0:0:0:
384,85,238039,1,8,0:0:0:0:
389,82,238339,1,8,0:0:0:0:
369,75,238414,1,8,0:0:0:0:
385,85,238489,1,8,0:0:0:0:
389,82,238639,1,0,0:0:0:0:
389,74,238939,1,12,0:0:0:0:
399,88,239539,1,0,0:0:0:0:
402,89,239689,1,0,0:0:0:0:
409,77,239839,1,8,0:0:0:0:
386,73,240139,1,12,0:0:0:0:
409,78,240439,1,8,0:0:0:0:
409,85,240589,1,0,0:0:0:0:
409,77,240889,1,0,0:0:0:0:
402,79,241039,1,8,0:0:0:0:
409,78,241339,1,0,0:0:0:0:
409,85,241639,1,8,0:0:0:0:
409,77,241789,1,0,0:0:0:0:
409,78,242239,1,8,0:0:0:0:
419,66,242314,1,8,0:0:0:0:
419,67,242389,1,8,0:0:0:0:
418,68,242539,1,0,0:0:0:0:
416,69,242839,1,8,0:0:0:0:
412,69,242989,1,0,0:0:0:0:
415,68,243289,1,0,0:0:0:0:
418,68,243439,1,8,0:0:0:0:
416,69,243739,1,0,0:0:0:0:
422,69,244039,1,8,0:0:0:0:
415,68,244189,1,0,0:0:0:0:
415,68,244339,1,8,0:0:0:0:
413,67,244939,1,4,0:0:0:0:
415,68,245239,1,8,0:0:0:0:
413,67,245539,1,8,0:0:0:0:
413,67,245839,1,8,0:0:0:0:
415,68,246064,1,0,0:0:0:0:
415,68,246139,1,0,0:0:0:0:
413,67,246439,1,0,0:0:0:0:
421,64,246589,1,0,0:0:0:0:
413,67,246739,1,0,0:0:0:0:
415,68,247039,1,0,0:0:0:0:
422,65,247339,1,8,0:0:0:0:
422,66,247489,1,8,0:0:0:0:
421,64,247639,1,0,0:0:0:0:
422,66,247789,1,0,0:0:0:0:
425,74,247939,1,8,0:0:0:0:
422,65,248239,1,8,0:0:0:0:
430,69,248539,1,0,0:0:0:0:
412,71,248614,1,0,0:0:0:0:
412,70,248689,1,0,0:0:0:0:
414,71,248839,1,8,0:0:0:0:
414,71,248989,1,0,0:0:0:0:
411,73,249139,1,8,0:0:0:0:
430,69,249439,1,0,0:0:0:0:
414,71,249739,1,4,0:0:0:0:
