osu file format v14

[General]
AudioFilename: audio.mp3
AudioLeadIn: 0
PreviewTime: 96083
Countdown: 0
SampleSet: Normal
StackLeniency: 0.7
Mode: 1
LetterboxInBreaks: 0
WidescreenStoryboard: 0

[Editor]
DistanceSpacing: 4
BeatDivisor: 4
GridSize: 32
TimelineZoom: 2.200001

[Metadata]
Title:Trigger (Zekk Remix)
TitleUnicode:Trigger (Zekk Remix)
Artist:Dustvoxx
ArtistUnicode:Dustvoxx
Creator:Nifty
Version:Inner Oni
Source:
Tags:sv supernatural pumpcore hardtek cyclik control electronic instrumental genjuro
BeatmapID:2137043
BeatmapSetID:1004571

[Difficulty]
HPDrainRate:5
CircleSize:2
OverallDifficulty:6
ApproachRate:10
SliderMultiplier:1.4
SliderTickRate:1

[Events]
//Background and Video events
0,0,"DDM.jpg",0,100
//Break Periods
2,38739,47689
2,134739,143689
//Storyboard Layer 0 (Background)
//Storyboard Layer 1 (Fail)
//Storyboard Layer 2 (Pass)
//Storyboard Layer 3 (Foreground)
//Storyboard Layer 4 (Overlay)
//Storyboard Sound Samples

[TimingPoints]
139,300,4,1,0,70,1,0
139,-125,4,1,0,70,0,0
8464,-111.111111111111,4,1,0,70,0,0
8839,-142.857142857143,4,1,0,70,0,0
8914,-139.55721287499,4,1,0,70,0,0
8989,-136.406480399071,4,1,0,70,0,0
9064,-133.394694892984,4,1,0,70,0,0
9139,-130.513033684109,4,1,0,70,0,0
9289,-125.107905568553,4,1,0,70,0,0
9439,-120.132530207325,4,1,0,70,0,0
9589,-115.537880827297,4,1,0,70,0,0
9664,-113.369815740038,4,1,0,70,0,0
9739,-111.281619281098,4,1,0,80,0,0
14539,-111.111111111111,4,1,0,80,0,0
14689,-109.591683306337,4,1,0,80,0,0
14839,-108.113133907847,4,1,0,80,0,0
14989,-106.674062735016,4,1,0,80,0,0
15064,-105.968798546956,4,1,0,80,0,0
15139,-105.272798666825,4,1,0,80,0,0
15289,-103.907763156801,4,1,0,80,0,0
15439,-102.577779601383,4,1,0,80,0,0
15589,-101.281412430065,4,1,0,80,0,0
15664,-100.645337906657,4,1,0,80,0,0
15739,-100.017302993418,4,1,0,80,0,0
15889,-98.7844572534957,4,1,0,80,0,0
16039,-97.5816343557612,4,1,0,80,0,0
16189,-96.4076578530786,4,1,0,80,0,0
16264,-95.8312450107858,4,1,0,80,0,0
16339,-95.2616838455237,4,1,0,80,0,0
16489,-94.142633621347,4,1,0,80,0,0
16639,-93.0494827844499,4,1,0,80,0,0
16789,-91.9815117161451,4,1,0,80,0,0
16939,-90.9377776444024,4,1,0,90,0,0
17014,-90.4246613370371,4,1,0,90,0,0
17089,-89.9173839076657,4,1,0,90,0,0
17164,-89.4157663244129,4,1,0,90,0,0
17239,-88.9197143898774,4,1,0,90,0,0
17314,-88.429135985441,4,1,0,90,0,0
17389,-87.9439410142399,4,1,0,90,0,0
17464,-87.4639648464833,4,1,0,90,0,0
17539,-86.9892750922739,4,1,0,90,0,0
17614,-86.5197100551477,4,1,0,90,0,0
17689,-86.0551871915459,4,1,0,90,0,0
17764,-85.5956257211431,4,1,0,90,0,0
17839,-85.1409465800159,4,1,0,90,0,0
17914,-84.69100064958,4,1,0,90,0,0
17989,-84.2458563675546,4,1,0,90,0,0
18064,-83.8053670633175,4,1,0,90,0,0
18139,-83.3694600993764,4,1,0,90,0,0
18214,-84.3313242800846,4,1,0,90,0,0
18289,-85.3535086266791,4,1,0,90,0,0
18439,-87.4741404572273,4,1,0,90,0,0
18589,-89.7027519907283,4,1,0,90,0,0
18739,-92.0478906765612,4,1,0,90,0,0
18889,-94.5190304615931,4,1,0,90,0,0
19039,-97.1264178028839,4,1,0,90,0,0
19189,-99.8818397835361,4,1,0,90,0,0
19339,-95.2380952380952,4,1,0,100,0,0
19414,-96.3618580493469,4,1,0,100,0,0
19489,-97.5124572164094,4,1,0,100,0,0
19564,-98.6908656669282,4,1,0,100,0,0
19639,-99.8981039339873,4,1,0,100,0,0
27664,-83.2625601571997,4,1,0,100,0,0
28339,-125,4,1,0,100,0,0
28439,-120.098048046425,4,1,0,100,0,0
28539,-115.566054089536,4,1,0,100,0,0
28639,-111.363659142567,4,1,0,100,0,0
28789,-105.263157894737,4,1,0,100,0,0
28939,-100,4,1,0,100,0,0
29089,-95.2380952380952,4,1,0,100,0,0
29239,-90.8248714828068,4,1,0,100,0,0
29289,-99.8981039339873,4,1,0,100,0,0
33139,-100,4,1,0,100,0,0
33289,-101.671272375305,4,1,0,100,0,0
33364,-102.528138847707,4,1,0,100,0,0
33439,-103.399464183977,4,1,0,100,0,0
33589,-105.18731230639,4,1,0,100,0,0
33739,-90.9090909090909,4,1,0,100,0,0
33814,-92.1658986175115,4,1,0,100,0,0
33889,-93.709909729244,4,1,0,100,0,0
34039,-96.6887020218575,4,1,0,100,0,0
34114,-98.2503576313018,4,1,0,100,0,0
34189,-99.8631874332165,4,1,0,100,0,0
34339,-90.7960086074616,4,1,0,100,0,0
34489,-100,4,1,0,100,0,0
34639,-100.913977897821,4,1,0,100,0,0
34789,-101.844713291855,4,1,0,100,0,0
34939,-102.792882620807,4,1,0,100,0,0
35089,-103.758765021675,4,1,0,100,0,0
35239,-104.743080933931,4,1,0,100,0,0
35389,-105.746251295392,4,1,0,100,0,0
35539,-106.768709080892,4,1,0,100,0,0
35689,-107.811248378788,4,1,0,100,0,0
35839,-108.874229578733,4,1,0,100,0,0
35989,-109.958501661473,4,1,0,100,0,0
36139,-111.111111111111,4,1,0,100,0,0
36289,-109.596847994652,4,1,0,100,0,0
36364,-108.855030136515,4,1,0,100,0,0
36514,-107.401233825374,4,1,0,100,0,0
36589,-106.688744124117,4,1,0,100,0,0
36739,-105.29186378181,4,1,0,100,0,0
36889,-103.931089530398,4,1,0,100,0,0
37039,-102.605039343902,4,1,0,100,0,0
37189,-101.312298198566,4,1,0,100,0,0
37264,-100.678168140595,4,1,0,100,0,0
37339,-100,4,1,0,100,0,0
37639,-108.062663377239,4,1,0,100,0,0
37789,-112.602087867913,4,1,0,100,0,0
37939,-117.539613788337,4,1,0,100,0,0
38239,-128.838418585715,4,1,0,100,0,0
38314,-132.010935785921,4,1,0,100,0,0
38539,-142.540702497598,4,1,0,100,0,0
39689,-153.846153846154,4,1,0,60,0,0
40789,-166.666666666667,4,1,0,60,0,0
48139,-166.666666666667,4,1,0,65,0,0
48439,-165.681140018788,4,1,0,65,0,0
48589,-165.192870936462,4,1,0,65,0,0
48889,-164.224646178,4,1,0,65,0,0
49339,-162.793537096577,4,1,0,65,0,0
49789,-161.387154873569,4,1,0,65,0,0
50239,-160.00486414787,4,1,0,65,0,0
50389,-159.549177843087,4,1,0,65,0,0
50539,-159.096332829528,4,1,0,65,0,0
50839,-158.198060808171,4,1,0,65,0,0
50989,-157.752842311836,4,1,0,65,0,0
51289,-156.869635058481,4,1,0,65,0,0
51739,-155.563333722242,4,1,0,65,0,0
52039,-154.559505409583,4,1,0,65,0,0
52189,-154.278608653796,4,1,0,65,0,0
52639,-153.014695531359,4,1,0,65,0,0
52789,-152.598135861172,4,1,0,65,0,0
52939,-152.183838076396,4,1,0,65,0,0
53239,-151.361725765852,4,1,0,65,0,0
53389,-150.953877552253,4,1,0,65,0,0
53689,-150.145190399116,4,1,0,65,0,0
54139,-148.94805436604,4,1,0,65,0,0
54439,-148.160439977243,4,1,0,65,0,0
54589,-147.769638954441,4,1,0,65,0,0
55039,-146.609938394504,4,1,0,65,0,0
55189,-146.227477312807,4,1,0,65,0,0
55339,-145.846793777009,4,1,0,65,0,0
55639,-145.09176328569,4,1,0,65,0,0
55789,-144.716962564616,4,1,0,65,0,0
56089,-143.973554937429,4,1,0,65,0,0
56389,-143.237540840604,4,1,0,65,0,0
56539,-111.120247664808,4,1,0,75,0,0
56839,-125,4,1,0,75,0,0
56989,-120.03317717017,4,1,0,75,0,0
57139,-115.445846085289,4,1,0,75,0,0
57289,-111.196361655047,4,1,0,75,0,0
57364,-109.186755209846,4,1,0,75,0,0
57439,-107.248496912316,4,1,0,75,0,0
57589,-103.571454464292,4,1,0,75,0,0
57664,-101.825839121284,4,1,0,75,0,0
57739,-83.4292073975007,4,1,0,80,0,0
57789,-111.281619281098,4,1,0,80,0,0
62539,-111.111111111111,4,1,0,90,0,0
62839,-110.345801673284,4,1,0,90,0,0
62989,-109.967086850906,4,1,0,90,0,0
63139,-109.590962690853,4,1,0,90,0,0
63439,-108.846380748994,4,1,0,90,0,0
63589,-108.477871056694,4,1,0,90,0,0
63739,-108.111965075511,4,1,0,90,0,0
64039,-107.387278258694,4,1,0,90,0,0
64339,-106.672242069185,4,1,0,90,0,0
64489,-106.318282917204,4,1,0,90,0,0
64639,-105.966665006522,4,1,0,90,0,0
64789,-105.617365184714,4,1,0,90,0,0
64939,-105.27036060362,4,1,0,90,0,0
65239,-104.583147262484,4,1,0,90,0,0
65389,-104.242894283111,4,1,0,90,0,0
65539,-103.904848096307,4,1,0,90,0,0
65839,-103.235290777682,4,1,0,90,0,0
65989,-102.90373766956,4,1,0,90,0,0
66139,-102.574412607626,4,1,0,90,0,0
66289,-102.247084168777,4,1,0,90,0,0
66439,-101.921838180736,4,1,0,90,0,0
66589,-101.59865483381,4,1,0,90,0,0
66739,-101.27751456877,4,1,0,90,0,0
66814,-101.117653423288,4,1,0,90,0,0
66889,-100.958398072906,4,1,0,90,0,0
67039,-100.641286276152,4,1,0,90,0,0
67189,-100.326160347289,4,1,0,90,0,0
67339,-83.3423620892265,4,1,0,100,0,0
67564,-100,4,1,0,100,0,0
67639,-99.7855608297768,4,1,0,100,0,0
67789,-99.3595284794217,4,1,0,100,0,0
67864,-99.1479227518704,4,1,0,100,0,0
67939,-98.9371185355724,4,1,0,100,0,0
68089,-98.5182849936948,4,1,0,100,0,0
68239,-98.1028863831232,4,1,0,100,0,0
68314,-97.8965937859158,4,1,0,100,0,0
68389,-97.691071524518,4,1,0,100,0,0
68539,-97.2826996338279,4,1,0,100,0,0
68689,-96.8777277135209,4,1,0,100,0,0
68839,-96.4761134790637,4,1,0,100,0,0
68989,-96.0777230348262,4,1,0,100,0,0
69064,-95.8798510410634,4,1,0,100,0,0
69139,-95.6827008547336,4,1,0,100,0,0
69289,-95.2909136302217,4,1,0,100,0,0
69439,-94.9023217853025,4,1,0,100,0,0
69589,-94.5167970525882,4,1,0,100,0,0
69664,-94.3252958748718,4,1,0,100,0,0
69739,-94.1344805188693,4,1,0,100,0,0
69889,-93.7552444339855,4,1,0,100,0,0
70039,-93.379051717054,4,1,0,100,0,0
70189,-93.0058658799611,4,1,0,100,0,0
70264,-92.8203462198914,4,1,0,100,0,0
70339,-92.6355652020058,4,1,0,100,0,0
70489,-92.2682866517315,4,1,0,100,0,0
70639,-91.9039089489593,4,1,0,100,0,0
70789,-91.5423978615696,4,1,0,100,0,0
70864,-91.3626650123934,4,1,0,100,0,0
70939,-91.1836365493194,4,1,0,100,0,0
71089,-90.8277587796382,4,1,0,100,0,0
71239,-90.4746480988562,4,1,0,100,0,0
71389,-90.124272359156,4,1,0,100,0,0
71464,-89.9500597268397,4,1,0,100,0,0
71539,-89.776599908787,4,1,0,100,0,0
71689,-89.4315196024948,4,1,0,100,0,0
71839,-89.0891613235442,4,1,0,100,0,0
71914,-88.9189237253472,4,1,0,100,0,0
71989,-88.7494142538659,4,1,0,100,0,0
72064,-88.5804713721204,4,1,0,100,0,0
72139,-88.4122486329256,4,1,0,100,0,0
72289,-88.0775575740975,4,1,0,100,0,0
72439,-87.7454679465806,4,1,0,100,0,0
72589,-87.4158731490782,4,1,0,100,0,0
72739,-87.0887451731063,4,1,0,100,0,0
72889,-86.7640564278717,4,1,0,100,0,0
73039,-86.4417050107663,4,1,0,100,0,0
73189,-86.1218141387905,4,1,0,100,0,0
73339,-85.8042821485049,4,1,0,100,0,0
73414,-85.6463559188484,4,1,0,100,0,0
73489,-85.4890830440953,4,1,0,100,0,0
73564,-85.3323138966233,4,1,0,100,0,0
73639,-85.1761186605544,4,1,0,100,0,0
73714,-85.0205664750303,4,1,0,100,0,0
73789,-84.8655093840037,4,1,0,100,0,0
73864,-84.7110885967862,4,1,0,100,0,0
73939,-84.5571572560188,4,1,0,100,0,0
74014,-84.4037843280741,4,1,0,100,0,0
74089,-84.2510377621576,4,1,0,100,0,0
74164,-84.0987723261216,4,1,0,100,0,0
74239,-83.947126741693,4,1,0,100,0,0
74314,-83.7959568450822,4,1,0,100,0,0
74389,-83.6453304157842,4,1,0,100,0,0
74464,-83.4953142429647,4,1,0,100,0,0
74539,-83.3457657433901,4,1,0,80,0,0
75739,-125.027975009408,4,1,0,80,0,0
76939,-71.4377052494568,4,1,0,100,0,0
77339,-90.9238867052002,4,1,0,100,0,0
77489,-98.0392156862745,4,1,0,100,0,0
77689,-111.111111111111,4,1,0,100,0,0
77839,-113.625646671962,4,1,0,100,0,0
77989,-116.256629534299,4,1,0,100,0,0
78139,-119.012340389575,4,1,0,100,0,0
78289,-121.901864123306,4,1,0,100,0,0
78439,-124.935189870255,4,1,0,100,0,0
78589,-128.123326389049,4,1,0,100,0,0
78739,-131.478435564391,4,1,0,100,0,0
78889,-135.0139874491,4,1,0,100,0,0
79039,-138.744941012588,4,1,0,100,0,0
79189,-142.687955709659,4,1,0,100,0,0
79339,-117.647058823529,4,1,0,100,0,0
79489,-122.380596311694,4,1,0,100,0,0
79639,-127.510847985392,4,1,0,100,0,0
79789,-133.0902218614,4,1,0,100,0,0
79939,-111.111111111111,4,1,0,100,0,0
80089,-115.323892919459,4,1,0,100,0,0
80239,-119.868576093171,4,1,0,100,0,0
80389,-124.786303455333,4,1,0,100,0,0
80539,-105.263157894737,4,1,0,100,0,0
80689,-109.036628674671,4,1,0,100,0,0
80839,-113.090573109097,4,1,0,100,0,0
80989,-117.457744576389,4,1,0,100,0,0
81139,-90.9090909090909,4,1,0,100,0,0
81214,-93.000935589412,4,1,0,100,0,0
81289,-95.1914061198555,4,1,0,100,0,0
81364,-97.4874558016247,4,1,0,100,0,0
81439,-99.8970061866216,4,1,0,100,0,0
81514,-102.428686587681,4,1,0,100,0,0
81589,-105.092134274118,4,1,0,100,0,0
81664,-108.108108108108,4,1,0,100,0,0
81739,-110.857125120003,4,1,0,100,0,0
82039,-124.67864080333,4,1,0,100,0,0
82289,-99.7942243094741,4,1,0,100,0,0
82489,-111.111111111111,4,1,0,100,0,0
82639,-113.625646671962,4,1,0,100,0,0
82789,-116.256629534299,4,1,0,100,0,0
82939,-119.012340389575,4,1,0,100,0,0
83089,-121.901864123306,4,1,0,100,0,0
83239,-124.935189870255,4,1,0,100,0,0
83389,-128.123326389049,4,1,0,100,0,0
83539,-131.478435564391,4,1,0,100,0,0
83689,-135.0139874491,4,1,0,100,0,0
83839,-138.744941012588,4,1,0,100,0,0
83989,-142.687955709659,4,1,0,100,0,0
84139,-111.111111111111,4,1,0,100,0,0
84289,-115.323892919459,4,1,0,100,0,0
84439,-119.868576093171,4,1,0,100,0,0
84514,-122.278089722771,4,1,0,100,0,0
84589,-124.786303455333,4,1,0,100,0,0
84739,-100,4,1,0,100,0,0
84889,-103.399464183977,4,1,0,100,0,0
85039,-107.038074513485,4,1,0,100,0,0
85189,-110.9422323796,4,1,0,100,0,0
85339,-83.3333333333333,4,1,0,100,0,0
85414,-86.9565217391304,4,1,0,100,0,0
85489,-90.7407256172865,4,1,0,100,0,0
85639,-99.5934594983278,4,1,0,100,0,0
85864,-125,4,1,0,100,0,0
85939,-126.963329181632,4,1,0,100,0,0
86014,-128.989317104757,4,1,0,100,0,0
86089,-131.081011997845,4,1,0,100,0,0
86164,-133.241840602786,4,1,0,100,0,0
86239,-135.474920882646,4,1,0,100,0,0
86389,-140.173422558389,4,1,0,100,0,0
86426,-141.399515848058,4,1,0,100,0,0
86464,-142.647044139275,4,1,0,100,0,0
86539,-71.3760080968944,4,1,0,100,0,0
86939,-90.8239640845716,4,1,0,100,0,0
87089,-97.0873786407767,4,1,0,100,0,0
87270,-111.111111111111,4,1,0,100,0,0
87420,-113.625646671962,4,1,0,100,0,0
87570,-116.256629534299,4,1,0,100,0,0
87720,-119.012340389575,4,1,0,100,0,0
87870,-121.901864123306,4,1,0,100,0,0
88020,-124.935189870255,4,1,0,100,0,0
88170,-128.123326389049,4,1,0,100,0,0
88320,-131.478435564391,4,1,0,100,0,0
88470,-135.0139874491,4,1,0,100,0,0
88620,-138.744941012588,4,1,0,100,0,0
88770,-142.687955709659,4,1,0,100,0,0
88920,-117.647058823529,4,1,0,100,0,0
89070,-122.380596311694,4,1,0,100,0,0
89220,-127.510847985392,4,1,0,100,0,0
89370,-133.0902218614,4,1,0,100,0,0
89520,-111.111111111111,4,1,0,100,0,0
89670,-115.323892919459,4,1,0,100,0,0
89820,-119.868576093171,4,1,0,100,0,0
89970,-124.786303455333,4,1,0,100,0,0
90120,-105.263157894737,4,1,0,100,0,0
90270,-109.036628674671,4,1,0,100,0,0
90420,-113.090573109097,4,1,0,100,0,0
90570,-117.457744576389,4,1,0,100,0,0
90720,-90.9090909090909,4,1,0,100,0,0
90795,-93.000935589412,4,1,0,100,0,0
90870,-95.1914061198555,4,1,0,100,0,0
90945,-97.4874558016247,4,1,0,100,0,0
91020,-99.8970061866216,4,1,0,100,0,0
91095,-102.428686587681,4,1,0,100,0,0
91170,-105.092134274118,4,1,0,100,0,0
91264,-108.108108108108,4,1,0,100,0,0
91320,-110.857125120003,4,1,0,100,0,0
91620,-124.67864080333,4,1,0,100,0,0
91939,-99.7942243094739,4,1,0,100,0,0
92089,-111.111111111111,4,1,0,100,0,0
92239,-113.393212509086,4,1,0,100,0,0
92389,-115.771023439001,4,1,0,100,0,0
92539,-118.250833668377,4,1,0,100,0,0
92689,-120.83905808371,4,1,0,100,0,0
92764,-122.176053249211,4,1,0,100,0,0
92839,-123.543117783538,4,1,0,100,0,0
92989,-126.370967028551,4,1,0,100,0,0
93139,-129.331305418464,4,1,0,100,0,0
93289,-132.433842673892,4,1,0,100,0,0
93439,-135.688708392754,4,1,0,100,0,0
93514,-137.376790191297,4,1,0,100,0,0
93589,-139.107596944084,4,1,0,100,0,0
93664,-140.882572966607,4,1,0,100,0,0
93739,-142.703227233484,4,1,0,100,0,0
93889,-134.661273033811,4,1,0,100,0,0
93964,-130.906329975586,4,1,0,100,0,0
94114,-123.99117678786,4,1,0,100,0,0
94189,-120.800520891846,4,1,0,100,0,0
94339,-114.887857961843,4,1,0,100,0,0
94489,-109.526865844923,4,1,0,100,0,0
94564,-106.951871657754,4,1,0,100,0,0
94639,-104.64399589377,4,1,0,100,0,0
94789,-100.17781562273,4,1,0,100,0,0
94939,-83.3333333333333,4,1,0,100,0,0
95014,-86.9565217391304,4,1,0,100,0,0
95089,-90.7407256172865,4,1,0,100,0,0
95239,-99.5934594983278,4,1,0,100,0,0
95464,-125,4,1,0,100,0,0
95539,-126.871835340657,4,1,0,100,0,0
95614,-128.800749105157,4,1,0,100,0,0
95689,-130.789050340705,4,1,0,100,0,0
95764,-132.839701004401,4,1,0,100,0,0
95839,-134.955680554506,4,1,0,100,0,0
96139,-117.647058823529,4,1,0,100,0,0
96214,-113.516655163646,4,1,0,100,0,0
96289,-109.666438560474,4,1,0,100,0,0
96439,-102.699877068247,4,1,0,100,0,0
96514,-99.5382420949217,4,1,0,100,0,0
96589,-96.5654564118015,4,1,0,100,0,0
96739,-91.1225662301592,4,1,0,100,0,1
103339,-83.3333333333333,4,1,0,100,0,1
103414,-84.7457627118644,4,1,0,100,0,1
103489,-86.0071523547898,4,1,0,100,0,1
103564,-87.4094547310804,4,1,0,100,0,1
103639,-88.8581637105037,4,1,0,100,0,1
103714,-90.3557849387749,4,1,0,100,0,1
103789,-91.9047535895699,4,1,0,100,0,1
103939,-95.1676711614358,4,1,0,100,0,1
104089,-98.6707082188753,4,1,0,100,0,1
104164,-100.520798255763,4,1,0,100,0,1
104239,-102.441592925793,4,1,0,100,0,1
104389,-106.512153036661,4,1,0,100,0,1
104539,-76.8312340479151,4,1,0,100,0,0
105139,-125,4,1,0,100,0,0
105289,-117.71838231399,4,1,0,100,0,0
105439,-111.238541039791,4,1,0,100,0,0
105589,-105.434739059564,4,1,0,100,0,0
105664,-102.754224226158,4,1,0,100,0,0
105739,-71.5339306893439,4,1,0,100,0,0
106039,-83.3333333333333,4,1,0,100,0,1
106189,-86.9565217391304,4,1,0,100,0,1
106339,-90.9090909090909,4,1,0,100,0,1
109939,-83.3333333333333,4,1,0,100,0,1
110014,-85.1063829787234,4,1,0,100,0,1
110089,-86.9175977714328,4,1,0,100,0,1
110164,-88.8278542832347,4,1,0,100,0,1
110239,-90.8239640845716,4,1,0,100,0,1
110339,-93.6293644157855,4,1,0,100,0,1
110439,-98.0392156862745,4,1,0,100,0,1
110539,-100,4,1,0,100,0,1
110614,-98.7780171498393,4,1,0,100,0,1
110689,-97.5855386038632,4,1,0,100,0,1
110764,-96.4215085530699,4,1,0,100,0,1
110839,-95.2848301786114,4,1,0,100,0,1
110914,-94.1747280233855,4,1,0,100,0,1
110989,-93.090194158218,4,1,0,100,0,1
111064,-92.0303552923896,4,1,0,100,0,1
111139,-90.9943774574169,4,1,0,100,0,1
114139,-90.9090909090909,4,1,0,100,0,0
114339,-93.7348559623336,4,1,0,100,0,0
114439,-95.2146089678832,4,1,0,100,0,0
114739,-99.948226818508,4,1,0,100,0,0
114889,-102.495982157499,4,1,0,100,0,0
115039,-105.177134070345,4,1,0,100,0,0
115239,-108.9779287001,4,1,0,100,0,0
115339,-71.3757533710769,4,1,0,100,0,0
115789,-90.823551636822,4,1,0,100,0,0
115939,-97.0873786407767,4,1,0,100,0,0
116089,-111.111111111111,4,1,0,100,0,0
116239,-113.393212509086,4,1,0,100,0,0
116389,-115.771023439001,4,1,0,100,0,0
116539,-118.250833668377,4,1,0,100,0,0
116689,-120.83905808371,4,1,0,100,0,0
116839,-123.543117783538,4,1,0,100,0,0
116989,-126.370967028551,4,1,0,100,0,0
117139,-129.331305418464,4,1,0,100,0,0
117289,-132.433842673892,4,1,0,100,0,0
117439,-135.688708392754,4,1,0,100,0,0
117589,-139.107596944084,4,1,0,100,0,0
117739,-142.857142857143,4,1,0,100,0,0
117889,-141.182317197136,4,1,0,100,0,0
118189,-137.947588193342,4,1,0,100,0,0
118339,-136.385086018074,4,1,0,100,0,0
118414,-135.617125730637,4,1,0,100,0,0
118564,-134.106681865424,4,1,0,100,0,0
118639,-133.364095984807,4,1,0,100,0,0
118789,-131.903325414737,4,1,0,100,0,0
118939,-130.474038275864,4,1,0,100,0,0
119014,-129.771031991155,4,1,0,100,0,0
119164,-128.38733946768,4,1,0,100,0,0
119239,-127.70658135867,4,1,0,100,0,0
119389,-126.366495692798,4,1,0,100,0,0
119539,-111.111111111111,4,1,0,100,0,0
119614,-114.285714285714,4,1,0,100,0,0
119689,-117.370892018779,4,1,0,100,0,0
119839,-105.263157894737,4,1,0,100,0,0
119914,-108.108108108108,4,1,0,100,0,0
119989,-110.864745011086,4,1,0,100,0,0
120139,-99.8003992015964,4,1,0,100,0,0
120439,-125,4,1,0,100,0,0
120664,-100,4,1,0,100,0,0
120889,-111.111111111111,4,1,0,100,0,0
121039,-113.393212509086,4,1,0,100,0,0
121189,-115.771023439001,4,1,0,100,0,0
121339,-118.250833668377,4,1,0,100,0,0
121489,-120.83905808371,4,1,0,100,0,0
121639,-123.543117783538,4,1,0,100,0,0
121789,-126.370967028551,4,1,0,100,0,0
121939,-129.331305418464,4,1,0,100,0,0
122089,-132.433842673892,4,1,0,100,0,0
122239,-135.688708392754,4,1,0,100,0,0
122389,-139.107596944084,4,1,0,100,0,0
122539,-142.857142857143,4,1,0,100,0,0
122689,-137.955771379696,4,1,0,100,0,0
122839,-133.379393683952,4,1,0,100,0,0
122914,-131.20329162818,4,1,0,100,0,0
122989,-129.097056458016,4,1,0,100,0,0
123139,-125.080989940987,4,1,0,100,0,0
123214,-123.165298916022,4,1,0,100,0,0
123364,-119.504581805666,4,1,0,100,0,0
123439,-117.754700473256,4,1,0,100,0,0
123589,-114.404302517009,4,1,0,100,0,0
123739,-100,4,1,0,100,0,0
123814,-101.522842639594,4,1,0,100,0,0
123889,-103.399464183977,4,1,0,100,0,0
124039,-107.038074513485,4,1,0,100,0,0
124189,-110.9422323796,4,1,0,100,0,0
124339,-100,4,1,0,100,0,0
124414,-101.432017219099,4,1,0,100,0,0
124489,-102.90553786152,4,1,0,100,0,0
124564,-104.42261083677,4,1,0,100,0,0
124639,-105.985083659326,4,1,0,100,0,0
124789,-109.254512757649,4,1,0,100,0,0
124864,-110.966115387005,4,1,0,100,0,0
124939,-71.3686217862708,4,1,0,100,0,0
125314,-90.8120046205148,4,1,0,100,0,0
125464,-97.0873786407767,4,1,0,100,0,0
125689,-111.111111111111,4,1,0,100,0,0
125839,-113.393212509086,4,1,0,100,0,0
125989,-115.771023439001,4,1,0,100,0,0
126139,-118.250833668377,4,1,0,100,0,0
126289,-120.83905808371,4,1,0,100,0,0
126439,-123.543117783538,4,1,0,100,0,0
126589,-126.370967028551,4,1,0,100,0,0
126739,-129.331305418464,4,1,0,100,0,0
126889,-132.433842673892,4,1,0,100,0,0
127039,-135.688708392754,4,1,0,100,0,0
127189,-139.107596944084,4,1,0,100,0,0
127339,-142.857142857143,4,1,0,100,0,0
127414,-141.939000295233,4,1,0,100,0,0
127489,-141.032385266629,4,1,0,100,0,0
127639,-139.253850020818,4,1,0,100,0,0
127789,-137.519424618727,4,1,0,100,0,0
127939,-135.82785720689,4,1,0,100,0,0
128014,-134.997401300025,4,1,0,100,0,0
128164,-133.366941802668,4,1,0,100,0,0
128239,-132.566216825304,4,1,0,100,0,0
128389,-130.993612751442,4,1,0,100,0,0
128539,-129.457714579398,4,1,0,100,0,0
128614,-128.703275884481,4,1,0,100,0,0
128689,-127.957579503243,4,1,0,100,0,0
128764,-127.220312503976,4,1,0,100,0,0
128839,-126.491652815831,4,1,0,100,0,0
128989,-125.058934022658,4,1,0,100,0,0
129139,-111.111111111111,4,1,0,100,0,0
129214,-114.285714285714,4,1,0,100,0,0
129289,-117.370892018779,4,1,0,100,0,0
129439,-105.263157894737,4,1,0,100,0,0
129514,-108.108108108108,4,1,0,100,0,0
129589,-110.864745011086,4,1,0,100,0,0
129739,-99.8003992015964,4,1,0,100,0,0
129964,-124.688279301746,4,1,0,100,0,0
130339,-99.8003992015968,4,1,0,100,0,0
130414,-110.864745011086,4,1,0,100,0,0
132139,-111.111111111111,4,1,0,100,0,0
132289,-108.123303815671,4,1,0,100,0,0
132364,-106.688744124117,4,1,0,100,0,0
132514,-103.931089530398,4,1,0,100,0,0
132589,-102.605039343902,4,1,0,100,0,0
132739,-100.051826846306,4,1,0,100,0,0
132814,-98.8223342428282,4,1,0,100,0,0
132889,-97.6226921995564,4,1,0,100,0,0
132939,-96.8389819511505,4,1,0,100,0,0
132989,-96.0676623759646,4,1,0,100,0,0
133039,-95.3086236195737,4,1,0,100,0,0
133189,-93.1018077578012,4,1,0,100,0,0
133339,-90.9947914581369,4,1,0,100,0,0
133589,-96.3554514060187,4,1,0,100,0,0
133939,-105.177134070345,4,1,0,100,0,0
134239,-114.133623080558,4,1,0,100,0,0
134314,-116.616307857723,4,1,0,100,0,0
134389,-119.209403237727,4,1,0,100,0,0
134539,-124.757658248852,4,1,0,100,0,0
135559,-133.333333333333,4,1,0,60,0,0
136760,-142.857142857143,4,1,0,60,0,0
137989,-153.846153846154,4,1,0,60,0,0
139114,-166.666666666667,4,1,0,60,0,0
144120,-166.666666666667,4,1,0,65,0,0
144420,-165.681140018788,4,1,0,65,0,0
144570,-165.192870936462,4,1,0,65,0,0
144870,-164.224646178,4,1,0,65,0,0
145320,-162.793537096577,4,1,0,65,0,0
145770,-161.387154873569,4,1,0,65,0,0
146220,-160.00486414787,4,1,0,65,0,0
146370,-159.549177843087,4,1,0,65,0,0
146520,-159.096332829528,4,1,0,65,0,0
146820,-158.198060808171,4,1,0,65,0,0
146970,-157.752842311836,4,1,0,65,0,0
147270,-156.869635058481,4,1,0,65,0,0
147720,-155.563333722242,4,1,0,65,0,0
148039,-154.559505409583,4,1,0,65,0,0
148170,-154.278608653796,4,1,0,65,0,0
148620,-153.014695531359,4,1,0,65,0,0
148770,-152.598135861172,4,1,0,65,0,0
148920,-152.183838076396,4,1,0,65,0,0
149220,-151.361725765852,4,1,0,65,0,0
149370,-150.953877552253,4,1,0,65,0,0
149670,-150.145190399116,4,1,0,65,0,0
150120,-148.94805436604,4,1,0,65,0,0
150420,-148.160439977243,4,1,0,65,0,0
150570,-147.769638954441,4,1,0,65,0,0
151020,-146.609938394504,4,1,0,65,0,0
151170,-146.227477312807,4,1,0,65,0,0
151320,-145.846793777009,4,1,0,65,0,0
151620,-145.09176328569,4,1,0,65,0,0
151770,-144.716962564616,4,1,0,65,0,0
152070,-143.973554937429,4,1,0,65,0,0
152370,-143.237540840604,4,1,0,65,0,0
152520,-111.120247664808,4,1,0,75,0,0
152820,-125,4,1,0,75,0,0
152970,-120.03317717017,4,1,0,75,0,0
153120,-115.445846085289,4,1,0,75,0,0
153270,-111.196361655047,4,1,0,75,0,0
153345,-109.186755209846,4,1,0,75,0,0
153420,-107.248496912316,4,1,0,75,0,0
153570,-103.571454464292,4,1,0,75,0,0
153645,-101.825839121284,4,1,0,75,0,0
153720,-83.4292073975007,4,1,0,80,0,0
153770,-111.281619281098,4,1,0,80,0,0
158520,-111.111111111111,4,1,0,90,0,0
158820,-110.345801673284,4,1,0,90,0,0
158970,-109.967086850906,4,1,0,90,0,0
159120,-109.590962690853,4,1,0,90,0,0
159420,-108.846380748994,4,1,0,90,0,0
159570,-108.477871056694,4,1,0,90,0,0
159720,-108.111965075511,4,1,0,90,0,0
160020,-107.387278258694,4,1,0,90,0,0
160320,-106.672242069185,4,1,0,90,0,0
160470,-106.318282917204,4,1,0,90,0,0
160620,-105.966665006522,4,1,0,90,0,0
160770,-105.617365184714,4,1,0,90,0,0
160920,-105.27036060362,4,1,0,90,0,0
161220,-104.583147262484,4,1,0,90,0,0
161370,-104.242894283111,4,1,0,90,0,0
161520,-103.904848096307,4,1,0,90,0,0
161820,-103.235290777682,4,1,0,90,0,0
161970,-102.90373766956,4,1,0,90,0,0
162120,-102.574412607626,4,1,0,90,0,0
162270,-102.247084168777,4,1,0,90,0,0
162420,-101.921838180736,4,1,0,90,0,0
162570,-101.59865483381,4,1,0,90,0,0
162720,-101.27751456877,4,1,0,90,0,0
162795,-101.117653423288,4,1,0,90,0,0
162870,-100.958398072906,4,1,0,90,0,0
163020,-100.641286276152,4,1,0,90,0,0
163170,-100.326160347289,4,1,0,90,0,0
163320,-83.3423620892265,4,1,0,100,0,0
163545,-100,4,1,0,100,0,0
163620,-99.7855608297768,4,1,0,100,0,0
163770,-99.3595284794217,4,1,0,100,0,0
163845,-99.1479227518704,4,1,0,100,0,0
163920,-98.9371185355724,4,1,0,100,0,0
164070,-98.5182849936948,4,1,0,100,0,0
164220,-98.1028863831232,4,1,0,100,0,0
164295,-97.8965937859158,4,1,0,100,0,0
164370,-97.691071524518,4,1,0,100,0,0
164520,-97.2826996338279,4,1,0,100,0,0
164670,-96.8777277135209,4,1,0,100,0,0
164820,-96.4761134790637,4,1,0,100,0,0
164970,-96.0777230348262,4,1,0,100,0,0
165045,-95.8798510410634,4,1,0,100,0,0
165120,-95.6827008547336,4,1,0,100,0,0
165270,-95.2909136302217,4,1,0,100,0,0
165420,-94.9023217853025,4,1,0,100,0,0
165570,-94.5167970525882,4,1,0,100,0,0
165645,-94.3252958748718,4,1,0,100,0,0
165720,-94.1344805188693,4,1,0,100,0,0
165870,-93.7552444339855,4,1,0,100,0,0
166020,-93.379051717054,4,1,0,100,0,0
166170,-93.0058658799611,4,1,0,100,0,0
166245,-92.8203462198914,4,1,0,100,0,0
166320,-92.6355652020058,4,1,0,100,0,0
166470,-92.2682866517315,4,1,0,100,0,0
166620,-91.9039089489593,4,1,0,100,0,0
166770,-91.5423978615696,4,1,0,100,0,0
166845,-91.3626650123934,4,1,0,100,0,0
166920,-91.1836365493194,4,1,0,100,0,0
167070,-90.8277587796382,4,1,0,100,0,0
167220,-90.4746480988562,4,1,0,100,0,0
167370,-90.124272359156,4,1,0,100,0,0
167445,-89.9500597268397,4,1,0,100,0,0
167520,-89.776599908787,4,1,0,100,0,0
167670,-89.4315196024948,4,1,0,100,0,0
167820,-89.0891613235442,4,1,0,100,0,0
167895,-88.9189237253472,4,1,0,100,0,0
167970,-88.7494142538659,4,1,0,100,0,0
168045,-88.5804713721204,4,1,0,100,0,0
168120,-88.4122486329256,4,1,0,100,0,0
168270,-88.0775575740975,4,1,0,100,0,0
168420,-87.7454679465806,4,1,0,100,0,0
168570,-87.4158731490782,4,1,0,100,0,0
168720,-87.0887451731063,4,1,0,100,0,0
168870,-86.7640564278717,4,1,0,100,0,0
169020,-86.4417050107663,4,1,0,100,0,0
169170,-86.1218141387905,4,1,0,100,0,0
169320,-85.8042821485049,4,1,0,100,0,0
169395,-85.6463559188484,4,1,0,100,0,0
169470,-85.4890830440953,4,1,0,100,0,0
169545,-85.3323138966233,4,1,0,100,0,0
169620,-85.1761186605544,4,1,0,100,0,0
169695,-85.0205664750303,4,1,0,100,0,0
169770,-84.8655093840037,4,1,0,100,0,0
169845,-84.7110885967862,4,1,0,100,0,0
169920,-84.5571572560188,4,1,0,100,0,0
169995,-84.4037843280741,4,1,0,100,0,0
170070,-84.2510377621576,4,1,0,100,0,0
170145,-84.0987723261216,4,1,0,100,0,0
170220,-83.947126741693,4,1,0,100,0,0
170295,-83.7959568450822,4,1,0,100,0,0
170370,-83.6453304157842,4,1,0,100,0,0
170445,-83.4953142429647,4,1,0,100,0,0
170520,-83.3457657433901,4,1,0,80,0,0
171739,-125,4,1,0,80,0,0
171889,-126.973646619644,4,1,0,80,0,0
171964,-127.984109492965,4,1,0,80,0,0
172039,-129.010617573826,4,1,0,80,0,0
172114,-130.053894333812,4,1,0,80,0,0
172189,-131.114182096621,4,1,0,80,0,0
172339,-133.287304784081,4,1,0,80,0,0
172489,-135.533677408162,4,1,0,80,0,0
172639,-137.857067035756,4,1,0,80,0,0
172789,-140.261700280383,4,1,0,80,0,0
172864,-141.495551379865,4,1,0,80,0,0
172939,-142.751506742154,4,1,0,80,0,0
175039,-153.846153846154,4,1,0,80,0,0
175339,-83.2973766324205,4,1,0,100,0,1
177739,-83.2973766324205,4,1,0,100,0,0
178001,-99.948226818508,4,1,0,100,0,0
178339,-83.2973766324203,4,1,0,100,0,1
182539,-71.4021526320976,4,1,0,100,0,0
182989,-90.8663011418259,4,1,0,100,0,0
183139,-99.948226818508,4,1,0,100,0,0
186739,-90.9090909090909,4,1,0,100,0,0
186814,-93.0232558139535,4,1,0,100,0,0
186889,-95.1914061198555,4,1,0,100,0,0
186964,-97.4874558016247,4,1,0,100,0,0
187039,-99.8970061866216,4,1,0,100,0,0
187114,-102.428686587681,4,1,0,100,0,0
187189,-105.092134274118,4,1,0,100,0,0
187264,-107.89767847355,4,1,0,100,0,0
187339,-110.857125120003,4,1,0,100,0,0
187901,-99.7942243094739,4,1,0,100,0,0
190939,-100,4,1,0,100,0,0
190989,-98.9086420436899,4,1,0,100,0,0
191039,-97.8407524345225,4,1,0,100,0,0
191089,-96.7957696376837,4,1,0,100,0,0
191139,-95.7727809925508,4,1,0,100,0,0
191239,-93.7904178081742,4,1,0,100,0,0
191439,-90.0620978164444,4,1,0,100,0,0
191539,-88.3069266187101,4,1,0,100,0,0
191639,-86.6188588311825,4,1,0,100,0,0
191739,-84.9941184070062,4,1,0,100,0,0
191839,-83.429207397501,4,1,0,100,0,0
192139,-117.647058823529,4,1,0,100,0,0
192214,-113.516655163646,4,1,0,100,0,0
192289,-109.666438560474,4,1,0,100,0,0
192439,-102.699877068247,4,1,0,100,0,0
192589,-96.5654564118015,4,1,0,100,0,0
192664,-93.7650903192232,4,1,0,100,0,0
192739,-91.1225662301592,4,1,0,100,0,1
199320,-83.3333333333333,4,1,0,100,0,1
199414,-84.7457627118644,4,1,0,100,0,1
199470,-86.0071523547898,4,1,0,100,0,1
199620,-88.8581637105037,4,1,0,100,0,1
199695,-90.3557849387749,4,1,0,100,0,1
199770,-91.9047535895699,4,1,0,100,0,1
199920,-95.1676711614358,4,1,0,100,0,1
200070,-98.6707082188753,4,1,0,100,0,1
200145,-100.520798255763,4,1,0,100,0,1
200220,-102.441592925793,4,1,0,100,0,1
200370,-106.512153036661,4,1,0,100,0,1
200539,-76.8312340479151,4,1,0,100,0,0
201120,-125,4,1,0,100,0,0
201270,-117.71838231399,4,1,0,100,0,0
201420,-111.238541039791,4,1,0,100,0,0
201570,-105.434739059564,4,1,0,100,0,0
201645,-102.754224226158,4,1,0,100,0,0
201720,-71.5339306893439,4,1,0,100,0,0
202039,-83.3333333333333,4,1,0,100,0,1
202170,-86.9565217391304,4,1,0,100,0,1
202339,-90.9090909090909,4,1,0,100,0,1
205939,-83.3333333333333,4,1,0,100,0,1
205995,-85.1063829787234,4,1,0,100,0,1
206070,-86.9175977714328,4,1,0,100,0,1
206145,-88.8278542832347,4,1,0,100,0,1
206220,-90.8239640845716,4,1,0,100,0,1
206320,-93.6293644157855,4,1,0,100,0,1
206420,-98.0392156862745,4,1,0,100,0,1
206520,-100,4,1,0,100,0,1
206595,-98.7780171498393,4,1,0,100,0,1
206670,-97.5855386038632,4,1,0,100,0,1
206745,-96.4215085530699,4,1,0,100,0,1
206820,-95.2848301786114,4,1,0,100,0,1
206895,-94.1747280233855,4,1,0,100,0,1
206970,-93.090194158218,4,1,0,100,0,1
207045,-92.0303552923896,4,1,0,100,0,1
207139,-90.9943774574169,4,1,0,100,0,1
210139,-90.9090909090909,4,1,0,100,0,0
210320,-93.7348559623336,4,1,0,100,0,0
210420,-95.2146089678832,4,1,0,100,0,0
210720,-99.948226818508,4,1,0,100,0,0
210870,-102.495982157499,4,1,0,100,0,0
211020,-105.177134070345,4,1,0,100,0,0
211220,-113.636363636364,4,1,0,100,0,0
211339,-111.111111111111,4,1,0,100,0,0
211414,-108.167746541336,4,1,0,100,0,0
211489,-105.376298762882,4,1,0,100,0,0
211564,-102.725407794188,4,1,0,100,0,0
211639,-100.204517420054,4,1,0,100,0,0
215839,-83.4753109246642,4,1,0,100,0,0
216064,-100,4,1,0,100,0,0
219739,-83.3333333333333,4,1,0,100,0,0
220039,-125,4,1,0,100,0,0
220339,-111.111111111111,4,1,0,100,0,0
220439,-107.18228491195,4,1,0,100,0,0
220539,-103.521919213565,4,1,0,100,0,0
220639,-100.103206405804,4,1,0,100,0,0
220789,-95.3785287671181,4,1,0,100,0,0
220864,-93.1796242252114,4,1,0,100,0,0
220939,-91.0798241795074,4,1,0,100,0,0
221089,-86.9565217391304,4,1,0,100,0,0
221239,-83.3333333333333,4,1,0,100,0,0
221314,-100.206626062942,4,1,0,100,0,0
225439,-83.4767742570986,4,1,0,100,0,0
225739,-83.3333333333333,4,1,0,100,0,0
225839,-85.6890686455129,4,1,0,100,0,0
225939,-88.1817885206711,4,1,0,100,0,0
226039,-90.8239640845716,4,1,0,100,0,0
226089,-92.2053302057285,4,1,0,100,0,0
226139,-93.6293644157855,4,1,0,100,0,0
226189,-95.0980746443807,4,1,0,100,0,0
226339,-99.7942243094739,4,1,0,100,0,0
226414,-110.857125120003,4,1,0,100,0,0
228139,-111.111111111111,4,1,0,100,0,0
228289,-106.688744124117,4,1,0,100,0,0
228364,-104.606996743584,4,1,0,100,0,0
228514,-100.678168140595,4,1,0,100,0,0
228589,-98.8223342428282,4,1,0,100,0,0
228739,-95.3086236195737,4,1,0,100,0,0
228814,-93.6438313062565,4,1,0,100,0,0
228889,-92.0362843847558,4,1,0,100,0,0
228964,-90.4829163729742,4,1,0,100,0,0
229039,-88.9811128689824,4,1,0,100,0,0
229189,-86.1222591591023,4,1,0,100,0,0
229339,-83.3333333333333,4,1,0,100,0,0
229639,-90.8663011418259,4,1,0,100,0,0
229939,-99.8965072185216,4,1,0,100,0,0
230089,-105.119862923699,4,1,0,100,0,0
230239,-110.91958995246,4,1,0,100,0,0
230389,-117.396658656301,4,1,0,100,0,0
230539,-124.676930902798,4,1,0,70,0,0
238845,-111.111111111111,4,1,0,70,0,0
239220,-142.857142857143,4,1,0,70,0,0
239295,-139.55721287499,4,1,0,70,0,0
239370,-136.406480399071,4,1,0,70,0,0
239445,-133.394694892984,4,1,0,70,0,0
239520,-130.513033684109,4,1,0,70,0,0
239670,-125.107905568553,4,1,0,70,0,0
239820,-120.132530207325,4,1,0,70,0,0
239970,-115.537880827297,4,1,0,70,0,0
240045,-113.369815740038,4,1,0,70,0,0
240120,-111.281619281098,4,1,0,70,0,0
240214,-125.215840805588,4,1,0,70,0,0
244939,-125,4,1,0,80,0,0
245089,-122.453277951797,4,1,0,80,0,0
245239,-120.008256568052,4,1,0,80,0,0
245389,-117.659101578632,4,1,0,80,0,0
245689,-113.226047878767,4,1,0,80,0,0
245839,-111.132473242079,4,1,0,80,0,0
245989,-109.115033432846,4,1,0,80,0,0
246064,-108.133475636987,4,1,0,80,0,0
246139,-107.169419849063,4,1,0,80,0,0
246289,-105.291974645693,4,1,0,80,0,0
246439,-103.479176885235,4,1,0,80,0,0
246589,-101.727744004167,4,1,0,80,0,0
246739,-100.03471204508,4,1,0,80,0,0
246889,-98.3970142409999,4,1,0,80,0,0
247039,-96.8120751765126,4,1,0,80,0,0
247189,-95.2773858171989,4,1,0,80,0,0
247339,-93.7905937413537,4,1,0,90,0,0
247414,-93.0645505028743,4,1,0,90,0,0
247489,-92.3495763924931,4,1,0,90,0,0
247564,-91.6455041923236,4,1,0,90,0,0
247639,-90.952086440863,4,1,0,90,0,0
247714,-90.2690831098421,4,1,0,90,0,0
247789,-89.5962613272073,4,1,0,90,0,0
247864,-88.9333951123985,4,1,0,90,0,0
247939,-88.2802651232922,4,1,0,90,0,0
248014,-87.6366584142147,4,1,0,90,0,0
248089,-87.0024438986491,4,1,0,90,0,0
248164,-86.3772682670647,4,1,0,90,0,0
248239,-85.7610132149145,4,1,0,90,0,0
248314,-85.1534891642185,4,1,0,90,0,0
248389,-84.5545118710307,4,1,0,90,0,0
248464,-83.9639022391493,4,1,0,90,0,0
248539,-83.3814861415801,4,1,0,90,0,0
248614,-84.2059171497981,4,1,0,90,0,0
248689,-85.0969679950303,4,1,0,90,0,0
248839,-86.936942027839,4,1,0,90,0,0
248989,-88.8581637105037,4,1,0,90,0,0
249139,-90.8663011418259,4,1,0,90,0,0
249289,-92.9672160409353,4,1,0,90,0,0
249439,-95.1676711614358,4,1,0,90,0,0
249589,-97.474722367622,4,1,0,90,0,0
249739,-66.6666666666667,4,1,0,90,0,0

[HitObjects]
266,139,139,5,0,0:0:0:0:
281,127,289,1,0,0:0:0:0:
281,128,439,1,8,0:0:0:0:
282,124,589,1,0,0:0:0:0:
279,115,664,1,0,0:0:0:0:
298,112,739,1,0,0:0:0:0:
298,108,1039,1,8,0:0:0:0:
286,112,1189,1,0,0:0:0:0:
298,108,1339,1,0,0:0:0:0:
286,112,1489,1,0,0:0:0:0:
304,104,1639,1,8,0:0:0:0:
304,105,1789,1,0,0:0:0:0:
301,103,1864,1,0,0:0:0:0:
297,107,1939,1,0,0:0:0:0:
300,104,2014,1,0,0:0:0:0:
302,113,2164,1,0,0:0:0:0:
299,98,2239,1,8,0:0:0:0:
294,95,2539,1,0,0:0:0:0:
295,95,2689,1,0,0:0:0:0:
296,95,2839,1,8,0:0:0:0:
296,95,2989,1,0,0:0:0:0:
299,98,3289,1,0,0:0:0:0:
294,95,3439,1,8,0:0:0:0:
294,95,3589,1,0,0:0:0:0:
296,95,3739,1,0,0:0:0:0:
296,95,3889,1,0,0:0:0:0:
296,95,4039,1,8,0:0:0:0:
293,94,4189,1,0,0:0:0:0:
294,95,4339,1,8,0:0:0:0:
294,95,4414,1,0,0:0:0:0:
294,95,4489,1,0,0:0:0:0:
296,95,4639,1,8,0:0:0:0:
296,95,4789,1,8,0:0:0:0:
296,95,4939,1,0,0:0:0:0:
293,94,5089,1,0,0:0:0:0:
293,94,5239,1,8,0:0:0:0:
294,95,5389,1,0,0:0:0:0:
294,95,5464,1,0,0:0:0:0:
297,88,5539,1,0,0:0:0:0:
297,85,5839,1,8,0:0:0:0:
297,84,5989,1,0,0:0:0:0:
297,84,6139,1,0,0:0:0:0:
297,84,6289,1,0,0:0:0:0:
297,84,6439,1,8,0:0:0:0:
297,88,6589,1,0,0:0:0:0:
297,84,6664,1,0,0:0:0:0:
297,84,6739,1,0,0:0:0:0:
304,86,6814,1,0,0:0:0:0:
307,90,6964,1,0,0:0:0:0:
297,84,7039,1,8,0:0:0:0:
297,84,7339,1,0,0:0:0:0:
297,84,7489,1,0,0:0:0:0:
303,84,7639,1,8,0:0:0:0:
304,86,7789,1,0,0:0:0:0:
297,84,7939,1,8,0:0:0:0:
297,84,8014,1,8,0:0:0:0:
304,85,8089,1,8,0:0:0:0:
304,85,8164,1,8,0:0:0:0:
297,84,8239,1,0,0:0:0:0:
303,84,8539,1,12,0:0:0:0:
304,75,8839,1,0,0:0:0:0:
305,75,8914,1,8,0:0:0:0:
305,75,8989,1,0,0:0:0:0:
293,79,9139,1,8,0:0:0:0:
297,84,9289,1,0,0:0:0:0:
292,78,9439,1,8,0:0:0:0:
294,79,9589,1,0,0:0:0:0:
294,79,9739,1,12,0:0:0:0:
296,79,10039,1,8,0:0:0:0:
297,84,10189,1,0,0:0:0:0:
297,84,10264,1,0,0:0:0:0:
292,78,10339,1,0,0:0:0:0:
292,78,10489,1,0,0:0:0:0:
294,79,10639,1,8,0:0:0:0:
287,77,10789,1,0,0:0:0:0:
287,78,10939,1,0,0:0:0:0:
287,78,11089,1,0,0:0:0:0:
287,78,11239,1,8,0:0:0:0:
292,78,11389,1,0,0:0:0:0:
275,71,11689,1,0,0:0:0:0:
305,97,11839,1,8,0:0:0:0:
281,81,11914,1,0,0:0:0:0:
296,72,11989,1,8,0:0:0:0:
296,72,12139,1,0,0:0:0:0:
296,72,12289,1,0,0:0:0:0:
296,72,12439,1,8,0:0:0:0:
292,71,12589,1,0,0:0:0:0:
292,71,12664,1,0,0:0:0:0:
292,71,12739,1,0,0:0:0:0:
291,71,12889,1,0,0:0:0:0:
296,72,13039,1,8,0:0:0:0:
296,72,13189,1,0,0:0:0:0:
296,72,13339,1,0,0:0:0:0:
292,71,13639,1,8,0:0:0:0:
292,71,13789,1,0,0:0:0:0:
291,71,13939,1,8,0:0:0:0:
296,72,14014,1,0,0:0:0:0:
296,72,14089,1,0,0:0:0:0:
296,72,14239,1,8,0:0:0:0:
296,72,14389,1,8,0:0:0:0:
301,69,14539,1,4,0:0:0:0:
301,69,14839,1,8,0:0:0:0:
301,69,14989,1,0,0:0:0:0:
296,72,15064,1,0,0:0:0:0:
296,72,15139,1,0,0:0:0:0:
296,72,15289,1,0,0:0:0:0:
296,72,15439,1,8,0:0:0:0:
301,69,15589,1,0,0:0:0:0:
301,69,15664,1,8,0:0:0:0:
289,69,15739,1,0,0:0:0:0:
289,69,15889,1,0,0:0:0:0:
287,71,16039,1,8,0:0:0:0:
287,71,16189,1,0,0:0:0:0:
287,71,16264,1,0,0:0:0:0:
282,73,16339,1,0,0:0:0:0:
282,73,16489,1,0,0:0:0:0:
282,73,16639,1,8,0:0:0:0:
284,76,16789,1,8,0:0:0:0:
287,71,16939,1,0,0:0:0:0:
287,71,17014,1,8,0:0:0:0:
287,71,17089,1,0,0:0:0:0:
287,71,17239,1,8,0:0:0:0:
282,73,17314,1,8,0:0:0:0:
282,73,17389,1,0,0:0:0:0:
282,73,17539,1,8,0:0:0:0:
282,73,17614,1,0,0:0:0:0:
282,73,17689,1,8,0:0:0:0:
284,76,17764,1,0,0:0:0:0:
284,76,17839,1,8,0:0:0:0:
287,71,17989,1,0,0:0:0:0:
287,71,18064,1,0,0:0:0:0:
287,71,18139,1,8,0:0:0:0:
309,76,18214,1,8,0:0:0:0:
282,73,18289,1,0,0:0:0:0:
282,73,18439,1,8,0:0:0:0:
282,73,18739,1,8,0:0:0:0:
277,68,18889,1,0,0:0:0:0:
277,68,19039,1,0,0:0:0:0:
277,68,19189,1,0,0:0:0:0:
276,68,19339,1,8,0:0:0:0:
276,68,19414,1,0,0:0:0:0:
275,68,19489,1,8,0:0:0:0:
275,68,19639,1,0,0:0:0:0:
277,68,19789,1,8,0:0:0:0:
367,61,19864,1,8,0:0:0:0:
352,74,19939,1,0,0:0:0:0:
268,60,20089,1,8,0:0:0:0:
268,60,20239,1,0,0:0:0:0:
277,86,20314,1,0,0:0:0:0:
276,85,20389,1,8,0:0:0:0:
275,81,20539,1,0,0:0:0:0:
296,61,20689,1,0,0:0:0:0:
294,62,20839,1,8,0:0:0:0:
293,62,20914,1,0,0:0:0:0:
293,62,20989,1,8,0:0:0:0:
363,69,21139,1,0,0:0:0:0:
292,76,21289,1,8,0:0:0:0:
292,77,21439,1,0,0:0:0:0:
293,76,21514,1,8,0:0:0:0:
293,77,21589,1,0,0:0:0:0:
293,76,21739,1,0,0:0:0:0:
294,68,21889,1,8,0:0:0:0:
294,69,22039,1,0,0:0:0:0:
294,68,22114,1,0,0:0:0:0:
292,76,22189,1,8,0:0:0:0:
365,64,22339,1,0,0:0:0:0:
292,77,22489,1,0,0:0:0:0:
293,77,22639,1,8,0:0:0:0:
293,76,22714,1,8,0:0:0:0:
293,76,22789,1,0,0:0:0:0:
294,68,22939,1,8,0:0:0:0:
293,74,23089,1,0,0:0:0:0:
294,68,23164,1,0,0:0:0:0:
292,63,23239,1,8,0:0:0:0:
290,63,23539,1,0,0:0:0:0:
291,64,23689,1,0,0:0:0:0:
302,72,23839,1,8,0:0:0:0:
294,68,23914,1,0,0:0:0:0:
294,68,23989,1,8,0:0:0:0:
293,74,24139,1,0,0:0:0:0:
285,71,24289,1,8,0:0:0:0:
291,63,24439,1,0,0:0:0:0:
290,63,24514,1,0,0:0:0:0:
290,63,24589,1,8,0:0:0:0:
302,77,24739,1,0,0:0:0:0:
297,60,24889,1,8,0:0:0:0:
297,60,25039,1,0,0:0:0:0:
297,62,25114,1,8,0:0:0:0:
297,62,25189,1,0,0:0:0:0:
285,61,25339,1,8,0:0:0:0:
291,63,25489,1,0,0:0:0:0:
290,63,25639,1,8,0:0:0:0:
298,49,25714,1,8,0:0:0:0:
317,50,25789,1,0,0:0:0:0:
297,60,25939,1,8,0:0:0:0:
309,49,26089,1,0,0:0:0:0:
303,49,26239,1,8,0:0:0:0:
303,49,26314,1,0,0:0:0:0:
303,49,26389,1,8,0:0:0:0:
311,52,26464,1,8,0:0:0:0:
303,49,26539,1,0,0:0:0:0:
298,49,26689,1,8,0:0:0:0:
303,49,26839,1,0,0:0:0:0:
303,49,26914,1,0,0:0:0:0:
309,49,26989,1,8,0:0:0:0:
303,49,27139,1,0,0:0:0:0:
298,42,27289,1,8,0:0:0:0:
298,42,27439,1,0,0:0:0:0:
297,42,27589,1,0,0:0:0:0:
298,49,27739,1,12,0:0:0:0:
309,80,28339,1,8,0:0:0:0:
302,97,28439,1,0,0:0:0:0:
304,94,28539,1,0,0:0:0:0:
303,58,28639,1,8,0:0:0:0:
303,58,28789,1,0,0:0:0:0:
303,58,28939,1,0,0:0:0:0:
298,61,29089,1,0,0:0:0:0:
298,61,29239,1,12,0:0:0:0:
303,58,29539,1,8,0:0:0:0:
303,58,29689,1,0,0:0:0:0:
303,58,29839,1,8,0:0:0:0:
303,58,29914,1,0,0:0:0:0:
303,58,29989,1,8,0:0:0:0:
298,61,30139,1,0,0:0:0:0:
298,61,30289,1,8,0:0:0:0:
295,58,30364,1,8,0:0:0:0:
303,58,30439,1,0,0:0:0:0:
303,58,30589,1,8,0:0:0:0:
317,55,30739,1,0,0:0:0:0:
288,64,30889,1,8,0:0:0:0:
286,66,31039,1,0,0:0:0:0:
285,66,31114,1,8,0:0:0:0:
298,61,31189,1,0,0:0:0:0:
295,58,31339,1,0,0:0:0:0:
295,58,31489,1,8,0:0:0:0:
309,64,31639,1,0,0:0:0:0:
307,64,31714,1,0,0:0:0:0:
307,65,31789,1,8,0:0:0:0:
309,61,31939,1,0,0:0:0:0:
306,66,32089,1,8,0:0:0:0:
307,66,32164,1,0,0:0:0:0:
306,66,32239,1,8,0:0:0:0:
295,58,32389,1,0,0:0:0:0:
299,57,32539,1,8,0:0:0:0:
301,55,32689,1,0,0:0:0:0:
317,53,32764,1,0,0:0:0:0:
306,52,32839,1,8,0:0:0:0:
306,57,32989,1,8,0:0:0:0:
306,57,33139,1,0,0:0:0:0:
306,57,33289,1,0,0:0:0:0:
300,54,33364,1,0,0:0:0:0:
317,71,33439,1,8,0:0:0:0:
301,57,33589,1,8,0:0:0:0:
308,54,33739,1,0,0:0:0:0:
306,52,33814,1,0,0:0:0:0:
306,57,33889,1,0,0:0:0:0:
317,55,34039,1,8,0:0:0:0:
317,57,34114,1,0,0:0:0:0:
314,58,34189,1,0,0:0:0:0:
314,58,34339,1,12,0:0:0:0:
318,54,34639,1,8,0:0:0:0:
320,56,34789,1,0,0:0:0:0:
317,57,35089,1,8,0:0:0:0:
314,58,35239,1,0,0:0:0:0:
304,58,35539,1,8,0:0:0:0:
306,57,35689,1,0,0:0:0:0:
300,51,35839,1,0,0:0:0:0:
300,51,35989,1,8,0:0:0:0:
314,45,36139,1,0,0:0:0:0:
315,45,36289,1,8,0:0:0:0:
316,45,36364,1,0,0:0:0:0:
316,45,36514,1,8,0:0:0:0:
316,46,36589,1,0,0:0:0:0:
316,45,36739,1,8,0:0:0:0:
316,45,36889,1,8,0:0:0:0:
314,45,37039,1,0,0:0:0:0:
314,45,37189,1,8,0:0:0:0:
315,45,37339,1,0,0:0:0:0:
316,45,37639,1,0,0:0:0:0:
316,45,37789,1,0,0:0:0:0:
316,45,37939,1,8,0:0:0:0:
315,45,38239,1,8,0:0:0:0:
321,54,38539,1,4,0:0:0:0:
304,92,48139,5,4,0:0:0:0:
321,105,48589,1,0,0:0:0:0:
297,92,48889,1,0,0:0:0:0:
314,91,49339,1,0,0:0:0:0:
323,102,49789,1,0,0:0:0:0:
325,89,50539,1,0,0:0:0:0:
323,86,50989,1,0,0:0:0:0:
323,86,51289,1,0,0:0:0:0:
325,89,51739,1,0,0:0:0:0:
333,93,52039,1,0,0:0:0:0:
323,86,52339,1,0,0:0:0:0:
323,77,52939,1,0,0:0:0:0:
323,78,53389,1,0,0:0:0:0:
323,78,53689,1,0,0:0:0:0:
323,77,54139,1,0,0:0:0:0:
323,78,54589,1,0,0:0:0:0:
323,78,55339,1,0,0:0:0:0:
328,74,55789,1,0,0:0:0:0:
326,64,56089,1,0,0:0:0:0:
325,64,56539,1,12,0:0:0:0:
323,68,56839,1,8,0:0:0:0:
326,64,56989,1,0,0:0:0:0:
326,64,57139,1,8,0:0:0:0:
326,64,57289,1,0,0:0:0:0:
326,64,57364,1,8,0:0:0:0:
325,64,57439,1,8,0:0:0:0:
328,62,57589,1,0,0:0:0:0:
327,61,57739,1,12,0:0:0:0:
337,62,58039,1,0,0:0:0:0:
337,62,58189,1,0,0:0:0:0:
331,58,58339,1,8,0:0:0:0:
337,62,58639,1,0,0:0:0:0:
337,62,58789,1,0,0:0:0:0:
337,62,58939,1,8,0:0:0:0:
337,62,59239,1,0,0:0:0:0:
328,57,59539,1,8,0:0:0:0:
337,62,59689,1,0,0:0:0:0:
337,62,59839,1,0,0:0:0:0:
337,62,59989,1,0,0:0:0:0:
337,62,60139,1,8,0:0:0:0:
352,70,60439,1,0,0:0:0:0:
352,70,60589,1,0,0:0:0:0:
328,57,60739,1,8,0:0:0:0:
352,70,61039,1,0,0:0:0:0:
352,70,61189,1,0,0:0:0:0:
352,70,61339,1,8,0:0:0:0:
352,70,61489,1,0,0:0:0:0:
352,70,61639,1,0,0:0:0:0:
328,57,61939,1,8,0:0:0:0:
352,70,62089,1,0,0:0:0:0:
352,70,62239,1,0,0:0:0:0:
352,70,62389,1,0,0:0:0:0:
352,70,62539,1,12,0:0:0:0:
343,50,62839,1,8,0:0:0:0:
353,57,62989,1,0,0:0:0:0:
343,67,63139,1,8,0:0:0:0:
353,57,63439,1,0,0:0:0:0:
353,57,63589,1,0,0:0:0:0:
332,85,63739,1,8,0:0:0:0:
353,57,64039,1,0,0:0:0:0:
332,85,64339,1,8,0:0:0:0:
364,57,64489,1,0,0:0:0:0:
364,57,64639,1,0,0:0:0:0:
364,58,64789,1,0,0:0:0:0:
332,85,64939,1,8,0:0:0:0:
364,57,65239,1,8,0:0:0:0:
364,57,65389,1,0,0:0:0:0:
332,85,65539,1,8,0:0:0:0:
367,75,65839,1,0,0:0:0:0:
367,75,65989,1,0,0:0:0:0:
336,79,66139,1,8,0:0:0:0:
364,57,66289,1,0,0:0:0:0:
371,61,66439,1,8,0:0:0:0:
371,61,66589,1,0,0:0:0:0:
336,79,66739,1,8,0:0:0:0:
371,61,66814,1,0,0:0:0:0:
371,61,66889,1,8,0:0:0:0:
364,57,67039,1,0,0:0:0:0:
364,57,67189,1,0,0:0:0:0:
371,61,67339,1,12,0:0:0:0:
377,56,67639,1,8,0:0:0:0:
373,71,67789,1,0,0:0:0:0:
373,71,67864,1,0,0:0:0:0:
373,71,67939,1,8,0:0:0:0:
373,71,68089,1,0,0:0:0:0:
373,71,68239,1,8,0:0:0:0:
383,74,68314,1,8,0:0:0:0:
383,74,68389,1,0,0:0:0:0:
383,74,68539,1,8,0:0:0:0:
378,62,68689,1,0,0:0:0:0:
383,73,68839,1,8,0:0:0:0:
383,73,68989,1,0,0:0:0:0:
383,73,69064,1,0,0:0:0:0:
381,69,69139,1,8,0:0:0:0:
382,69,69289,1,0,0:0:0:0:
383,74,69439,1,8,0:0:0:0:
383,74,69589,1,8,0:0:0:0:
377,68,69664,1,8,0:0:0:0:
383,74,69739,1,0,0:0:0:0:
383,62,69889,1,8,0:0:0:0:
373,66,70039,1,0,0:0:0:0:
367,70,70189,1,0,0:0:0:0:
367,70,70264,1,0,0:0:0:0:
363,73,70339,1,8,0:0:0:0:
377,64,70489,1,0,0:0:0:0:
377,68,70639,1,8,0:0:0:0:
377,64,70789,1,8,0:0:0:0:
373,66,70864,1,8,0:0:0:0:
373,66,70939,1,0,0:0:0:0:
373,66,71089,1,0,0:0:0:0:
367,70,71239,1,8,0:0:0:0:
372,64,71389,1,0,0:0:0:0:
377,64,71464,1,0,0:0:0:0:
377,68,71539,1,8,0:0:0:0:
377,64,71689,1,0,0:0:0:0:
373,66,71839,1,8,0:0:0:0:
373,66,71914,1,8,0:0:0:0:
372,64,71989,1,0,0:0:0:0:
372,64,72064,1,0,0:0:0:0:
372,64,72139,1,8,0:0:0:0:
372,64,72289,1,0,0:0:0:0:
377,64,72439,1,8,0:0:0:0:
377,68,72589,1,0,0:0:0:0:
381,62,72739,1,8,0:0:0:0:
379,62,72889,1,0,0:0:0:0:
381,62,73039,1,8,0:0:0:0:
382,57,73189,1,0,0:0:0:0:
382,58,73339,1,8,0:0:0:0:
382,58,73414,1,8,0:0:0:0:
377,64,73489,1,0,0:0:0:0:
374,58,73564,1,0,0:0:0:0:
380,58,73639,1,8,0:0:0:0:
380,49,73714,1,8,0:0:0:0:
388,50,73789,1,0,0:0:0:0:
379,62,73864,1,0,0:0:0:0:
388,50,73939,1,8,0:0:0:0:
381,62,74014,1,8,0:0:0:0:
388,50,74089,1,0,0:0:0:0:
388,50,74164,1,0,0:0:0:0:
388,50,74239,1,8,0:0:0:0:
382,58,74314,1,0,0:0:0:0:
382,58,74389,1,8,0:0:0:0:
374,58,74539,1,4,0:0:0:0:
380,71,75739,1,8,0:0:0:0:
380,71,75889,1,0,0:0:0:0:
373,69,75964,1,0,0:0:0:0:
380,71,76039,1,0,0:0:0:0:
302,91,76114,1,0,0:0:0:0:
380,71,76189,1,0,0:0:0:0:
371,71,76339,1,0,0:0:0:0:
380,71,76489,1,0,0:0:0:0:
380,71,76639,1,0,0:0:0:0:
380,71,76789,1,0,0:0:0:0:
216,191,76939,2,4,L|269:163,6,32.6624896597416
380,71,77539,1,4,0:0:0:0:
369,64,77689,1,8,0:0:0:0:
367,63,77839,1,0,0:0:0:0:
367,61,77989,1,0,0:0:0:0:
366,62,78139,1,8,0:0:0:0:
366,62,78289,1,8,0:0:0:0:
367,63,78439,1,0,0:0:0:0:
363,54,78589,1,8,0:0:0:0:
363,55,78739,1,0,0:0:0:0:
368,62,78889,1,8,0:0:0:0:
366,61,79039,1,0,0:0:0:0:
366,62,79189,1,0,0:0:0:0:
361,58,79339,1,8,0:0:0:0:
360,58,79489,1,8,0:0:0:0:
363,55,79639,1,0,0:0:0:0:
363,55,79789,1,0,0:0:0:0:
367,61,79939,1,8,0:0:0:0:
355,67,80089,1,8,0:0:0:0:
356,63,80239,1,0,0:0:0:0:
356,63,80389,1,8,0:0:0:0:
357,64,80539,1,0,0:0:0:0:
360,65,80689,1,0,0:0:0:0:
360,65,80839,1,8,0:0:0:0:
359,65,80989,1,8,0:0:0:0:
357,63,81139,1,0,0:0:0:0:
356,63,81214,1,0,0:0:0:0:
356,64,81289,1,8,0:0:0:0:
356,63,81364,1,8,0:0:0:0:
357,64,81439,1,0,0:0:0:0:
366,59,81589,1,8,0:0:0:0:
367,60,81664,1,8,0:0:0:0:
373,56,81739,1,0,0:0:0:0:
355,67,82039,1,0,0:0:0:0:
373,68,82189,1,8,0:0:0:0:
346,81,82339,1,4,0:0:0:0:
369,64,82489,1,8,0:0:0:0:
367,63,82639,1,0,0:0:0:0:
367,61,82789,1,0,0:0:0:0:
366,62,82939,1,8,0:0:0:0:
366,62,83089,1,8,0:0:0:0:
367,63,83239,1,0,0:0:0:0:
363,54,83389,1,8,0:0:0:0:
363,55,83539,1,0,0:0:0:0:
368,62,83689,1,8,0:0:0:0:
366,61,83839,1,0,0:0:0:0:
366,62,83989,1,0,0:0:0:0:
361,58,84139,1,12,0:0:0:0:
360,58,84289,1,8,0:0:0:0:
363,55,84439,1,0,0:0:0:0:
368,62,84514,1,0,0:0:0:0:
363,55,84589,1,0,0:0:0:0:
367,61,84739,1,0,0:0:0:0:
355,67,84889,1,8,0:0:0:0:
356,63,85039,1,0,0:0:0:0:
356,63,85189,1,0,0:0:0:0:
363,54,85339,1,8,0:0:0:0:
365,67,85414,1,8,0:0:0:0:
368,62,85489,1,0,0:0:0:0:
359,68,85639,1,8,0:0:0:0:
355,67,85864,1,0,0:0:0:0:
357,63,85939,1,8,0:0:0:0:
356,63,86089,1,0,0:0:0:0:
356,63,86164,1,0,0:0:0:0:
354,66,86239,1,8,0:0:0:0:
354,66,86389,1,0,0:0:0:0:
188,211,86539,2,4,L|246:181,3,65.3814475980849
350,68,87139,1,4,0:0:0:0:
369,64,87289,1,8,0:0:0:0:
367,63,87439,1,0,0:0:0:0:
367,61,87589,1,0,0:0:0:0:
366,62,87739,1,8,0:0:0:0:
366,62,87889,1,0,0:0:0:0:
367,63,88039,1,8,0:0:0:0:
363,54,88189,1,8,0:0:0:0:
363,55,88339,1,0,0:0:0:0:
368,62,88489,1,8,0:0:0:0:
366,61,88639,1,0,0:0:0:0:
366,62,88789,1,8,0:0:0:0:
361,58,88939,1,0,0:0:0:0:
360,58,89089,1,8,0:0:0:0:
363,55,89239,1,0,0:0:0:0:
363,55,89389,1,0,0:0:0:0:
367,61,89539,1,8,0:0:0:0:
355,67,89689,1,8,0:0:0:0:
356,63,89839,1,0,0:0:0:0:
356,63,89989,1,8,0:0:0:0:
357,64,90139,1,0,0:0:0:0:
360,65,90289,1,0,0:0:0:0:
360,65,90439,1,8,0:0:0:0:
359,65,90589,1,8,0:0:0:0:
357,63,90739,1,0,0:0:0:0:
356,63,90814,1,0,0:0:0:0:
356,64,90889,1,8,0:0:0:0:
357,64,91039,1,8,0:0:0:0:
356,55,91114,1,8,0:0:0:0:
366,59,91189,1,0,0:0:0:0:
367,60,91264,1,0,0:0:0:0:
373,56,91339,1,8,0:0:0:0:
354,56,91639,1,0,0:0:0:0:
362,56,91789,1,8,0:0:0:0:
361,56,91939,1,4,0:0:0:0:
369,64,92089,1,8,0:0:0:0:
367,63,92239,1,0,0:0:0:0:
367,61,92389,1,0,0:0:0:0:
366,62,92539,1,8,0:0:0:0:
366,62,92689,1,8,0:0:0:0:
367,63,92764,1,8,0:0:0:0:
367,63,92839,1,0,0:0:0:0:
363,54,92989,1,8,0:0:0:0:
363,55,93139,1,0,0:0:0:0:
368,62,93289,1,8,0:0:0:0:
366,61,93439,1,0,0:0:0:0:
366,61,93514,1,8,0:0:0:0:
366,62,93589,1,0,0:0:0:0:
361,58,93739,1,0,0:0:0:0:
352,59,93889,1,8,0:0:0:0:
352,58,93964,1,0,0:0:0:0:
352,58,94114,1,8,0:0:0:0:
352,58,94189,1,0,0:0:0:0:
352,58,94339,1,8,0:0:0:0:
352,58,94489,1,0,0:0:0:0:
352,58,94564,1,0,0:0:0:0:
352,58,94639,1,8,0:0:0:0:
359,57,94789,1,0,0:0:0:0:
352,59,94939,1,8,0:0:0:0:
317,57,95014,1,8,0:0:0:0:
322,58,95089,1,0,0:0:0:0:
352,58,95239,1,8,0:0:0:0:
352,58,95464,1,0,0:0:0:0:
352,58,95539,1,8,0:0:0:0:
342,56,95689,1,0,0:0:0:0:
345,55,95764,1,0,0:0:0:0:
342,56,95839,1,8,0:0:0:0:
342,57,96139,1,0,0:0:0:0:
353,69,96214,1,8,0:0:0:0:
353,69,96289,1,0,0:0:0:0:
354,69,96439,1,8,0:0:0:0:
363,71,96514,1,0,0:0:0:0:
362,71,96589,1,8,0:0:0:0:
362,71,96739,1,0,0:0:0:0:
356,74,96889,1,8,0:0:0:0:
353,69,96964,1,0,0:0:0:0:
353,64,97039,1,8,0:0:0:0:
351,64,97114,1,8,0:0:0:0:
358,62,97264,1,0,0:0:0:0:
357,61,97339,1,8,0:0:0:0:
358,62,97489,1,8,0:0:0:0:
359,62,97564,1,0,0:0:0:0:
360,62,97639,1,8,0:0:0:0:
359,62,97789,1,0,0:0:0:0:
361,62,97939,1,8,0:0:0:0:
361,62,98014,1,8,0:0:0:0:
361,62,98089,1,0,0:0:0:0:
360,62,98239,1,8,0:0:0:0:
357,62,98314,1,0,0:0:0:0:
358,62,98389,1,0,0:0:0:0:
358,62,98539,1,8,0:0:0:0:
369,69,98614,1,8,0:0:0:0:
360,62,98689,1,0,0:0:0:0:
367,70,98764,1,0,0:0:0:0:
359,62,98839,1,8,0:0:0:0:
361,62,98989,1,0,0:0:0:0:
363,71,99064,1,0,0:0:0:0:
361,62,99139,1,8,0:0:0:0:
364,70,99214,1,8,0:0:0:0:
357,61,99289,1,0,0:0:0:0:
357,62,99439,1,8,0:0:0:0:
358,62,99514,1,0,0:0:0:0:
360,62,99589,1,0,0:0:0:0:
372,68,99664,1,0,0:0:0:0:
359,62,99739,1,8,0:0:0:0:
359,62,99889,1,0,0:0:0:0:
361,62,99964,1,8,0:0:0:0:
361,62,100039,1,0,0:0:0:0:
368,62,100114,1,0,0:0:0:0:
361,62,100189,1,8,0:0:0:0:
357,61,100339,1,0,0:0:0:0:
357,61,100414,1,8,0:0:0:0:
358,62,100489,1,0,0:0:0:0:
360,62,100639,1,8,0:0:0:0:
359,62,100714,1,8,0:0:0:0:
359,62,100789,1,0,0:0:0:0:
378,55,100864,1,0,0:0:0:0:
349,53,100939,1,8,0:0:0:0:
359,54,101089,1,0,0:0:0:0:
352,54,101164,1,8,0:0:0:0:
352,54,101239,1,0,0:0:0:0:
353,78,101314,1,0,0:0:0:0:
324,68,101389,1,8,0:0:0:0:
356,71,101539,1,8,0:0:0:0:
356,71,101689,1,8,0:0:0:0:
356,71,101764,1,0,0:0:0:0:
351,72,101839,1,8,0:0:0:0:
351,72,101914,1,8,0:0:0:0:
352,74,102064,1,0,0:0:0:0:
351,74,102139,1,8,0:0:0:0:
351,74,102214,1,8,0:0:0:0:
351,74,102289,1,0,0:0:0:0:
349,74,102439,1,8,0:0:0:0:
356,71,102589,1,0,0:0:0:0:
356,71,102664,1,8,0:0:0:0:
356,71,102739,1,0,0:0:0:0:
351,72,102889,1,8,0:0:0:0:
351,72,102964,1,0,0:0:0:0:
352,73,103039,1,8,0:0:0:0:
352,74,103114,1,8,0:0:0:0:
351,74,103339,1,8,0:0:0:0:
351,74,103414,1,8,0:0:0:0:
348,73,103489,1,0,0:0:0:0:
368,73,103639,1,8,0:0:0:0:
368,73,103714,1,0,0:0:0:0:
359,69,103789,1,8,0:0:0:0:
363,75,103939,1,0,0:0:0:0:
361,80,104089,1,8,0:0:0:0:
361,80,104164,1,0,0:0:0:0:
347,73,104239,1,0,0:0:0:0:
358,68,104389,1,0,0:0:0:0:
358,68,104539,1,12,0:0:0:0:
358,68,105139,1,0,0:0:0:0:
362,65,105289,1,0,0:0:0:0:
355,59,105439,1,8,0:0:0:0:
355,59,105589,1,0,0:0:0:0:
207,201,105739,2,4,L|256:169,2,48.9278318959012
327,67,106039,1,4,0:0:0:0:
364,63,106189,1,8,0:0:0:0:
362,65,106339,1,0,0:0:0:0:
365,62,106414,1,0,0:0:0:0:
365,62,106489,1,8,0:0:0:0:
364,63,106564,1,0,0:0:0:0:
355,59,106639,1,8,0:0:0:0:
352,62,106789,1,0,0:0:0:0:
356,57,106939,1,8,0:0:0:0:
353,61,107014,1,0,0:0:0:0:
349,61,107089,1,8,0:0:0:0:
349,60,107239,1,0,0:0:0:0:
350,61,107389,1,0,0:0:0:0:
350,61,107464,1,0,0:0:0:0:
350,58,107539,1,8,0:0:0:0:
350,58,107689,1,0,0:0:0:0:
359,56,107839,1,8,0:0:0:0:
359,56,107914,1,0,0:0:0:0:
359,56,107989,1,8,0:0:0:0:
359,56,108139,1,0,0:0:0:0:
371,55,108214,1,0,0:0:0:0:
359,56,108289,1,0,0:0:0:0:
359,56,108364,1,0,0:0:0:0:
359,56,108439,1,8,0:0:0:0:
359,55,108589,1,0,0:0:0:0:
370,55,108664,1,0,0:0:0:0:
356,56,108739,1,8,0:0:0:0:
359,56,108814,1,0,0:0:0:0:
359,56,108889,1,8,0:0:0:0:
359,56,109039,1,0,0:0:0:0:
359,56,109114,1,8,0:0:0:0:
359,56,109189,1,0,0:0:0:0:
375,51,109264,1,0,0:0:0:0:
359,56,109339,1,8,0:0:0:0:
356,65,109414,1,8,0:0:0:0:
355,64,109564,1,0,0:0:0:0:
357,66,109639,1,8,0:0:0:0:
357,67,109714,1,0,0:0:0:0:
359,56,109939,1,0,0:0:0:0:
335,64,110014,1,0,0:0:0:0:
336,64,110089,1,8,0:0:0:0:
359,56,110164,1,8,0:0:0:0:
359,56,110239,1,0,0:0:0:0:
356,65,110439,1,8,0:0:0:0:
348,62,110539,1,0,0:0:0:0:
367,58,110689,1,8,0:0:0:0:
367,58,110764,1,0,0:0:0:0:
367,58,110839,1,8,0:0:0:0:
367,58,110989,1,0,0:0:0:0:
367,58,111064,1,0,0:0:0:0:
365,57,111139,1,8,0:0:0:0:
366,58,111289,1,0,0:0:0:0:
365,59,111439,1,8,0:0:0:0:
367,59,111514,1,0,0:0:0:0:
367,58,111664,1,0,0:0:0:0:
367,58,111739,1,8,0:0:0:0:
367,58,111814,1,0,0:0:0:0:
367,58,111889,1,0,0:0:0:0:
367,58,112039,1,8,0:0:0:0:
367,58,112114,1,8,0:0:0:0:
365,57,112189,1,0,0:0:0:0:
365,59,112339,1,8,0:0:0:0:
365,59,112489,1,0,0:0:0:0:
363,68,112564,1,8,0:0:0:0:
367,58,112639,1,0,0:0:0:0:
352,64,112789,1,8,0:0:0:0:
351,64,112939,1,8,0:0:0:0:
356,73,113014,1,8,0:0:0:0:
356,71,113089,1,0,0:0:0:0:
373,63,113239,1,8,0:0:0:0:
375,57,113389,1,8,0:0:0:0:
365,59,113464,1,8,0:0:0:0:
373,57,113539,1,0,0:0:0:0:
363,57,113689,1,8,0:0:0:0:
362,57,113764,1,0,0:0:0:0:
362,57,113839,1,8,0:0:0:0:
355,50,113989,1,0,0:0:0:0:
355,50,114139,1,4,0:0:0:0:
362,62,114339,1,0,0:0:0:0:
365,59,114439,1,8,0:0:0:0:
366,75,114739,1,0,0:0:0:0:
366,75,114889,1,0,0:0:0:0:
365,73,115039,1,8,0:0:0:0:
189,229,115339,2,4,L|235:199,4,49.0362586678892
374,73,115939,1,4,0:0:0:0:
362,72,116089,1,8,0:0:0:0:
372,72,116239,1,0,0:0:0:0:
372,73,116389,1,0,0:0:0:0:
372,73,116539,1,8,0:0:0:0:
372,73,116689,1,8,0:0:0:0:
375,75,116839,1,0,0:0:0:0:
372,74,116989,1,8,0:0:0:0:
372,74,117139,1,8,0:0:0:0:
353,77,117289,1,0,0:0:0:0:
372,73,117439,1,0,0:0:0:0:
372,73,117589,1,8,0:0:0:0:
372,73,117739,1,0,0:0:0:0:
359,65,117889,1,8,0:0:0:0:
359,65,118189,1,0,0:0:0:0:
359,65,118339,1,8,0:0:0:0:
360,65,118414,1,0,0:0:0:0:
365,64,118564,1,8,0:0:0:0:
359,63,118639,1,0,0:0:0:0:
357,52,118789,1,8,0:0:0:0:
366,59,118939,1,0,0:0:0:0:
368,60,119014,1,0,0:0:0:0:
368,61,119164,1,8,0:0:0:0:
368,61,119239,1,0,0:0:0:0:
368,62,119389,1,8,0:0:0:0:
365,64,119539,1,0,0:0:0:0:
360,84,119614,1,8,0:0:0:0:
360,84,119689,1,0,0:0:0:0:
366,66,119839,1,8,0:0:0:0:
346,77,119914,1,8,0:0:0:0:
345,77,119989,1,0,0:0:0:0:
362,65,120139,1,8,0:0:0:0:
357,66,120439,1,0,0:0:0:0:
357,66,120589,1,8,0:0:0:0:
360,84,120739,1,4,0:0:0:0:
373,67,120889,1,8,0:0:0:0:
374,67,121039,1,0,0:0:0:0:
374,67,121189,1,8,0:0:0:0:
362,78,121339,1,8,0:0:0:0:
362,78,121489,1,0,0:0:0:0:
362,78,121639,1,8,0:0:0:0:
360,84,121789,1,0,0:0:0:0:
351,83,121939,1,8,0:0:0:0:
351,83,122089,1,8,0:0:0:0:
350,82,122239,1,0,0:0:0:0:
350,82,122389,1,0,0:0:0:0:
348,83,122539,1,12,0:0:0:0:
343,92,122689,1,0,0:0:0:0:
343,92,122839,1,8,0:0:0:0:
343,93,122914,1,0,0:0:0:0:
343,93,122989,1,0,0:0:0:0:
343,93,123139,1,8,0:0:0:0:
340,102,123214,1,8,0:0:0:0:
353,94,123364,1,0,0:0:0:0:
351,94,123439,1,8,0:0:0:0:
343,92,123589,1,0,0:0:0:0:
343,92,123739,1,8,0:0:0:0:
390,70,123814,1,8,0:0:0:0:
378,78,123889,1,0,0:0:0:0:
379,69,124039,1,8,0:0:0:0:
377,72,124189,1,0,0:0:0:0:
377,72,124339,1,8,0:0:0:0:
378,66,124414,1,8,0:0:0:0:
378,67,124489,1,0,0:0:0:0:
377,66,124564,1,8,0:0:0:0:
377,66,124639,1,0,0:0:0:0:
375,67,124789,1,8,0:0:0:0:
138,238,124939,2,4,L|213:202,4,49.041159972582
358,75,125539,1,4,0:0:0:0:
361,74,125689,1,8,0:0:0:0:
361,74,125839,1,0,0:0:0:0:
363,58,125989,1,8,0:0:0:0:
363,58,126139,1,8,0:0:0:0:
363,58,126289,1,0,0:0:0:0:
356,63,126439,1,8,0:0:0:0:
349,67,126589,1,0,0:0:0:0:
356,63,126739,1,8,0:0:0:0:
348,67,126889,1,8,0:0:0:0:
348,67,127039,1,0,0:0:0:0:
343,58,127189,1,8,0:0:0:0:
348,68,127339,1,0,0:0:0:0:
335,60,127414,1,0,0:0:0:0:
352,54,127489,1,8,0:0:0:0:
356,63,127639,1,0,0:0:0:0:
354,59,127789,1,8,0:0:0:0:
354,59,127939,1,0,0:0:0:0:
329,47,128014,1,8,0:0:0:0:
348,50,128164,1,8,0:0:0:0:
348,50,128239,1,0,0:0:0:0:
348,50,128389,1,8,0:0:0:0:
348,50,128539,1,0,0:0:0:0:
346,49,128614,1,8,0:0:0:0:
344,46,128764,1,0,0:0:0:0:
342,47,128839,1,0,0:0:0:0:
345,49,128989,1,8,0:0:0:0:
350,58,129139,1,0,0:0:0:0:
348,50,129214,1,8,0:0:0:0:
348,50,129289,1,0,0:0:0:0:
348,50,129439,1,8,0:0:0:0:
348,50,129514,1,8,0:0:0:0:
346,49,129589,1,0,0:0:0:0:
343,38,129739,1,8,0:0:0:0:
342,40,130039,1,0,0:0:0:0:
326,51,130189,1,8,0:0:0:0:
344,70,130339,1,4,0:0:0:0:
329,48,130489,1,8,0:0:0:0:
346,49,130639,1,8,0:0:0:0:
325,53,130789,1,0,0:0:0:0:
325,53,130939,1,8,0:0:0:0:
325,53,131089,1,8,0:0:0:0:
326,51,131164,1,8,0:0:0:0:
325,53,131239,1,0,0:0:0:0:
329,48,131389,1,8,0:0:0:0:
332,62,131539,1,8,0:0:0:0:
320,61,131689,1,0,0:0:0:0:
319,62,131839,1,8,0:0:0:0:
318,62,131914,1,0,0:0:0:0:
317,63,131989,1,8,0:0:0:0:
312,65,132139,1,8,0:0:0:0:
304,68,132289,1,0,0:0:0:0:
299,69,132364,1,8,0:0:0:0:
299,69,132514,1,0,0:0:0:0:
299,69,132589,1,8,0:0:0:0:
299,69,132739,1,8,0:0:0:0:
289,71,132814,1,8,0:0:0:0:
299,69,132889,1,0,0:0:0:0:
291,77,132964,1,0,0:0:0:0:
315,71,133039,1,8,0:0:0:0:
315,66,133189,1,0,0:0:0:0:
321,68,133339,1,8,0:0:0:0:
373,63,133589,1,0,0:0:0:0:
329,75,133939,1,0,0:0:0:0:
321,68,134239,1,8,0:0:0:0:
321,68,134314,1,0,0:0:0:0:
326,64,134389,1,0,0:0:0:0:
332,77,134539,1,4,0:0:0:0:
304,92,144139,5,4,0:0:0:0:
321,105,144589,1,0,0:0:0:0:
297,92,144889,1,0,0:0:0:0:
314,91,145339,1,0,0:0:0:0:
323,102,145789,1,0,0:0:0:0:
325,89,146539,1,0,0:0:0:0:
323,86,146989,1,0,0:0:0:0:
323,86,147289,1,0,0:0:0:0:
325,89,147739,1,0,0:0:0:0:
337,91,148039,1,0,0:0:0:0:
323,86,148339,1,0,0:0:0:0:
323,77,148939,1,0,0:0:0:0:
323,78,149389,1,0,0:0:0:0:
323,78,149689,1,0,0:0:0:0:
323,77,150139,1,0,0:0:0:0:
323,78,150589,1,0,0:0:0:0:
323,78,151339,1,0,0:0:0:0:
328,74,151789,1,0,0:0:0:0:
326,64,152089,1,0,0:0:0:0:
325,64,152539,1,12,0:0:0:0:
323,68,152839,1,8,0:0:0:0:
326,64,152989,1,0,0:0:0:0:
326,64,153139,1,8,0:0:0:0:
326,64,153289,1,0,0:0:0:0:
326,64,153364,1,8,0:0:0:0:
325,64,153439,1,8,0:0:0:0:
328,62,153589,1,0,0:0:0:0:
327,61,153739,1,12,0:0:0:0:
337,62,154039,1,8,0:0:0:0:
337,62,154189,1,0,0:0:0:0:
331,58,154339,1,8,0:0:0:0:
337,62,154639,1,0,0:0:0:0:
337,62,154789,1,0,0:0:0:0:
337,62,154939,1,8,0:0:0:0:
337,62,155239,1,0,0:0:0:0:
328,57,155539,1,8,0:0:0:0:
337,62,155689,1,0,0:0:0:0:
337,62,155839,1,0,0:0:0:0:
337,62,155989,1,0,0:0:0:0:
337,62,156139,1,8,0:0:0:0:
352,70,156439,1,8,0:0:0:0:
352,70,156589,1,0,0:0:0:0:
328,57,156739,1,8,0:0:0:0:
352,70,157039,1,0,0:0:0:0:
352,70,157189,1,0,0:0:0:0:
352,70,157339,1,8,0:0:0:0:
352,70,157489,1,0,0:0:0:0:
352,70,157639,1,0,0:0:0:0:
328,57,157939,1,8,0:0:0:0:
352,70,158089,1,0,0:0:0:0:
352,70,158239,1,0,0:0:0:0:
352,70,158389,1,0,0:0:0:0:
352,70,158539,1,12,0:0:0:0:
343,50,158839,1,8,0:0:0:0:
353,57,158989,1,0,0:0:0:0:
343,67,159139,1,8,0:0:0:0:
353,57,159439,1,0,0:0:0:0:
353,57,159589,1,0,0:0:0:0:
332,85,159739,1,8,0:0:0:0:
353,57,160039,1,0,0:0:0:0:
332,85,160339,1,8,0:0:0:0:
364,57,160489,1,0,0:0:0:0:
364,57,160639,1,0,0:0:0:0:
364,58,160789,1,0,0:0:0:0:
332,85,160939,1,8,0:0:0:0:
364,57,161239,1,8,0:0:0:0:
364,57,161389,1,0,0:0:0:0:
332,85,161539,1,8,0:0:0:0:
367,75,161839,1,0,0:0:0:0:
367,75,161989,1,0,0:0:0:0:
336,79,162139,1,8,0:0:0:0:
364,57,162289,1,0,0:0:0:0:
371,61,162439,1,8,0:0:0:0:
371,61,162589,1,0,0:0:0:0:
336,79,162739,1,8,0:0:0:0:
371,61,162814,1,0,0:0:0:0:
371,61,162889,1,8,0:0:0:0:
364,57,163039,1,0,0:0:0:0:
364,57,163189,1,0,0:0:0:0:
371,61,163339,1,12,0:0:0:0:
377,56,163639,1,8,0:0:0:0:
373,71,163789,1,0,0:0:0:0:
373,71,163864,1,0,0:0:0:0:
373,71,163939,1,8,0:0:0:0:
373,71,164089,1,0,0:0:0:0:
373,71,164239,1,8,0:0:0:0:
383,74,164314,1,8,0:0:0:0:
383,74,164389,1,0,0:0:0:0:
383,74,164539,1,8,0:0:0:0:
377,56,164689,1,0,0:0:0:0:
383,73,164839,1,8,0:0:0:0:
383,73,164989,1,0,0:0:0:0:
383,73,165064,1,0,0:0:0:0:
381,69,165139,1,8,0:0:0:0:
382,69,165289,1,0,0:0:0:0:
383,74,165439,1,8,0:0:0:0:
383,74,165589,1,8,0:0:0:0:
377,68,165664,1,8,0:0:0:0:
383,74,165739,1,0,0:0:0:0:
389,69,165889,1,8,0:0:0:0:
373,66,166039,1,0,0:0:0:0:
367,70,166189,1,0,0:0:0:0:
367,70,166264,1,0,0:0:0:0:
363,73,166339,1,8,0:0:0:0:
377,64,166489,1,0,0:0:0:0:
377,68,166639,1,8,0:0:0:0:
377,64,166789,1,8,0:0:0:0:
373,66,166864,1,8,0:0:0:0:
373,66,166939,1,0,0:0:0:0:
385,68,167089,1,0,0:0:0:0:
367,70,167239,1,8,0:0:0:0:
372,64,167389,1,0,0:0:0:0:
377,64,167464,1,0,0:0:0:0:
377,68,167539,1,8,0:0:0:0:
377,64,167689,1,0,0:0:0:0:
373,66,167839,1,8,0:0:0:0:
373,66,167914,1,8,0:0:0:0:
372,64,167989,1,0,0:0:0:0:
372,64,168064,1,0,0:0:0:0:
372,64,168139,1,8,0:0:0:0:
359,66,168289,1,0,0:0:0:0:
377,64,168439,1,8,0:0:0:0:
377,68,168589,1,0,0:0:0:0:
381,62,168739,1,8,0:0:0:0:
379,62,168889,1,0,0:0:0:0:
381,62,169039,1,8,0:0:0:0:
382,57,169189,1,0,0:0:0:0:
382,58,169339,1,8,0:0:0:0:
382,58,169414,1,8,0:0:0:0:
377,64,169489,1,0,0:0:0:0:
374,58,169564,1,0,0:0:0:0:
380,58,169639,1,8,0:0:0:0:
381,62,169714,1,8,0:0:0:0:
388,50,169789,1,0,0:0:0:0:
383,67,169864,1,0,0:0:0:0:
388,50,169939,1,8,0:0:0:0:
381,62,170014,1,8,0:0:0:0:
388,50,170089,1,0,0:0:0:0:
388,50,170164,1,0,0:0:0:0:
388,50,170239,1,8,0:0:0:0:
383,67,170314,1,0,0:0:0:0:
382,58,170389,1,8,0:0:0:0:
374,58,170539,1,4,0:0:0:0:
366,81,171739,5,8,0:0:0:0:
366,81,171889,1,0,0:0:0:0:
366,81,171964,1,0,0:0:0:0:
366,81,172039,1,0,0:0:0:0:
384,83,172114,1,0,0:0:0:0:
366,81,172189,1,0,0:0:0:0:
366,81,172339,1,8,0:0:0:0:
366,81,172489,1,0,0:0:0:0:
366,81,172639,1,8,0:0:0:0:
385,70,172789,1,0,0:0:0:0:
385,71,172939,1,12,0:0:0:0:
394,78,173239,1,0,0:0:0:0:
378,81,173439,1,0,0:0:0:0:
376,81,173539,1,8,0:0:0:0:
376,81,173839,1,0,0:0:0:0:
376,82,174139,1,0,0:0:0:0:
371,81,174339,1,8,0:0:0:0:
371,81,174439,1,0,0:0:0:0:
376,81,174639,1,0,0:0:0:0:
376,81,174739,1,8,0:0:0:0:
376,82,175039,1,0,0:0:0:0:
378,72,175339,1,12,0:0:0:0:
380,97,175489,1,0,0:0:0:0:
380,97,175639,1,8,0:0:0:0:
390,88,175789,1,0,0:0:0:0:
390,87,175864,1,0,0:0:0:0:
376,82,175939,1,0,0:0:0:0:
376,82,176014,1,0,0:0:0:0:
388,87,176089,1,0,0:0:0:0:
388,87,176239,1,8,0:0:0:0:
381,86,176389,1,0,0:0:0:0:
378,85,176539,1,8,0:0:0:0:
396,85,176689,1,0,0:0:0:0:
403,59,176764,1,0,0:0:0:0:
403,78,176839,1,8,0:0:0:0:
402,66,176989,1,0,0:0:0:0:
397,67,177139,1,8,0:0:0:0:
386,64,177214,1,8,0:0:0:0:
386,64,177289,1,0,0:0:0:0:
395,74,177439,1,8,0:0:0:0:
391,74,177514,1,8,0:0:0:0:
390,75,177589,1,0,0:0:0:0:
386,72,177664,1,0,0:0:0:0:
385,72,177739,1,8,0:0:0:0:
397,67,178039,1,0,0:0:0:0:
396,68,178189,1,8,0:0:0:0:
395,74,178339,1,4,0:0:0:0:
383,81,178489,1,0,0:0:0:0:
382,80,178639,1,0,0:0:0:0:
382,80,178789,1,0,0:0:0:0:
382,80,178939,1,0,0:0:0:0:
386,75,179089,1,8,0:0:0:0:
387,75,179239,1,0,0:0:0:0:
383,81,179389,1,8,0:0:0:0:
387,75,179539,1,0,0:0:0:0:
387,75,179614,1,0,0:0:0:0:
382,80,179689,1,0,0:0:0:0:
323,76,179764,1,0,0:0:0:0:
387,75,179839,1,0,0:0:0:0:
382,80,179989,1,0,0:0:0:0:
374,69,180139,1,8,0:0:0:0:
374,69,180289,1,8,0:0:0:0:
388,57,180439,1,0,0:0:0:0:
388,57,180589,1,8,0:0:0:0:
387,57,180739,1,8,0:0:0:0:
388,57,180889,1,8,0:0:0:0:
388,57,181039,1,0,0:0:0:0:
388,57,181189,1,8,0:0:0:0:
388,57,181339,1,0,0:0:0:0:
376,60,181414,1,8,0:0:0:0:
375,60,181489,1,0,0:0:0:0:
388,57,181564,1,0,0:0:0:0:
388,57,181639,1,8,0:0:0:0:
387,57,181789,1,0,0:0:0:0:
384,63,181939,1,8,0:0:0:0:
388,57,182014,1,8,0:0:0:0:
376,66,182089,1,0,0:0:0:0:
376,66,182164,1,0,0:0:0:0:
370,74,182239,1,8,0:0:0:0:
370,74,182389,1,0,0:0:0:0:
213,220,182539,2,4,L|249:198,8,24.5090648685203
389,76,183139,1,4,0:0:0:0:
384,81,183289,1,8,0:0:0:0:
384,81,183439,1,0,0:0:0:0:
372,65,183589,1,8,0:0:0:0:
372,65,183739,1,0,0:0:0:0:
377,71,183889,1,8,0:0:0:0:
372,66,183964,1,8,0:0:0:0:
372,66,184039,1,0,0:0:0:0:
373,66,184189,1,8,0:0:0:0:
374,65,184339,1,0,0:0:0:0:
372,65,184489,1,8,0:0:0:0:
372,65,184564,1,8,0:0:0:0:
372,65,184639,1,0,0:0:0:0:
372,65,184714,1,8,0:0:0:0:
372,65,184789,1,0,0:0:0:0:
356,59,184939,1,0,0:0:0:0:
359,80,185089,1,8,0:0:0:0:
357,58,185239,1,0,0:0:0:0:
369,62,185389,1,8,0:0:0:0:
367,58,185539,1,0,0:0:0:0:
367,58,185689,1,8,0:0:0:0:
367,58,185764,1,8,0:0:0:0:
365,58,185839,1,0,0:0:0:0:
359,64,185989,1,8,0:0:0:0:
359,61,186139,1,0,0:0:0:0:
362,63,186289,1,8,0:0:0:0:
362,63,186364,1,8,0:0:0:0:
362,63,186439,1,0,0:0:0:0:
362,63,186589,1,8,0:0:0:0:
361,64,186739,1,0,0:0:0:0:
334,58,186814,1,0,0:0:0:0:
334,58,186889,1,8,0:0:0:0:
359,64,186964,1,0,0:0:0:0:
362,52,187039,1,8,0:0:0:0:
362,52,187189,1,0,0:0:0:0:
362,52,187264,1,0,0:0:0:0:
361,50,187339,1,8,0:0:0:0:
354,49,187639,1,0,0:0:0:0:
369,44,187789,1,8,0:0:0:0:
359,64,187939,1,0,0:0:0:0:
353,61,188089,1,8,0:0:0:0:
354,62,188239,1,0,0:0:0:0:
354,62,188389,1,8,0:0:0:0:
354,62,188539,1,0,0:0:0:0:
354,62,188689,1,8,0:0:0:0:
354,62,188764,1,8,0:0:0:0:
354,62,188839,1,0,0:0:0:0:
359,64,188989,1,8,0:0:0:0:
353,61,189139,1,0,0:0:0:0:
354,62,189289,1,8,0:0:0:0:
354,62,189364,1,8,0:0:0:0:
354,62,189439,1,0,0:0:0:0:
354,62,189514,1,8,0:0:0:0:
354,62,189589,1,0,0:0:0:0:
354,62,189739,1,0,0:0:0:0:
354,62,189889,1,8,0:0:0:0:
353,61,190039,1,0,0:0:0:0:
353,61,190189,1,8,0:0:0:0:
354,62,190339,1,0,0:0:0:0:
354,62,190489,1,0,0:0:0:0:
354,62,190639,1,8,0:0:0:0:
354,62,190789,1,8,0:0:0:0:
345,63,190939,1,0,0:0:0:0:
360,55,191039,1,8,0:0:0:0:
358,74,191139,1,0,0:0:0:0:
366,65,191239,1,8,0:0:0:0:
354,71,191439,1,0,0:0:0:0:
355,69,191539,1,8,0:0:0:0:
345,46,191639,1,0,0:0:0:0:
344,48,191739,1,0,0:0:0:0:
343,50,191839,1,8,0:0:0:0:
350,55,192139,1,0,0:0:0:0:
366,37,192214,1,8,0:0:0:0:
362,41,192289,1,0,0:0:0:0:
361,41,192439,1,0,0:0:0:0:
352,40,192589,1,8,0:0:0:0:
344,48,192664,1,8,0:0:0:0:
371,71,192739,1,0,0:0:0:0:
365,74,192889,1,8,0:0:0:0:
362,69,192964,1,0,0:0:0:0:
362,64,193039,1,8,0:0:0:0:
360,64,193114,1,8,0:0:0:0:
367,62,193264,1,0,0:0:0:0:
366,61,193339,1,8,0:0:0:0:
367,62,193489,1,8,0:0:0:0:
368,62,193564,1,0,0:0:0:0:
369,62,193639,1,8,0:0:0:0:
368,62,193789,1,0,0:0:0:0:
370,62,193939,1,8,0:0:0:0:
370,62,194014,1,8,0:0:0:0:
370,62,194089,1,0,0:0:0:0:
369,62,194239,1,8,0:0:0:0:
366,62,194314,1,0,0:0:0:0:
366,62,194389,1,0,0:0:0:0:
367,62,194539,1,8,0:0:0:0:
369,62,194614,1,8,0:0:0:0:
369,62,194689,1,0,0:0:0:0:
368,62,194764,1,0,0:0:0:0:
368,62,194839,1,8,0:0:0:0:
370,62,194989,1,0,0:0:0:0:
370,62,195064,1,0,0:0:0:0:
370,62,195139,1,8,0:0:0:0:
380,62,195214,1,8,0:0:0:0:
366,61,195289,1,0,0:0:0:0:
366,62,195439,1,8,0:0:0:0:
367,62,195514,1,0,0:0:0:0:
369,62,195589,1,0,0:0:0:0:
384,65,195664,1,0,0:0:0:0:
368,62,195739,1,8,0:0:0:0:
368,62,195889,1,0,0:0:0:0:
370,62,195964,1,8,0:0:0:0:
370,62,196039,1,0,0:0:0:0:
368,53,196114,1,0,0:0:0:0:
370,62,196189,1,8,0:0:0:0:
366,61,196339,1,0,0:0:0:0:
366,61,196414,1,8,0:0:0:0:
367,62,196489,1,0,0:0:0:0:
369,62,196639,1,8,0:0:0:0:
368,62,196714,1,8,0:0:0:0:
368,62,196789,1,0,0:0:0:0:
387,55,196864,1,0,0:0:0:0:
358,53,196939,1,8,0:0:0:0:
368,54,197089,1,0,0:0:0:0:
361,54,197164,1,8,0:0:0:0:
361,54,197239,1,0,0:0:0:0:
362,78,197314,1,0,0:0:0:0:
333,68,197389,1,8,0:0:0:0:
365,71,197539,1,8,0:0:0:0:
365,71,197689,1,8,0:0:0:0:
365,71,197764,1,0,0:0:0:0:
360,72,197839,1,8,0:0:0:0:
360,72,197914,1,8,0:0:0:0:
361,74,198064,1,0,0:0:0:0:
360,74,198139,1,8,0:0:0:0:
360,74,198214,1,8,0:0:0:0:
360,74,198289,1,0,0:0:0:0:
358,74,198439,1,8,0:0:0:0:
365,71,198589,1,0,0:0:0:0:
365,71,198664,1,8,0:0:0:0:
365,71,198739,1,0,0:0:0:0:
360,72,198889,1,8,0:0:0:0:
360,72,198964,1,0,0:0:0:0:
361,73,199039,1,8,0:0:0:0:
361,74,199114,1,8,0:0:0:0:
360,74,199339,1,8,0:0:0:0:
360,74,199414,1,8,0:0:0:0:
357,73,199489,1,0,0:0:0:0:
377,73,199639,1,8,0:0:0:0:
377,73,199714,1,0,0:0:0:0:
368,69,199789,1,8,0:0:0:0:
372,75,199939,1,0,0:0:0:0:
370,80,200089,1,8,0:0:0:0:
370,80,200164,1,0,0:0:0:0:
356,73,200239,1,0,0:0:0:0:
367,68,200389,1,0,0:0:0:0:
367,68,200539,1,12,0:0:0:0:
367,68,201139,1,0,0:0:0:0:
371,65,201289,1,0,0:0:0:0:
364,59,201439,1,8,0:0:0:0:
364,59,201589,1,0,0:0:0:0:
223,215,201739,2,4,L|272:183,2,48.9278318959012
336,67,202039,1,4,0:0:0:0:
373,63,202189,1,8,0:0:0:0:
371,65,202339,1,0,0:0:0:0:
374,62,202414,1,0,0:0:0:0:
374,62,202489,1,8,0:0:0:0:
373,63,202564,1,0,0:0:0:0:
364,59,202639,1,8,0:0:0:0:
361,62,202789,1,0,0:0:0:0:
365,57,202939,1,8,0:0:0:0:
362,61,203014,1,0,0:0:0:0:
358,61,203089,1,8,0:0:0:0:
358,60,203239,1,0,0:0:0:0:
359,61,203389,1,0,0:0:0:0:
359,61,203464,1,0,0:0:0:0:
359,58,203539,1,8,0:0:0:0:
359,58,203689,1,0,0:0:0:0:
368,56,203839,1,8,0:0:0:0:
368,56,203914,1,0,0:0:0:0:
368,56,203989,1,8,0:0:0:0:
368,56,204064,1,8,0:0:0:0:
368,56,204139,1,0,0:0:0:0:
368,56,204289,1,0,0:0:0:0:
368,56,204364,1,0,0:0:0:0:
368,56,204439,1,8,0:0:0:0:
368,55,204589,1,0,0:0:0:0:
365,56,204739,1,8,0:0:0:0:
368,56,204814,1,0,0:0:0:0:
368,56,204889,1,8,0:0:0:0:
368,56,205039,1,0,0:0:0:0:
368,56,205114,1,8,0:0:0:0:
368,56,205189,1,0,0:0:0:0:
368,56,205339,1,8,0:0:0:0:
365,65,205414,1,8,0:0:0:0:
364,64,205564,1,0,0:0:0:0:
366,66,205639,1,8,0:0:0:0:
366,67,205714,1,0,0:0:0:0:
368,56,205939,1,0,0:0:0:0:
344,64,206014,1,0,0:0:0:0:
345,64,206089,1,8,0:0:0:0:
368,56,206164,1,8,0:0:0:0:
368,56,206239,1,0,0:0:0:0:
365,65,206439,1,8,0:0:0:0:
357,62,206539,1,0,0:0:0:0:
376,58,206689,1,8,0:0:0:0:
376,58,206764,1,0,0:0:0:0:
376,58,206839,1,8,0:0:0:0:
376,58,206989,1,0,0:0:0:0:
376,58,207064,1,0,0:0:0:0:
374,57,207139,1,8,0:0:0:0:
375,58,207289,1,0,0:0:0:0:
374,59,207439,1,8,0:0:0:0:
376,59,207514,1,0,0:0:0:0:
376,58,207664,1,0,0:0:0:0:
376,58,207739,1,8,0:0:0:0:
376,58,207814,1,0,0:0:0:0:
376,58,207889,1,0,0:0:0:0:
376,58,208039,1,8,0:0:0:0:
376,58,208114,1,8,0:0:0:0:
374,57,208189,1,0,0:0:0:0:
374,59,208339,1,8,0:0:0:0:
374,59,208489,1,0,0:0:0:0:
372,68,208564,1,8,0:0:0:0:
376,58,208639,1,0,0:0:0:0:
361,64,208789,1,8,0:0:0:0:
360,64,208939,1,8,0:0:0:0:
365,73,209014,1,8,0:0:0:0:
365,71,209089,1,0,0:0:0:0:
382,63,209239,1,8,0:0:0:0:
384,57,209389,1,8,0:0:0:0:
374,59,209464,1,8,0:0:0:0:
382,57,209539,1,0,0:0:0:0:
372,57,209689,1,8,0:0:0:0:
371,57,209764,1,0,0:0:0:0:
371,57,209839,1,8,0:0:0:0:
364,50,209989,1,0,0:0:0:0:
364,50,210139,1,4,0:0:0:0:
360,79,210339,1,0,0:0:0:0:
374,59,210439,1,8,0:0:0:0:
375,75,210739,1,0,0:0:0:0:
375,75,210889,5,0,0:0:0:0:
374,73,211039,1,8,0:0:0:0:
333,76,211339,1,0,0:0:0:0:
324,71,211414,1,8,0:0:0:0:
332,72,211489,1,0,0:0:0:0:
316,77,211639,1,4,0:0:0:0:
340,77,211789,1,8,0:0:0:0:
340,75,211939,1,0,0:0:0:0:
340,75,212089,1,8,0:0:0:0:
324,71,212239,1,0,0:0:0:0:
324,71,212389,1,8,0:0:0:0:
332,72,212464,1,8,0:0:0:0:
332,72,212539,1,0,0:0:0:0:
328,72,212689,1,8,0:0:0:0:
328,72,212839,1,0,0:0:0:0:
325,61,212989,1,8,0:0:0:0:
329,68,213064,1,0,0:0:0:0:
330,67,213139,1,8,0:0:0:0:
340,68,213289,1,0,0:0:0:0:
340,69,213439,1,8,0:0:0:0:
323,61,213514,1,8,0:0:0:0:
320,68,213589,1,0,0:0:0:0:
355,58,213664,1,0,0:0:0:0:
356,58,213739,1,8,0:0:0:0:
342,64,213889,1,0,0:0:0:0:
342,63,214039,1,8,0:0:0:0:
354,50,214189,1,8,0:0:0:0:
354,50,214339,1,0,0:0:0:0:
350,49,214414,1,8,0:0:0:0:
350,49,214564,1,8,0:0:0:0:
349,49,214639,1,0,0:0:0:0:
345,48,214789,1,8,0:0:0:0:
349,51,214939,1,0,0:0:0:0:
349,51,215014,1,8,0:0:0:0:
345,54,215089,1,8,0:0:0:0:
345,55,215164,1,8,0:0:0:0:
344,55,215239,1,0,0:0:0:0:
343,55,215389,1,8,0:0:0:0:
344,57,215464,1,8,0:0:0:0:
344,58,215539,1,0,0:0:0:0:
344,58,215689,1,0,0:0:0:0:
343,58,215839,1,8,0:0:0:0:
345,55,216139,1,0,0:0:0:0:
329,57,216289,1,8,0:0:0:0:
329,57,216439,1,0,0:0:0:0:
331,57,216589,1,8,0:0:0:0:
331,57,216739,1,0,0:0:0:0:
356,49,216889,1,8,0:0:0:0:
345,55,216964,1,8,0:0:0:0:
345,55,217039,1,0,0:0:0:0:
353,64,217189,1,8,0:0:0:0:
352,61,217339,1,0,0:0:0:0:
339,64,217489,1,8,0:0:0:0:
355,59,217564,1,0,0:0:0:0:
354,55,217639,1,8,0:0:0:0:
356,59,217789,1,0,0:0:0:0:
354,55,217939,1,8,0:0:0:0:
365,56,218089,1,0,0:0:0:0:
365,56,218239,1,8,0:0:0:0:
343,47,218314,1,8,0:0:0:0:
341,48,218389,1,0,0:0:0:0:
343,47,218464,1,0,0:0:0:0:
341,49,218539,1,8,0:0:0:0:
340,49,218689,1,0,0:0:0:0:
340,38,218764,1,8,0:0:0:0:
340,38,218839,1,0,0:0:0:0:
345,42,218989,1,8,0:0:0:0:
337,39,219139,1,0,0:0:0:0:
337,39,219214,1,8,0:0:0:0:
351,42,219364,1,8,0:0:0:0:
351,42,219439,1,0,0:0:0:0:
339,38,219589,1,8,0:0:0:0:
340,38,219739,1,4,0:0:0:0:
342,55,220039,1,8,0:0:0:0:
340,39,220339,1,8,0:0:0:0:
336,48,220439,1,0,0:0:0:0:
337,47,220539,1,0,0:0:0:0:
337,47,220639,1,8,0:0:0:0:
336,40,220789,1,8,0:0:0:0:
333,40,220939,1,0,0:0:0:0:
332,39,221089,1,0,0:0:0:0:
332,39,221239,1,4,0:0:0:0:
332,39,221389,1,8,0:0:0:0:
332,39,221539,1,0,0:0:0:0:
332,39,221689,1,8,0:0:0:0:
336,40,221839,1,0,0:0:0:0:
332,39,221989,1,8,0:0:0:0:
332,39,222064,1,8,0:0:0:0:
332,39,222139,1,0,0:0:0:0:
332,39,222289,1,8,0:0:0:0:
332,39,222439,1,0,0:0:0:0:
332,39,222589,1,8,0:0:0:0:
332,39,222664,1,0,0:0:0:0:
336,40,222739,1,8,0:0:0:0:
330,50,222889,1,0,0:0:0:0:
334,47,223039,1,8,0:0:0:0:
334,47,223114,1,8,0:0:0:0:
339,51,223189,1,0,0:0:0:0:
339,50,223264,1,0,0:0:0:0:
327,46,223339,1,8,0:0:0:0:
317,55,223489,1,0,0:0:0:0:
320,55,223564,1,0,0:0:0:0:
329,53,223639,1,8,0:0:0:0:
315,50,223789,1,8,0:0:0:0:
329,52,223939,1,0,0:0:0:0:
326,50,224014,1,8,0:0:0:0:
331,43,224164,1,8,0:0:0:0:
339,50,224239,1,0,0:0:0:0:
335,45,224389,1,8,0:0:0:0:
334,45,224539,1,0,0:0:0:0:
320,55,224614,1,8,0:0:0:0:
315,50,224689,1,8,0:0:0:0:
315,50,224764,1,8,0:0:0:0:
321,48,224839,1,0,0:0:0:0:
326,50,224989,1,8,0:0:0:0:
320,48,225064,1,8,0:0:0:0:
320,48,225139,1,0,0:0:0:0:
321,48,225289,1,0,0:0:0:0:
321,48,225439,1,8,0:0:0:0:
312,61,225739,1,0,0:0:0:0:
321,48,225839,1,8,0:0:0:0:
315,50,225939,1,0,0:0:0:0:
325,57,226039,1,8,0:0:0:0:
327,53,226189,1,8,0:0:0:0:
322,39,226339,1,4,0:0:0:0:
356,72,226489,1,0,0:0:0:0:
344,69,226639,1,8,0:0:0:0:
330,56,226789,1,0,0:0:0:0:
330,56,226939,1,0,0:0:0:0:
325,57,227089,1,8,0:0:0:0:
344,77,227164,1,8,0:0:0:0:
336,57,227239,1,0,0:0:0:0:
334,56,227389,1,0,0:0:0:0:
334,56,227539,1,8,0:0:0:0:
333,56,227689,1,0,0:0:0:0:
322,50,227839,1,8,0:0:0:0:
322,50,227914,1,0,0:0:0:0:
322,50,227989,1,8,0:0:0:0:
322,50,228139,1,8,0:0:0:0:
322,50,228289,1,0,0:0:0:0:
322,50,228364,1,8,0:0:0:0:
322,50,228514,1,0,0:0:0:0:
322,49,228589,1,8,0:0:0:0:
322,50,228739,1,8,0:0:0:0:
322,50,228814,1,8,0:0:0:0:
322,50,228889,1,0,0:0:0:0:
322,50,228964,1,0,0:0:0:0:
322,50,229039,1,8,0:0:0:0:
320,41,229189,1,0,0:0:0:0:
320,41,229339,1,8,0:0:0:0:
322,50,229414,1,0,0:0:0:0:
320,41,229639,1,0,0:0:0:0:
320,41,229939,1,8,0:0:0:0:
320,33,230089,1,0,0:0:0:0:
320,33,230239,1,8,0:0:0:0:
320,33,230389,1,8,0:0:0:0:
266,139,230539,5,4,0:0:0:0:
281,127,230689,1,0,0:0:0:0:
281,128,230839,1,8,0:0:0:0:
282,124,230989,1,0,0:0:0:0:
279,115,231064,1,0,0:0:0:0:
298,112,231139,1,0,0:0:0:0:
298,108,231439,1,8,0:0:0:0:
286,112,231589,1,0,0:0:0:0:
298,108,231739,1,0,0:0:0:0:
286,112,231889,1,0,0:0:0:0:
304,104,232039,1,8,0:0:0:0:
304,105,232189,1,0,0:0:0:0:
301,103,232264,1,0,0:0:0:0:
297,107,232339,1,0,0:0:0:0:
300,104,232414,1,0,0:0:0:0:
335,102,232564,1,0,0:0:0:0:
299,98,232639,1,8,0:0:0:0:
294,95,232939,1,0,0:0:0:0:
295,95,233089,1,0,0:0:0:0:
296,95,233239,1,8,0:0:0:0:
296,95,233389,1,0,0:0:0:0:
299,98,233689,1,0,0:0:0:0:
294,95,233839,1,8,0:0:0:0:
294,95,233989,1,0,0:0:0:0:
296,95,234139,1,0,0:0:0:0:
296,95,234289,1,0,0:0:0:0:
296,95,234439,1,8,0:0:0:0:
293,94,234589,1,0,0:0:0:0:
294,95,234739,1,8,0:0:0:0:
294,95,234814,1,0,0:0:0:0:
294,95,234889,1,0,0:0:0:0:
296,95,235039,1,8,0:0:0:0:
296,95,235189,1,8,0:0:0:0:
296,95,235339,1,0,0:0:0:0:
293,94,235489,1,0,0:0:0:0:
293,94,235639,1,8,0:0:0:0:
294,95,235789,1,0,0:0:0:0:
294,95,235864,1,0,0:0:0:0:
297,88,235939,1,0,0:0:0:0:
297,85,236239,1,8,0:0:0:0:
297,84,236389,1,0,0:0:0:0:
297,84,236539,1,0,0:0:0:0:
297,84,236689,1,0,0:0:0:0:
297,84,236839,1,8,0:0:0:0:
297,88,236989,1,0,0:0:0:0:
297,84,237064,1,0,0:0:0:0:
297,84,237139,1,0,0:0:0:0:
304,86,237214,1,0,0:0:0:0:
327,83,237364,1,0,0:0:0:0:
297,84,237439,1,8,0:0:0:0:
297,84,237739,1,0,0:0:0:0:
297,84,237889,1,0,0:0:0:0:
303,84,238039,1,8,0:0:0:0:
304,86,238189,1,0,0:0:0:0:
297,84,238339,1,8,0:0:0:0:
297,84,238414,1,8,0:0:0:0:
304,85,238489,1,8,0:0:0:0:
304,85,238564,1,8,0:0:0:0:
297,84,238639,1,0,0:0:0:0:
303,84,238939,1,12,0:0:0:0:
304,75,239239,1,0,0:0:0:0:
305,75,239314,1,8,0:0:0:0:
305,75,239389,1,0,0:0:0:0:
293,79,239539,1,8,0:0:0:0:
297,84,239689,1,0,0:0:0:0:
292,78,239839,1,8,0:0:0:0:
294,79,239989,1,0,0:0:0:0:
294,79,240139,1,12,0:0:0:0:
296,79,240439,1,8,0:0:0:0:
297,84,240589,1,0,0:0:0:0:
292,78,240889,1,0,0:0:0:0:
294,79,241039,1,8,0:0:0:0:
287,77,241189,1,0,0:0:0:0:
287,78,241339,1,0,0:0:0:0:
287,78,241639,1,8,0:0:0:0:
292,78,241789,1,0,0:0:0:0:
275,71,242089,1,0,0:0:0:0:
305,97,242239,1,8,0:0:0:0:
296,72,242389,1,8,0:0:0:0:
296,72,242539,1,0,0:0:0:0:
296,72,242839,1,8,0:0:0:0:
292,71,242989,1,0,0:0:0:0:
291,71,243289,1,0,0:0:0:0:
296,72,243439,1,8,0:0:0:0:
296,72,243589,1,0,0:0:0:0:
296,72,243739,1,0,0:0:0:0:
292,71,244039,1,8,0:0:0:0:
292,71,244189,1,0,0:0:0:0:
291,71,244339,1,8,0:0:0:0:
296,72,244414,1,0,0:0:0:0:
296,72,244489,1,0,0:0:0:0:
296,72,244639,1,8,0:0:0:0:
296,72,244789,1,8,0:0:0:0:
301,69,244939,1,4,0:0:0:0:
301,69,245239,1,8,0:0:0:0:
301,69,245389,1,0,0:0:0:0:
296,72,245539,1,0,0:0:0:0:
296,72,245689,1,0,0:0:0:0:
296,72,245839,1,8,0:0:0:0:
301,69,245989,1,0,0:0:0:0:
301,69,246064,1,8,0:0:0:0:
289,69,246139,1,0,0:0:0:0:
289,69,246289,1,0,0:0:0:0:
287,71,246439,1,8,0:0:0:0:
287,71,246589,1,0,0:0:0:0:
282,73,246739,1,0,0:0:0:0:
282,73,246889,1,0,0:0:0:0:
282,73,247039,1,8,0:0:0:0:
284,76,247189,1,8,0:0:0:0:
287,71,247339,1,0,0:0:0:0:
287,71,247414,1,8,0:0:0:0:
287,71,247489,1,0,0:0:0:0:
287,71,247639,1,8,0:0:0:0:
282,73,247714,1,8,0:0:0:0:
282,73,247789,1,0,0:0:0:0:
282,73,247939,1,8,0:0:0:0:
282,73,248014,1,0,0:0:0:0:
282,73,248089,1,8,0:0:0:0:
284,76,248164,1,0,0:0:0:0:
284,76,248239,1,8,0:0:0:0:
287,71,248389,1,0,0:0:0:0:
287,71,248464,1,0,0:0:0:0:
287,71,248539,1,8,0:0:0:0:
282,73,248689,1,0,0:0:0:0:
282,73,248839,1,8,0:0:0:0:
282,73,249139,1,8,0:0:0:0:
277,68,249289,1,0,0:0:0:0:
277,68,249439,1,8,0:0:0:0:
277,68,249589,1,8,0:0:0:0:
276,68,249739,1,4,0:0:0:0:
