osu file format v14

[General]
AudioFilename: audio.mp3
AudioLeadIn: 0
PreviewTime: -1
Countdown: 0
SampleSet: Soft
StackLeniency: 0.7
Mode: 0
LetterboxInBreaks: 0
WidescreenStoryboard: 0

[Editor]
DistanceSpacing: 1
BeatDivisor: 4
GridSize: 4
TimelineZoom: 1.9

[Metadata]
Title:Trigger (Zekk Remix)
TitleUnicode:Trigger (Zekk Remix)
Artist:Dustvoxx
ArtistUnicode:Dustvoxx
Creator:Justus
Version:Extra
Source:
Tags:
BeatmapID:1770810
BeatmapSetID:846708

[Difficulty]
HPDrainRate:4
CircleSize:4
OverallDifficulty:7
ApproachRate:10
SliderMultiplier:2
SliderTickRate:1

[Events]
//Background and Video events
0,0,"wallhaven-686842.jpg",0,0
//Break Periods
2,42522,47497
//Storyboard Layer 0 (Background)
//Storyboard Layer 1 (Fail)
//Storyboard Layer 2 (Pass)
//Storyboard Layer 3 (Foreground)
//Storyboard Sound Samples

[TimingPoints]
22.0694436302115,300,4,1,0,100,1,0
23,-200,4,2,0,100,0,0
2422,-100,4,2,0,100,0,0
2572,-200,4,2,0,100,0,0
4222,-66.6666666666667,4,2,0,100,0,0
4522,-100,4,2,0,100,0,0
5122,-200,4,2,0,100,0,0
7222,-100,4,2,0,100,0,0
7372,-200,4,2,0,100,0,0
7822,-100,4,2,0,100,0,0
9922,-133.333333333333,4,2,0,100,0,0
11722,-100,4,2,0,100,0,0
12022,-133.333333333333,4,2,0,100,0,0
14122,-100,4,2,0,100,0,0
14422,-133.333333333333,4,2,0,100,0,0
17122,-111.111111111111,4,2,0,100,0,0
17422,-100,4,2,0,100,0,0
18022,-133.333333333333,4,2,0,100,0,0
19222,-66.6666666666667,4,2,0,100,0,0
21322,-66.6666666666667,4,2,0,100,0,0
22822,-100,4,2,0,100,0,0
23422,-66.6666666666667,4,2,0,100,0,0
24022,-66.6666666666667,4,2,0,100,0,0
26422,-100,4,2,0,100,0,0
33622,-500,4,2,0,100,0,0
34222,-66.6666666666667,4,2,0,100,0,0
37222,-200,4,2,0,100,0,0
37822,-500,4,2,0,100,0,0
48022,-100,4,2,0,100,0,0
57622,-200,4,2,0,100,0,0
67222,-100,4,2,0,100,0,0
71722,-66.6666666666667,4,2,0,100,0,0
72022,-100,4,2,0,100,0,0
73822,-66.6666666666667,4,2,0,100,0,0
96022,-66.6666666666667,4,2,0,100,0,0
96622,-100,4,2,0,100,0,0
100522,-66.6666666666667,4,2,0,100,0,0
100822,-100,4,2,0,100,0,0
101122,-66.6666666666667,4,2,0,100,0,0
101422,-100,4,2,0,100,0,0
103522,-66.6666666666667,4,2,0,100,0,0
104422,-100,4,2,0,100,0,0
105022,-66.6666666666667,4,2,0,100,0,0
105922,-100,4,2,0,100,0,0
109822,-66.6666666666667,4,2,0,100,0,0
110122,-58.8235294117647,4,2,0,100,0,0
111022,-100,4,2,0,100,0,0
112822,-50,4,2,0,100,0,0
113122,-66.6666666666667,4,2,0,100,0,0
134422,-100,4,2,0,100,0,0

[HitObjects]
132,114,22,6,0,L|83:68,1,50
213,162,172,1,0,0:0:0:0:
213,162,247,1,0,0:0:0:0:
213,162,322,2,0,L|273:156,1,50
305,156,547,1,0,0:0:0:0:
305,156,622,2,0,L|297:205,1,50
392,249,847,1,0,0:0:0:0:
392,249,922,2,0,L|384:200,1,50
472,153,1222,5,0,0:0:0:0:
477,177,1297,1,0,0:0:0:0:
482,201,1372,1,0,0:0:0:0:
487,226,1447,1,0,0:0:0:0:
492,259,1522,2,0,L|480:297,3,25
409,316,1822,2,0,L|421:354,3,25
495,355,2122,1,0,0:0:0:0:
495,355,2272,1,0,0:0:0:0:
275,290,2422,6,0,L|225:299,1,50
346,247,2572,1,0,0:0:0:0:
346,247,2647,1,0,0:0:0:0:
346,247,2722,2,0,L|336:197,2,50
406,303,3172,2,0,L|415:352,1,50
411,183,3472,1,0,0:0:0:0:
275,290,3622,2,0,L|284:339,1,50
346,247,3922,1,0,0:0:0:0:
141,254,4072,2,0,L|145:278,1,25
155,313,4222,6,0,P|96:269|93:197,1,150.000005722046,0|0,0:0|2:0,0:0:0:0:
217,106,4522,2,0,P|231:86|251:71,1,50
143,38,4672,2,0,P|128:17|108:2,1,50
80,148,4822,6,0,L|98:213,1,50
205,185,4972,1,0,0:0:0:0:
205,185,5047,1,0,0:0:0:0:
205,185,5122,2,0,L|254:180,1,50
204,259,5422,1,0,0:0:0:0:
200,271,5497,1,0,0:0:0:0:
199,283,5572,1,0,0:0:0:0:
200,295,5647,1,0,0:0:0:0:
203,308,5722,2,0,L|252:312,1,50
345,322,6022,6,0,P|322:295|325:258,1,75
358,238,6322,2,0,L|354:198,1,25
271,145,6472,2,0,L|307:161,1,25
441,85,6622,2,0,L|386:136,1,75
386,136,6922,1,0,0:0:0:0:
327,68,7072,1,0,0:0:0:0:
149,194,7222,6,0,L|198:189,1,50
84,134,7372,1,0,0:0:0:0:
10,231,7522,1,0,0:0:0:0:
10,231,7672,1,0,0:0:0:0:
53,334,7822,6,0,B|69:314|69:314|94:307,1,50
173,279,7972,2,0,B|196:271|196:271|220:278,1,50
308,302,8122,1,0,0:0:0:0:
198,189,8272,1,0,0:0:0:0:
301,194,8422,5,0,0:0:0:0:
410,172,8572,1,0,0:0:0:0:
410,172,8722,2,0,B|405:198|405:198|411:220,2,50
488,40,9022,1,0,0:0:0:0:
438,100,9172,1,0,0:0:0:0:
488,160,9322,1,0,0:0:0:0:
216,87,9547,5,0,0:0:0:0:
201,68,9622,2,0,L|101:75,1,100
6,167,9922,1,0,0:0:0:0:
40,152,9997,1,0,0:0:0:0:
77,152,10072,1,0,0:0:0:0:
112,165,10147,1,0,0:0:0:0:
139,190,10222,2,0,L|156:238,3,37.5000014305115
75,261,10522,2,0,L|58:309,3,37.5000014305115
152,318,10822,6,0,P|170:322|188:324,3,37.5000014305115
213,331,11122,1,0,0:0:0:0:
217,197,11272,1,0,0:0:0:0:
334,269,11422,2,0,P|315:273|297:275,4,37.5000014305115
302,198,11722,6,0,L|313:149,1,50
354,42,11872,2,0,L|365:90,1,50
430,194,12022,6,0,P|431:212|441:228,3,37.5000014305115
450,311,12322,2,0,P|433:303|414:303,3,37.5000014305115
337,269,12622,2,0,P|352:258|361:242,3,37.5000014305115,0|0|0|0,2:0|2:0|2:0|2:0,2:0:0:0:
334,171,12922,1,0,0:0:0:0:
321,145,12997,1,0,0:0:0:0:
315,118,13072,1,0,0:0:0:0:
316,90,13147,1,0,0:0:0:0:
322,61,13222,6,0,P|363:26|418:29,1,112.500004291535
433,54,13522,1,0,0:0:0:0:
391,114,13672,1,0,0:0:0:0:
230,150,13822,6,0,P|176:135|137:94,1,112.500004291535
61,30,14122,2,0,L|67:79,1,50
6,147,14272,2,0,L|0:196,1,50
24,281,14422,6,0,L|61:275,3,37.5000014305115
144,266,14722,2,0,L|181:271,3,37.5000014305115
264,281,15022,2,0,L|301:275,3,37.5000014305115
384,266,15322,2,0,L|421:271,1,37.5000014305115
265,203,15547,5,0,0:0:0:0:
265,203,15622,2,0,L|261:128,1,75.0000028610231
252,25,15922,1,0,0:0:0:0:
154,95,16072,1,0,0:0:0:0:
360,157,16222,1,0,0:0:0:0:
261,128,16372,1,0,0:0:0:0:
173,185,16522,1,0,0:0:0:0:
173,185,16672,1,0,0:0:0:0:
26,222,16822,5,0,0:0:0:0:
14,256,16897,1,0,0:0:0:0:
28,290,16972,1,0,0:0:0:0:
62,306,17047,1,0,0:0:0:0:
97,296,17122,5,0,0:0:0:0:
138,277,17197,1,0,0:0:0:0:
182,269,17272,1,0,0:0:0:0:
227,272,17347,1,0,0:0:0:0:
269,285,17422,5,0,0:0:0:0:
298,323,17497,1,0,0:0:0:0:
279,367,17572,1,0,0:0:0:0:
231,371,17647,1,0,0:0:0:0:
205,331,17722,5,0,0:0:0:0:
203,281,17797,1,0,0:0:0:0:
219,234,17872,1,0,0:0:0:0:
235,187,17947,1,0,0:0:0:0:
233,137,18022,6,0,P|233:118|228:100,1,37.5000014305115
107,25,18172,1,0,0:0:0:0:
71,173,18322,6,0,L|108:173,1,37.5000014305115
219,234,18472,2,0,L|256:234,1,37.5000014305115
404,172,18622,6,0,L|366:172,1,37.5000014305115
190,100,18772,2,0,L|228:100,1,37.5000014305115
376,61,18922,1,0,0:0:0:0:
219,234,19072,1,0,0:0:0:0:
366,172,19222,6,0,B|422:172|422:172|460:196|460:196|504:175,2,150.000005722046
190,100,19672,5,0,0:0:0:0:
322,240,19822,1,0,0:0:0:0:
275,105,19972,1,0,0:0:0:0:
236,234,20122,1,0,0:0:0:0:
347,139,20272,1,0,0:0:0:0:
164,182,20422,1,0,0:0:0:0:
339,250,20572,1,0,0:0:0:0:
172,72,20722,1,0,0:0:0:0:
170,307,20872,5,0,0:0:0:0:
347,139,21022,1,0,0:0:0:0:
266,313,21172,1,0,0:0:0:0:
89,132,21322,2,0,B|90:82|63:55|63:55|115:81|171:71|171:71|152:95|150:127,1,225.000008583069,4|0,0:0|0:0,0:0:0:0:
156,176,21622,5,0,0:0:0:0:
291,66,21772,1,0,0:0:0:0:
254,202,21922,5,0,0:0:0:0:
192,39,22072,1,0,0:0:0:0:
352,228,22222,5,0,0:0:0:0:
290,65,22372,1,0,0:0:0:0:
254,202,22522,5,0,0:0:0:0:
389,92,22672,1,0,0:0:0:0:
453,250,22822,2,0,P|434:295|395:326,1,100
267,298,23122,1,0,0:0:0:0:
315,371,23272,1,0,0:0:0:0:
352,228,23422,6,0,P|351:190|336:156,1,75.0000028610231
203,74,23572,2,0,P|187:108|187:145,1,75.0000028610231
274,206,23722,1,0,0:0:0:0:
274,206,23872,1,0,0:0:0:0:
407,99,24022,6,0,P|357:154|351:227,1,150.000005722046
430,354,24322,1,0,0:0:0:0:
469,209,24472,1,0,0:0:0:0:
353,304,24622,2,0,L|203:319,1,150.000005722046
110,201,24922,2,0,L|259:216,1,150.000005722046
103,106,25222,2,0,P|37:138|11:206,1,150.000005722046
75,342,25522,1,0,0:0:0:0:
75,342,25672,1,0,0:0:0:0:
215,301,25822,2,0,P|189:232|123:200,1,150.000005722046
359,315,26122,6,0,B|398:323|425:355|425:355|425:316|441:286,1,150.000005722046
476,182,26422,6,0,B|420:189|420:189|379:172,1,100
337,55,26722,1,0,0:0:0:0:
353,65,26797,1,0,0:0:0:0:
369,75,26872,1,0,0:0:0:0:
296,133,27022,1,0,0:0:0:0:
447,49,27172,1,0,0:0:0:0:
379,172,27322,1,0,0:0:0:0:
228,88,27472,1,0,0:0:0:0:
306,270,27622,6,0,L|329:374,2,100
222,207,28072,1,0,0:0:0:0:
66,303,28222,2,0,P|118:230|41:186,1,200
239,254,28672,1,0,0:0:0:0:
222,207,28747,1,0,0:0:0:0:
206,159,28822,1,0,0:0:0:0:
204,318,28972,1,0,0:0:0:0:
144,113,29122,6,0,P|184:84|233:86,1,100
401,184,29422,2,0,P|360:155|311:157,1,100
392,274,29722,1,0,0:0:0:0:
492,162,29872,1,0,0:0:0:0:
311,157,30022,6,0,P|261:159|221:130,1,100
392,134,30322,2,0,P|394:183|365:223,1,100
365,223,30547,1,0,0:0:0:0:
365,223,30622,1,0,0:0:0:0:
289,81,30772,1,0,0:0:0:0:
180,176,30922,6,0,B|208:197|214:238|214:238|257:226|289:239,1,150,4|0,0:0|0:0,0:0:0:0:
289,239,31222,6,0,P|267:283|273:332,1,100
353,295,31522,1,0,0:0:0:0:
268,143,31672,1,0,0:0:0:0:
122,236,31822,1,0,0:0:0:0:
257,173,31972,1,0,0:0:0:0:
273,332,32122,1,0,0:0:0:0:
248,200,32272,1,0,0:0:0:0:
180,312,32422,6,0,P|137:334|87:330,1,100
133,136,32722,2,0,L|121:235,1,100
212,102,33022,1,0,0:0:0:0:
297,50,33172,1,0,0:0:0:0:
185,29,33322,6,0,L|135:34,1,50
67,67,33472,2,0,L|17:72,1,50
41,167,33622,6,0,L|42:186,3,20
29,284,34222,6,0,P|99:256|173:258,1,150.000005722046,8|0,0:0|0:0,0:0:0:0:
284,361,34522,1,8,0:0:0:0:
224,103,34672,6,0,P|282:149|317:214,1,150.000005722046,8|0,0:0|0:0,0:0:0:0:
284,361,34972,1,8,0:0:0:0:
478,181,35122,6,0,P|466:254|427:318,1,150.000005722046,8|0,0:0|0:0,0:0:0:0:
284,361,35422,1,8,0:0:0:0:
90,181,35572,6,0,P|101:254|140:318,1,150.000005722046,8|0,0:0|0:0,0:0:0:0:
284,361,35872,1,8,0:0:0:0:
313,60,36022,6,0,L|301:209,1,150.000005722046,8|0,0:0|0:0,0:0:0:0:
301,209,36247,6,0,L|177:124,1,150.000005722046,8|0,0:0|0:0,0:0:0:0:
177,124,36472,6,0,L|312:59,1,150.000005722046,8|8,0:0|0:0,0:0:0:0:
383,41,36922,6,0,P|441:84|451:157,1,150.000005722046,4|0,0:0|0:0,0:0:0:0:
369,255,37222,2,0,B|295:223|295:288|225:263,1,150,4|0,0:0|0:0,0:0:0:0:
242,105,37822,2,0,L|251:184,1,80,4|0,0:0|0:0,0:0:0:0:
256,192,38572,12,0,42322,0:0:0:0:
355,87,48022,6,0,P|363:110|361:135,3,50,4|0|0|0,0:0|0:0|0:0|0:0,0:0:0:0:
425,179,48322,2,0,P|408:197|386:208,3,50
379,286,48622,2,0,P|354:281|333:267,3,50
264,300,48922,2,0,P|255:276|257:251,3,50
194,207,49222,2,0,P|210:188|232:177,3,50
239,99,49522,2,0,P|263:103|284:117,3,50
317,189,49822,1,0,0:0:0:0:
317,189,49972,1,0,0:0:0:0:
156,119,50122,2,0,L|56:133,1,100,4|0,0:0|0:0,0:0:0:0:
68,277,50422,5,4,0:0:0:0:
152,203,50572,1,0,0:0:0:0:
182,299,50722,1,0,0:0:0:0:
206,302,50797,1,0,0:0:0:0:
231,305,50872,1,0,0:0:0:0:
256,309,50947,1,0,0:0:0:0:
281,312,51022,1,0,0:0:0:0:
411,189,51172,5,0,0:0:0:0:
254,215,51322,1,0,0:0:0:0:
428,90,51472,2,0,L|408:202,1,100,4|0,0:0|0:0,0:0:0:0:
292,72,51772,1,0,0:0:0:0:
213,149,51922,1,4,0:0:0:0:
237,146,51997,1,0,0:0:0:0:
262,143,52072,1,0,0:0:0:0:
287,141,52147,1,0,0:0:0:0:
312,138,52222,1,4,0:0:0:0:
176,47,52372,5,0,0:0:0:0:
72,81,52522,1,4,0:0:0:0:
213,149,52672,1,0,0:0:0:0:
72,81,52822,5,4,0:0:0:0:
43,235,52972,1,0,0:0:0:0:
133,173,53122,1,4,0:0:0:0:
125,196,53197,1,0,0:0:0:0:
125,221,53272,1,4,0:0:0:0:
134,245,53347,1,0,0:0:0:0:
149,264,53422,1,4,0:0:0:0:
213,149,53572,1,0,0:0:0:0:
43,236,53722,6,0,B|50:292|21:338|21:338|68:318|113:329,1,200
217,373,54172,1,0,0:0:0:0:
320,259,54322,1,4,0:0:0:0:
149,264,54472,1,0,0:0:0:0:
294,333,54622,1,4,0:0:0:0:
330,338,54697,1,0,0:0:0:0:
365,325,54772,1,0,0:0:0:0:
391,298,54847,1,0,0:0:0:0:
401,263,54922,1,0,0:0:0:0:
446,363,55072,5,0,0:0:0:0:
320,259,55222,2,0,L|309:159,1,100,4|0,0:0|0:0,0:0:0:0:
149,264,55522,1,0,0:0:0:0:
319,59,55672,6,0,L|309:159,1,100,4|0,0:0|0:0,0:0:0:0:
154,0,55972,2,0,L|164:99,1,100,4|0,0:0|0:0,0:0:0:0:
199,180,56272,5,0,0:0:0:0:
199,180,56347,1,0,0:0:0:0:
199,180,56422,2,0,B|226:223|207:281|207:281|245:254|253:192|253:192|268:247|254:293|254:293|291:252|328:246,1,400,12|0,0:0|0:0,0:0:0:0:
422,227,57172,1,0,0:0:0:0:
422,227,57247,1,0,0:0:0:0:
422,227,57322,1,0,0:0:0:0:
343,331,57472,1,0,0:0:0:0:
115,234,57622,6,0,L|66:244,1,50
22,143,57922,2,0,L|71:152,1,50
222,178,58222,1,0,0:0:0:0:
222,178,58372,1,0,0:0:0:0:
156,60,58522,1,0,0:0:0:0:
156,60,58672,1,0,0:0:0:0:
309,54,58822,5,0,0:0:0:0:
358,146,58972,1,0,0:0:0:0:
309,238,59122,1,0,0:0:0:0:
365,326,59272,1,0,0:0:0:0:
358,146,59422,5,0,0:0:0:0:
309,238,59572,1,0,0:0:0:0:
365,326,59722,1,0,0:0:0:0:
365,326,59872,1,0,0:0:0:0:
187,300,60022,6,0,L|194:250,1,50
260,123,60322,2,0,L|252:172,1,50
173,300,60622,2,0,L|180:250,1,50
246,123,60922,2,0,L|238:172,1,50
131,72,61222,5,0,0:0:0:0:
174,170,61372,1,0,0:0:0:0:
67,158,61522,1,0,0:0:0:0:
131,72,61672,1,0,0:0:0:0:
110,256,61822,1,0,0:0:0:0:
275,123,61972,1,0,0:0:0:0:
67,158,62122,1,0,0:0:0:0:
262,251,62272,1,0,0:0:0:0:
443,53,62422,6,0,L|438:152,1,100,4|0,0:0|0:0,0:0:0:0:
437,152,62872,1,0,0:0:0:0:
242,32,63022,1,0,0:0:0:0:
294,176,63172,1,0,0:0:0:0:
357,51,63322,1,0,0:0:0:0:
188,111,63472,1,0,0:0:0:0:
371,170,63622,6,0,L|366:232,1,50
261,297,63922,1,0,0:0:0:0:
261,297,64072,1,0,0:0:0:0:
190,181,64222,1,0,0:0:0:0:
190,181,64372,1,0,0:0:0:0:
362,306,64522,2,0,L|411:309,1,50
182,263,64822,6,0,L|121:272,1,50
72,189,65122,2,0,L|22:181,1,50
182,278,65422,2,0,L|121:287,1,50
72,204,65722,2,0,L|22:196,1,50
76,347,66022,5,0,0:0:0:0:
166,174,66172,1,0,0:0:0:0:
269,384,66322,1,0,0:0:0:0:
182,278,66472,1,0,0:0:0:0:
322,283,66622,1,0,0:0:0:0:
319,258,66697,1,0,0:0:0:0:
315,233,66772,2,0,L|312:207,1,25
254,161,66922,2,0,L|259:111,1,50
112,308,67222,6,0,P|128:326|151:337,3,50,4|0|0|0,0:0|0:0|0:0|0:0,0:0:0:0:
235,367,67522,2,0,P|242:343|240:318,3,50,4|0|0|0,0:0|0:0|0:0|0:0,0:0:0:0:
224,230,67822,2,0,P|199:235|179:249,3,50,4|0|0|0,0:0|0:0|0:0|0:0,0:0:0:0:
103,233,68122,1,4,0:0:0:0:
86,214,68197,1,0,0:0:0:0:
75,192,68272,1,4,0:0:0:0:
70,167,68347,1,0,0:0:0:0:
72,142,68422,6,0,P|88:123|110:111,3,50,4|0|0|0,0:0|0:0|0:0|0:0,0:0:0:0:
189,103,68722,2,0,P|213:107|234:120,3,50,4|0|0|0,0:0|0:0|0:0|0:0,0:0:0:0:
294,175,69022,6,0,L|278:235,3,50,4|0|0|0,0:0|0:0|0:0|0:0,0:0:0:0:
362,223,69322,2,0,L|378:283,3,50,4|0|4|0,0:0|0:0|0:0|0:0,0:0:0:0:
292,299,69622,2,0,L|276:359,3,50,4|0|0|0,0:0|0:0|0:0|0:0,0:0:0:0:
359,360,69922,5,4,0:0:0:0:
382,367,69997,1,0,0:0:0:0:
407,366,70072,1,0,0:0:0:0:
430,356,70147,1,0,0:0:0:0:
447,338,70222,5,4,0:0:0:0:
453,313,70297,1,0,0:0:0:0:
454,288,70372,1,0,0:0:0:0:
448,264,70447,1,0,0:0:0:0:
438,242,70522,1,4,0:0:0:0:
427,219,70597,1,0,0:0:0:0:
422,195,70672,1,4,0:0:0:0:
422,170,70747,1,0,0:0:0:0:
429,146,70822,6,0,P|438:123|456:105,3,50,4|0|0|0,0:0|0:0|0:0|0:0,0:0:0:0:
385,65,71122,2,0,P|375:42|357:24,3,50,4|0|0|0,0:0|0:0|0:0|0:0,0:0:0:0:
297,96,71422,1,4,0:0:0:0:
295,108,71497,1,0,0:0:0:0:
293,120,71572,1,0,0:0:0:0:
291,133,71647,1,0,0:0:0:0:
289,144,71722,6,0,P|288:237|209:188,1,225.000008583069,4|0,0:0|0:0,0:0:0:0:
144,95,72022,6,0,P|132:117|127:141,1,50,8|0,0:0|0:0,0:0:0:0:
125,276,72172,2,0,P|136:253|141:229,1,50,4|0,0:0|0:0,0:0:0:0:
24,185,72322,6,0,P|37:205|56:222,1,50,8|0,0:0|0:0,0:0:0:0:
250,181,72472,2,0,P|236:160|217:143,1,50,4|0,0:0|0:0,0:0:0:0:
41,304,72622,6,0,P|65:302|89:295,1,50,8|0,0:0|0:0,0:0:0:0:
232,67,72772,2,0,P|207:68|183:75,1,50,4|0,0:0|0:0,0:0:0:0:
188,330,72922,6,0,P|199:307|204:283,1,50,8|0,0:0|0:0,0:0:0:0:
78,46,73072,2,0,P|66:68|61:92,1,50,4|0,0:0|0:0,0:0:0:0:
124,157,73222,5,8,0:0:0:0:
120,181,73297,1,0,0:0:0:0:
131,203,73372,1,8,0:0:0:0:
158,220,73447,1,0,0:0:0:0:
191,227,73522,1,8,0:0:0:0:
224,222,73597,1,0,0:0:0:0:
256,216,73672,1,8,0:0:0:0:
289,223,73747,1,0,0:0:0:0:
316,240,73822,6,0,P|337:271|342:308,1,75.0000028610231,8|0,0:0|0:0,0:0:0:0:
206,134,73972,2,0,P|211:97|231:66,1,75.0000028610231,12|0,0:0|0:0,0:0:0:0:
258,302,74122,6,0,P|241:335|212:358,1,75.0000028610231,8|0,0:0|0:0,0:0:0:0:
290,128,74272,2,0,P|324:114|361:116,1,75.0000028610231,12|0,0:0|0:0,0:0:0:0:
173,281,74422,5,8,0:0:0:0:
234,36,75622,5,8,0:0:0:0:
216,69,75697,1,0,0:0:0:0:
210,105,75772,1,0,0:0:0:0:
216,142,75847,1,0,0:0:0:0:
233,176,75922,1,8,0:0:0:0:
250,210,75997,1,0,0:0:0:0:
256,247,76072,1,0,0:0:0:0:
250,283,76147,1,0,0:0:0:0:
233,317,76222,5,8,0:0:0:0:
144,238,76372,1,4,0:0:0:0:
312,121,76522,1,8,0:0:0:0:
82,48,76672,1,4,0:0:0:0:
0,196,76822,6,0,B|65:200|65:200|90:158|90:158|153:134|153:134|222:158|222:158|155:186,1,300.000011444092
21,121,77272,1,0,0:0:0:0:
144,238,77422,6,0,L|139:312,1,75.0000028610231
226,191,77572,2,0,L|221:265,1,75.0000028610231
355,262,77722,6,0,L|359:336,1,75.0000028610231
221,116,77872,2,0,L|225:190,1,75.0000028610231
433,203,78022,6,0,L|437:277,1,75.0000028610231
133,76,78172,2,0,L|137:150,1,75.0000028610231
21,227,78322,6,0,L|16:301,1,75.0000028610231
321,100,78472,2,0,L|316:174,1,75.0000028610231
396,74,78622,6,0,L|391:148,1,75.0000028610231
474,104,78772,2,0,L|469:178,1,75.0000028610231
387,227,78922,6,0,L|382:301,1,75.0000028610231
309,249,79072,2,0,L|304:323,1,75.0000028610231
59,128,79222,6,0,L|63:202,1,75.0000028610231
137,150,79372,2,0,L|141:224,1,75.0000028610231
0,86,79522,6,0,L|4:160,1,75.0000028610231
192,117,79672,2,0,L|196:191,1,75.0000028610231
63,202,79822,6,0,L|67:276,1,75.0000028610231
141,224,79972,2,0,L|145:298,1,75.0000028610231
0,86,80122,6,0,L|4:160,1,75.0000028610231
192,117,80272,2,0,L|196:191,1,75.0000028610231
353,158,80422,6,0,L|349:232,1,75.0000028610231
275,180,80572,2,0,L|271:254,1,75.0000028610231
431,136,80722,6,0,L|427:210,1,75.0000028610231
353,158,80872,2,0,L|349:232,1,75.0000028610231
468,292,81022,6,0,B|403:304|403:304|370:345|370:345|323:314|323:314|273:319,1,225.000008583069
245,324,81322,2,0,B|193:303|193:303|163:256|163:256|164:189|164:189|198:142|198:142|241:132|241:132|200:112,1,300.000011444092
48,56,81922,6,0,B|6:106|6:106|123:106|123:106|88:142,1,225.000008583069
16,219,82222,6,0,L|90:213,1,75.0000028610231
187,113,82372,2,0,L|261:107,1,75.0000028610231
68,296,82522,6,0,L|142:290,1,75.0000028610231
326,201,82672,2,0,L|400:195,1,75.0000028610231
164,209,82822,6,0,L|238:203,1,75.0000028610231
383,278,82972,2,0,L|457:272,1,75.0000028610231
265,61,83122,6,0,L|339:55,1,75.0000028610231
164,209,83272,2,0,L|238:203,1,75.0000028610231
74,50,83422,6,0,L|148:44,1,75.0000028610231
128,124,83572,2,0,L|202:118,1,75.0000028610231
53,129,83722,6,0,L|127:123,1,75.0000028610231
89,214,83872,2,0,L|163:208,1,75.0000028610231
339,178,84022,6,0,L|413:172,1,75.0000028610231
375,263,84172,2,0,L|449:257,1,75.0000028610231
303,93,84322,6,0,L|377:87,1,75.0000028610231
300,268,84472,2,0,L|374:262,1,75.0000028610231
264,183,84622,6,0,L|338:177,1,75.0000028610231
413,172,84772,2,0,L|487:166,1,75.0000028610231
154,82,84922,6,0,L|228:87,1,75.0000028610231
303,93,85072,2,0,L|377:98,1,75.0000028610231
264,180,85222,2,0,B|181:177|181:177|227:228|227:228|341:234|341:234|311:251,1,300.000011444092
42,292,85822,5,0,0:0:0:0:
71,288,85897,1,0,0:0:0:0:
119,308,85972,5,0,0:0:0:0:
148,304,86047,1,0,0:0:0:0:
196,324,86122,2,0,B|286:316|286:316|241:301|241:301|254:258|254:258|240:197,1,225.000008583069
34,66,86422,6,0,B|1:106|1:106|51:126|51:126|102:103|102:103|187:129|187:129|247:109|247:109|331:124|331:124|303:83,1,450.000017166138
355,219,87022,6,0,L|360:145,1,75.0000028610231
273,266,87172,2,0,L|278:192,1,75.0000028610231
144,195,87322,6,0,L|140:121,1,75.0000028610231
278,341,87472,2,0,L|274:267,1,75.0000028610231
66,254,87622,6,0,L|62:180,1,75.0000028610231
366,381,87772,2,0,L|362:307,1,75.0000028610231
478,230,87922,6,0,L|483:156,1,75.0000028610231
178,357,88072,2,0,L|183:283,1,75.0000028610231
103,383,88222,6,0,L|108:309,1,75.0000028610231
25,353,88372,2,0,L|30:279,1,75.0000028610231
112,230,88522,6,0,L|117:156,1,75.0000028610231
190,208,88672,2,0,L|195:134,1,75.0000028610231
440,329,88822,6,0,L|436:255,1,75.0000028610231
362,307,88972,2,0,L|358:233,1,75.0000028610231
499,371,89122,6,0,L|495:297,1,75.0000028610231
307,340,89272,2,0,L|303:266,1,75.0000028610231
436,255,89422,6,0,L|432:181,1,75.0000028610231
358,233,89572,2,0,L|354:159,1,75.0000028610231
499,371,89722,6,0,L|495:297,1,75.0000028610231
307,340,89872,2,0,L|303:266,1,75.0000028610231
146,299,90022,6,0,L|150:225,1,75.0000028610231
224,277,90172,2,0,L|228:203,1,75.0000028610231
68,321,90322,6,0,L|72:247,1,75.0000028610231
146,299,90472,2,0,L|150:225,1,75.0000028610231
104,101,90622,6,0,B|61:117|61:117|87:149|87:149|152:135|152:135|202:141|202:141|237:131,1,225.000008583069
287,55,90922,2,0,B|270:137|270:137|336:113|336:113|403:148|403:148|396:68,1,300.000011444092
347,236,91522,6,0,B|331:202|331:202|311:275|311:275|423:272,1,225.000008583069
503,95,91822,6,0,L|428:100,1,75.0000028610231
332,201,91972,2,0,L|257:206,1,75.0000028610231
451,18,92122,6,0,L|376:23,1,75.0000028610231
193,113,92272,2,0,L|118:118,1,75.0000028610231
355,105,92422,6,0,L|280:110,1,75.0000028610231
136,36,92572,2,0,L|98:38,2,37.5000014305115
254,253,92722,6,0,L|179:258,1,75.0000028610231
355,105,92872,2,0,L|280:110,1,75.0000028610231
445,264,93022,6,0,L|370:269,1,75.0000028610231
391,190,93172,2,0,L|316:195,1,75.0000028610231
473,96,93322,6,8,L|435:98,6,37.5000014305115
355,105,93622,6,0,L|280:110,1,75.0000028610231
178,118,93847,2,0,L|103:123,1,75.0000028610231
316,195,94072,6,0,L|241:200,1,75.0000028610231
153,279,94222,2,0,B|64:286|64:286|116:340|116:340|268:329,1,300.000011444092
478,178,94822,2,0,B|420:255|420:255|387:181|387:181|339:184,1,225.000008583069
258,191,95122,2,0,L|108:204,1,150.000005722046
99,77,95422,6,0,L|177:57,1,75.0000028610231
193,152,95572,2,0,L|262:193,1,75.0000028610231
206,271,95722,2,0,B|225:349|225:349|138:323|138:323|83:355,1,225.000008583069
67,228,96022,6,0,B|49:188|49:188|50:147,3,75.0000028610231
99,77,96322,2,0,L|268:61,1,150.000005722046
382,72,96622,5,8,0:0:0:0:
407,98,96697,1,0,0:0:0:0:
423,132,96772,1,0,0:0:0:0:
426,170,96847,1,0,0:0:0:0:
417,206,96922,5,8,0:0:0:0:
383,189,96997,1,0,0:0:0:0:
347,180,97072,1,0,0:0:0:0:
309,181,97147,1,0,0:0:0:0:
273,191,97222,5,8,0:0:0:0:
270,228,97297,1,0,0:0:0:0:
276,265,97372,1,0,0:0:0:0:
291,300,97447,1,0,0:0:0:0:
313,330,97522,5,8,0:0:0:0:
266,311,97597,1,0,0:0:0:0:
218,301,97672,1,0,0:0:0:0:
168,301,97747,1,0,0:0:0:0:
118,309,97822,5,8,0:0:0:0:
122,272,97897,1,0,0:0:0:0:
126,234,97972,1,0,0:0:0:0:
130,197,98047,1,0,0:0:0:0:
104,162,98122,5,8,0:0:0:0:
100,124,98197,1,0,0:0:0:0:
96,87,98272,1,0,0:0:0:0:
92,50,98347,1,0,0:0:0:0:
88,12,98422,5,8,0:0:0:0:
137,17,98497,1,0,0:0:0:0:
187,23,98572,1,0,0:0:0:0:
236,29,98647,1,0,0:0:0:0:
286,35,98722,1,8,0:0:0:0:
179,105,98872,5,0,0:0:0:0:
228,110,98947,1,0,0:0:0:0:
278,116,99022,1,0,0:0:0:0:
327,122,99097,1,0,0:0:0:0:
377,128,99172,1,8,0:0:0:0:
270,198,99322,5,0,0:0:0:0:
319,203,99397,1,0,0:0:0:0:
369,209,99472,1,0,0:0:0:0:
418,215,99547,1,0,0:0:0:0:
468,221,99622,1,8,0:0:0:0:
163,268,99772,5,0,0:0:0:0:
212,273,99847,1,0,0:0:0:0:
262,279,99922,1,0,0:0:0:0:
311,285,99997,1,0,0:0:0:0:
361,291,100072,1,8,0:0:0:0:
157,347,100222,6,0,B|58:331,1,100,8|0,0:0|0:0,0:0:0:0:
0,376,100522,2,0,P|44:316|48:242,1,150.000005722046,4|0,0:0|0:0,0:0:0:0:
5,147,100822,6,0,P|30:104|70:75,1,100,4|0,0:0|0:0,0:0:0:0:
70,75,101047,1,0,0:0:0:0:
70,75,101122,2,0,B|117:73|117:73|90:123|90:123|154:84|204:89,1,225.000008583069,12|0,0:0|0:0,0:0:0:0:
185,172,101422,5,8,0:0:0:0:
149,183,101497,1,0,0:0:0:0:
123,209,101572,1,0,0:0:0:0:
114,245,101647,1,0,0:0:0:0:
120,304,101722,5,8,0:0:0:0:
157,300,101797,1,0,0:0:0:0:
194,297,101872,1,0,0:0:0:0:
232,293,101947,1,0,0:0:0:0:
273,261,102022,5,8,0:0:0:0:
310,264,102097,1,0,0:0:0:0:
347,267,102172,1,0,0:0:0:0:
385,271,102247,1,0,0:0:0:0:
438,289,102322,5,8,0:0:0:0:
418,257,102397,1,0,0:0:0:0:
408,221,102472,1,0,0:0:0:0:
407,183,102547,1,0,0:0:0:0:
451,163,102622,5,8,0:0:0:0:
460,127,102697,1,0,0:0:0:0:
460,89,102772,1,0,0:0:0:0:
450,53,102847,1,0,0:0:0:0:
415,10,102922,5,8,0:0:0:0:
377,12,102997,1,0,0:0:0:0:
340,14,103072,1,0,0:0:0:0:
302,17,103147,1,0,0:0:0:0:
233,59,103222,6,0,B|184:76|184:76|140:65|140:65|80:72,1,150,8|0,0:0|0:0,0:0:0:0:
46,140,103522,6,0,L|50:214,1,75.0000028610231,8|0,0:0|0:0,0:0:0:0:
206,224,103672,2,0,L|210:298,1,75.0000028610231,4|0,0:0|0:0,0:0:0:0:
292,109,103822,6,0,L|287:183,1,75.0000028610231,8|0,0:0|0:0,0:0:0:0:
132,193,103972,2,0,L|127:267,1,75.0000028610231,4|0,0:0|0:0,0:0:0:0:
366,140,104122,6,0,L|361:214,1,75.0000028610231,8|0,0:0|0:0,0:0:0:0:
206,224,104272,2,0,L|201:298,1,75.0000028610231,4|0,0:0|0:0,0:0:0:0:
322,303,104422,2,0,P|417:290|460:204,1,200,12|0,0:0|0:0,0:0:0:0:
285,137,105022,6,0,L|295:62,1,75.0000028610231,8|0,0:0|0:0,0:0:0:0:
206,224,105172,2,0,L|195:149,1,75.0000028610231
322,303,105322,2,0,L|332:228,1,75.0000028610231,12|0,0:0|0:0,0:0:0:0:
113,190,105472,2,0,L|102:115,1,75.0000028610231,8|0,0:0|0:0,0:0:0:0:
112,279,105622,6,0,B|82:333|82:333|153:316|153:316|207:332|207:332|264:314,1,225.000008583069,12|0,0:0|0:0,0:0:0:0:
323,303,105922,5,8,0:0:0:0:
309,268,105997,1,0,0:0:0:0:
303,231,106072,1,0,0:0:0:0:
307,193,106147,1,0,0:0:0:0:
316,151,106222,5,8,0:0:0:0:
344,127,106297,1,0,0:0:0:0:
381,119,106372,1,0,0:0:0:0:
416,129,106447,1,0,0:0:0:0:
452,161,106522,5,8,0:0:0:0:
450,197,106597,1,0,0:0:0:0:
430,228,106672,1,0,0:0:0:0:
396,244,106747,1,0,0:0:0:0:
349,236,106822,5,8,0:0:0:0:
311,238,106897,1,0,0:0:0:0:
274,223,106972,1,0,0:0:0:0:
236,243,107047,1,0,0:0:0:0:
193,260,107122,5,8,0:0:0:0:
171,229,107197,1,0,0:0:0:0:
162,193,107272,1,0,0:0:0:0:
164,155,107347,1,0,0:0:0:0:
186,110,107422,5,8,0:0:0:0:
168,65,107497,1,0,0:0:0:0:
121,52,107572,1,0,0:0:0:0:
84,82,107647,1,0,0:0:0:0:
85,130,107722,5,8,0:0:0:0:
103,163,107797,1,0,0:0:0:0:
133,184,107872,1,0,0:0:0:0:
170,189,107947,1,0,0:0:0:0:
220,163,108022,5,8,0:0:0:0:
269,160,108097,1,0,0:0:0:0:
319,158,108172,1,0,0:0:0:0:
369,155,108247,1,0,0:0:0:0:
419,153,108322,1,8,0:0:0:0:
168,65,108472,5,0,0:0:0:0:
217,62,108547,1,0,0:0:0:0:
265,30,108622,1,4,0:0:0:0:
317,57,108697,1,0,0:0:0:0:
367,55,108772,1,8,0:0:0:0:
71,171,108922,5,0,0:0:0:0:
120,168,108997,1,0,0:0:0:0:
170,166,109072,1,0,0:0:0:0:
220,163,109147,1,0,0:0:0:0:
270,161,109222,1,8,0:0:0:0:
0,277,109372,5,0,0:0:0:0:
50,275,109447,1,0,0:0:0:0:
102,302,109522,1,4,0:0:0:0:
150,270,109597,1,0,0:0:0:0:
199,267,109672,1,8,0:0:0:0:
93,23,109822,6,0,P|119:113|25:98,1,225.000008583069,4|0,0:0|0:0,0:0:0:0:
25,98,110122,6,0,P|127:117|85:18,1,255.000004863739,4|0,0:0|0:0,0:0:0:0:
81,78,110422,6,0,B|186:69|186:69|253:89|253:89|167:104,1,255.000004863739,12|0,0:0|0:0,0:0:0:0:
137,184,110722,2,0,L|306:154,1,170.000003242493,4|0,0:0|0:0,0:0:0:0:
425,79,111022,5,8,0:0:0:0:
404,109,111097,1,0,0:0:0:0:
394,146,111172,1,0,0:0:0:0:
398,183,111247,1,0,0:0:0:0:
423,241,111322,5,8,0:0:0:0:
385,243,111397,1,0,0:0:0:0:
348,245,111472,1,0,0:0:0:0:
310,248,111547,1,0,0:0:0:0:
250,245,111622,5,8,0:0:0:0:
270,214,111697,1,0,0:0:0:0:
280,177,111772,1,0,0:0:0:0:
276,140,111847,1,0,0:0:0:0:
236,97,111922,5,8,0:0:0:0:
198,100,111997,1,0,0:0:0:0:
161,102,112072,1,0,0:0:0:0:
123,104,112147,1,0,0:0:0:0:
67,132,112222,5,8,0:0:0:0:
56,167,112297,1,0,0:0:0:0:
58,205,112372,1,0,0:0:0:0:
72,239,112447,1,0,0:0:0:0:
107,265,112522,5,8,0:0:0:0:
115,300,112597,1,0,0:0:0:0:
98,333,112672,1,0,0:0:0:0:
64,346,112747,1,0,0:0:0:0:
53,283,112822,6,0,B|104:264|104:264|160:273|160:273|198:327|245:301|245:301|244:205|268:225,1,300,14|0,0:0|0:0,0:0:0:0:
351,229,113122,6,0,L|351:303,1,75.0000028610231
439,172,113272,2,0,L|439:246,1,75.0000028610231
265,147,113422,6,0,L|264:221,1,75.0000028610231
177,90,113572,2,0,L|176:164,1,75.0000028610231
353,129,113722,6,0,L|352:203,1,75.0000028610231
265,72,113872,2,0,L|264:146,1,75.0000028610231
89,147,114022,6,0,L|88:297,1,150.000005722046
87,296,114322,2,0,P|145:249|219:237,1,150.000005722046
219,237,114622,2,0,B|304:162|304:162|185:143,1,225.000008583069
58,39,114922,2,0,L|280:69,1,225.000008583069
