osu file format v14

[General]
AudioFilename: audio.mp3
AudioLeadIn: 0
PreviewTime: 202150
Countdown: 0
SampleSet: Normal
StackLeniency: 0.7
Mode: 3
LetterboxInBreaks: 0
SpecialStyle: 0
WidescreenStoryboard: 1

[Editor]
Bookmarks: 20255,40466,60676,80887,101097,121308,141518,161729,171834,181939,202150,212255,222360,242571,262781,282992,285518,305729,325939,336045,356255,366360,376466,396676,416887
DistanceSpacing: 0.9
BeatDivisor: 4
GridSize: 4
TimelineZoom: 2.5

[Metadata]
Title:Switchback
TitleUnicode:Switchback
Artist:Dustvoxx
ArtistUnicode:Dustvoxx
Creator:tyrcs
Version:NS Deluxe
Source:
Tags:Electronic Instrumental Frenchcore HAUNT Dustbox FA Featured Artist CYCL-0002 CYCLIK CONTROL osu!mania 7K Chinese National Cup 2023 中国国家杯 MCNC Finals TB Tiebreaker
BeatmapID:4000342
BeatmapSetID:1935584

[Difficulty]
HPDrainRate:8
CircleSize:7
OverallDifficulty:7
ApproachRate:5
SliderMultiplier:1.4
SliderTickRate:1

[Events]
//Background and Video events
0,0,"switchbackbg.jpg",0,0
//Break Periods
//Storyboard Layer 0 (Background)
//Storyboard Layer 1 (Fail)
//Storyboard Layer 2 (Pass)
//Storyboard Layer 3 (Foreground)
//Storyboard Layer 4 (Overlay)
//Storyboard Sound Samples

[TimingPoints]
45,315.789473684211,4,1,1,20,1,0
202466,-100,4,1,1,20,0,1
212255,-100,4,1,1,20,0,0
212571,-100,4,1,1,20,0,1
217308,-100,4,1,1,20,0,0
222676,-100,4,1,1,20,0,1
232466,-100,4,1,1,20,0,0
232781,-100,4,1,1,20,0,1
242571,-100,4,1,1,20,0,0
356571,-100,4,1,1,20,0,1
366360,-100,4,1,1,20,0,0
366676,-100,4,1,1,20,0,1
376466,-100,4,1,1,20,0,0

[HitObjects]
329,192,45,5,0,0:0:0:0:
402,192,45,128,0,123:0:0:0:0:
475,192,45,128,0,2571:0:0:0:0:
182,192,45,1,0,0:0:0:0:
36,192,45,1,0,0:0:0:0:
256,192,45,1,0,0:0:0:0:
109,192,45,1,0,0:0:0:0:
182,192,202,1,0,0:0:0:0:
109,192,360,128,0,439:0:0:0:0:
182,192,360,128,0,439:0:0:0:0:
402,192,360,1,0,0:0:0:0:
329,192,518,1,0,0:0:0:0:
182,192,597,1,0,0:0:0:0:
36,192,676,1,0,0:0:0:0:
256,192,676,1,0,0:0:0:0:
109,192,834,1,0,0:0:0:0:
329,192,992,1,0,0:0:0:0:
256,192,1150,1,0,0:0:0:0:
109,192,1189,1,0,0:0:0:0:
36,192,1308,1,0,0:0:0:0:
182,192,1466,1,0,0:0:0:0:
182,192,1623,128,0,1702:0:0:0:0:
109,192,1623,128,0,1702:0:0:0:0:
402,192,1623,1,0,0:0:0:0:
329,192,1781,1,0,0:0:0:0:
329,192,1939,1,0,0:0:0:0:
36,192,1939,1,0,0:0:0:0:
109,192,2097,1,0,0:0:0:0:
329,192,2255,1,0,0:0:0:0:
256,192,2413,1,0,0:0:0:0:
182,192,2492,1,0,0:0:0:0:
109,192,2531,1,0,0:0:0:0:
36,192,2571,1,0,0:0:0:0:
182,192,2729,1,0,0:0:0:0:
109,192,2887,128,0,2966:0:0:0:0:
182,192,2887,128,0,2966:0:0:0:0:
402,192,2887,1,0,0:0:0:0:
329,192,3045,1,0,0:0:0:0:
182,192,3123,1,0,0:0:0:0:
256,192,3202,1,0,0:0:0:0:
36,192,3202,1,0,0:0:0:0:
109,192,3360,1,0,0:0:0:0:
329,192,3518,1,0,0:0:0:0:
256,192,3676,1,0,0:0:0:0:
109,192,3716,1,0,0:0:0:0:
475,192,3834,1,0,0:0:0:0:
36,192,3834,1,0,0:0:0:0:
182,192,3992,1,0,0:0:0:0:
109,192,4150,128,0,4229:0:0:0:0:
182,192,4150,128,0,4229:0:0:0:0:
475,192,4150,1,0,0:0:0:0:
402,192,4229,1,0,0:0:0:0:
329,192,4308,1,0,0:0:0:0:
329,192,4466,1,0,0:0:0:0:
36,192,4466,1,0,0:0:0:0:
182,192,4623,1,0,0:0:0:0:
402,192,4781,1,0,0:0:0:0:
256,192,4939,1,0,0:0:0:0:
36,192,5097,1,0,0:0:0:0:
329,192,5097,1,0,0:0:0:0:
402,192,5097,1,0,0:0:0:0:
475,192,5097,128,0,5729:0:0:0:0:
182,192,5255,1,0,0:0:0:0:
182,192,5413,128,0,5492:0:0:0:0:
109,192,5413,128,0,5492:0:0:0:0:
402,192,5413,1,0,0:0:0:0:
329,192,5571,1,0,0:0:0:0:
182,192,5650,1,0,0:0:0:0:
256,192,5729,1,0,0:0:0:0:
36,192,5729,1,0,0:0:0:0:
109,192,5887,1,0,0:0:0:0:
329,192,6045,1,0,0:0:0:0:
256,192,6202,1,0,0:0:0:0:
109,192,6242,1,0,0:0:0:0:
36,192,6360,1,0,0:0:0:0:
182,192,6518,1,0,0:0:0:0:
109,192,6676,128,0,6755:0:0:0:0:
182,192,6676,128,0,6755:0:0:0:0:
402,192,6676,1,0,0:0:0:0:
329,192,6834,1,0,0:0:0:0:
329,192,6992,1,0,0:0:0:0:
36,192,6992,1,0,0:0:0:0:
109,192,7150,1,0,0:0:0:0:
329,192,7308,1,0,0:0:0:0:
256,192,7466,1,0,0:0:0:0:
182,192,7545,1,0,0:0:0:0:
109,192,7584,1,0,0:0:0:0:
36,192,7623,1,0,0:0:0:0:
182,192,7781,1,0,0:0:0:0:
109,192,7939,128,0,8018:0:0:0:0:
182,192,7939,128,0,8018:0:0:0:0:
402,192,7939,1,0,0:0:0:0:
329,192,8097,1,0,0:0:0:0:
182,192,8176,1,0,0:0:0:0:
36,192,8255,1,0,0:0:0:0:
475,192,8255,1,0,0:0:0:0:
256,192,8255,1,0,0:0:0:0:
109,192,8413,1,0,0:0:0:0:
329,192,8571,1,0,0:0:0:0:
256,192,8729,1,0,0:0:0:0:
109,192,8768,1,0,0:0:0:0:
402,192,8887,1,0,0:0:0:0:
36,192,8887,1,0,0:0:0:0:
182,192,9045,1,0,0:0:0:0:
109,192,9202,128,0,9281:0:0:0:0:
182,192,9202,128,0,9281:0:0:0:0:
475,192,9202,1,0,0:0:0:0:
402,192,9281,1,0,0:0:0:0:
329,192,9360,1,0,0:0:0:0:
36,192,9518,1,0,0:0:0:0:
329,192,9518,1,0,0:0:0:0:
182,192,9676,1,0,0:0:0:0:
402,192,9834,1,0,0:0:0:0:
256,192,9992,1,0,0:0:0:0:
329,192,10150,1,0,0:0:0:0:
402,192,10150,128,0,10229:0:0:0:0:
182,192,10150,1,0,0:0:0:0:
36,192,10150,1,0,0:0:0:0:
475,192,10150,128,0,12676:0:0:0:0:
256,192,10150,1,0,0:0:0:0:
109,192,10150,1,0,0:0:0:0:
182,192,10308,1,0,0:0:0:0:
109,192,10466,128,0,10545:0:0:0:0:
182,192,10466,128,0,10545:0:0:0:0:
329,192,10466,1,0,0:0:0:0:
329,192,10623,1,0,0:0:0:0:
182,192,10702,1,0,0:0:0:0:
36,192,10781,1,0,0:0:0:0:
256,192,10781,1,0,0:0:0:0:
402,192,10781,1,0,0:0:0:0:
109,192,10939,1,0,0:0:0:0:
329,192,11097,1,0,0:0:0:0:
256,192,11255,1,0,0:0:0:0:
109,192,11334,1,0,0:0:0:0:
36,192,11413,1,0,0:0:0:0:
402,192,11413,1,0,0:0:0:0:
182,192,11571,1,0,0:0:0:0:
182,192,11729,128,0,11808:0:0:0:0:
109,192,11729,128,0,11808:0:0:0:0:
329,192,11729,1,0,0:0:0:0:
329,192,11887,1,0,0:0:0:0:
329,192,12045,1,0,0:0:0:0:
36,192,12045,1,0,0:0:0:0:
402,192,12045,1,0,0:0:0:0:
109,192,12202,1,0,0:0:0:0:
329,192,12360,1,0,0:0:0:0:
256,192,12518,1,0,0:0:0:0:
182,192,12597,1,0,0:0:0:0:
109,192,12637,1,0,0:0:0:0:
36,192,12676,1,0,0:0:0:0:
402,192,12676,1,0,0:0:0:0:
182,192,12834,1,0,0:0:0:0:
109,192,12992,128,0,13071:0:0:0:0:
182,192,12992,128,0,13071:0:0:0:0:
329,192,12992,1,0,0:0:0:0:
329,192,13150,1,0,0:0:0:0:
182,192,13229,1,0,0:0:0:0:
256,192,13308,1,0,0:0:0:0:
36,192,13308,1,0,0:0:0:0:
402,192,13308,1,0,0:0:0:0:
109,192,13466,1,0,0:0:0:0:
329,192,13623,1,0,0:0:0:0:
256,192,13781,1,0,0:0:0:0:
109,192,13860,1,0,0:0:0:0:
36,192,13939,1,0,0:0:0:0:
402,192,13939,1,0,0:0:0:0:
182,192,14097,1,0,0:0:0:0:
109,192,14255,128,0,14334:0:0:0:0:
182,192,14255,128,0,14334:0:0:0:0:
329,192,14255,1,0,0:0:0:0:
402,192,14334,1,0,0:0:0:0:
329,192,14413,1,0,0:0:0:0:
329,192,14571,1,0,0:0:0:0:
36,192,14571,1,0,0:0:0:0:
402,192,14571,1,0,0:0:0:0:
182,192,14729,1,0,0:0:0:0:
402,192,14887,1,0,0:0:0:0:
256,192,15045,1,0,0:0:0:0:
36,192,15202,1,0,0:0:0:0:
109,192,15202,1,0,0:0:0:0:
402,192,15202,1,0,0:0:0:0:
475,192,15202,128,0,15755:0:0:0:0:
182,192,15360,1,0,0:0:0:0:
182,192,15518,128,0,15597:0:0:0:0:
109,192,15518,128,0,15597:0:0:0:0:
329,192,15518,1,0,0:0:0:0:
329,192,15676,1,0,0:0:0:0:
182,192,15755,1,0,0:0:0:0:
256,192,15834,1,0,0:0:0:0:
36,192,15834,1,0,0:0:0:0:
402,192,15834,1,0,0:0:0:0:
475,192,15834,128,0,15873:0:0:0:0:
109,192,15992,1,0,0:0:0:0:
329,192,16150,1,0,0:0:0:0:
256,192,16308,1,0,0:0:0:0:
109,192,16387,1,0,0:0:0:0:
36,192,16466,1,0,0:0:0:0:
402,192,16466,1,0,0:0:0:0:
182,192,16623,1,0,0:0:0:0:
109,192,16781,128,0,16860:0:0:0:0:
182,192,16781,128,0,16860:0:0:0:0:
329,192,16781,1,0,0:0:0:0:
329,192,16939,1,0,0:0:0:0:
329,192,17097,1,0,0:0:0:0:
36,192,17097,1,0,0:0:0:0:
402,192,17097,1,0,0:0:0:0:
475,192,17097,128,0,17176:0:0:0:0:
109,192,17255,1,0,0:0:0:0:
329,192,17413,1,0,0:0:0:0:
256,192,17571,1,0,0:0:0:0:
182,192,17650,1,0,0:0:0:0:
109,192,17689,1,0,0:0:0:0:
36,192,17729,1,0,0:0:0:0:
402,192,17729,1,0,0:0:0:0:
329,192,17729,1,0,0:0:0:0:
182,192,17887,1,0,0:0:0:0:
256,192,17966,1,0,0:0:0:0:
329,192,18005,1,0,0:0:0:0:
109,192,18045,128,0,18123:0:0:0:0:
182,192,18045,128,0,18123:0:0:0:0:
475,192,18084,1,0,0:0:0:0:
402,192,18123,1,0,0:0:0:0:
329,192,18163,1,0,0:0:0:0:
256,192,18202,1,0,0:0:0:0:
36,192,18360,1,0,0:0:0:0:
402,192,18360,1,0,0:0:0:0:
182,192,18360,1,0,0:0:0:0:
475,192,18360,128,0,18479:0:0:0:0:
329,192,18439,1,0,0:0:0:0:
182,192,18518,1,0,0:0:0:0:
329,192,18676,1,0,0:0:0:0:
109,192,18834,1,0,0:0:0:0:
36,192,18992,1,0,0:0:0:0:
402,192,18992,1,0,0:0:0:0:
475,192,18992,1,0,0:0:0:0:
329,192,18992,1,0,0:0:0:0:
256,192,18992,128,0,20097:0:0:0:0:
329,192,19150,1,0,0:0:0:0:
36,192,19150,1,0,0:0:0:0:
109,192,19229,1,0,0:0:0:0:
402,192,19229,1,0,0:0:0:0:
329,192,19308,1,0,0:0:0:0:
182,192,19387,1,0,0:0:0:0:
36,192,19387,1,0,0:0:0:0:
402,192,19466,1,0,0:0:0:0:
475,192,19466,1,0,0:0:0:0:
182,192,19545,1,0,0:0:0:0:
36,192,19545,1,0,0:0:0:0:
329,192,19702,1,0,0:0:0:0:
475,192,19702,1,0,0:0:0:0:
109,192,19781,1,0,0:0:0:0:
36,192,19781,1,0,0:0:0:0:
109,192,19939,1,0,0:0:0:0:
402,192,19939,1,0,0:0:0:0:
182,192,20018,1,0,0:0:0:0:
475,192,20018,1,0,0:0:0:0:
109,192,20097,1,0,0:0:0:0:
402,192,20097,1,0,0:0:0:0:
36,192,20176,1,0,0:0:0:0:
329,192,20176,1,0,0:0:0:0:
256,192,20255,128,0,20413:0:0:0:0:
402,192,20255,128,0,20334:0:0:0:0:
475,192,20255,128,0,20334:0:0:0:0:
182,192,20255,1,0,0:0:0:0:
475,192,20413,1,0,0:0:0:0:
329,192,20571,128,0,20650:0:0:0:0:
402,192,20571,128,0,20650:0:0:0:0:
109,192,20571,1,0,0:0:0:0:
36,192,20571,1,0,0:0:0:0:
182,192,20571,1,0,0:0:0:0:
329,192,20729,128,0,20887:0:0:0:0:
256,192,20729,128,0,20887:0:0:0:0:
36,192,20729,128,0,20887:0:0:0:0:
402,192,20887,1,0,0:0:0:0:
475,192,20887,1,0,0:0:0:0:
182,192,20887,1,0,0:0:0:0:
36,192,21045,1,0,0:0:0:0:
182,192,21045,1,0,0:0:0:0:
402,192,21045,1,0,0:0:0:0:
36,192,21202,128,0,21360:0:0:0:0:
182,192,21202,1,0,0:0:0:0:
256,192,21202,1,0,0:0:0:0:
329,192,21202,1,0,0:0:0:0:
475,192,21202,1,0,0:0:0:0:
256,192,21360,1,0,0:0:0:0:
475,192,21360,1,0,0:0:0:0:
475,192,21518,128,0,21676:0:0:0:0:
402,192,21518,1,0,0:0:0:0:
109,192,21518,1,0,0:0:0:0:
36,192,21518,1,0,0:0:0:0:
329,192,21676,1,0,0:0:0:0:
329,192,21834,128,0,21913:0:0:0:0:
402,192,21834,128,0,21913:0:0:0:0:
256,192,21834,1,0,0:0:0:0:
182,192,21834,1,0,0:0:0:0:
36,192,21834,1,0,0:0:0:0:
36,192,21992,128,0,22150:0:0:0:0:
182,192,21992,1,0,0:0:0:0:
256,192,22150,1,0,0:0:0:0:
402,192,22150,1,0,0:0:0:0:
475,192,22150,1,0,0:0:0:0:
36,192,22308,1,0,0:0:0:0:
256,192,22308,1,0,0:0:0:0:
402,192,22308,1,0,0:0:0:0:
36,192,22466,128,0,22623:0:0:0:0:
329,192,22466,1,0,0:0:0:0:
256,192,22466,1,0,0:0:0:0:
109,192,22466,1,0,0:0:0:0:
475,192,22466,1,0,0:0:0:0:
182,192,22623,1,0,0:0:0:0:
402,192,22623,1,0,0:0:0:0:
329,192,22702,1,0,0:0:0:0:
109,192,22702,1,0,0:0:0:0:
475,192,22781,128,0,22939:0:0:0:0:
256,192,22781,1,0,0:0:0:0:
36,192,22781,1,0,0:0:0:0:
402,192,22781,1,0,0:0:0:0:
256,192,22939,1,0,0:0:0:0:
256,192,23097,128,0,23176:0:0:0:0:
329,192,23097,128,0,23176:0:0:0:0:
109,192,23097,1,0,0:0:0:0:
36,192,23097,1,0,0:0:0:0:
475,192,23097,1,0,0:0:0:0:
36,192,23255,128,0,23413:0:0:0:0:
329,192,23255,128,0,23413:0:0:0:0:
402,192,23255,128,0,23413:0:0:0:0:
182,192,23413,1,0,0:0:0:0:
256,192,23413,1,0,0:0:0:0:
475,192,23413,1,0,0:0:0:0:
36,192,23571,1,0,0:0:0:0:
182,192,23571,1,0,0:0:0:0:
329,192,23571,1,0,0:0:0:0:
36,192,23729,128,0,23887:0:0:0:0:
182,192,23729,1,0,0:0:0:0:
256,192,23729,1,0,0:0:0:0:
329,192,23729,1,0,0:0:0:0:
475,192,23729,1,0,0:0:0:0:
475,192,23887,1,0,0:0:0:0:
256,192,23887,1,0,0:0:0:0:
475,192,24045,128,0,24202:0:0:0:0:
329,192,24045,1,0,0:0:0:0:
36,192,24045,1,0,0:0:0:0:
109,192,24045,1,0,0:0:0:0:
329,192,24202,1,0,0:0:0:0:
256,192,24360,128,0,24439:0:0:0:0:
329,192,24360,128,0,24439:0:0:0:0:
182,192,24360,1,0,0:0:0:0:
36,192,24360,1,0,0:0:0:0:
475,192,24360,1,0,0:0:0:0:
36,192,24518,128,0,24676:0:0:0:0:
182,192,24518,1,0,0:0:0:0:
329,192,24676,1,0,0:0:0:0:
475,192,24676,1,0,0:0:0:0:
402,192,24676,1,0,0:0:0:0:
36,192,24834,1,0,0:0:0:0:
475,192,24834,1,0,0:0:0:0:
402,192,24834,1,0,0:0:0:0:
36,192,24992,128,0,25150:0:0:0:0:
329,192,24992,1,0,0:0:0:0:
256,192,24992,1,0,0:0:0:0:
182,192,24992,1,0,0:0:0:0:
475,192,24992,1,0,0:0:0:0:
256,192,25150,1,0,0:0:0:0:
109,192,25150,1,0,0:0:0:0:
475,192,25308,128,0,25466:0:0:0:0:
329,192,25308,128,0,25387:0:0:0:0:
36,192,25308,128,0,25387:0:0:0:0:
182,192,25308,128,0,25387:0:0:0:0:
256,192,25308,128,0,25387:0:0:0:0:
182,192,25466,1,0,0:0:0:0:
182,192,25623,128,0,25702:0:0:0:0:
256,192,25623,128,0,25702:0:0:0:0:
475,192,25623,1,0,0:0:0:0:
36,192,25623,1,0,0:0:0:0:
402,192,25623,1,0,0:0:0:0:
329,192,25781,128,0,25939:0:0:0:0:
256,192,25781,128,0,25939:0:0:0:0:
36,192,25781,128,0,25939:0:0:0:0:
402,192,25939,1,0,0:0:0:0:
475,192,25939,1,0,0:0:0:0:
182,192,25939,1,0,0:0:0:0:
36,192,26097,1,0,0:0:0:0:
109,192,26097,1,0,0:0:0:0:
329,192,26097,1,0,0:0:0:0:
36,192,26255,128,0,26413:0:0:0:0:
109,192,26255,1,0,0:0:0:0:
256,192,26255,1,0,0:0:0:0:
329,192,26255,1,0,0:0:0:0:
475,192,26255,1,0,0:0:0:0:
256,192,26413,1,0,0:0:0:0:
475,192,26413,1,0,0:0:0:0:
475,192,26571,128,0,26729:0:0:0:0:
402,192,26571,1,0,0:0:0:0:
182,192,26571,1,0,0:0:0:0:
36,192,26571,1,0,0:0:0:0:
329,192,26729,1,0,0:0:0:0:
182,192,26887,128,0,26966:0:0:0:0:
256,192,26887,128,0,26966:0:0:0:0:
329,192,26887,1,0,0:0:0:0:
402,192,26887,1,0,0:0:0:0:
36,192,26887,1,0,0:0:0:0:
36,192,27045,128,0,27202:0:0:0:0:
182,192,27045,1,0,0:0:0:0:
329,192,27202,1,0,0:0:0:0:
402,192,27202,1,0,0:0:0:0:
475,192,27202,1,0,0:0:0:0:
36,192,27360,1,0,0:0:0:0:
329,192,27360,1,0,0:0:0:0:
256,192,27360,1,0,0:0:0:0:
36,192,27518,128,0,27676:0:0:0:0:
329,192,27518,1,0,0:0:0:0:
182,192,27518,1,0,0:0:0:0:
109,192,27518,1,0,0:0:0:0:
475,192,27518,1,0,0:0:0:0:
182,192,27676,1,0,0:0:0:0:
402,192,27676,1,0,0:0:0:0:
329,192,27755,1,0,0:0:0:0:
109,192,27755,1,0,0:0:0:0:
475,192,27834,128,0,27992:0:0:0:0:
256,192,27834,1,0,0:0:0:0:
36,192,27834,1,0,0:0:0:0:
402,192,27834,1,0,0:0:0:0:
256,192,27992,1,0,0:0:0:0:
109,192,28150,128,0,28229:0:0:0:0:
182,192,28150,128,0,28229:0:0:0:0:
329,192,28150,1,0,0:0:0:0:
36,192,28150,1,0,0:0:0:0:
402,192,28150,1,0,0:0:0:0:
36,192,28308,128,0,28466:0:0:0:0:
182,192,28308,128,0,28466:0:0:0:0:
256,192,28308,128,0,28466:0:0:0:0:
329,192,28466,1,0,0:0:0:0:
402,192,28466,1,0,0:0:0:0:
475,192,28466,1,0,0:0:0:0:
36,192,28623,1,0,0:0:0:0:
329,192,28623,1,0,0:0:0:0:
182,192,28623,1,0,0:0:0:0:
36,192,28781,128,0,28939:0:0:0:0:
109,192,28781,1,0,0:0:0:0:
256,192,28781,1,0,0:0:0:0:
329,192,28781,1,0,0:0:0:0:
475,192,28781,1,0,0:0:0:0:
475,192,28939,1,0,0:0:0:0:
256,192,28939,1,0,0:0:0:0:
475,192,29097,128,0,29255:0:0:0:0:
402,192,29097,1,0,0:0:0:0:
36,192,29097,1,0,0:0:0:0:
182,192,29097,1,0,0:0:0:0:
329,192,29255,1,0,0:0:0:0:
109,192,29413,128,0,29492:0:0:0:0:
182,192,29413,128,0,29492:0:0:0:0:
329,192,29413,1,0,0:0:0:0:
36,192,29413,1,0,0:0:0:0:
475,192,29413,1,0,0:0:0:0:
36,192,29571,128,0,29729:0:0:0:0:
256,192,29571,1,0,0:0:0:0:
256,192,29729,1,0,0:0:0:0:
475,192,29729,1,0,0:0:0:0:
329,192,29729,1,0,0:0:0:0:
36,192,29887,1,0,0:0:0:0:
475,192,29887,1,0,0:0:0:0:
329,192,29887,1,0,0:0:0:0:
36,192,30045,128,0,30202:0:0:0:0:
402,192,30045,1,0,0:0:0:0:
256,192,30045,1,0,0:0:0:0:
182,192,30045,1,0,0:0:0:0:
475,192,30045,1,0,0:0:0:0:
329,192,30123,1,0,0:0:0:0:
182,192,30202,1,0,0:0:0:0:
329,192,30281,1,0,0:0:0:0:
256,192,30360,128,0,30518:0:0:0:0:
182,192,30360,1,0,0:0:0:0:
36,192,30360,128,0,30439:0:0:0:0:
109,192,30360,128,0,30439:0:0:0:0:
402,192,30360,128,0,30439:0:0:0:0:
475,192,30360,128,0,30439:0:0:0:0:
402,192,30518,1,0,0:0:0:0:
182,192,30676,128,0,30755:0:0:0:0:
109,192,30676,128,0,30755:0:0:0:0:
402,192,30676,1,0,0:0:0:0:
475,192,30676,1,0,0:0:0:0:
329,192,30676,1,0,0:0:0:0:
182,192,30834,128,0,30992:0:0:0:0:
256,192,30834,128,0,30992:0:0:0:0:
475,192,30834,128,0,30992:0:0:0:0:
109,192,30992,1,0,0:0:0:0:
36,192,30992,1,0,0:0:0:0:
329,192,30992,1,0,0:0:0:0:
475,192,31150,1,0,0:0:0:0:
329,192,31150,1,0,0:0:0:0:
109,192,31150,1,0,0:0:0:0:
475,192,31308,128,0,31466:0:0:0:0:
329,192,31308,1,0,0:0:0:0:
256,192,31308,1,0,0:0:0:0:
182,192,31308,1,0,0:0:0:0:
36,192,31308,1,0,0:0:0:0:
256,192,31466,1,0,0:0:0:0:
36,192,31466,1,0,0:0:0:0:
36,192,31623,128,0,31781:0:0:0:0:
109,192,31623,1,0,0:0:0:0:
402,192,31623,1,0,0:0:0:0:
475,192,31623,1,0,0:0:0:0:
182,192,31781,1,0,0:0:0:0:
182,192,31939,128,0,32018:0:0:0:0:
109,192,31939,128,0,32018:0:0:0:0:
256,192,31939,1,0,0:0:0:0:
329,192,31939,1,0,0:0:0:0:
475,192,31939,1,0,0:0:0:0:
475,192,32097,128,0,32255:0:0:0:0:
329,192,32097,1,0,0:0:0:0:
256,192,32255,1,0,0:0:0:0:
109,192,32255,1,0,0:0:0:0:
36,192,32255,1,0,0:0:0:0:
475,192,32413,1,0,0:0:0:0:
256,192,32413,1,0,0:0:0:0:
109,192,32413,1,0,0:0:0:0:
475,192,32571,128,0,32729:0:0:0:0:
182,192,32571,1,0,0:0:0:0:
256,192,32571,1,0,0:0:0:0:
402,192,32571,1,0,0:0:0:0:
36,192,32571,1,0,0:0:0:0:
329,192,32729,1,0,0:0:0:0:
109,192,32729,1,0,0:0:0:0:
182,192,32808,1,0,0:0:0:0:
402,192,32808,1,0,0:0:0:0:
36,192,32887,128,0,33045:0:0:0:0:
256,192,32887,1,0,0:0:0:0:
475,192,32887,1,0,0:0:0:0:
109,192,32887,1,0,0:0:0:0:
256,192,33045,1,0,0:0:0:0:
256,192,33202,128,0,33281:0:0:0:0:
182,192,33202,128,0,33281:0:0:0:0:
402,192,33202,1,0,0:0:0:0:
475,192,33202,1,0,0:0:0:0:
36,192,33202,1,0,0:0:0:0:
475,192,33360,128,0,33518:0:0:0:0:
182,192,33360,128,0,33518:0:0:0:0:
109,192,33360,128,0,33518:0:0:0:0:
329,192,33518,1,0,0:0:0:0:
256,192,33518,1,0,0:0:0:0:
36,192,33518,1,0,0:0:0:0:
475,192,33676,1,0,0:0:0:0:
329,192,33676,1,0,0:0:0:0:
182,192,33676,1,0,0:0:0:0:
475,192,33834,128,0,33992:0:0:0:0:
329,192,33834,1,0,0:0:0:0:
256,192,33834,1,0,0:0:0:0:
182,192,33834,1,0,0:0:0:0:
36,192,33834,1,0,0:0:0:0:
36,192,33992,1,0,0:0:0:0:
256,192,33992,1,0,0:0:0:0:
36,192,34150,128,0,34308:0:0:0:0:
182,192,34150,1,0,0:0:0:0:
475,192,34150,1,0,0:0:0:0:
402,192,34150,1,0,0:0:0:0:
182,192,34308,1,0,0:0:0:0:
256,192,34466,128,0,34545:0:0:0:0:
182,192,34466,128,0,34545:0:0:0:0:
329,192,34466,1,0,0:0:0:0:
475,192,34466,1,0,0:0:0:0:
36,192,34466,1,0,0:0:0:0:
475,192,34623,128,0,34781:0:0:0:0:
329,192,34623,1,0,0:0:0:0:
182,192,34781,1,0,0:0:0:0:
36,192,34781,1,0,0:0:0:0:
109,192,34781,1,0,0:0:0:0:
475,192,34939,1,0,0:0:0:0:
36,192,34939,1,0,0:0:0:0:
109,192,34939,1,0,0:0:0:0:
475,192,35097,128,0,35255:0:0:0:0:
182,192,35097,1,0,0:0:0:0:
256,192,35097,1,0,0:0:0:0:
329,192,35097,1,0,0:0:0:0:
36,192,35097,1,0,0:0:0:0:
256,192,35255,1,0,0:0:0:0:
402,192,35255,1,0,0:0:0:0:
36,192,35413,128,0,35571:0:0:0:0:
182,192,35413,128,0,35492:0:0:0:0:
256,192,35413,128,0,35492:0:0:0:0:
329,192,35413,128,0,35492:0:0:0:0:
475,192,35413,128,0,35492:0:0:0:0:
329,192,35571,1,0,0:0:0:0:
329,192,35729,128,0,35808:0:0:0:0:
256,192,35729,128,0,35808:0:0:0:0:
36,192,35729,1,0,0:0:0:0:
475,192,35729,1,0,0:0:0:0:
109,192,35729,1,0,0:0:0:0:
182,192,35887,128,0,36045:0:0:0:0:
256,192,35887,128,0,36045:0:0:0:0:
475,192,35887,128,0,36045:0:0:0:0:
109,192,36045,1,0,0:0:0:0:
36,192,36045,1,0,0:0:0:0:
329,192,36045,1,0,0:0:0:0:
475,192,36202,1,0,0:0:0:0:
402,192,36202,1,0,0:0:0:0:
182,192,36202,1,0,0:0:0:0:
475,192,36360,128,0,36518:0:0:0:0:
402,192,36360,1,0,0:0:0:0:
256,192,36360,1,0,0:0:0:0:
182,192,36360,1,0,0:0:0:0:
36,192,36360,1,0,0:0:0:0:
256,192,36518,1,0,0:0:0:0:
36,192,36518,1,0,0:0:0:0:
36,192,36676,128,0,36834:0:0:0:0:
109,192,36676,1,0,0:0:0:0:
329,192,36676,1,0,0:0:0:0:
475,192,36676,1,0,0:0:0:0:
182,192,36834,1,0,0:0:0:0:
329,192,36992,128,0,37071:0:0:0:0:
256,192,36992,128,0,37071:0:0:0:0:
182,192,36992,1,0,0:0:0:0:
109,192,36992,1,0,0:0:0:0:
475,192,36992,1,0,0:0:0:0:
475,192,37150,128,0,37308:0:0:0:0:
329,192,37150,1,0,0:0:0:0:
182,192,37308,1,0,0:0:0:0:
109,192,37308,1,0,0:0:0:0:
36,192,37308,1,0,0:0:0:0:
475,192,37466,1,0,0:0:0:0:
182,192,37466,1,0,0:0:0:0:
256,192,37466,1,0,0:0:0:0:
475,192,37623,128,0,37781:0:0:0:0:
182,192,37623,1,0,0:0:0:0:
329,192,37623,1,0,0:0:0:0:
402,192,37623,1,0,0:0:0:0:
36,192,37623,1,0,0:0:0:0:
329,192,37781,1,0,0:0:0:0:
109,192,37781,1,0,0:0:0:0:
182,192,37860,1,0,0:0:0:0:
402,192,37860,1,0,0:0:0:0:
36,192,37939,128,0,38097:0:0:0:0:
256,192,37939,1,0,0:0:0:0:
475,192,37939,1,0,0:0:0:0:
109,192,37939,1,0,0:0:0:0:
256,192,38097,1,0,0:0:0:0:
402,192,38255,128,0,38334:0:0:0:0:
329,192,38255,128,0,38334:0:0:0:0:
182,192,38255,1,0,0:0:0:0:
475,192,38255,1,0,0:0:0:0:
36,192,38255,1,0,0:0:0:0:
475,192,38413,128,0,38571:0:0:0:0:
329,192,38413,128,0,38571:0:0:0:0:
256,192,38413,128,0,38571:0:0:0:0:
182,192,38571,1,0,0:0:0:0:
109,192,38571,1,0,0:0:0:0:
36,192,38571,1,0,0:0:0:0:
475,192,38729,1,0,0:0:0:0:
182,192,38729,1,0,0:0:0:0:
329,192,38729,1,0,0:0:0:0:
475,192,38887,128,0,39045:0:0:0:0:
402,192,38887,1,0,0:0:0:0:
182,192,38887,1,0,0:0:0:0:
36,192,38887,1,0,0:0:0:0:
36,192,39045,1,0,0:0:0:0:
329,192,39045,1,0,0:0:0:0:
182,192,39202,1,0,0:0:0:0:
109,192,39202,1,0,0:0:0:0:
36,192,39202,1,0,0:0:0:0:
256,192,39202,128,0,40308:0:0:0:0:
109,192,39518,1,0,0:0:0:0:
402,192,39518,1,0,0:0:0:0:
475,192,39518,1,0,0:0:0:0:
182,192,39597,1,0,0:0:0:0:
329,192,39597,1,0,0:0:0:0:
402,192,39676,1,0,0:0:0:0:
36,192,39676,1,0,0:0:0:0:
182,192,39755,1,0,0:0:0:0:
109,192,39755,1,0,0:0:0:0:
329,192,39834,1,0,0:0:0:0:
402,192,39834,1,0,0:0:0:0:
475,192,39834,1,0,0:0:0:0:
329,192,39992,1,0,0:0:0:0:
182,192,39992,1,0,0:0:0:0:
182,192,40150,1,0,0:0:0:0:
36,192,40150,1,0,0:0:0:0:
402,192,40229,1,0,0:0:0:0:
36,192,40308,1,0,0:0:0:0:
402,192,40387,1,0,0:0:0:0:
329,192,40466,128,0,40702:0:0:0:0:
475,192,40466,128,0,40623:0:0:0:0:
36,192,40466,128,0,40545:0:0:0:0:
182,192,40466,128,0,40545:0:0:0:0:
256,192,40466,128,0,40545:0:0:0:0:
182,192,40623,1,0,0:0:0:0:
109,192,40781,1,0,0:0:0:0:
256,192,40781,128,0,41018:0:0:0:0:
402,192,40781,1,0,0:0:0:0:
475,192,40781,1,0,0:0:0:0:
182,192,40781,1,0,0:0:0:0:
402,192,40939,128,0,41097:0:0:0:0:
329,192,40939,1,0,0:0:0:0:
36,192,41097,1,0,0:0:0:0:
182,192,41097,128,0,41176:0:0:0:0:
475,192,41097,1,0,0:0:0:0:
36,192,41255,1,0,0:0:0:0:
182,192,41255,128,0,41334:0:0:0:0:
402,192,41255,1,0,0:0:0:0:
329,192,41255,1,0,0:0:0:0:
109,192,41413,1,0,0:0:0:0:
182,192,41413,128,0,41492:0:0:0:0:
402,192,41413,128,0,41571:0:0:0:0:
475,192,41413,1,0,0:0:0:0:
256,192,41413,1,0,0:0:0:0:
182,192,41571,128,0,41808:0:0:0:0:
256,192,41571,1,0,0:0:0:0:
36,192,41729,1,0,0:0:0:0:
475,192,41729,128,0,41887:0:0:0:0:
329,192,41729,1,0,0:0:0:0:
402,192,41729,1,0,0:0:0:0:
182,192,41887,128,0,41966:0:0:0:0:
329,192,41887,1,0,0:0:0:0:
109,192,42045,1,0,0:0:0:0:
182,192,42045,128,0,42123:0:0:0:0:
402,192,42045,1,0,0:0:0:0:
256,192,42045,1,0,0:0:0:0:
329,192,42045,1,0,0:0:0:0:
36,192,42202,1,0,0:0:0:0:
182,192,42202,128,0,42281:0:0:0:0:
402,192,42202,128,0,42360:0:0:0:0:
182,192,42360,128,0,42439:0:0:0:0:
36,192,42360,1,0,0:0:0:0:
256,192,42360,1,0,0:0:0:0:
475,192,42360,1,0,0:0:0:0:
36,192,42518,1,0,0:0:0:0:
182,192,42518,128,0,42597:0:0:0:0:
402,192,42518,1,0,0:0:0:0:
475,192,42518,1,0,0:0:0:0:
182,192,42676,128,0,42755:0:0:0:0:
402,192,42676,128,0,42834:0:0:0:0:
475,192,42676,1,0,0:0:0:0:
329,192,42676,1,0,0:0:0:0:
256,192,42676,1,0,0:0:0:0:
36,192,42834,1,0,0:0:0:0:
182,192,42834,128,0,43071:0:0:0:0:
256,192,42913,1,0,0:0:0:0:
109,192,42913,1,0,0:0:0:0:
36,192,42992,1,0,0:0:0:0:
329,192,42992,128,0,43229:0:0:0:0:
475,192,42992,128,0,43150:0:0:0:0:
402,192,42992,1,0,0:0:0:0:
182,192,43150,1,0,0:0:0:0:
109,192,43308,1,0,0:0:0:0:
256,192,43308,128,0,43545:0:0:0:0:
402,192,43308,1,0,0:0:0:0:
475,192,43308,1,0,0:0:0:0:
182,192,43308,1,0,0:0:0:0:
402,192,43466,128,0,43623:0:0:0:0:
329,192,43466,1,0,0:0:0:0:
36,192,43623,1,0,0:0:0:0:
182,192,43623,128,0,43702:0:0:0:0:
475,192,43623,1,0,0:0:0:0:
36,192,43781,1,0,0:0:0:0:
182,192,43781,128,0,43860:0:0:0:0:
402,192,43781,1,0,0:0:0:0:
329,192,43781,1,0,0:0:0:0:
109,192,43939,1,0,0:0:0:0:
182,192,43939,128,0,44018:0:0:0:0:
402,192,43939,128,0,44097:0:0:0:0:
475,192,43939,1,0,0:0:0:0:
256,192,43939,1,0,0:0:0:0:
182,192,44097,128,0,44334:0:0:0:0:
256,192,44097,1,0,0:0:0:0:
36,192,44255,1,0,0:0:0:0:
475,192,44255,128,0,44413:0:0:0:0:
329,192,44255,1,0,0:0:0:0:
402,192,44255,1,0,0:0:0:0:
182,192,44413,128,0,44492:0:0:0:0:
329,192,44413,1,0,0:0:0:0:
109,192,44571,1,0,0:0:0:0:
182,192,44571,128,0,44650:0:0:0:0:
402,192,44571,1,0,0:0:0:0:
256,192,44571,1,0,0:0:0:0:
329,192,44571,1,0,0:0:0:0:
36,192,44729,1,0,0:0:0:0:
182,192,44729,128,0,44808:0:0:0:0:
402,192,44729,128,0,44887:0:0:0:0:
182,192,44887,128,0,44966:0:0:0:0:
475,192,44887,1,0,0:0:0:0:
329,192,44887,1,0,0:0:0:0:
36,192,44887,1,0,0:0:0:0:
36,192,45045,1,0,0:0:0:0:
182,192,45045,128,0,45123:0:0:0:0:
256,192,45045,1,0,0:0:0:0:
402,192,45045,1,0,0:0:0:0:
182,192,45202,128,0,45281:0:0:0:0:
402,192,45202,128,0,45360:0:0:0:0:
329,192,45202,1,0,0:0:0:0:
256,192,45202,1,0,0:0:0:0:
475,192,45202,1,0,0:0:0:0:
109,192,45360,1,0,0:0:0:0:
182,192,45518,128,0,45755:0:0:0:0:
36,192,45518,128,0,45676:0:0:0:0:
329,192,45518,1,0,0:0:0:0:
402,192,45518,1,0,0:0:0:0:
475,192,45518,1,0,0:0:0:0:
329,192,45676,1,0,0:0:0:0:
402,192,45834,1,0,0:0:0:0:
256,192,45834,128,0,46071:0:0:0:0:
109,192,45834,1,0,0:0:0:0:
36,192,45834,1,0,0:0:0:0:
329,192,45834,1,0,0:0:0:0:
109,192,45992,128,0,46150:0:0:0:0:
182,192,45992,1,0,0:0:0:0:
475,192,46150,1,0,0:0:0:0:
329,192,46150,128,0,46229:0:0:0:0:
36,192,46150,1,0,0:0:0:0:
475,192,46308,1,0,0:0:0:0:
329,192,46308,128,0,46387:0:0:0:0:
109,192,46308,1,0,0:0:0:0:
182,192,46308,1,0,0:0:0:0:
402,192,46466,1,0,0:0:0:0:
329,192,46466,128,0,46545:0:0:0:0:
109,192,46466,128,0,46623:0:0:0:0:
36,192,46466,1,0,0:0:0:0:
256,192,46466,1,0,0:0:0:0:
329,192,46623,128,0,46860:0:0:0:0:
256,192,46623,1,0,0:0:0:0:
475,192,46781,1,0,0:0:0:0:
36,192,46781,128,0,46939:0:0:0:0:
182,192,46781,1,0,0:0:0:0:
109,192,46781,1,0,0:0:0:0:
329,192,46939,128,0,47018:0:0:0:0:
182,192,46939,1,0,0:0:0:0:
402,192,47097,1,0,0:0:0:0:
329,192,47097,128,0,47176:0:0:0:0:
109,192,47097,1,0,0:0:0:0:
256,192,47097,1,0,0:0:0:0:
182,192,47097,1,0,0:0:0:0:
475,192,47255,1,0,0:0:0:0:
329,192,47255,128,0,47334:0:0:0:0:
109,192,47255,128,0,47413:0:0:0:0:
329,192,47413,128,0,47492:0:0:0:0:
256,192,47413,1,0,0:0:0:0:
36,192,47413,1,0,0:0:0:0:
475,192,47413,1,0,0:0:0:0:
475,192,47571,1,0,0:0:0:0:
329,192,47571,128,0,47650:0:0:0:0:
109,192,47571,1,0,0:0:0:0:
36,192,47571,1,0,0:0:0:0:
329,192,47729,128,0,47808:0:0:0:0:
109,192,47729,128,0,47887:0:0:0:0:
36,192,47729,1,0,0:0:0:0:
182,192,47729,1,0,0:0:0:0:
256,192,47729,1,0,0:0:0:0:
475,192,47887,1,0,0:0:0:0:
329,192,47887,128,0,48123:0:0:0:0:
256,192,47966,1,0,0:0:0:0:
402,192,47966,1,0,0:0:0:0:
475,192,48045,1,0,0:0:0:0:
182,192,48045,128,0,48281:0:0:0:0:
36,192,48045,128,0,48202:0:0:0:0:
109,192,48045,1,0,0:0:0:0:
329,192,48202,1,0,0:0:0:0:
402,192,48360,1,0,0:0:0:0:
256,192,48360,128,0,48597:0:0:0:0:
109,192,48360,1,0,0:0:0:0:
36,192,48360,1,0,0:0:0:0:
329,192,48360,1,0,0:0:0:0:
109,192,48518,128,0,48676:0:0:0:0:
182,192,48518,1,0,0:0:0:0:
475,192,48676,1,0,0:0:0:0:
329,192,48676,128,0,48755:0:0:0:0:
36,192,48676,1,0,0:0:0:0:
475,192,48834,1,0,0:0:0:0:
329,192,48834,128,0,48913:0:0:0:0:
109,192,48834,1,0,0:0:0:0:
182,192,48834,1,0,0:0:0:0:
402,192,48992,1,0,0:0:0:0:
329,192,48992,128,0,49071:0:0:0:0:
109,192,48992,128,0,49150:0:0:0:0:
36,192,48992,1,0,0:0:0:0:
256,192,48992,1,0,0:0:0:0:
329,192,49150,128,0,49387:0:0:0:0:
256,192,49150,1,0,0:0:0:0:
475,192,49308,1,0,0:0:0:0:
36,192,49308,128,0,49466:0:0:0:0:
182,192,49308,1,0,0:0:0:0:
109,192,49308,1,0,0:0:0:0:
329,192,49466,128,0,49545:0:0:0:0:
182,192,49466,1,0,0:0:0:0:
402,192,49623,1,0,0:0:0:0:
329,192,49623,128,0,49702:0:0:0:0:
109,192,49623,1,0,0:0:0:0:
256,192,49623,1,0,0:0:0:0:
182,192,49623,1,0,0:0:0:0:
475,192,49781,1,0,0:0:0:0:
329,192,49781,128,0,49860:0:0:0:0:
109,192,49781,128,0,49939:0:0:0:0:
256,192,49860,1,0,0:0:0:0:
329,192,49939,128,0,50018:0:0:0:0:
36,192,49939,1,0,0:0:0:0:
182,192,49939,1,0,0:0:0:0:
475,192,49939,1,0,0:0:0:0:
475,192,50097,1,0,0:0:0:0:
329,192,50097,128,0,50176:0:0:0:0:
256,192,50097,1,0,0:0:0:0:
109,192,50097,1,0,0:0:0:0:
329,192,50255,128,0,50334:0:0:0:0:
109,192,50255,128,0,50413:0:0:0:0:
182,192,50255,1,0,0:0:0:0:
256,192,50255,1,0,0:0:0:0:
36,192,50255,1,0,0:0:0:0:
475,192,50334,1,0,0:0:0:0:
402,192,50413,1,0,0:0:0:0:
256,192,50492,1,0,0:0:0:0:
182,192,50571,128,0,50650:0:0:0:0:
109,192,50571,128,0,50650:0:0:0:0:
329,192,50571,1,0,0:0:0:0:
36,192,50571,128,0,50966:0:0:0:0:
475,192,50571,128,0,50808:0:0:0:0:
182,192,50729,1,0,0:0:0:0:
329,192,50808,1,0,0:0:0:0:
182,192,50887,128,0,50966:0:0:0:0:
109,192,50887,128,0,50966:0:0:0:0:
402,192,50887,1,0,0:0:0:0:
256,192,50887,128,0,51281:0:0:0:0:
475,192,50887,128,0,50966:0:0:0:0:
329,192,50966,1,0,0:0:0:0:
475,192,51045,1,0,0:0:0:0:
36,192,51045,1,0,0:0:0:0:
109,192,51202,128,0,51281:0:0:0:0:
182,192,51202,128,0,51281:0:0:0:0:
402,192,51202,128,0,51597:0:0:0:0:
36,192,51202,1,0,0:0:0:0:
109,192,51360,128,0,51439:0:0:0:0:
329,192,51360,1,0,0:0:0:0:
109,192,51518,128,0,51597:0:0:0:0:
329,192,51518,128,0,51913:0:0:0:0:
36,192,51518,1,0,0:0:0:0:
182,192,51518,1,0,0:0:0:0:
475,192,51518,1,0,0:0:0:0:
109,192,51676,128,0,51913:0:0:0:0:
402,192,51676,1,0,0:0:0:0:
402,192,51834,128,0,52229:0:0:0:0:
182,192,51834,128,0,51913:0:0:0:0:
475,192,51834,1,0,0:0:0:0:
256,192,51834,1,0,0:0:0:0:
109,192,51992,128,0,52071:0:0:0:0:
329,192,51992,1,0,0:0:0:0:
109,192,52150,128,0,52229:0:0:0:0:
329,192,52150,128,0,52545:0:0:0:0:
36,192,52150,1,0,0:0:0:0:
475,192,52150,1,0,0:0:0:0:
256,192,52150,1,0,0:0:0:0:
109,192,52308,128,0,52387:0:0:0:0:
402,192,52308,1,0,0:0:0:0:
109,192,52466,128,0,52545:0:0:0:0:
402,192,52466,128,0,52860:0:0:0:0:
182,192,52466,1,0,0:0:0:0:
36,192,52466,1,0,0:0:0:0:
109,192,52623,128,0,52702:0:0:0:0:
329,192,52623,1,0,0:0:0:0:
109,192,52781,128,0,52860:0:0:0:0:
329,192,52781,128,0,53018:0:0:0:0:
256,192,52781,1,0,0:0:0:0:
36,192,52781,1,0,0:0:0:0:
475,192,52781,1,0,0:0:0:0:
256,192,52939,128,0,53018:0:0:0:0:
475,192,52939,1,0,0:0:0:0:
109,192,52939,128,0,53176:0:0:0:0:
182,192,53018,1,0,0:0:0:0:
329,192,53097,128,0,53176:0:0:0:0:
402,192,53097,128,0,53176:0:0:0:0:
475,192,53097,128,0,53492:0:0:0:0:
256,192,53097,1,0,0:0:0:0:
36,192,53097,128,0,53334:0:0:0:0:
329,192,53255,1,0,0:0:0:0:
182,192,53334,1,0,0:0:0:0:
329,192,53413,128,0,53492:0:0:0:0:
402,192,53413,128,0,53492:0:0:0:0:
109,192,53413,1,0,0:0:0:0:
256,192,53413,128,0,53808:0:0:0:0:
36,192,53413,128,0,53492:0:0:0:0:
182,192,53492,1,0,0:0:0:0:
36,192,53571,1,0,0:0:0:0:
475,192,53571,1,0,0:0:0:0:
402,192,53729,128,0,53808:0:0:0:0:
329,192,53729,128,0,53808:0:0:0:0:
109,192,53729,128,0,54123:0:0:0:0:
475,192,53729,1,0,0:0:0:0:
402,192,53887,128,0,53966:0:0:0:0:
182,192,53887,1,0,0:0:0:0:
402,192,54045,128,0,54123:0:0:0:0:
182,192,54045,128,0,54439:0:0:0:0:
475,192,54045,1,0,0:0:0:0:
329,192,54045,1,0,0:0:0:0:
36,192,54045,1,0,0:0:0:0:
402,192,54202,128,0,54439:0:0:0:0:
109,192,54202,1,0,0:0:0:0:
256,192,54281,1,0,0:0:0:0:
475,192,54281,1,0,0:0:0:0:
109,192,54360,128,0,54755:0:0:0:0:
329,192,54360,128,0,54439:0:0:0:0:
36,192,54360,1,0,0:0:0:0:
402,192,54518,128,0,54597:0:0:0:0:
182,192,54518,1,0,0:0:0:0:
402,192,54676,128,0,54755:0:0:0:0:
182,192,54676,128,0,55071:0:0:0:0:
475,192,54676,1,0,0:0:0:0:
36,192,54676,1,0,0:0:0:0:
256,192,54676,1,0,0:0:0:0:
402,192,54834,128,0,54913:0:0:0:0:
109,192,54834,1,0,0:0:0:0:
402,192,54992,128,0,55071:0:0:0:0:
109,192,54992,128,0,55387:0:0:0:0:
329,192,54992,1,0,0:0:0:0:
475,192,54992,1,0,0:0:0:0:
402,192,55150,128,0,55229:0:0:0:0:
182,192,55150,1,0,0:0:0:0:
402,192,55308,128,0,55387:0:0:0:0:
475,192,55308,1,0,0:0:0:0:
36,192,55308,1,0,0:0:0:0:
182,192,55308,128,0,55387:0:0:0:0:
256,192,55308,128,0,55545:0:0:0:0:
329,192,55466,1,0,0:0:0:0:
109,192,55466,1,0,0:0:0:0:
402,192,55545,1,0,0:0:0:0:
36,192,55623,1,0,0:0:0:0:
109,192,55623,128,0,55860:0:0:0:0:
182,192,55623,1,0,0:0:0:0:
475,192,55623,128,0,55702:0:0:0:0:
256,192,55623,128,0,56018:0:0:0:0:
329,192,55702,1,0,0:0:0:0:
475,192,55781,1,0,0:0:0:0:
36,192,55781,128,0,56018:0:0:0:0:
402,192,55781,128,0,55860:0:0:0:0:
182,192,55860,128,0,56176:0:0:0:0:
402,192,55939,1,0,0:0:0:0:
329,192,55939,128,0,56018:0:0:0:0:
475,192,55939,128,0,56176:0:0:0:0:
109,192,56018,128,0,56334:0:0:0:0:
256,192,56097,128,0,56176:0:0:0:0:
402,192,56097,128,0,56334:0:0:0:0:
329,192,56097,1,0,0:0:0:0:
36,192,56176,128,0,56492:0:0:0:0:
329,192,56255,128,0,56492:0:0:0:0:
182,192,56255,128,0,56334:0:0:0:0:
256,192,56255,1,0,0:0:0:0:
475,192,56334,128,0,56492:0:0:0:0:
182,192,56413,1,0,0:0:0:0:
256,192,56413,128,0,56650:0:0:0:0:
109,192,56413,128,0,56492:0:0:0:0:
402,192,56492,128,0,56650:0:0:0:0:
109,192,56571,1,0,0:0:0:0:
182,192,56571,128,0,56808:0:0:0:0:
36,192,56571,128,0,56650:0:0:0:0:
329,192,56650,128,0,56808:0:0:0:0:
36,192,56729,1,0,0:0:0:0:
109,192,56729,128,0,56887:0:0:0:0:
475,192,56729,128,0,57045:0:0:0:0:
256,192,56808,128,0,56966:0:0:0:0:
36,192,56887,128,0,57123:0:0:0:0:
329,192,56887,1,0,0:0:0:0:
182,192,56966,128,0,57045:0:0:0:0:
402,192,56966,128,0,57202:0:0:0:0:
109,192,57045,128,0,57202:0:0:0:0:
329,192,57045,128,0,57123:0:0:0:0:
475,192,57123,128,0,57281:0:0:0:0:
182,192,57123,128,0,57281:0:0:0:0:
256,192,57202,128,0,57360:0:0:0:0:
36,192,57202,128,0,57360:0:0:0:0:
329,192,57281,128,0,57439:0:0:0:0:
109,192,57281,128,0,57439:0:0:0:0:
402,192,57360,128,0,57518:0:0:0:0:
182,192,57360,128,0,57597:0:0:0:0:
475,192,57439,128,0,57676:0:0:0:0:
256,192,57439,128,0,57755:0:0:0:0:
36,192,57518,128,0,57834:0:0:0:0:
109,192,57518,128,0,57597:0:0:0:0:
329,192,57597,128,0,57913:0:0:0:0:
402,192,57597,128,0,57676:0:0:0:0:
109,192,57676,128,0,57992:0:0:0:0:
182,192,57676,128,0,57755:0:0:0:0:
402,192,57755,128,0,58110:0:0:0:0:
475,192,57755,128,0,57834:0:0:0:0:
182,192,57834,128,0,58071:0:0:0:0:
256,192,57834,128,0,57913:0:0:0:0:
475,192,57913,128,0,58071:0:0:0:0:
36,192,57913,128,0,57992:0:0:0:0:
256,192,57992,128,0,58189:0:0:0:0:
329,192,57992,128,0,58150:0:0:0:0:
36,192,58071,128,0,58387:0:0:0:0:
109,192,58071,128,0,58268:0:0:0:0:
182,192,58150,128,0,58229:0:0:0:0:
475,192,58150,128,0,58248:0:0:0:0:
402,192,58189,128,0,58288:0:0:0:0:
329,192,58229,128,0,58327:0:0:0:0:
256,192,58268,128,0,58505:0:0:0:0:
182,192,58308,128,0,58466:0:0:0:0:
475,192,58308,1,0,0:0:0:0:
109,192,58347,128,0,58426:0:0:0:0:
329,192,58387,128,0,58545:0:0:0:0:
402,192,58426,128,0,58584:0:0:0:0:
475,192,58466,128,0,58702:0:0:0:0:
36,192,58466,128,0,58564:0:0:0:0:
109,192,58505,128,0,58604:0:0:0:0:
182,192,58545,128,0,58643:0:0:0:0:
256,192,58584,128,0,58821:0:0:0:0:
329,192,58623,128,0,58781:0:0:0:0:
36,192,58623,1,0,0:0:0:0:
402,192,58663,128,0,58742:0:0:0:0:
182,192,58702,128,0,58860:0:0:0:0:
109,192,58742,128,0,58900:0:0:0:0:
36,192,58781,128,0,59018:0:0:0:0:
475,192,58781,128,0,58880:0:0:0:0:
402,192,58821,128,0,58920:0:0:0:0:
329,192,58860,128,0,58959:0:0:0:0:
256,192,58900,128,0,59137:0:0:0:0:
182,192,58939,128,0,59097:0:0:0:0:
475,192,58939,1,0,0:0:0:0:
109,192,58979,128,0,59058:0:0:0:0:
329,192,59018,128,0,59176:0:0:0:0:
402,192,59058,128,0,59216:0:0:0:0:
475,192,59097,128,0,59295:0:0:0:0:
36,192,59097,128,0,59196:0:0:0:0:
109,192,59137,128,0,59235:0:0:0:0:
182,192,59176,128,0,59275:0:0:0:0:
256,192,59216,128,0,59413:0:0:0:0:
329,192,59255,128,0,59373:0:0:0:0:
36,192,59255,1,0,0:0:0:0:
402,192,59295,128,0,59334:0:0:0:0:
182,192,59334,128,0,59413:0:0:0:0:
109,192,59373,128,0,59413:0:0:0:0:
36,192,59413,1,0,0:0:0:0:
402,192,59413,1,0,0:0:0:0:
475,192,59413,1,0,0:0:0:0:
182,192,59571,1,0,0:0:0:0:
475,192,59650,1,0,0:0:0:0:
402,192,59650,1,0,0:0:0:0:
36,192,59808,1,0,0:0:0:0:
109,192,59887,1,0,0:0:0:0:
329,192,59887,1,0,0:0:0:0:
182,192,59966,1,0,0:0:0:0:
402,192,59966,1,0,0:0:0:0:
475,192,60045,1,0,0:0:0:0:
256,192,60084,1,0,0:0:0:0:
182,192,60123,1,0,0:0:0:0:
329,192,60176,1,0,0:0:0:0:
402,192,60202,1,0,0:0:0:0:
475,192,60229,1,0,0:0:0:0:
109,192,60242,1,0,0:0:0:0:
256,192,60281,1,0,0:0:0:0:
329,192,60334,1,0,0:0:0:0:
36,192,60360,1,0,0:0:0:0:
182,192,60360,1,0,0:0:0:0:
109,192,60360,1,0,0:0:0:0:
402,192,60387,1,0,0:0:0:0:
475,192,60439,1,0,0:0:0:0:
36,192,60439,1,0,0:0:0:0:
256,192,60518,1,0,0:0:0:0:
182,192,60518,1,0,0:0:0:0:
329,192,60518,1,0,0:0:0:0:
256,192,60676,1,0,0:0:0:0:
109,192,60676,1,0,0:0:0:0:
475,192,60676,1,0,0:0:0:0:
182,192,60676,1,0,0:0:0:0:
36,192,60676,128,0,60913:0:0:0:0:
402,192,60755,1,0,0:0:0:0:
329,192,60795,1,0,0:0:0:0:
256,192,60814,1,0,0:0:0:0:
182,192,60834,1,0,0:0:0:0:
109,192,60873,1,0,0:0:0:0:
329,192,60913,1,0,0:0:0:0:
256,192,60992,1,0,0:0:0:0:
36,192,60992,1,0,0:0:0:0:
109,192,60992,1,0,0:0:0:0:
402,192,60992,1,0,0:0:0:0:
475,192,60992,128,0,61229:0:0:0:0:
256,192,61150,1,0,0:0:0:0:
36,192,61308,1,0,0:0:0:0:
109,192,61308,1,0,0:0:0:0:
329,192,61308,128,0,61387:0:0:0:0:
182,192,61466,1,0,0:0:0:0:
329,192,61466,128,0,61545:0:0:0:0:
109,192,61623,1,0,0:0:0:0:
36,192,61623,1,0,0:0:0:0:
329,192,61623,128,0,61702:0:0:0:0:
182,192,61781,1,0,0:0:0:0:
329,192,61781,128,0,61860:0:0:0:0:
402,192,61801,128,0,61998:0:0:0:0:
109,192,61939,1,0,0:0:0:0:
36,192,61939,1,0,0:0:0:0:
329,192,61939,128,0,62018:0:0:0:0:
182,192,62097,1,0,0:0:0:0:
329,192,62097,128,0,62176:0:0:0:0:
109,192,62255,1,0,0:0:0:0:
36,192,62255,1,0,0:0:0:0:
329,192,62255,128,0,62334:0:0:0:0:
182,192,62413,1,0,0:0:0:0:
329,192,62413,128,0,62492:0:0:0:0:
109,192,62571,1,0,0:0:0:0:
36,192,62571,1,0,0:0:0:0:
329,192,62571,128,0,62650:0:0:0:0:
182,192,62729,1,0,0:0:0:0:
329,192,62729,128,0,62808:0:0:0:0:
109,192,62887,1,0,0:0:0:0:
36,192,62887,1,0,0:0:0:0:
329,192,62887,128,0,62966:0:0:0:0:
109,192,63045,1,0,0:0:0:0:
36,192,63045,1,0,0:0:0:0:
329,192,63045,128,0,63281:0:0:0:0:
256,192,63202,1,0,0:0:0:0:
475,192,63202,1,0,0:0:0:0:
182,192,63202,1,0,0:0:0:0:
36,192,63202,128,0,63439:0:0:0:0:
256,192,63360,1,0,0:0:0:0:
256,192,63518,1,0,0:0:0:0:
329,192,63518,1,0,0:0:0:0:
36,192,63518,1,0,0:0:0:0:
475,192,63518,128,0,63755:0:0:0:0:
182,192,63676,1,0,0:0:0:0:
109,192,63834,1,0,0:0:0:0:
36,192,63834,1,0,0:0:0:0:
329,192,63834,128,0,63913:0:0:0:0:
182,192,63992,1,0,0:0:0:0:
329,192,63992,128,0,64071:0:0:0:0:
109,192,64150,1,0,0:0:0:0:
36,192,64150,1,0,0:0:0:0:
329,192,64150,128,0,64229:0:0:0:0:
182,192,64308,1,0,0:0:0:0:
329,192,64308,128,0,64387:0:0:0:0:
402,192,64327,128,0,64525:0:0:0:0:
109,192,64466,1,0,0:0:0:0:
36,192,64466,1,0,0:0:0:0:
329,192,64466,128,0,64545:0:0:0:0:
109,192,64623,1,0,0:0:0:0:
36,192,64623,1,0,0:0:0:0:
329,192,64623,128,0,64702:0:0:0:0:
329,192,64781,128,0,64860:0:0:0:0:
402,192,64781,1,0,0:0:0:0:
475,192,64781,1,0,0:0:0:0:
256,192,64781,1,0,0:0:0:0:
36,192,64860,1,0,0:0:0:0:
329,192,64939,128,0,65018:0:0:0:0:
182,192,64939,1,0,0:0:0:0:
475,192,64939,1,0,0:0:0:0:
402,192,65018,1,0,0:0:0:0:
329,192,65097,128,0,65176:0:0:0:0:
109,192,65097,1,0,0:0:0:0:
329,192,65255,128,0,65334:0:0:0:0:
109,192,65255,1,0,0:0:0:0:
475,192,65334,1,0,0:0:0:0:
182,192,65334,1,0,0:0:0:0:
256,192,65413,1,0,0:0:0:0:
36,192,65413,1,0,0:0:0:0:
402,192,65492,1,0,0:0:0:0:
475,192,65571,1,0,0:0:0:0:
329,192,65571,1,0,0:0:0:0:
329,192,65729,1,0,0:0:0:0:
256,192,65729,1,0,0:0:0:0:
36,192,65729,1,0,0:0:0:0:
182,192,65729,1,0,0:0:0:0:
475,192,65729,128,0,65966:0:0:0:0:
256,192,66045,1,0,0:0:0:0:
109,192,66045,1,0,0:0:0:0:
475,192,66045,1,0,0:0:0:0:
402,192,66045,1,0,0:0:0:0:
36,192,66045,128,0,66281:0:0:0:0:
256,192,66202,1,0,0:0:0:0:
182,192,66360,128,0,66439:0:0:0:0:
402,192,66360,1,0,0:0:0:0:
475,192,66360,1,0,0:0:0:0:
182,192,66518,128,0,66597:0:0:0:0:
329,192,66518,1,0,0:0:0:0:
182,192,66676,128,0,66755:0:0:0:0:
475,192,66676,1,0,0:0:0:0:
109,192,66676,1,0,0:0:0:0:
256,192,66676,1,0,0:0:0:0:
36,192,66676,1,0,0:0:0:0:
329,192,66834,1,0,0:0:0:0:
182,192,66834,128,0,66913:0:0:0:0:
109,192,66854,128,0,67051:0:0:0:0:
402,192,66992,1,0,0:0:0:0:
475,192,66992,1,0,0:0:0:0:
182,192,66992,128,0,67071:0:0:0:0:
182,192,67150,128,0,67229:0:0:0:0:
329,192,67150,1,0,0:0:0:0:
182,192,67308,128,0,67387:0:0:0:0:
475,192,67308,1,0,0:0:0:0:
109,192,67308,1,0,0:0:0:0:
256,192,67308,1,0,0:0:0:0:
36,192,67308,1,0,0:0:0:0:
182,192,67466,128,0,67545:0:0:0:0:
329,192,67466,1,0,0:0:0:0:
182,192,67623,128,0,67702:0:0:0:0:
402,192,67623,1,0,0:0:0:0:
475,192,67623,1,0,0:0:0:0:
182,192,67781,128,0,67860:0:0:0:0:
329,192,67781,1,0,0:0:0:0:
182,192,67939,128,0,68018:0:0:0:0:
109,192,67939,1,0,0:0:0:0:
256,192,67939,1,0,0:0:0:0:
475,192,67939,1,0,0:0:0:0:
36,192,67939,1,0,0:0:0:0:
182,192,68097,128,0,68334:0:0:0:0:
402,192,68097,1,0,0:0:0:0:
475,192,68097,1,0,0:0:0:0:
36,192,68097,1,0,0:0:0:0:
256,192,68255,1,0,0:0:0:0:
36,192,68255,1,0,0:0:0:0:
475,192,68255,128,0,68492:0:0:0:0:
402,192,68255,1,0,0:0:0:0:
256,192,68413,1,0,0:0:0:0:
256,192,68571,1,0,0:0:0:0:
182,192,68571,1,0,0:0:0:0:
36,192,68571,128,0,68808:0:0:0:0:
475,192,68571,1,0,0:0:0:0:
109,192,68571,1,0,0:0:0:0:
329,192,68729,1,0,0:0:0:0:
402,192,68887,1,0,0:0:0:0:
475,192,68887,1,0,0:0:0:0:
182,192,68887,128,0,68966:0:0:0:0:
329,192,69045,1,0,0:0:0:0:
182,192,69045,128,0,69123:0:0:0:0:
475,192,69202,1,0,0:0:0:0:
182,192,69202,128,0,69281:0:0:0:0:
256,192,69202,1,0,0:0:0:0:
109,192,69202,1,0,0:0:0:0:
36,192,69202,1,0,0:0:0:0:
329,192,69360,1,0,0:0:0:0:
182,192,69360,128,0,69439:0:0:0:0:
109,192,69380,128,0,69577:0:0:0:0:
402,192,69518,1,0,0:0:0:0:
475,192,69518,1,0,0:0:0:0:
182,192,69518,128,0,69597:0:0:0:0:
182,192,69676,128,0,69755:0:0:0:0:
402,192,69676,1,0,0:0:0:0:
475,192,69676,1,0,0:0:0:0:
182,192,69834,128,0,69913:0:0:0:0:
256,192,69834,1,0,0:0:0:0:
475,192,69834,1,0,0:0:0:0:
36,192,69834,1,0,0:0:0:0:
402,192,69913,1,0,0:0:0:0:
182,192,69992,128,0,70071:0:0:0:0:
329,192,69992,1,0,0:0:0:0:
36,192,69992,1,0,0:0:0:0:
402,192,70071,1,0,0:0:0:0:
329,192,70150,1,0,0:0:0:0:
109,192,70150,1,0,0:0:0:0:
475,192,70229,1,0,0:0:0:0:
256,192,70308,1,0,0:0:0:0:
36,192,70387,1,0,0:0:0:0:
109,192,70387,1,0,0:0:0:0:
475,192,70466,1,0,0:0:0:0:
402,192,70466,1,0,0:0:0:0:
256,192,70466,128,0,70702:0:0:0:0:
109,192,70545,1,0,0:0:0:0:
402,192,70623,1,0,0:0:0:0:
182,192,70781,1,0,0:0:0:0:
36,192,70781,1,0,0:0:0:0:
329,192,70781,128,0,70860:0:0:0:0:
402,192,70781,128,0,70900:0:0:0:0:
475,192,70781,128,0,71018:0:0:0:0:
109,192,70860,1,0,0:0:0:0:
182,192,70900,1,0,0:0:0:0:
256,192,70920,1,0,0:0:0:0:
329,192,70939,1,0,0:0:0:0:
402,192,70979,1,0,0:0:0:0:
109,192,71018,1,0,0:0:0:0:
475,192,71097,1,0,0:0:0:0:
182,192,71097,128,0,71176:0:0:0:0:
256,192,71097,128,0,71176:0:0:0:0:
329,192,71097,128,0,71334:0:0:0:0:
36,192,71097,1,0,0:0:0:0:
109,192,71255,128,0,71334:0:0:0:0:
182,192,71255,1,0,0:0:0:0:
475,192,71255,1,0,0:0:0:0:
109,192,71413,1,0,0:0:0:0:
36,192,71413,128,0,71650:0:0:0:0:
256,192,71413,128,0,71492:0:0:0:0:
402,192,71413,128,0,71492:0:0:0:0:
475,192,71413,128,0,71492:0:0:0:0:
182,192,71571,128,0,71808:0:0:0:0:
256,192,71571,128,0,71650:0:0:0:0:
402,192,71571,1,0,0:0:0:0:
329,192,71729,128,0,71966:0:0:0:0:
36,192,71729,128,0,71808:0:0:0:0:
109,192,71729,128,0,71808:0:0:0:0:
402,192,71729,1,0,0:0:0:0:
475,192,71729,128,0,71808:0:0:0:0:
256,192,71729,1,0,0:0:0:0:
182,192,71887,128,0,71966:0:0:0:0:
256,192,71887,128,0,71966:0:0:0:0:
36,192,71906,128,0,72281:0:0:0:0:
475,192,71906,1,0,0:0:0:0:
256,192,72045,128,0,72281:0:0:0:0:
329,192,72045,128,0,72123:0:0:0:0:
402,192,72045,128,0,72123:0:0:0:0:
109,192,72045,1,0,0:0:0:0:
402,192,72202,128,0,72439:0:0:0:0:
109,192,72202,128,0,72281:0:0:0:0:
475,192,72202,128,0,72281:0:0:0:0:
182,192,72202,1,0,0:0:0:0:
109,192,72360,128,0,72597:0:0:0:0:
256,192,72360,128,0,72439:0:0:0:0:
182,192,72360,128,0,72439:0:0:0:0:
36,192,72360,1,0,0:0:0:0:
475,192,72360,1,0,0:0:0:0:
329,192,72360,1,0,0:0:0:0:
256,192,72518,128,0,72755:0:0:0:0:
329,192,72518,128,0,72597:0:0:0:0:
402,192,72518,128,0,72597:0:0:0:0:
475,192,72518,1,0,0:0:0:0:
402,192,72676,128,0,72913:0:0:0:0:
475,192,72676,128,0,72755:0:0:0:0:
182,192,72676,128,0,72755:0:0:0:0:
36,192,72676,1,0,0:0:0:0:
109,192,72676,1,0,0:0:0:0:
182,192,72834,128,0,73071:0:0:0:0:
109,192,72834,128,0,72913:0:0:0:0:
329,192,72834,128,0,72913:0:0:0:0:
329,192,72992,128,0,73229:0:0:0:0:
475,192,72992,128,0,73071:0:0:0:0:
256,192,72992,128,0,73071:0:0:0:0:
36,192,72992,1,0,0:0:0:0:
402,192,72992,1,0,0:0:0:0:
109,192,72992,1,0,0:0:0:0:
475,192,73150,128,0,73229:0:0:0:0:
402,192,73150,128,0,73229:0:0:0:0:
109,192,73150,128,0,73229:0:0:0:0:
36,192,73150,128,0,73229:0:0:0:0:
182,192,73150,128,0,73387:0:0:0:0:
109,192,73308,128,0,73545:0:0:0:0:
402,192,73308,128,0,73545:0:0:0:0:
256,192,73308,1,0,0:0:0:0:
36,192,73308,1,0,0:0:0:0:
475,192,73308,1,0,0:0:0:0:
182,192,73466,1,0,0:0:0:0:
329,192,73466,128,0,73545:0:0:0:0:
36,192,73623,1,0,0:0:0:0:
329,192,73623,128,0,73702:0:0:0:0:
256,192,73623,128,0,73702:0:0:0:0:
182,192,73623,128,0,73860:0:0:0:0:
475,192,73623,1,0,0:0:0:0:
109,192,73623,1,0,0:0:0:0:
402,192,73781,128,0,73860:0:0:0:0:
329,192,73781,1,0,0:0:0:0:
36,192,73781,1,0,0:0:0:0:
402,192,73939,1,0,0:0:0:0:
475,192,73939,128,0,74176:0:0:0:0:
256,192,73939,128,0,74018:0:0:0:0:
109,192,73939,128,0,74018:0:0:0:0:
36,192,73939,128,0,74018:0:0:0:0:
329,192,74097,128,0,74334:0:0:0:0:
256,192,74097,128,0,74176:0:0:0:0:
109,192,74097,1,0,0:0:0:0:
182,192,74255,128,0,74492:0:0:0:0:
475,192,74255,128,0,74334:0:0:0:0:
402,192,74255,128,0,74334:0:0:0:0:
109,192,74255,1,0,0:0:0:0:
36,192,74255,128,0,74334:0:0:0:0:
256,192,74255,1,0,0:0:0:0:
329,192,74413,128,0,74492:0:0:0:0:
256,192,74413,128,0,74492:0:0:0:0:
475,192,74433,128,0,74808:0:0:0:0:
36,192,74433,1,0,0:0:0:0:
256,192,74571,128,0,74808:0:0:0:0:
182,192,74571,128,0,74650:0:0:0:0:
109,192,74571,128,0,74650:0:0:0:0:
402,192,74571,1,0,0:0:0:0:
402,192,74729,128,0,74808:0:0:0:0:
36,192,74729,128,0,74808:0:0:0:0:
329,192,74729,1,0,0:0:0:0:
109,192,74729,128,0,74808:0:0:0:0:
182,192,74729,1,0,0:0:0:0:
36,192,74887,1,0,0:0:0:0:
475,192,74887,1,0,0:0:0:0:
256,192,74887,128,0,74966:0:0:0:0:
402,192,74966,1,0,0:0:0:0:
109,192,74966,1,0,0:0:0:0:
182,192,75045,128,0,75123:0:0:0:0:
256,192,75045,128,0,75123:0:0:0:0:
329,192,75045,128,0,75123:0:0:0:0:
36,192,75045,1,0,0:0:0:0:
475,192,75045,1,0,0:0:0:0:
109,192,75202,128,0,75281:0:0:0:0:
182,192,75202,128,0,75281:0:0:0:0:
256,192,75202,128,0,75281:0:0:0:0:
402,192,75281,1,0,0:0:0:0:
475,192,75281,1,0,0:0:0:0:
329,192,75281,1,0,0:0:0:0:
109,192,75360,128,0,75439:0:0:0:0:
36,192,75360,128,0,75439:0:0:0:0:
182,192,75360,128,0,75439:0:0:0:0:
329,192,75518,128,0,75558:0:0:0:0:
402,192,75518,128,0,75577:0:0:0:0:
475,192,75518,128,0,75597:0:0:0:0:
182,192,75518,1,0,0:0:0:0:
36,192,75834,128,0,76071:0:0:0:0:
182,192,75834,128,0,75913:0:0:0:0:
256,192,75834,128,0,75933:0:0:0:0:
329,192,75834,128,0,75913:0:0:0:0:
475,192,75834,128,0,75913:0:0:0:0:
182,192,75992,1,0,0:0:0:0:
109,192,75992,1,0,0:0:0:0:
402,192,75992,1,0,0:0:0:0:
329,192,75992,1,0,0:0:0:0:
475,192,76150,128,0,76387:0:0:0:0:
36,192,76150,128,0,76229:0:0:0:0:
109,192,76150,128,0,76248:0:0:0:0:
256,192,76150,128,0,76229:0:0:0:0:
402,192,76150,128,0,76229:0:0:0:0:
329,192,76308,1,0,0:0:0:0:
256,192,76308,1,0,0:0:0:0:
182,192,76308,1,0,0:0:0:0:
36,192,76308,1,0,0:0:0:0:
109,192,76466,128,0,76702:0:0:0:0:
182,192,76466,128,0,76564:0:0:0:0:
256,192,76466,128,0,76545:0:0:0:0:
475,192,76466,1,0,0:0:0:0:
402,192,76466,128,0,76545:0:0:0:0:
256,192,76623,128,0,76860:0:0:0:0:
402,192,76623,128,0,76702:0:0:0:0:
475,192,76623,128,0,76722:0:0:0:0:
329,192,76623,1,0,0:0:0:0:
402,192,76781,128,0,77018:0:0:0:0:
36,192,76781,128,0,76880:0:0:0:0:
109,192,76781,128,0,76860:0:0:0:0:
182,192,76781,1,0,0:0:0:0:
475,192,76781,1,0,0:0:0:0:
256,192,76939,128,0,77018:0:0:0:0:
329,192,76939,128,0,77038:0:0:0:0:
36,192,76939,1,0,0:0:0:0:
475,192,76939,1,0,0:0:0:0:
109,192,76959,128,0,77334:0:0:0:0:
329,192,77097,128,0,77334:0:0:0:0:
402,192,77097,128,0,77196:0:0:0:0:
475,192,77097,128,0,77176:0:0:0:0:
182,192,77097,128,0,77176:0:0:0:0:
475,192,77255,128,0,77492:0:0:0:0:
256,192,77255,128,0,77354:0:0:0:0:
36,192,77255,128,0,77334:0:0:0:0:
402,192,77255,1,0,0:0:0:0:
182,192,77413,128,0,77650:0:0:0:0:
256,192,77413,128,0,77512:0:0:0:0:
402,192,77413,128,0,77492:0:0:0:0:
109,192,77413,1,0,0:0:0:0:
36,192,77413,1,0,0:0:0:0:
36,192,77571,128,0,77808:0:0:0:0:
329,192,77571,128,0,77650:0:0:0:0:
402,192,77571,128,0,77650:0:0:0:0:
109,192,77571,128,0,77670:0:0:0:0:
402,192,77729,128,0,77966:0:0:0:0:
256,192,77729,128,0,77808:0:0:0:0:
182,192,77729,128,0,77827:0:0:0:0:
475,192,77729,128,0,77808:0:0:0:0:
329,192,77729,1,0,0:0:0:0:
109,192,77887,128,0,78123:0:0:0:0:
256,192,77887,128,0,77985:0:0:0:0:
329,192,77887,128,0,77966:0:0:0:0:
36,192,77887,128,0,77966:0:0:0:0:
329,192,78045,128,0,78281:0:0:0:0:
402,192,78045,128,0,78143:0:0:0:0:
182,192,78045,128,0,78123:0:0:0:0:
36,192,78045,1,0,0:0:0:0:
475,192,78045,1,0,0:0:0:0:
256,192,78202,128,0,78301:0:0:0:0:
182,192,78202,128,0,78281:0:0:0:0:
402,192,78202,1,0,0:0:0:0:
475,192,78202,1,0,0:0:0:0:
36,192,78202,1,0,0:0:0:0:
256,192,78360,1,0,0:0:0:0:
402,192,78360,1,0,0:0:0:0:
475,192,78360,1,0,0:0:0:0:
36,192,78360,1,0,0:0:0:0:
109,192,78360,128,0,79387:0:0:0:0:
182,192,78439,1,0,0:0:0:0:
329,192,78518,1,0,0:0:0:0:
475,192,78597,1,0,0:0:0:0:
402,192,78676,128,0,79545:0:0:0:0:
256,192,78676,1,0,0:0:0:0:
36,192,78676,1,0,0:0:0:0:
475,192,78755,1,0,0:0:0:0:
329,192,78834,1,0,0:0:0:0:
182,192,78913,1,0,0:0:0:0:
256,192,78992,128,0,79071:0:0:0:0:
329,192,78992,1,0,0:0:0:0:
182,192,79071,1,0,0:0:0:0:
256,192,79150,128,0,79229:0:0:0:0:
36,192,79150,1,0,0:0:0:0:
475,192,79229,1,0,0:0:0:0:
256,192,79308,128,0,79387:0:0:0:0:
329,192,79308,1,0,0:0:0:0:
182,192,79308,128,0,79387:0:0:0:0:
36,192,79308,1,0,0:0:0:0:
329,192,79466,128,0,79545:0:0:0:0:
182,192,79466,1,0,0:0:0:0:
475,192,79466,1,0,0:0:0:0:
256,192,79485,128,0,79545:0:0:0:0:
109,192,79623,1,0,0:0:0:0:
36,192,79623,1,0,0:0:0:0:
256,192,79623,1,0,0:0:0:0:
402,192,79623,1,0,0:0:0:0:
475,192,79623,1,0,0:0:0:0:
109,192,79781,128,0,79860:0:0:0:0:
36,192,79781,128,0,79860:0:0:0:0:
402,192,79781,128,0,79860:0:0:0:0:
475,192,79781,128,0,79860:0:0:0:0:
182,192,79939,1,0,0:0:0:0:
109,192,79939,1,0,0:0:0:0:
329,192,79939,1,0,0:0:0:0:
475,192,79939,1,0,0:0:0:0:
329,192,80018,1,0,0:0:0:0:
182,192,80097,1,0,0:0:0:0:
36,192,80097,1,0,0:0:0:0:
402,192,80097,1,0,0:0:0:0:
256,192,80137,1,0,0:0:0:0:
329,192,80176,1,0,0:0:0:0:
109,192,80255,1,0,0:0:0:0:
36,192,80255,1,0,0:0:0:0:
475,192,80255,1,0,0:0:0:0:
256,192,80334,1,0,0:0:0:0:
109,192,80413,128,0,80650:0:0:0:0:
182,192,80413,128,0,80650:0:0:0:0:
329,192,80413,128,0,80492:0:0:0:0:
402,192,80413,128,0,80492:0:0:0:0:
329,192,80571,128,0,80808:0:0:0:0:
402,192,80571,128,0,80808:0:0:0:0:
256,192,80571,1,0,0:0:0:0:
475,192,80571,1,0,0:0:0:0:
109,192,80729,128,0,80808:0:0:0:0:
182,192,80729,128,0,80808:0:0:0:0:
36,192,80729,1,0,0:0:0:0:
256,192,80729,1,0,0:0:0:0:
36,192,80887,128,0,81045:0:0:0:0:
182,192,80887,1,0,0:0:0:0:
256,192,80887,128,0,80966:0:0:0:0:
329,192,80887,128,0,81005:0:0:0:0:
402,192,80887,128,0,81045:0:0:0:0:
475,192,80887,128,0,81123:0:0:0:0:
109,192,81005,128,0,81084:0:0:0:0:
182,192,81045,128,0,81123:0:0:0:0:
256,192,81084,128,0,81163:0:0:0:0:
329,192,81123,128,0,81360:0:0:0:0:
36,192,81202,1,0,0:0:0:0:
475,192,81202,128,0,81439:0:0:0:0:
109,192,81202,128,0,81439:0:0:0:0:
402,192,81202,1,0,0:0:0:0:
256,192,81281,128,0,81439:0:0:0:0:
182,192,81360,1,0,0:0:0:0:
36,192,81360,128,0,81597:0:0:0:0:
329,192,81439,1,0,0:0:0:0:
475,192,81518,128,0,81597:0:0:0:0:
182,192,81518,128,0,81755:0:0:0:0:
109,192,81518,128,0,81597:0:0:0:0:
402,192,81518,128,0,81597:0:0:0:0:
256,192,81597,1,0,0:0:0:0:
475,192,81676,128,0,81755:0:0:0:0:
109,192,81676,128,0,81913:0:0:0:0:
36,192,81676,128,0,81755:0:0:0:0:
329,192,81755,1,0,0:0:0:0:
475,192,81834,128,0,81913:0:0:0:0:
256,192,81834,128,0,82071:0:0:0:0:
182,192,81834,128,0,81913:0:0:0:0:
402,192,81834,1,0,0:0:0:0:
329,192,81913,1,0,0:0:0:0:
36,192,81992,1,0,0:0:0:0:
182,192,81992,128,0,82229:0:0:0:0:
109,192,81992,128,0,82071:0:0:0:0:
475,192,81992,128,0,82229:0:0:0:0:
402,192,82071,1,0,0:0:0:0:
36,192,82150,128,0,82229:0:0:0:0:
256,192,82150,128,0,82229:0:0:0:0:
329,192,82150,128,0,82387:0:0:0:0:
109,192,82229,1,0,0:0:0:0:
475,192,82308,128,0,82387:0:0:0:0:
256,192,82308,128,0,82387:0:0:0:0:
182,192,82308,128,0,82545:0:0:0:0:
109,192,82387,1,0,0:0:0:0:
475,192,82466,128,0,82545:0:0:0:0:
329,192,82466,128,0,82545:0:0:0:0:
256,192,82466,128,0,82702:0:0:0:0:
36,192,82466,1,0,0:0:0:0:
402,192,82545,1,0,0:0:0:0:
475,192,82623,128,0,82702:0:0:0:0:
182,192,82623,128,0,82702:0:0:0:0:
109,192,82623,128,0,82860:0:0:0:0:
329,192,82702,1,0,0:0:0:0:
475,192,82781,128,0,82860:0:0:0:0:
182,192,82781,128,0,83018:0:0:0:0:
256,192,82781,128,0,82860:0:0:0:0:
36,192,82781,1,0,0:0:0:0:
402,192,82860,1,0,0:0:0:0:
475,192,82939,128,0,83018:0:0:0:0:
109,192,82939,128,0,83018:0:0:0:0:
36,192,82939,128,0,83176:0:0:0:0:
329,192,83018,1,0,0:0:0:0:
475,192,83097,128,0,83176:0:0:0:0:
109,192,83097,128,0,83176:0:0:0:0:
182,192,83097,128,0,83334:0:0:0:0:
256,192,83097,1,0,0:0:0:0:
402,192,83097,128,0,83176:0:0:0:0:
475,192,83255,128,0,83492:0:0:0:0:
256,192,83255,128,0,83334:0:0:0:0:
329,192,83255,128,0,83492:0:0:0:0:
36,192,83255,1,0,0:0:0:0:
109,192,83255,1,0,0:0:0:0:
402,192,83413,1,0,0:0:0:0:
182,192,83413,128,0,83492:0:0:0:0:
109,192,83413,128,0,83571:0:0:0:0:
36,192,83413,128,0,83650:0:0:0:0:
256,192,83492,1,0,0:0:0:0:
182,192,83571,1,0,0:0:0:0:
329,192,83571,128,0,83808:0:0:0:0:
109,192,83650,1,0,0:0:0:0:
36,192,83729,128,0,83966:0:0:0:0:
256,192,83729,128,0,83808:0:0:0:0:
475,192,83729,128,0,83887:0:0:0:0:
182,192,83729,128,0,83966:0:0:0:0:
402,192,83808,128,0,83966:0:0:0:0:
329,192,83887,128,0,84045:0:0:0:0:
109,192,83887,1,0,0:0:0:0:
475,192,83966,128,0,84045:0:0:0:0:
36,192,84045,128,0,84123:0:0:0:0:
256,192,84045,1,0,0:0:0:0:
182,192,84045,128,0,84281:0:0:0:0:
109,192,84045,128,0,84123:0:0:0:0:
402,192,84123,1,0,0:0:0:0:
36,192,84202,128,0,84281:0:0:0:0:
256,192,84202,128,0,84281:0:0:0:0:
329,192,84202,128,0,84439:0:0:0:0:
475,192,84281,1,0,0:0:0:0:
402,192,84360,128,0,84439:0:0:0:0:
256,192,84360,128,0,84597:0:0:0:0:
109,192,84360,1,0,0:0:0:0:
36,192,84360,128,0,84439:0:0:0:0:
182,192,84439,1,0,0:0:0:0:
475,192,84518,1,0,0:0:0:0:
329,192,84518,128,0,84597:0:0:0:0:
402,192,84518,128,0,84834:0:0:0:0:
36,192,84518,128,0,84755:0:0:0:0:
109,192,84597,1,0,0:0:0:0:
182,192,84676,128,0,84834:0:0:0:0:
256,192,84676,128,0,84755:0:0:0:0:
329,192,84676,1,0,0:0:0:0:
475,192,84676,1,0,0:0:0:0:
109,192,84834,1,0,0:0:0:0:
36,192,84834,128,0,84913:0:0:0:0:
329,192,84834,128,0,84913:0:0:0:0:
402,192,84913,1,0,0:0:0:0:
182,192,84913,128,0,85229:0:0:0:0:
475,192,84913,128,0,85071:0:0:0:0:
36,192,84992,128,0,85071:0:0:0:0:
109,192,84992,1,0,0:0:0:0:
329,192,84992,128,0,85071:0:0:0:0:
36,192,85150,128,0,85229:0:0:0:0:
256,192,85150,1,0,0:0:0:0:
329,192,85150,128,0,85229:0:0:0:0:
475,192,85150,128,0,85229:0:0:0:0:
36,192,85308,1,0,0:0:0:0:
109,192,85308,128,0,85387:0:0:0:0:
402,192,85308,128,0,85387:0:0:0:0:
329,192,85387,1,0,0:0:0:0:
182,192,85387,1,0,0:0:0:0:
256,192,85387,128,0,85466:0:0:0:0:
475,192,85466,1,0,0:0:0:0:
109,192,85466,128,0,85722:0:0:0:0:
402,192,85466,128,0,85722:0:0:0:0:
182,192,85623,128,0,85742:0:0:0:0:
256,192,85623,128,0,85781:0:0:0:0:
329,192,85623,128,0,85742:0:0:0:0:
36,192,85623,1,0,0:0:0:0:
475,192,85623,1,0,0:0:0:0:
36,192,85781,1,0,0:0:0:0:
36,192,85939,128,0,86018:0:0:0:0:
109,192,85939,128,0,86097:0:0:0:0:
182,192,85939,128,0,86176:0:0:0:0:
475,192,85939,1,0,0:0:0:0:
402,192,85939,1,0,0:0:0:0:
256,192,86018,128,0,86176:0:0:0:0:
329,192,86097,128,0,86176:0:0:0:0:
475,192,86097,1,0,0:0:0:0:
109,192,86176,1,0,0:0:0:0:
256,192,86255,1,0,0:0:0:0:
475,192,86255,128,0,86492:0:0:0:0:
329,192,86255,128,0,86492:0:0:0:0:
36,192,86255,128,0,86334:0:0:0:0:
182,192,86334,128,0,86413:0:0:0:0:
402,192,86413,1,0,0:0:0:0:
36,192,86413,128,0,86571:0:0:0:0:
182,192,86492,128,0,86650:0:0:0:0:
475,192,86571,128,0,86650:0:0:0:0:
402,192,86571,128,0,86650:0:0:0:0:
329,192,86571,128,0,86808:0:0:0:0:
256,192,86571,1,0,0:0:0:0:
109,192,86650,1,0,0:0:0:0:
256,192,86729,128,0,86808:0:0:0:0:
182,192,86729,128,0,86966:0:0:0:0:
475,192,86729,128,0,86808:0:0:0:0:
36,192,86808,1,0,0:0:0:0:
109,192,86887,128,0,86966:0:0:0:0:
256,192,86887,128,0,87123:0:0:0:0:
475,192,86887,128,0,86966:0:0:0:0:
402,192,86887,1,0,0:0:0:0:
329,192,86966,1,0,0:0:0:0:
36,192,87045,1,0,0:0:0:0:
182,192,87045,128,0,87123:0:0:0:0:
109,192,87045,128,0,87281:0:0:0:0:
475,192,87045,128,0,87281:0:0:0:0:
402,192,87123,1,0,0:0:0:0:
36,192,87202,128,0,87281:0:0:0:0:
182,192,87202,128,0,87439:0:0:0:0:
329,192,87202,128,0,87281:0:0:0:0:
256,192,87281,1,0,0:0:0:0:
109,192,87360,128,0,87597:0:0:0:0:
36,192,87360,128,0,87439:0:0:0:0:
475,192,87360,128,0,87439:0:0:0:0:
329,192,87439,1,0,0:0:0:0:
182,192,87518,128,0,87597:0:0:0:0:
256,192,87518,128,0,87755:0:0:0:0:
475,192,87518,128,0,87597:0:0:0:0:
402,192,87518,1,0,0:0:0:0:
36,192,87597,1,0,0:0:0:0:
109,192,87676,128,0,87755:0:0:0:0:
182,192,87676,128,0,87913:0:0:0:0:
475,192,87676,128,0,87755:0:0:0:0:
402,192,87755,1,0,0:0:0:0:
256,192,87834,128,0,87913:0:0:0:0:
329,192,87834,128,0,88071:0:0:0:0:
475,192,87834,128,0,87913:0:0:0:0:
36,192,87834,1,0,0:0:0:0:
109,192,87913,1,0,0:0:0:0:
182,192,87992,128,0,88071:0:0:0:0:
256,192,87992,128,0,88229:0:0:0:0:
475,192,87992,128,0,88071:0:0:0:0:
36,192,88071,1,0,0:0:0:0:
475,192,88150,128,0,88229:0:0:0:0:
402,192,88150,128,0,88229:0:0:0:0:
329,192,88150,1,0,0:0:0:0:
182,192,88150,128,0,88229:0:0:0:0:
109,192,88150,128,0,88387:0:0:0:0:
329,192,88308,128,0,88545:0:0:0:0:
475,192,88308,128,0,88545:0:0:0:0:
182,192,88308,128,0,88387:0:0:0:0:
256,192,88308,1,0,0:0:0:0:
36,192,88308,1,0,0:0:0:0:
256,192,88466,128,0,88545:0:0:0:0:
109,192,88466,128,0,88623:0:0:0:0:
36,192,88466,128,0,88702:0:0:0:0:
402,192,88466,1,0,0:0:0:0:
182,192,88545,1,0,0:0:0:0:
256,192,88623,1,0,0:0:0:0:
402,192,88623,128,0,88860:0:0:0:0:
109,192,88702,1,0,0:0:0:0:
475,192,88781,1,0,0:0:0:0:
182,192,88781,128,0,89018:0:0:0:0:
36,192,88781,128,0,89018:0:0:0:0:
329,192,88781,128,0,88939:0:0:0:0:
256,192,88860,1,0,0:0:0:0:
109,192,88939,1,0,0:0:0:0:
402,192,88939,128,0,89018:0:0:0:0:
329,192,89018,128,0,89097:0:0:0:0:
36,192,89097,128,0,89176:0:0:0:0:
475,192,89097,128,0,89334:0:0:0:0:
402,192,89097,128,0,89176:0:0:0:0:
256,192,89097,1,0,0:0:0:0:
109,192,89176,1,0,0:0:0:0:
36,192,89255,128,0,89334:0:0:0:0:
402,192,89255,128,0,89334:0:0:0:0:
329,192,89255,128,0,89492:0:0:0:0:
182,192,89334,1,0,0:0:0:0:
36,192,89413,128,0,89492:0:0:0:0:
256,192,89413,128,0,89492:0:0:0:0:
402,192,89413,128,0,89650:0:0:0:0:
109,192,89413,1,0,0:0:0:0:
182,192,89492,1,0,0:0:0:0:
475,192,89571,1,0,0:0:0:0:
36,192,89571,128,0,89808:0:0:0:0:
256,192,89571,128,0,89788:0:0:0:0:
329,192,89571,128,0,89650:0:0:0:0:
109,192,89650,1,0,0:0:0:0:
329,192,89729,128,0,89808:0:0:0:0:
182,192,89729,1,0,0:0:0:0:
402,192,89748,128,0,89827:0:0:0:0:
475,192,89768,128,0,89847:0:0:0:0:
109,192,89887,128,0,89966:0:0:0:0:
182,192,89887,128,0,89966:0:0:0:0:
329,192,89966,1,0,0:0:0:0:
402,192,89966,1,0,0:0:0:0:
109,192,90045,128,0,90123:0:0:0:0:
36,192,90045,128,0,90123:0:0:0:0:
402,192,90123,1,0,0:0:0:0:
475,192,90123,1,0,0:0:0:0:
36,192,90202,1,0,0:0:0:0:
329,192,90202,128,0,90281:0:0:0:0:
182,192,90202,128,0,90281:0:0:0:0:
256,192,90202,128,0,90281:0:0:0:0:
256,192,90360,128,0,90439:0:0:0:0:
402,192,90380,128,0,90459:0:0:0:0:
475,192,90400,128,0,90479:0:0:0:0:
36,192,90439,1,0,0:0:0:0:
109,192,90439,1,0,0:0:0:0:
329,192,90518,128,0,90597:0:0:0:0:
402,192,90518,128,0,90597:0:0:0:0:
182,192,90518,1,0,0:0:0:0:
109,192,90597,1,0,0:0:0:0:
36,192,90597,1,0,0:0:0:0:
329,192,90676,1,0,0:0:0:0:
256,192,90676,1,0,0:0:0:0:
109,192,90755,1,0,0:0:0:0:
182,192,90755,1,0,0:0:0:0:
256,192,90834,1,0,0:0:0:0:
329,192,90873,1,0,0:0:0:0:
402,192,90913,1,0,0:0:0:0:
475,192,90952,128,0,91150:0:0:0:0:
182,192,90992,128,0,91110:0:0:0:0:
256,192,90992,128,0,91071:0:0:0:0:
109,192,90992,128,0,91150:0:0:0:0:
36,192,90992,128,0,91229:0:0:0:0:
402,192,91110,128,0,91189:0:0:0:0:
329,192,91150,128,0,91229:0:0:0:0:
256,192,91189,128,0,91268:0:0:0:0:
182,192,91229,128,0,91466:0:0:0:0:
475,192,91308,1,0,0:0:0:0:
36,192,91308,128,0,91545:0:0:0:0:
402,192,91308,128,0,91545:0:0:0:0:
109,192,91308,1,0,0:0:0:0:
256,192,91387,128,0,91545:0:0:0:0:
329,192,91466,1,0,0:0:0:0:
475,192,91466,128,0,91702:0:0:0:0:
182,192,91545,1,0,0:0:0:0:
36,192,91623,128,0,91702:0:0:0:0:
329,192,91623,128,0,91860:0:0:0:0:
402,192,91623,128,0,91702:0:0:0:0:
109,192,91623,128,0,91702:0:0:0:0:
256,192,91702,1,0,0:0:0:0:
36,192,91781,128,0,91860:0:0:0:0:
402,192,91781,128,0,92018:0:0:0:0:
475,192,91781,128,0,91860:0:0:0:0:
182,192,91860,1,0,0:0:0:0:
36,192,91939,128,0,92018:0:0:0:0:
256,192,91939,128,0,92176:0:0:0:0:
329,192,91939,128,0,92018:0:0:0:0:
109,192,91939,1,0,0:0:0:0:
182,192,92018,1,0,0:0:0:0:
475,192,92097,1,0,0:0:0:0:
329,192,92097,128,0,92334:0:0:0:0:
402,192,92097,128,0,92176:0:0:0:0:
36,192,92097,128,0,92334:0:0:0:0:
109,192,92176,1,0,0:0:0:0:
475,192,92255,128,0,92334:0:0:0:0:
256,192,92255,128,0,92334:0:0:0:0:
182,192,92255,128,0,92492:0:0:0:0:
402,192,92334,1,0,0:0:0:0:
36,192,92413,128,0,92492:0:0:0:0:
256,192,92413,128,0,92492:0:0:0:0:
329,192,92413,128,0,92650:0:0:0:0:
402,192,92492,1,0,0:0:0:0:
36,192,92571,128,0,92650:0:0:0:0:
182,192,92571,128,0,92650:0:0:0:0:
256,192,92571,128,0,92808:0:0:0:0:
475,192,92571,1,0,0:0:0:0:
109,192,92650,1,0,0:0:0:0:
36,192,92729,128,0,92808:0:0:0:0:
329,192,92729,128,0,92808:0:0:0:0:
402,192,92729,128,0,92966:0:0:0:0:
182,192,92808,1,0,0:0:0:0:
36,192,92887,128,0,92966:0:0:0:0:
329,192,92887,128,0,93123:0:0:0:0:
256,192,92887,128,0,92966:0:0:0:0:
475,192,92887,1,0,0:0:0:0:
109,192,92966,1,0,0:0:0:0:
36,192,93045,128,0,93123:0:0:0:0:
402,192,93045,128,0,93123:0:0:0:0:
475,192,93045,128,0,93281:0:0:0:0:
182,192,93123,1,0,0:0:0:0:
36,192,93202,128,0,93281:0:0:0:0:
402,192,93202,128,0,93281:0:0:0:0:
329,192,93202,128,0,93439:0:0:0:0:
256,192,93202,1,0,0:0:0:0:
109,192,93202,128,0,93281:0:0:0:0:
36,192,93360,128,0,93597:0:0:0:0:
256,192,93360,128,0,93439:0:0:0:0:
182,192,93360,128,0,93597:0:0:0:0:
475,192,93360,1,0,0:0:0:0:
402,192,93360,1,0,0:0:0:0:
109,192,93518,1,0,0:0:0:0:
329,192,93518,128,0,93597:0:0:0:0:
402,192,93518,128,0,93676:0:0:0:0:
475,192,93518,128,0,93755:0:0:0:0:
256,192,93597,1,0,0:0:0:0:
329,192,93676,1,0,0:0:0:0:
182,192,93676,128,0,93913:0:0:0:0:
402,192,93755,1,0,0:0:0:0:
475,192,93834,128,0,94071:0:0:0:0:
256,192,93834,128,0,93913:0:0:0:0:
36,192,93834,128,0,93992:0:0:0:0:
329,192,93834,128,0,94071:0:0:0:0:
109,192,93913,128,0,94071:0:0:0:0:
182,192,93992,128,0,94150:0:0:0:0:
402,192,93992,1,0,0:0:0:0:
36,192,94071,128,0,94150:0:0:0:0:
475,192,94150,128,0,94229:0:0:0:0:
256,192,94150,1,0,0:0:0:0:
329,192,94150,128,0,94387:0:0:0:0:
402,192,94150,128,0,94229:0:0:0:0:
109,192,94229,1,0,0:0:0:0:
475,192,94308,128,0,94387:0:0:0:0:
256,192,94308,128,0,94387:0:0:0:0:
182,192,94308,128,0,94545:0:0:0:0:
36,192,94387,1,0,0:0:0:0:
109,192,94466,128,0,94545:0:0:0:0:
256,192,94466,128,0,94702:0:0:0:0:
402,192,94466,1,0,0:0:0:0:
475,192,94466,128,0,94545:0:0:0:0:
329,192,94545,1,0,0:0:0:0:
36,192,94623,1,0,0:0:0:0:
182,192,94623,128,0,94702:0:0:0:0:
109,192,94623,128,0,94939:0:0:0:0:
475,192,94623,128,0,94860:0:0:0:0:
402,192,94702,1,0,0:0:0:0:
329,192,94781,128,0,94939:0:0:0:0:
256,192,94781,128,0,94860:0:0:0:0:
182,192,94781,1,0,0:0:0:0:
36,192,94781,1,0,0:0:0:0:
402,192,94939,1,0,0:0:0:0:
475,192,94939,128,0,95018:0:0:0:0:
182,192,94939,128,0,95018:0:0:0:0:
109,192,95018,1,0,0:0:0:0:
329,192,95018,128,0,95334:0:0:0:0:
36,192,95018,128,0,95176:0:0:0:0:
475,192,95097,128,0,95176:0:0:0:0:
402,192,95097,1,0,0:0:0:0:
182,192,95097,128,0,95176:0:0:0:0:
475,192,95255,128,0,95334:0:0:0:0:
256,192,95255,1,0,0:0:0:0:
182,192,95255,128,0,95334:0:0:0:0:
36,192,95255,128,0,95334:0:0:0:0:
475,192,95413,1,0,0:0:0:0:
402,192,95413,128,0,95492:0:0:0:0:
109,192,95413,128,0,95492:0:0:0:0:
182,192,95492,1,0,0:0:0:0:
329,192,95492,1,0,0:0:0:0:
256,192,95492,128,0,95571:0:0:0:0:
36,192,95571,1,0,0:0:0:0:
402,192,95571,128,0,95827:0:0:0:0:
109,192,95571,128,0,95827:0:0:0:0:
329,192,95729,128,0,95847:0:0:0:0:
256,192,95729,128,0,95887:0:0:0:0:
182,192,95729,128,0,95847:0:0:0:0:
475,192,95729,1,0,0:0:0:0:
36,192,95729,1,0,0:0:0:0:
475,192,95887,1,0,0:0:0:0:
475,192,96045,128,0,96123:0:0:0:0:
402,192,96045,128,0,96202:0:0:0:0:
329,192,96045,128,0,96281:0:0:0:0:
36,192,96045,1,0,0:0:0:0:
109,192,96045,1,0,0:0:0:0:
256,192,96123,128,0,96281:0:0:0:0:
182,192,96202,128,0,96281:0:0:0:0:
36,192,96202,1,0,0:0:0:0:
36,192,96360,128,0,96597:0:0:0:0:
182,192,96360,128,0,96597:0:0:0:0:
475,192,96360,128,0,96439:0:0:0:0:
109,192,96360,1,0,0:0:0:0:
402,192,96360,128,0,96518:0:0:0:0:
329,192,96439,128,0,96676:0:0:0:0:
475,192,96518,128,0,96755:0:0:0:0:
256,192,96518,1,0,0:0:0:0:
36,192,96676,128,0,96755:0:0:0:0:
109,192,96676,128,0,96755:0:0:0:0:
182,192,96676,128,0,96913:0:0:0:0:
402,192,96676,1,0,0:0:0:0:
256,192,96834,128,0,96913:0:0:0:0:
329,192,96834,128,0,97071:0:0:0:0:
36,192,96834,128,0,96913:0:0:0:0:
402,192,96992,128,0,97071:0:0:0:0:
256,192,96992,128,0,97229:0:0:0:0:
36,192,96992,128,0,97071:0:0:0:0:
109,192,96992,1,0,0:0:0:0:
475,192,96992,1,0,0:0:0:0:
329,192,97150,128,0,97229:0:0:0:0:
402,192,97150,128,0,97387:0:0:0:0:
36,192,97150,128,0,97387:0:0:0:0:
475,192,97308,128,0,97387:0:0:0:0:
329,192,97308,128,0,97545:0:0:0:0:
182,192,97308,128,0,97387:0:0:0:0:
402,192,97466,128,0,97702:0:0:0:0:
475,192,97466,128,0,97545:0:0:0:0:
36,192,97466,128,0,97545:0:0:0:0:
182,192,97623,1,0,0:0:0:0:
329,192,97623,128,0,97702:0:0:0:0:
256,192,97623,128,0,97860:0:0:0:0:
36,192,97623,128,0,97702:0:0:0:0:
109,192,97623,1,0,0:0:0:0:
402,192,97781,128,0,97860:0:0:0:0:
329,192,97781,128,0,98018:0:0:0:0:
36,192,97781,128,0,97860:0:0:0:0:
256,192,97939,128,0,98018:0:0:0:0:
182,192,97939,128,0,98176:0:0:0:0:
36,192,97939,128,0,98018:0:0:0:0:
475,192,97939,1,0,0:0:0:0:
329,192,98097,128,0,98176:0:0:0:0:
256,192,98097,128,0,98334:0:0:0:0:
36,192,98097,128,0,98176:0:0:0:0:
36,192,98255,128,0,98334:0:0:0:0:
109,192,98255,128,0,98334:0:0:0:0:
329,192,98255,128,0,98334:0:0:0:0:
402,192,98255,128,0,98492:0:0:0:0:
475,192,98255,1,0,0:0:0:0:
182,192,98413,128,0,98650:0:0:0:0:
36,192,98413,128,0,98650:0:0:0:0:
329,192,98413,128,0,98492:0:0:0:0:
475,192,98413,128,0,98492:0:0:0:0:
256,192,98571,128,0,98650:0:0:0:0:
402,192,98571,128,0,98729:0:0:0:0:
475,192,98571,128,0,98808:0:0:0:0:
109,192,98571,1,0,0:0:0:0:
109,192,98729,128,0,98966:0:0:0:0:
329,192,98887,128,0,99123:0:0:0:0:
475,192,98887,128,0,99123:0:0:0:0:
182,192,98887,128,0,99123:0:0:0:0:
109,192,99045,128,0,99281:0:0:0:0:
475,192,99202,128,0,99281:0:0:0:0:
36,192,99202,128,0,99439:0:0:0:0:
256,192,99202,1,0,0:0:0:0:
329,192,99202,1,0,0:0:0:0:
475,192,99360,128,0,99439:0:0:0:0:
109,192,99360,128,0,99439:0:0:0:0:
182,192,99360,128,0,99597:0:0:0:0:
329,192,99360,1,0,0:0:0:0:
475,192,99518,128,0,99597:0:0:0:0:
109,192,99518,128,0,99755:0:0:0:0:
329,192,99518,1,0,0:0:0:0:
475,192,99676,128,0,99913:0:0:0:0:
256,192,99676,128,0,99913:0:0:0:0:
182,192,99676,128,0,99755:0:0:0:0:
402,192,99676,1,0,0:0:0:0:
36,192,99834,128,0,99913:0:0:0:0:
182,192,99992,128,0,100031:0:0:0:0:
329,192,100071,128,0,100110:0:0:0:0:
182,192,100150,128,0,100189:0:0:0:0:
329,192,100229,128,0,100268:0:0:0:0:
109,192,100308,128,0,100367:0:0:0:0:
182,192,100308,128,0,100367:0:0:0:0:
402,192,100387,128,0,100446:0:0:0:0:
329,192,100387,128,0,100446:0:0:0:0:
475,192,100466,1,0,0:0:0:0:
182,192,100466,128,0,100545:0:0:0:0:
109,192,100466,128,0,100545:0:0:0:0:
36,192,100466,128,0,100545:0:0:0:0:
256,192,100466,128,0,100545:0:0:0:0:
36,192,100623,1,0,0:0:0:0:
329,192,100623,128,0,100702:0:0:0:0:
402,192,100623,128,0,100702:0:0:0:0:
475,192,100623,128,0,100702:0:0:0:0:
256,192,100623,128,0,100702:0:0:0:0:
475,192,100781,1,0,0:0:0:0:
109,192,100781,128,0,100860:0:0:0:0:
36,192,100781,128,0,100860:0:0:0:0:
182,192,100781,128,0,100860:0:0:0:0:
256,192,100781,128,0,101018:0:0:0:0:
36,192,101097,1,0,0:0:0:0:
182,192,101097,1,0,0:0:0:0:
329,192,101097,128,0,101176:0:0:0:0:
402,192,101097,128,0,101216:0:0:0:0:
475,192,101097,128,0,101255:0:0:0:0:
109,192,101176,1,0,0:0:0:0:
182,192,101216,1,0,0:0:0:0:
256,192,101235,1,0,0:0:0:0:
329,192,101255,1,0,0:0:0:0:
402,192,101295,1,0,0:0:0:0:
109,192,101334,1,0,0:0:0:0:
256,192,101413,1,0,0:0:0:0:
182,192,101413,1,0,0:0:0:0:
36,192,101413,1,0,0:0:0:0:
475,192,101413,1,0,0:0:0:0:
329,192,101492,1,0,0:0:0:0:
109,192,101492,1,0,0:0:0:0:
182,192,101571,1,0,0:0:0:0:
475,192,101571,1,0,0:0:0:0:
402,192,101571,1,0,0:0:0:0:
256,192,101650,1,0,0:0:0:0:
36,192,101650,1,0,0:0:0:0:
182,192,101729,1,0,0:0:0:0:
109,192,101729,1,0,0:0:0:0:
329,192,101729,1,0,0:0:0:0:
475,192,101729,1,0,0:0:0:0:
402,192,101808,1,0,0:0:0:0:
36,192,101808,1,0,0:0:0:0:
182,192,101887,1,0,0:0:0:0:
256,192,101887,1,0,0:0:0:0:
475,192,101887,1,0,0:0:0:0:
402,192,101966,1,0,0:0:0:0:
329,192,101966,1,0,0:0:0:0:
109,192,101966,1,0,0:0:0:0:
256,192,102045,1,0,0:0:0:0:
182,192,102045,1,0,0:0:0:0:
36,192,102045,1,0,0:0:0:0:
475,192,102045,1,0,0:0:0:0:
329,192,102123,1,0,0:0:0:0:
109,192,102123,1,0,0:0:0:0:
182,192,102202,1,0,0:0:0:0:
36,192,102202,1,0,0:0:0:0:
402,192,102202,1,0,0:0:0:0:
256,192,102281,1,0,0:0:0:0:
475,192,102281,1,0,0:0:0:0:
109,192,102281,1,0,0:0:0:0:
182,192,102360,1,0,0:0:0:0:
36,192,102360,1,0,0:0:0:0:
329,192,102360,1,0,0:0:0:0:
402,192,102360,1,0,0:0:0:0:
256,192,102439,1,0,0:0:0:0:
475,192,102439,1,0,0:0:0:0:
329,192,102518,1,0,0:0:0:0:
109,192,102518,1,0,0:0:0:0:
36,192,102518,1,0,0:0:0:0:
256,192,102597,1,0,0:0:0:0:
182,192,102597,1,0,0:0:0:0:
402,192,102676,1,0,0:0:0:0:
109,192,102676,1,0,0:0:0:0:
36,192,102676,1,0,0:0:0:0:
475,192,102676,1,0,0:0:0:0:
256,192,102755,1,0,0:0:0:0:
329,192,102755,1,0,0:0:0:0:
475,192,102834,1,0,0:0:0:0:
109,192,102834,1,0,0:0:0:0:
402,192,102834,1,0,0:0:0:0:
182,192,102913,1,0,0:0:0:0:
329,192,102913,1,0,0:0:0:0:
109,192,102992,1,0,0:0:0:0:
36,192,102992,1,0,0:0:0:0:
402,192,102992,1,0,0:0:0:0:
475,192,102992,1,0,0:0:0:0:
256,192,102992,1,0,0:0:0:0:
329,192,103071,1,0,0:0:0:0:
182,192,103071,1,0,0:0:0:0:
109,192,103150,1,0,0:0:0:0:
256,192,103150,1,0,0:0:0:0:
475,192,103150,1,0,0:0:0:0:
36,192,103229,1,0,0:0:0:0:
329,192,103308,1,0,0:0:0:0:
475,192,103308,1,0,0:0:0:0:
182,192,103308,1,0,0:0:0:0:
402,192,103308,1,0,0:0:0:0:
256,192,103426,128,0,103623:0:0:0:0:
182,192,103466,1,0,0:0:0:0:
109,192,103466,1,0,0:0:0:0:
36,192,103466,1,0,0:0:0:0:
329,192,103466,1,0,0:0:0:0:
182,192,103623,1,0,0:0:0:0:
109,192,103623,1,0,0:0:0:0:
36,192,103623,1,0,0:0:0:0:
475,192,103623,1,0,0:0:0:0:
256,192,103702,1,0,0:0:0:0:
402,192,103702,1,0,0:0:0:0:
329,192,103781,1,0,0:0:0:0:
109,192,103781,1,0,0:0:0:0:
36,192,103781,1,0,0:0:0:0:
182,192,103860,1,0,0:0:0:0:
402,192,103860,1,0,0:0:0:0:
256,192,103860,1,0,0:0:0:0:
329,192,103939,1,0,0:0:0:0:
475,192,103939,1,0,0:0:0:0:
109,192,103939,1,0,0:0:0:0:
36,192,103939,1,0,0:0:0:0:
256,192,104018,1,0,0:0:0:0:
182,192,104018,1,0,0:0:0:0:
329,192,104097,1,0,0:0:0:0:
109,192,104097,1,0,0:0:0:0:
475,192,104097,1,0,0:0:0:0:
402,192,104176,1,0,0:0:0:0:
182,192,104176,1,0,0:0:0:0:
256,192,104255,1,0,0:0:0:0:
329,192,104255,1,0,0:0:0:0:
475,192,104255,1,0,0:0:0:0:
36,192,104255,1,0,0:0:0:0:
402,192,104334,1,0,0:0:0:0:
109,192,104334,1,0,0:0:0:0:
182,192,104413,1,0,0:0:0:0:
329,192,104413,1,0,0:0:0:0:
256,192,104413,1,0,0:0:0:0:
402,192,104492,1,0,0:0:0:0:
109,192,104492,1,0,0:0:0:0:
36,192,104492,1,0,0:0:0:0:
182,192,104571,1,0,0:0:0:0:
256,192,104571,1,0,0:0:0:0:
329,192,104571,1,0,0:0:0:0:
475,192,104571,1,0,0:0:0:0:
402,192,104650,1,0,0:0:0:0:
36,192,104650,1,0,0:0:0:0:
109,192,104729,1,0,0:0:0:0:
182,192,104729,1,0,0:0:0:0:
475,192,104729,1,0,0:0:0:0:
402,192,104808,1,0,0:0:0:0:
329,192,104808,1,0,0:0:0:0:
256,192,104808,1,0,0:0:0:0:
182,192,104887,1,0,0:0:0:0:
36,192,104887,1,0,0:0:0:0:
475,192,104887,1,0,0:0:0:0:
109,192,104887,1,0,0:0:0:0:
329,192,104966,1,0,0:0:0:0:
109,192,104966,1,0,0:0:0:0:
182,192,105045,1,0,0:0:0:0:
402,192,105045,1,0,0:0:0:0:
475,192,105045,1,0,0:0:0:0:
329,192,105123,1,0,0:0:0:0:
109,192,105123,1,0,0:0:0:0:
402,192,105123,1,0,0:0:0:0:
256,192,105202,1,0,0:0:0:0:
182,192,105202,1,0,0:0:0:0:
475,192,105202,1,0,0:0:0:0:
36,192,105202,1,0,0:0:0:0:
329,192,105360,1,0,0:0:0:0:
475,192,105360,1,0,0:0:0:0:
256,192,105360,1,0,0:0:0:0:
36,192,105360,1,0,0:0:0:0:
182,192,105518,1,0,0:0:0:0:
109,192,105518,1,0,0:0:0:0:
36,192,105518,1,0,0:0:0:0:
329,192,105597,1,0,0:0:0:0:
402,192,105597,1,0,0:0:0:0:
475,192,105597,1,0,0:0:0:0:
182,192,105676,1,0,0:0:0:0:
109,192,105676,1,0,0:0:0:0:
36,192,105676,1,0,0:0:0:0:
329,192,105834,1,0,0:0:0:0:
256,192,105834,1,0,0:0:0:0:
182,192,105834,1,0,0:0:0:0:
109,192,105834,1,0,0:0:0:0:
402,192,105834,1,0,0:0:0:0:
256,192,105992,1,0,0:0:0:0:
475,192,105992,1,0,0:0:0:0:
256,192,106150,1,0,0:0:0:0:
402,192,106150,1,0,0:0:0:0:
475,192,106150,1,0,0:0:0:0:
36,192,106150,1,0,0:0:0:0:
329,192,106229,1,0,0:0:0:0:
109,192,106229,1,0,0:0:0:0:
182,192,106308,1,0,0:0:0:0:
36,192,106308,1,0,0:0:0:0:
402,192,106308,1,0,0:0:0:0:
256,192,106387,1,0,0:0:0:0:
329,192,106387,1,0,0:0:0:0:
475,192,106387,1,0,0:0:0:0:
402,192,106466,1,0,0:0:0:0:
182,192,106466,1,0,0:0:0:0:
109,192,106466,1,0,0:0:0:0:
36,192,106466,1,0,0:0:0:0:
256,192,106545,1,0,0:0:0:0:
475,192,106545,1,0,0:0:0:0:
329,192,106623,1,0,0:0:0:0:
182,192,106623,1,0,0:0:0:0:
36,192,106623,1,0,0:0:0:0:
109,192,106702,1,0,0:0:0:0:
402,192,106702,1,0,0:0:0:0:
329,192,106781,1,0,0:0:0:0:
256,192,106781,1,0,0:0:0:0:
182,192,106781,1,0,0:0:0:0:
475,192,106781,1,0,0:0:0:0:
402,192,106860,1,0,0:0:0:0:
109,192,106860,1,0,0:0:0:0:
36,192,106939,1,0,0:0:0:0:
256,192,106939,1,0,0:0:0:0:
475,192,106939,1,0,0:0:0:0:
182,192,107018,1,0,0:0:0:0:
109,192,107018,1,0,0:0:0:0:
402,192,107018,1,0,0:0:0:0:
329,192,107097,1,0,0:0:0:0:
256,192,107097,1,0,0:0:0:0:
475,192,107097,1,0,0:0:0:0:
36,192,107097,1,0,0:0:0:0:
402,192,107176,1,0,0:0:0:0:
182,192,107176,1,0,0:0:0:0:
329,192,107255,1,0,0:0:0:0:
109,192,107255,1,0,0:0:0:0:
36,192,107255,1,0,0:0:0:0:
256,192,107334,1,0,0:0:0:0:
182,192,107334,1,0,0:0:0:0:
475,192,107334,1,0,0:0:0:0:
402,192,107413,1,0,0:0:0:0:
329,192,107413,1,0,0:0:0:0:
109,192,107413,1,0,0:0:0:0:
36,192,107413,1,0,0:0:0:0:
256,192,107492,1,0,0:0:0:0:
475,192,107492,1,0,0:0:0:0:
182,192,107571,1,0,0:0:0:0:
36,192,107571,1,0,0:0:0:0:
402,192,107571,1,0,0:0:0:0:
109,192,107650,1,0,0:0:0:0:
329,192,107650,1,0,0:0:0:0:
182,192,107729,1,0,0:0:0:0:
475,192,107729,1,0,0:0:0:0:
402,192,107729,1,0,0:0:0:0:
256,192,107729,1,0,0:0:0:0:
329,192,107808,1,0,0:0:0:0:
109,192,107808,1,0,0:0:0:0:
256,192,107887,1,0,0:0:0:0:
475,192,107887,1,0,0:0:0:0:
36,192,107887,1,0,0:0:0:0:
109,192,107966,1,0,0:0:0:0:
402,192,107966,1,0,0:0:0:0:
256,192,108045,1,0,0:0:0:0:
36,192,108045,1,0,0:0:0:0:
475,192,108045,1,0,0:0:0:0:
329,192,108064,1,0,0:0:0:0:
182,192,108064,1,0,0:0:0:0:
402,192,108123,1,0,0:0:0:0:
109,192,108123,1,0,0:0:0:0:
182,192,108202,1,0,0:0:0:0:
36,192,108202,1,0,0:0:0:0:
329,192,108202,1,0,0:0:0:0:
402,192,108281,1,0,0:0:0:0:
256,192,108360,1,0,0:0:0:0:
109,192,108360,1,0,0:0:0:0:
36,192,108360,1,0,0:0:0:0:
475,192,108360,1,0,0:0:0:0:
402,192,108479,128,0,108676:0:0:0:0:
36,192,108518,1,0,0:0:0:0:
329,192,108518,1,0,0:0:0:0:
256,192,108518,1,0,0:0:0:0:
182,192,108518,1,0,0:0:0:0:
182,192,108676,1,0,0:0:0:0:
256,192,108676,1,0,0:0:0:0:
329,192,108676,1,0,0:0:0:0:
475,192,108676,1,0,0:0:0:0:
109,192,108755,1,0,0:0:0:0:
36,192,108755,1,0,0:0:0:0:
256,192,108834,1,0,0:0:0:0:
402,192,108834,1,0,0:0:0:0:
475,192,108834,1,0,0:0:0:0:
329,192,108913,1,0,0:0:0:0:
182,192,108913,1,0,0:0:0:0:
109,192,108913,1,0,0:0:0:0:
256,192,108992,1,0,0:0:0:0:
36,192,108992,1,0,0:0:0:0:
402,192,108992,1,0,0:0:0:0:
475,192,108992,1,0,0:0:0:0:
329,192,109071,1,0,0:0:0:0:
109,192,109071,1,0,0:0:0:0:
36,192,109150,1,0,0:0:0:0:
182,192,109150,1,0,0:0:0:0:
475,192,109150,1,0,0:0:0:0:
402,192,109229,1,0,0:0:0:0:
256,192,109229,1,0,0:0:0:0:
329,192,109308,1,0,0:0:0:0:
182,192,109308,1,0,0:0:0:0:
109,192,109308,1,0,0:0:0:0:
36,192,109308,1,0,0:0:0:0:
475,192,109387,1,0,0:0:0:0:
256,192,109387,1,0,0:0:0:0:
329,192,109466,1,0,0:0:0:0:
109,192,109466,1,0,0:0:0:0:
36,192,109466,1,0,0:0:0:0:
402,192,109545,1,0,0:0:0:0:
475,192,109545,1,0,0:0:0:0:
182,192,109545,1,0,0:0:0:0:
109,192,109623,1,0,0:0:0:0:
36,192,109623,1,0,0:0:0:0:
256,192,109623,1,0,0:0:0:0:
329,192,109623,1,0,0:0:0:0:
182,192,109702,1,0,0:0:0:0:
402,192,109702,1,0,0:0:0:0:
256,192,109781,1,0,0:0:0:0:
109,192,109781,1,0,0:0:0:0:
475,192,109781,1,0,0:0:0:0:
329,192,109860,1,0,0:0:0:0:
402,192,109860,1,0,0:0:0:0:
182,192,109860,1,0,0:0:0:0:
109,192,109939,1,0,0:0:0:0:
36,192,109939,1,0,0:0:0:0:
475,192,109939,1,0,0:0:0:0:
256,192,109939,1,0,0:0:0:0:
402,192,109992,1,0,0:0:0:0:
329,192,110045,1,0,0:0:0:0:
256,192,110097,1,0,0:0:0:0:
475,192,110097,1,0,0:0:0:0:
182,192,110150,1,0,0:0:0:0:
402,192,110176,1,0,0:0:0:0:
109,192,110202,1,0,0:0:0:0:
36,192,110255,1,0,0:0:0:0:
256,192,110255,1,0,0:0:0:0:
329,192,110281,1,0,0:0:0:0:
109,192,110308,1,0,0:0:0:0:
402,192,110308,1,0,0:0:0:0:
475,192,110334,1,0,0:0:0:0:
182,192,110360,1,0,0:0:0:0:
36,192,110413,1,0,0:0:0:0:
256,192,110413,1,0,0:0:0:0:
329,192,110466,1,0,0:0:0:0:
109,192,110492,1,0,0:0:0:0:
402,192,110518,1,0,0:0:0:0:
182,192,110571,1,0,0:0:0:0:
475,192,110571,1,0,0:0:0:0:
329,192,110650,1,0,0:0:0:0:
182,192,110729,1,0,0:0:0:0:
475,192,110729,1,0,0:0:0:0:
109,192,110729,1,0,0:0:0:0:
36,192,110729,1,0,0:0:0:0:
329,192,110808,1,0,0:0:0:0:
402,192,110808,1,0,0:0:0:0:
182,192,110887,1,0,0:0:0:0:
475,192,110887,1,0,0:0:0:0:
329,192,110966,1,0,0:0:0:0:
109,192,111045,1,0,0:0:0:0:
256,192,111084,1,0,0:0:0:0:
329,192,111123,1,0,0:0:0:0:
402,192,111163,1,0,0:0:0:0:
475,192,111202,1,0,0:0:0:0:
109,192,111202,128,0,111321:0:0:0:0:
36,192,111202,128,0,111360:0:0:0:0:
182,192,111202,128,0,111281:0:0:0:0:
402,192,111281,1,0,0:0:0:0:
329,192,111321,1,0,0:0:0:0:
256,192,111341,1,0,0:0:0:0:
182,192,111360,1,0,0:0:0:0:
109,192,111400,1,0,0:0:0:0:
402,192,111439,1,0,0:0:0:0:
256,192,111518,1,0,0:0:0:0:
182,192,111518,1,0,0:0:0:0:
36,192,111518,1,0,0:0:0:0:
475,192,111518,1,0,0:0:0:0:
329,192,111597,1,0,0:0:0:0:
182,192,111676,1,0,0:0:0:0:
109,192,111676,1,0,0:0:0:0:
402,192,111676,1,0,0:0:0:0:
475,192,111676,1,0,0:0:0:0:
329,192,111755,1,0,0:0:0:0:
36,192,111755,1,0,0:0:0:0:
256,192,111834,1,0,0:0:0:0:
182,192,111834,1,0,0:0:0:0:
109,192,111834,1,0,0:0:0:0:
475,192,111834,1,0,0:0:0:0:
402,192,111834,1,0,0:0:0:0:
329,192,111913,1,0,0:0:0:0:
182,192,111992,1,0,0:0:0:0:
36,192,111992,1,0,0:0:0:0:
402,192,111992,1,0,0:0:0:0:
256,192,112071,1,0,0:0:0:0:
475,192,112071,1,0,0:0:0:0:
109,192,112071,1,0,0:0:0:0:
36,192,112150,1,0,0:0:0:0:
329,192,112150,1,0,0:0:0:0:
402,192,112150,1,0,0:0:0:0:
182,192,112150,1,0,0:0:0:0:
256,192,112229,1,0,0:0:0:0:
109,192,112308,1,0,0:0:0:0:
36,192,112308,1,0,0:0:0:0:
402,192,112308,1,0,0:0:0:0:
475,192,112308,1,0,0:0:0:0:
329,192,112387,1,0,0:0:0:0:
182,192,112387,1,0,0:0:0:0:
109,192,112466,1,0,0:0:0:0:
36,192,112466,1,0,0:0:0:0:
256,192,112466,1,0,0:0:0:0:
402,192,112466,1,0,0:0:0:0:
475,192,112466,1,0,0:0:0:0:
182,192,112545,1,0,0:0:0:0:
109,192,112623,1,0,0:0:0:0:
329,192,112623,1,0,0:0:0:0:
475,192,112623,1,0,0:0:0:0:
182,192,112702,1,0,0:0:0:0:
402,192,112702,1,0,0:0:0:0:
256,192,112702,1,0,0:0:0:0:
329,192,112781,1,0,0:0:0:0:
475,192,112781,1,0,0:0:0:0:
109,192,112781,1,0,0:0:0:0:
36,192,112781,1,0,0:0:0:0:
256,192,112860,1,0,0:0:0:0:
182,192,112939,1,0,0:0:0:0:
109,192,112939,1,0,0:0:0:0:
475,192,112939,1,0,0:0:0:0:
402,192,112939,1,0,0:0:0:0:
329,192,113018,1,0,0:0:0:0:
36,192,113018,1,0,0:0:0:0:
182,192,113097,1,0,0:0:0:0:
402,192,113097,1,0,0:0:0:0:
475,192,113097,1,0,0:0:0:0:
256,192,113117,1,0,0:0:0:0:
109,192,113117,1,0,0:0:0:0:
329,192,113176,1,0,0:0:0:0:
36,192,113176,1,0,0:0:0:0:
182,192,113255,1,0,0:0:0:0:
402,192,113255,1,0,0:0:0:0:
109,192,113334,1,0,0:0:0:0:
329,192,113334,1,0,0:0:0:0:
475,192,113413,1,0,0:0:0:0:
402,192,113413,1,0,0:0:0:0:
36,192,113413,1,0,0:0:0:0:
256,192,113413,1,0,0:0:0:0:
109,192,113531,128,0,113729:0:0:0:0:
256,192,113571,1,0,0:0:0:0:
329,192,113571,1,0,0:0:0:0:
475,192,113571,1,0,0:0:0:0:
182,192,113571,1,0,0:0:0:0:
402,192,113650,1,0,0:0:0:0:
256,192,113729,1,0,0:0:0:0:
329,192,113729,1,0,0:0:0:0:
475,192,113729,1,0,0:0:0:0:
182,192,113729,1,0,0:0:0:0:
36,192,113808,1,0,0:0:0:0:
402,192,113808,1,0,0:0:0:0:
256,192,113887,1,0,0:0:0:0:
109,192,113887,1,0,0:0:0:0:
475,192,113887,1,0,0:0:0:0:
182,192,113966,1,0,0:0:0:0:
402,192,113966,1,0,0:0:0:0:
329,192,113966,1,0,0:0:0:0:
256,192,114045,1,0,0:0:0:0:
109,192,114045,1,0,0:0:0:0:
36,192,114045,1,0,0:0:0:0:
475,192,114045,1,0,0:0:0:0:
329,192,114123,1,0,0:0:0:0:
36,192,114202,1,0,0:0:0:0:
402,192,114202,1,0,0:0:0:0:
256,192,114202,1,0,0:0:0:0:
182,192,114202,1,0,0:0:0:0:
109,192,114281,1,0,0:0:0:0:
475,192,114281,1,0,0:0:0:0:
402,192,114360,1,0,0:0:0:0:
329,192,114360,1,0,0:0:0:0:
182,192,114360,1,0,0:0:0:0:
36,192,114360,1,0,0:0:0:0:
256,192,114360,1,0,0:0:0:0:
475,192,114439,1,0,0:0:0:0:
329,192,114518,1,0,0:0:0:0:
182,192,114518,1,0,0:0:0:0:
109,192,114518,1,0,0:0:0:0:
256,192,114597,1,0,0:0:0:0:
36,192,114597,1,0,0:0:0:0:
475,192,114597,1,0,0:0:0:0:
402,192,114676,1,0,0:0:0:0:
329,192,114676,1,0,0:0:0:0:
182,192,114676,1,0,0:0:0:0:
109,192,114676,1,0,0:0:0:0:
36,192,114755,1,0,0:0:0:0:
182,192,114834,1,0,0:0:0:0:
402,192,114834,1,0,0:0:0:0:
475,192,114834,1,0,0:0:0:0:
256,192,114834,1,0,0:0:0:0:
109,192,114913,1,0,0:0:0:0:
329,192,114913,1,0,0:0:0:0:
36,192,114992,1,0,0:0:0:0:
475,192,114992,1,0,0:0:0:0:
182,192,114992,1,0,0:0:0:0:
402,192,114992,1,0,0:0:0:0:
256,192,115071,1,0,0:0:0:0:
402,192,115071,1,0,0:0:0:0:
109,192,115150,1,0,0:0:0:0:
36,192,115150,1,0,0:0:0:0:
329,192,115150,1,0,0:0:0:0:
402,192,115229,1,0,0:0:0:0:
182,192,115229,1,0,0:0:0:0:
109,192,115229,1,0,0:0:0:0:
256,192,115308,1,0,0:0:0:0:
36,192,115308,1,0,0:0:0:0:
329,192,115308,1,0,0:0:0:0:
475,192,115308,1,0,0:0:0:0:
182,192,115466,1,0,0:0:0:0:
256,192,115466,1,0,0:0:0:0:
36,192,115466,1,0,0:0:0:0:
475,192,115466,1,0,0:0:0:0:
329,192,115623,1,0,0:0:0:0:
402,192,115623,1,0,0:0:0:0:
475,192,115623,1,0,0:0:0:0:
182,192,115702,1,0,0:0:0:0:
109,192,115702,1,0,0:0:0:0:
36,192,115702,1,0,0:0:0:0:
329,192,115781,1,0,0:0:0:0:
402,192,115781,1,0,0:0:0:0:
475,192,115781,1,0,0:0:0:0:
402,192,115939,1,0,0:0:0:0:
329,192,115939,1,0,0:0:0:0:
256,192,115939,1,0,0:0:0:0:
182,192,115939,1,0,0:0:0:0:
109,192,115939,1,0,0:0:0:0:
256,192,116097,1,0,0:0:0:0:
36,192,116097,1,0,0:0:0:0:
329,192,116255,1,0,0:0:0:0:
256,192,116255,1,0,0:0:0:0:
36,192,116255,1,0,0:0:0:0:
475,192,116255,1,0,0:0:0:0:
109,192,116255,1,0,0:0:0:0:
182,192,116334,1,0,0:0:0:0:
109,192,116413,1,0,0:0:0:0:
36,192,116413,1,0,0:0:0:0:
329,192,116413,1,0,0:0:0:0:
475,192,116413,1,0,0:0:0:0:
402,192,116413,1,0,0:0:0:0:
182,192,116492,1,0,0:0:0:0:
256,192,116571,1,0,0:0:0:0:
36,192,116571,1,0,0:0:0:0:
402,192,116571,1,0,0:0:0:0:
475,192,116571,1,0,0:0:0:0:
329,192,116571,1,0,0:0:0:0:
109,192,116650,1,0,0:0:0:0:
182,192,116729,1,0,0:0:0:0:
36,192,116729,1,0,0:0:0:0:
256,192,116729,1,0,0:0:0:0:
402,192,116729,1,0,0:0:0:0:
475,192,116729,1,0,0:0:0:0:
329,192,116808,1,0,0:0:0:0:
182,192,116887,1,0,0:0:0:0:
109,192,116887,1,0,0:0:0:0:
36,192,116887,1,0,0:0:0:0:
475,192,116887,1,0,0:0:0:0:
256,192,116887,1,0,0:0:0:0:
329,192,116966,1,0,0:0:0:0:
256,192,117045,1,0,0:0:0:0:
182,192,117045,1,0,0:0:0:0:
109,192,117045,1,0,0:0:0:0:
475,192,117045,1,0,0:0:0:0:
402,192,117045,1,0,0:0:0:0:
329,192,117123,1,0,0:0:0:0:
256,192,117202,1,0,0:0:0:0:
109,192,117202,1,0,0:0:0:0:
36,192,117202,1,0,0:0:0:0:
475,192,117202,1,0,0:0:0:0:
182,192,117202,1,0,0:0:0:0:
402,192,117281,1,0,0:0:0:0:
329,192,117360,1,0,0:0:0:0:
256,192,117360,1,0,0:0:0:0:
109,192,117360,1,0,0:0:0:0:
475,192,117360,1,0,0:0:0:0:
36,192,117360,1,0,0:0:0:0:
182,192,117439,1,0,0:0:0:0:
109,192,117518,1,0,0:0:0:0:
36,192,117518,1,0,0:0:0:0:
329,192,117518,1,0,0:0:0:0:
402,192,117518,1,0,0:0:0:0:
475,192,117518,1,0,0:0:0:0:
256,192,117597,1,0,0:0:0:0:
36,192,117676,1,0,0:0:0:0:
182,192,117676,1,0,0:0:0:0:
402,192,117676,1,0,0:0:0:0:
475,192,117676,1,0,0:0:0:0:
329,192,117676,1,0,0:0:0:0:
256,192,117755,1,0,0:0:0:0:
182,192,117834,1,0,0:0:0:0:
36,192,117834,1,0,0:0:0:0:
329,192,117834,1,0,0:0:0:0:
475,192,117834,1,0,0:0:0:0:
109,192,117834,1,0,0:0:0:0:
402,192,117913,1,0,0:0:0:0:
329,192,117992,1,0,0:0:0:0:
256,192,117992,1,0,0:0:0:0:
36,192,117992,1,0,0:0:0:0:
109,192,117992,1,0,0:0:0:0:
475,192,117992,1,0,0:0:0:0:
182,192,118071,1,0,0:0:0:0:
36,192,118150,1,0,0:0:0:0:
109,192,118150,1,0,0:0:0:0:
402,192,118150,1,0,0:0:0:0:
329,192,118170,1,0,0:0:0:0:
475,192,118170,1,0,0:0:0:0:
256,192,118229,1,0,0:0:0:0:
182,192,118308,1,0,0:0:0:0:
109,192,118308,1,0,0:0:0:0:
329,192,118308,1,0,0:0:0:0:
402,192,118308,1,0,0:0:0:0:
36,192,118308,1,0,0:0:0:0:
256,192,118387,1,0,0:0:0:0:
182,192,118466,1,0,0:0:0:0:
36,192,118466,1,0,0:0:0:0:
402,192,118466,1,0,0:0:0:0:
475,192,118466,1,0,0:0:0:0:
329,192,118466,1,0,0:0:0:0:
109,192,118545,1,0,0:0:0:0:
256,192,118623,1,0,0:0:0:0:
182,192,118623,1,0,0:0:0:0:
475,192,118623,1,0,0:0:0:0:
402,192,118623,1,0,0:0:0:0:
36,192,118623,1,0,0:0:0:0:
329,192,118702,1,0,0:0:0:0:
256,192,118781,1,0,0:0:0:0:
182,192,118781,1,0,0:0:0:0:
36,192,118781,1,0,0:0:0:0:
475,192,118781,1,0,0:0:0:0:
329,192,118939,1,0,0:0:0:0:
36,192,118939,1,0,0:0:0:0:
109,192,118992,1,0,0:0:0:0:
256,192,119018,1,0,0:0:0:0:
402,192,119045,1,0,0:0:0:0:
182,192,119097,1,0,0:0:0:0:
475,192,119097,1,0,0:0:0:0:
256,192,119255,1,0,0:0:0:0:
475,192,119255,1,0,0:0:0:0:
256,192,119413,1,0,0:0:0:0:
182,192,119413,1,0,0:0:0:0:
402,192,119492,1,0,0:0:0:0:
475,192,119492,1,0,0:0:0:0:
182,192,119571,1,0,0:0:0:0:
109,192,119571,1,0,0:0:0:0:
329,192,119650,1,0,0:0:0:0:
402,192,119650,1,0,0:0:0:0:
256,192,119729,1,0,0:0:0:0:
109,192,119729,1,0,0:0:0:0:
36,192,119729,1,0,0:0:0:0:
329,192,119887,1,0,0:0:0:0:
256,192,119887,1,0,0:0:0:0:
36,192,119887,1,0,0:0:0:0:
182,192,119887,1,0,0:0:0:0:
475,192,119887,1,0,0:0:0:0:
182,192,120045,1,0,0:0:0:0:
109,192,120045,1,0,0:0:0:0:
36,192,120045,1,0,0:0:0:0:
402,192,120045,128,0,120676:0:0:0:0:
256,192,120163,1,0,0:0:0:0:
109,192,120202,1,0,0:0:0:0:
182,192,120281,1,0,0:0:0:0:
109,192,120360,1,0,0:0:0:0:
329,192,120360,1,0,0:0:0:0:
475,192,120360,1,0,0:0:0:0:
256,192,120518,1,0,0:0:0:0:
36,192,120518,1,0,0:0:0:0:
182,192,120597,1,0,0:0:0:0:
109,192,120597,1,0,0:0:0:0:
256,192,120676,1,0,0:0:0:0:
36,192,120676,1,0,0:0:0:0:
475,192,120676,1,0,0:0:0:0:
109,192,120755,1,0,0:0:0:0:
256,192,120834,1,0,0:0:0:0:
36,192,120834,1,0,0:0:0:0:
475,192,120834,128,0,120913:0:0:0:0:
402,192,120834,1,0,0:0:0:0:
402,192,120992,128,0,121071:0:0:0:0:
475,192,120992,128,0,121071:0:0:0:0:
329,192,120992,1,0,0:0:0:0:
182,192,120992,1,0,0:0:0:0:
329,192,121150,128,0,121229:0:0:0:0:
402,192,121150,128,0,121229:0:0:0:0:
475,192,121150,128,0,121229:0:0:0:0:
256,192,121150,1,0,0:0:0:0:
109,192,121150,1,0,0:0:0:0:
329,192,121308,1,0,0:0:0:0:
256,192,121308,1,0,0:0:0:0:
182,192,121308,1,0,0:0:0:0:
475,192,121308,1,0,0:0:0:0:
36,192,121308,1,0,0:0:0:0:
36,192,121466,1,0,0:0:0:0:
329,192,121623,1,0,0:0:0:0:
36,192,121623,1,0,0:0:0:0:
256,192,121663,128,0,121781:0:0:0:0:
36,192,121781,1,0,0:0:0:0:
36,192,121939,1,0,0:0:0:0:
36,192,122097,1,0,0:0:0:0:
329,192,122255,1,0,0:0:0:0:
36,192,122255,1,0,0:0:0:0:
256,192,122295,128,0,122492:0:0:0:0:
402,192,122413,128,0,122571:0:0:0:0:
36,192,122413,1,0,0:0:0:0:
36,192,122571,1,0,0:0:0:0:
36,192,122729,1,0,0:0:0:0:
329,192,122887,1,0,0:0:0:0:
36,192,122887,1,0,0:0:0:0:
256,192,122926,128,0,123045:0:0:0:0:
36,192,123045,1,0,0:0:0:0:
182,192,123202,1,0,0:0:0:0:
182,192,123360,1,0,0:0:0:0:
402,192,123518,1,0,0:0:0:0:
182,192,123518,1,0,0:0:0:0:
329,192,123558,128,0,123755:0:0:0:0:
475,192,123676,128,0,123834:0:0:0:0:
182,192,123676,1,0,0:0:0:0:
36,192,123834,1,0,0:0:0:0:
36,192,123992,1,0,0:0:0:0:
329,192,124150,1,0,0:0:0:0:
36,192,124150,1,0,0:0:0:0:
256,192,124189,128,0,124308:0:0:0:0:
36,192,124308,1,0,0:0:0:0:
36,192,124466,1,0,0:0:0:0:
36,192,124623,1,0,0:0:0:0:
329,192,124781,1,0,0:0:0:0:
36,192,124781,1,0,0:0:0:0:
256,192,124821,128,0,125018:0:0:0:0:
402,192,124939,128,0,125097:0:0:0:0:
36,192,124939,1,0,0:0:0:0:
109,192,125097,1,0,0:0:0:0:
109,192,125255,1,0,0:0:0:0:
329,192,125413,1,0,0:0:0:0:
109,192,125413,1,0,0:0:0:0:
256,192,125452,128,0,125571:0:0:0:0:
109,192,125571,1,0,0:0:0:0:
109,192,125729,1,0,0:0:0:0:
109,192,125887,1,0,0:0:0:0:
402,192,126045,1,0,0:0:0:0:
109,192,126045,1,0,0:0:0:0:
329,192,126084,128,0,126281:0:0:0:0:
109,192,126202,1,0,0:0:0:0:
475,192,126202,128,0,126360:0:0:0:0:
36,192,126360,1,0,0:0:0:0:
36,192,126518,1,0,0:0:0:0:
329,192,126676,1,0,0:0:0:0:
36,192,126676,1,0,0:0:0:0:
256,192,126716,128,0,126834:0:0:0:0:
36,192,126834,1,0,0:0:0:0:
36,192,126992,1,0,0:0:0:0:
36,192,127150,1,0,0:0:0:0:
329,192,127308,1,0,0:0:0:0:
36,192,127308,1,0,0:0:0:0:
256,192,127347,128,0,127545:0:0:0:0:
402,192,127466,128,0,127623:0:0:0:0:
36,192,127466,1,0,0:0:0:0:
36,192,127623,1,0,0:0:0:0:
36,192,127781,1,0,0:0:0:0:
329,192,127939,1,0,0:0:0:0:
36,192,127939,1,0,0:0:0:0:
256,192,127979,128,0,128097:0:0:0:0:
36,192,128097,1,0,0:0:0:0:
182,192,128255,1,0,0:0:0:0:
182,192,128413,1,0,0:0:0:0:
402,192,128571,1,0,0:0:0:0:
182,192,128571,1,0,0:0:0:0:
329,192,128610,128,0,128808:0:0:0:0:
475,192,128729,128,0,128887:0:0:0:0:
182,192,128729,1,0,0:0:0:0:
36,192,128887,1,0,0:0:0:0:
256,192,128887,128,0,128966:0:0:0:0:
329,192,128926,128,0,129084:0:0:0:0:
36,192,129045,1,0,0:0:0:0:
256,192,129045,128,0,129123:0:0:0:0:
182,192,129084,128,0,129242:0:0:0:0:
36,192,129202,1,0,0:0:0:0:
256,192,129202,128,0,129281:0:0:0:0:
475,192,129202,1,0,0:0:0:0:
329,192,129242,128,0,129439:0:0:0:0:
36,192,129360,1,0,0:0:0:0:
475,192,129360,128,0,129479:0:0:0:0:
402,192,129360,1,0,0:0:0:0:
36,192,129518,1,0,0:0:0:0:
329,192,129518,1,0,0:0:0:0:
475,192,129558,128,0,129873:0:0:0:0:
36,192,129676,1,0,0:0:0:0:
329,192,129676,128,0,129795:0:0:0:0:
36,192,129834,1,0,0:0:0:0:
402,192,129834,128,0,129913:0:0:0:0:
182,192,129834,1,0,0:0:0:0:
329,192,129873,128,0,129972:0:0:0:0:
36,192,129992,1,0,0:0:0:0:
402,192,129992,128,0,130071:0:0:0:0:
182,192,129992,128,0,130071:0:0:0:0:
329,192,130031,128,0,130130:0:0:0:0:
475,192,130150,1,0,0:0:0:0:
256,192,130150,128,0,130229:0:0:0:0:
182,192,130189,128,0,130347:0:0:0:0:
475,192,130308,1,0,0:0:0:0:
256,192,130308,128,0,130387:0:0:0:0:
329,192,130347,128,0,130505:0:0:0:0:
475,192,130466,1,0,0:0:0:0:
256,192,130466,128,0,130545:0:0:0:0:
36,192,130466,1,0,0:0:0:0:
182,192,130505,128,0,130702:0:0:0:0:
475,192,130623,1,0,0:0:0:0:
256,192,130623,1,0,0:0:0:0:
329,192,130623,128,0,130742:0:0:0:0:
182,192,130781,1,0,0:0:0:0:
329,192,130821,128,0,131334:0:0:0:0:
109,192,130939,128,0,131334:0:0:0:0:
402,192,131097,128,0,131334:0:0:0:0:
182,192,131255,128,0,131334:0:0:0:0:
256,192,131413,1,0,0:0:0:0:
109,192,131413,1,0,0:0:0:0:
402,192,131413,1,0,0:0:0:0:
475,192,131413,1,0,0:0:0:0:
36,192,131413,128,0,131492:0:0:0:0:
475,192,131571,1,0,0:0:0:0:
36,192,131571,128,0,132360:0:0:0:0:
475,192,131729,1,0,0:0:0:0:
109,192,131729,128,0,132202:0:0:0:0:
475,192,131887,1,0,0:0:0:0:
182,192,131887,128,0,132045:0:0:0:0:
329,192,131887,128,0,132202:0:0:0:0:
475,192,132045,1,0,0:0:0:0:
475,192,132202,1,0,0:0:0:0:
182,192,132202,128,0,132360:0:0:0:0:
475,192,132360,1,0,0:0:0:0:
256,192,132360,128,0,133150:0:0:0:0:
475,192,132518,1,0,0:0:0:0:
182,192,132518,128,0,132992:0:0:0:0:
475,192,132676,1,0,0:0:0:0:
109,192,132676,128,0,132834:0:0:0:0:
475,192,132834,1,0,0:0:0:0:
475,192,132992,1,0,0:0:0:0:
36,192,132992,128,0,133545:0:0:0:0:
475,192,133150,1,0,0:0:0:0:
109,192,133150,128,0,133387:0:0:0:0:
329,192,133308,1,0,0:0:0:0:
182,192,133308,128,0,133387:0:0:0:0:
329,192,133466,1,0,0:0:0:0:
109,192,133466,128,0,133545:0:0:0:0:
329,192,133623,1,0,0:0:0:0:
36,192,133623,128,0,133702:0:0:0:0:
329,192,133781,1,0,0:0:0:0:
109,192,133781,128,0,133860:0:0:0:0:
475,192,133939,1,0,0:0:0:0:
182,192,133939,128,0,134018:0:0:0:0:
475,192,134097,1,0,0:0:0:0:
182,192,134097,128,0,134887:0:0:0:0:
475,192,134255,1,0,0:0:0:0:
109,192,134255,128,0,134729:0:0:0:0:
475,192,134413,1,0,0:0:0:0:
36,192,134413,128,0,134571:0:0:0:0:
475,192,134571,1,0,0:0:0:0:
329,192,134571,128,0,134650:0:0:0:0:
475,192,134729,1,0,0:0:0:0:
329,192,134729,128,0,135045:0:0:0:0:
475,192,134887,1,0,0:0:0:0:
36,192,134887,128,0,135202:0:0:0:0:
475,192,135045,1,0,0:0:0:0:
109,192,135045,128,0,135360:0:0:0:0:
402,192,135202,1,0,0:0:0:0:
182,192,135202,128,0,135518:0:0:0:0:
402,192,135360,1,0,0:0:0:0:
256,192,135360,128,0,135913:0:0:0:0:
402,192,135518,1,0,0:0:0:0:
36,192,135518,128,0,135676:0:0:0:0:
402,192,135676,1,0,0:0:0:0:
182,192,135676,128,0,136071:0:0:0:0:
402,192,135834,1,0,0:0:0:0:
109,192,135834,128,0,136229:0:0:0:0:
402,192,135992,1,0,0:0:0:0:
256,192,135992,128,0,136071:0:0:0:0:
402,192,136150,1,0,0:0:0:0:
182,192,136150,128,0,136229:0:0:0:0:
402,192,136308,1,0,0:0:0:0:
109,192,136308,128,0,136387:0:0:0:0:
475,192,136466,1,0,0:0:0:0:
36,192,136466,128,0,136545:0:0:0:0:
475,192,136623,1,0,0:0:0:0:
36,192,136623,128,0,137413:0:0:0:0:
475,192,136781,1,0,0:0:0:0:
109,192,136781,128,0,137255:0:0:0:0:
475,192,136939,1,0,0:0:0:0:
182,192,136939,128,0,137097:0:0:0:0:
475,192,137097,1,0,0:0:0:0:
329,192,137097,128,0,137255:0:0:0:0:
475,192,137255,1,0,0:0:0:0:
182,192,137255,128,0,137413:0:0:0:0:
475,192,137413,1,0,0:0:0:0:
256,192,137413,128,0,138202:0:0:0:0:
475,192,137571,1,0,0:0:0:0:
182,192,137571,128,0,138045:0:0:0:0:
475,192,137729,1,0,0:0:0:0:
109,192,137729,128,0,137887:0:0:0:0:
475,192,137887,1,0,0:0:0:0:
475,192,138045,1,0,0:0:0:0:
36,192,138045,128,0,138597:0:0:0:0:
475,192,138202,1,0,0:0:0:0:
109,192,138202,128,0,138439:0:0:0:0:
329,192,138360,1,0,0:0:0:0:
182,192,138360,128,0,138439:0:0:0:0:
329,192,138518,1,0,0:0:0:0:
109,192,138518,128,0,138597:0:0:0:0:
329,192,138676,1,0,0:0:0:0:
36,192,138676,128,0,138755:0:0:0:0:
329,192,138834,1,0,0:0:0:0:
109,192,138834,128,0,138913:0:0:0:0:
475,192,138992,1,0,0:0:0:0:
182,192,138992,128,0,139071:0:0:0:0:
475,192,139150,1,0,0:0:0:0:
182,192,139150,128,0,139939:0:0:0:0:
475,192,139308,1,0,0:0:0:0:
109,192,139308,128,0,139781:0:0:0:0:
475,192,139466,1,0,0:0:0:0:
36,192,139466,128,0,139623:0:0:0:0:
475,192,139623,1,0,0:0:0:0:
329,192,139623,128,0,139702:0:0:0:0:
475,192,139781,1,0,0:0:0:0:
329,192,139781,128,0,140097:0:0:0:0:
475,192,139939,1,0,0:0:0:0:
36,192,139939,128,0,140255:0:0:0:0:
475,192,140097,1,0,0:0:0:0:
109,192,140097,128,0,140255:0:0:0:0:
182,192,140255,1,0,0:0:0:0:
256,192,140255,1,0,0:0:0:0:
475,192,140255,1,0,0:0:0:0:
402,192,140334,1,0,0:0:0:0:
256,192,140373,1,0,0:0:0:0:
109,192,140413,1,0,0:0:0:0:
329,192,140452,1,0,0:0:0:0:
182,192,140492,1,0,0:0:0:0:
36,192,140531,1,0,0:0:0:0:
402,192,140571,1,0,0:0:0:0:
402,192,140729,1,0,0:0:0:0:
182,192,140887,1,0,0:0:0:0:
109,192,140887,1,0,0:0:0:0:
182,192,140966,1,0,0:0:0:0:
109,192,140966,1,0,0:0:0:0:
329,192,141045,1,0,0:0:0:0:
36,192,141202,1,0,0:0:0:0:
475,192,141202,128,0,141281:0:0:0:0:
109,192,141202,128,0,141281:0:0:0:0:
182,192,141202,128,0,141281:0:0:0:0:
256,192,141202,128,0,141281:0:0:0:0:
402,192,141242,128,0,141400:0:0:0:0:
256,192,141360,1,0,0:0:0:0:
475,192,141360,1,0,0:0:0:0:
329,192,141360,128,0,141439:0:0:0:0:
109,192,141360,128,0,141439:0:0:0:0:
36,192,141360,128,0,141439:0:0:0:0:
182,192,141360,128,0,141439:0:0:0:0:
256,192,141518,1,0,0:0:0:0:
109,192,141518,128,0,141597:0:0:0:0:
329,192,141518,128,0,141597:0:0:0:0:
402,192,141518,128,0,141755:0:0:0:0:
475,192,141518,128,0,141913:0:0:0:0:
36,192,141558,128,0,141716:0:0:0:0:
109,192,141676,128,0,141755:0:0:0:0:
329,192,141676,128,0,142229:0:0:0:0:
182,192,141716,128,0,141873:0:0:0:0:
109,192,141834,128,0,141913:0:0:0:0:
402,192,141834,128,0,142387:0:0:0:0:
36,192,141873,128,0,142071:0:0:0:0:
256,192,141992,1,0,0:0:0:0:
182,192,141992,128,0,142387:0:0:0:0:
475,192,141992,128,0,142545:0:0:0:0:
109,192,142150,1,0,0:0:0:0:
109,192,142308,128,0,142505:0:0:0:0:
329,192,142308,1,0,0:0:0:0:
182,192,142466,128,0,142545:0:0:0:0:
402,192,142466,1,0,0:0:0:0:
329,192,142505,128,0,142663:0:0:0:0:
256,192,142623,128,0,142702:0:0:0:0:
36,192,142623,1,0,0:0:0:0:
475,192,142623,128,0,143334:0:0:0:0:
182,192,142663,128,0,142821:0:0:0:0:
109,192,142781,128,0,142860:0:0:0:0:
329,192,142781,128,0,142939:0:0:0:0:
36,192,142821,128,0,142979:0:0:0:0:
109,192,142939,128,0,143018:0:0:0:0:
182,192,142979,128,0,143137:0:0:0:0:
109,192,143097,128,0,143176:0:0:0:0:
402,192,143097,128,0,143334:0:0:0:0:
36,192,143137,128,0,143334:0:0:0:0:
256,192,143255,1,0,0:0:0:0:
182,192,143255,128,0,143650:0:0:0:0:
329,192,143255,128,0,143492:0:0:0:0:
109,192,143413,1,0,0:0:0:0:
475,192,143413,1,0,0:0:0:0:
256,192,143571,128,0,143768:0:0:0:0:
36,192,143571,1,0,0:0:0:0:
402,192,143571,128,0,143650:0:0:0:0:
182,192,143729,128,0,143808:0:0:0:0:
475,192,143729,128,0,143808:0:0:0:0:
109,192,143768,128,0,143926:0:0:0:0:
182,192,143887,128,0,143966:0:0:0:0:
475,192,143887,128,0,144439:0:0:0:0:
256,192,143926,128,0,144084:0:0:0:0:
109,192,144045,128,0,144123:0:0:0:0:
329,192,144045,128,0,144123:0:0:0:0:
402,192,144045,1,0,0:0:0:0:
36,192,144084,128,0,144242:0:0:0:0:
109,192,144202,128,0,144281:0:0:0:0:
329,192,144202,128,0,144755:0:0:0:0:
182,192,144242,128,0,144400:0:0:0:0:
109,192,144360,128,0,144439:0:0:0:0:
402,192,144360,128,0,144913:0:0:0:0:
36,192,144400,128,0,144597:0:0:0:0:
256,192,144518,1,0,0:0:0:0:
182,192,144518,128,0,144913:0:0:0:0:
475,192,144518,128,0,145071:0:0:0:0:
109,192,144676,1,0,0:0:0:0:
109,192,144834,128,0,145031:0:0:0:0:
329,192,144834,1,0,0:0:0:0:
182,192,144992,128,0,145071:0:0:0:0:
402,192,144992,1,0,0:0:0:0:
329,192,145031,128,0,145189:0:0:0:0:
256,192,145150,128,0,145229:0:0:0:0:
36,192,145150,1,0,0:0:0:0:
475,192,145150,128,0,145545:0:0:0:0:
182,192,145189,128,0,145426:0:0:0:0:
109,192,145308,128,0,145466:0:0:0:0:
329,192,145308,128,0,145387:0:0:0:0:
36,192,145347,128,0,145505:0:0:0:0:
256,192,145466,128,0,145545:0:0:0:0:
402,192,145466,128,0,145860:0:0:0:0:
182,192,145505,128,0,145663:0:0:0:0:
109,192,145545,128,0,145623:0:0:0:0:
36,192,145584,1,0,0:0:0:0:
256,192,145623,128,0,145860:0:0:0:0:
475,192,145623,128,0,145702:0:0:0:0:
182,192,145781,128,0,145860:0:0:0:0:
109,192,145781,128,0,146196:0:0:0:0:
475,192,145781,128,0,146018:0:0:0:0:
182,192,145939,128,0,146354:0:0:0:0:
329,192,145939,128,0,146196:0:0:0:0:
402,192,145939,128,0,146018:0:0:0:0:
402,192,146097,128,0,146354:0:0:0:0:
36,192,146097,1,0,0:0:0:0:
256,192,146097,1,0,0:0:0:0:
475,192,146097,1,0,0:0:0:0:
329,192,146255,128,0,146512:0:0:0:0:
109,192,146255,128,0,146512:0:0:0:0:
182,192,146413,128,0,146610:0:0:0:0:
402,192,146413,128,0,146512:0:0:0:0:
256,192,146571,1,0,0:0:0:0:
109,192,146571,128,0,146650:0:0:0:0:
329,192,146571,128,0,146650:0:0:0:0:
402,192,146571,128,0,146808:0:0:0:0:
475,192,146571,128,0,146966:0:0:0:0:
36,192,146610,128,0,146768:0:0:0:0:
109,192,146729,128,0,146808:0:0:0:0:
329,192,146729,128,0,147281:0:0:0:0:
182,192,146768,128,0,146926:0:0:0:0:
109,192,146887,128,0,146966:0:0:0:0:
402,192,146887,128,0,147439:0:0:0:0:
36,192,146926,128,0,147123:0:0:0:0:
256,192,147045,1,0,0:0:0:0:
182,192,147045,128,0,147439:0:0:0:0:
475,192,147045,128,0,147597:0:0:0:0:
109,192,147202,1,0,0:0:0:0:
109,192,147360,128,0,147558:0:0:0:0:
329,192,147360,1,0,0:0:0:0:
182,192,147518,128,0,147597:0:0:0:0:
402,192,147518,1,0,0:0:0:0:
329,192,147558,128,0,147716:0:0:0:0:
256,192,147676,128,0,147755:0:0:0:0:
36,192,147676,1,0,0:0:0:0:
475,192,147676,128,0,148387:0:0:0:0:
182,192,147716,128,0,147873:0:0:0:0:
109,192,147834,128,0,147913:0:0:0:0:
329,192,147834,128,0,147992:0:0:0:0:
36,192,147873,128,0,148031:0:0:0:0:
109,192,147992,128,0,148071:0:0:0:0:
182,192,148031,128,0,148189:0:0:0:0:
109,192,148150,128,0,148229:0:0:0:0:
402,192,148150,128,0,148387:0:0:0:0:
36,192,148189,128,0,148387:0:0:0:0:
256,192,148308,1,0,0:0:0:0:
182,192,148308,128,0,148702:0:0:0:0:
329,192,148308,128,0,148545:0:0:0:0:
109,192,148466,1,0,0:0:0:0:
475,192,148466,1,0,0:0:0:0:
256,192,148623,128,0,148821:0:0:0:0:
36,192,148623,1,0,0:0:0:0:
402,192,148623,128,0,148702:0:0:0:0:
182,192,148781,128,0,148860:0:0:0:0:
475,192,148781,128,0,148860:0:0:0:0:
109,192,148821,128,0,148979:0:0:0:0:
182,192,148939,128,0,149018:0:0:0:0:
475,192,148939,128,0,149492:0:0:0:0:
256,192,148979,128,0,149137:0:0:0:0:
109,192,149097,128,0,149176:0:0:0:0:
329,192,149097,128,0,149176:0:0:0:0:
402,192,149097,1,0,0:0:0:0:
36,192,149137,128,0,149295:0:0:0:0:
109,192,149255,128,0,149334:0:0:0:0:
329,192,149255,128,0,149808:0:0:0:0:
182,192,149295,128,0,149452:0:0:0:0:
109,192,149413,128,0,149492:0:0:0:0:
402,192,149413,128,0,149966:0:0:0:0:
36,192,149452,128,0,149650:0:0:0:0:
256,192,149571,1,0,0:0:0:0:
182,192,149571,128,0,149966:0:0:0:0:
475,192,149571,128,0,150123:0:0:0:0:
109,192,149729,1,0,0:0:0:0:
109,192,149887,128,0,150084:0:0:0:0:
329,192,149887,1,0,0:0:0:0:
182,192,150045,128,0,150123:0:0:0:0:
402,192,150045,1,0,0:0:0:0:
329,192,150084,128,0,150242:0:0:0:0:
256,192,150202,128,0,150281:0:0:0:0:
36,192,150202,1,0,0:0:0:0:
475,192,150202,128,0,150597:0:0:0:0:
182,192,150242,128,0,150479:0:0:0:0:
109,192,150360,128,0,150518:0:0:0:0:
329,192,150360,128,0,150439:0:0:0:0:
36,192,150400,128,0,150558:0:0:0:0:
256,192,150518,128,0,150597:0:0:0:0:
402,192,150518,128,0,150913:0:0:0:0:
182,192,150558,128,0,150716:0:0:0:0:
109,192,150597,128,0,150676:0:0:0:0:
36,192,150637,1,0,0:0:0:0:
256,192,150676,128,0,150913:0:0:0:0:
475,192,150676,128,0,150755:0:0:0:0:
182,192,150834,128,0,150913:0:0:0:0:
475,192,150834,128,0,151071:0:0:0:0:
109,192,150834,128,0,151248:0:0:0:0:
182,192,150992,128,0,151406:0:0:0:0:
329,192,150992,128,0,151406:0:0:0:0:
402,192,150992,128,0,151071:0:0:0:0:
256,192,151150,1,0,0:0:0:0:
36,192,151150,1,0,0:0:0:0:
475,192,151150,1,0,0:0:0:0:
402,192,151150,128,0,151248:0:0:0:0:
402,192,151308,128,0,151564:0:0:0:0:
109,192,151308,128,0,151564:0:0:0:0:
329,192,151466,128,0,151663:0:0:0:0:
182,192,151466,128,0,151564:0:0:0:0:
256,192,151623,1,0,0:0:0:0:
402,192,151623,128,0,151702:0:0:0:0:
182,192,151623,128,0,151702:0:0:0:0:
109,192,151623,128,0,151860:0:0:0:0:
36,192,151623,128,0,152018:0:0:0:0:
475,192,151663,128,0,151821:0:0:0:0:
402,192,151781,128,0,151860:0:0:0:0:
182,192,151781,128,0,152334:0:0:0:0:
329,192,151821,128,0,151979:0:0:0:0:
402,192,151939,128,0,152018:0:0:0:0:
109,192,151939,128,0,152492:0:0:0:0:
475,192,151979,128,0,152176:0:0:0:0:
256,192,152097,1,0,0:0:0:0:
329,192,152097,128,0,152492:0:0:0:0:
36,192,152097,128,0,152650:0:0:0:0:
402,192,152255,1,0,0:0:0:0:
402,192,152413,128,0,152610:0:0:0:0:
182,192,152413,1,0,0:0:0:0:
329,192,152571,128,0,152650:0:0:0:0:
109,192,152571,1,0,0:0:0:0:
182,192,152610,128,0,152768:0:0:0:0:
256,192,152729,128,0,152808:0:0:0:0:
475,192,152729,1,0,0:0:0:0:
36,192,152729,128,0,153439:0:0:0:0:
329,192,152768,128,0,152926:0:0:0:0:
402,192,152887,128,0,152966:0:0:0:0:
182,192,152887,128,0,153045:0:0:0:0:
475,192,152926,128,0,153084:0:0:0:0:
402,192,153045,128,0,153123:0:0:0:0:
329,192,153084,128,0,153242:0:0:0:0:
402,192,153202,128,0,153281:0:0:0:0:
109,192,153202,128,0,153439:0:0:0:0:
475,192,153242,128,0,153439:0:0:0:0:
256,192,153360,1,0,0:0:0:0:
329,192,153360,128,0,153755:0:0:0:0:
182,192,153360,128,0,153597:0:0:0:0:
402,192,153518,1,0,0:0:0:0:
36,192,153518,1,0,0:0:0:0:
256,192,153676,128,0,153873:0:0:0:0:
475,192,153676,1,0,0:0:0:0:
109,192,153676,128,0,153755:0:0:0:0:
329,192,153834,128,0,153913:0:0:0:0:
36,192,153834,128,0,153913:0:0:0:0:
402,192,153873,128,0,154031:0:0:0:0:
329,192,153992,128,0,154071:0:0:0:0:
36,192,153992,128,0,154545:0:0:0:0:
256,192,154031,128,0,154189:0:0:0:0:
402,192,154150,128,0,154229:0:0:0:0:
182,192,154150,128,0,154229:0:0:0:0:
109,192,154150,1,0,0:0:0:0:
475,192,154189,128,0,154347:0:0:0:0:
402,192,154308,128,0,154387:0:0:0:0:
182,192,154308,128,0,154860:0:0:0:0:
329,192,154347,128,0,154505:0:0:0:0:
402,192,154466,128,0,154545:0:0:0:0:
109,192,154466,128,0,155018:0:0:0:0:
475,192,154505,128,0,154702:0:0:0:0:
256,192,154623,1,0,0:0:0:0:
329,192,154623,128,0,155018:0:0:0:0:
36,192,154623,128,0,155176:0:0:0:0:
402,192,154781,1,0,0:0:0:0:
402,192,154939,128,0,155137:0:0:0:0:
182,192,154939,1,0,0:0:0:0:
329,192,155097,128,0,155176:0:0:0:0:
109,192,155097,1,0,0:0:0:0:
182,192,155137,128,0,155295:0:0:0:0:
256,192,155255,128,0,155334:0:0:0:0:
475,192,155255,1,0,0:0:0:0:
36,192,155255,128,0,155650:0:0:0:0:
329,192,155295,128,0,155531:0:0:0:0:
402,192,155413,128,0,155571:0:0:0:0:
182,192,155413,128,0,155492:0:0:0:0:
475,192,155452,128,0,155610:0:0:0:0:
256,192,155571,128,0,155650:0:0:0:0:
109,192,155571,128,0,155966:0:0:0:0:
329,192,155610,128,0,155768:0:0:0:0:
402,192,155650,128,0,155729:0:0:0:0:
475,192,155689,1,0,0:0:0:0:
256,192,155729,128,0,155966:0:0:0:0:
36,192,155729,128,0,155808:0:0:0:0:
329,192,155887,128,0,155966:0:0:0:0:
36,192,155887,128,0,156123:0:0:0:0:
402,192,155887,128,0,156301:0:0:0:0:
329,192,156045,128,0,156459:0:0:0:0:
182,192,156045,128,0,156301:0:0:0:0:
109,192,156045,128,0,156123:0:0:0:0:
256,192,156202,1,0,0:0:0:0:
36,192,156202,1,0,0:0:0:0:
109,192,156202,128,0,156459:0:0:0:0:
475,192,156202,1,0,0:0:0:0:
182,192,156360,128,0,156617:0:0:0:0:
402,192,156360,128,0,156617:0:0:0:0:
109,192,156518,128,0,156617:0:0:0:0:
329,192,156518,128,0,156716:0:0:0:0:
256,192,156676,1,0,0:0:0:0:
402,192,156676,128,0,156755:0:0:0:0:
182,192,156676,128,0,156755:0:0:0:0:
109,192,156676,128,0,156913:0:0:0:0:
36,192,156676,128,0,157071:0:0:0:0:
475,192,156716,128,0,156873:0:0:0:0:
402,192,156834,128,0,156913:0:0:0:0:
182,192,156834,128,0,157387:0:0:0:0:
329,192,156873,128,0,157031:0:0:0:0:
402,192,156992,128,0,157071:0:0:0:0:
109,192,156992,128,0,157545:0:0:0:0:
475,192,157031,128,0,157229:0:0:0:0:
256,192,157150,1,0,0:0:0:0:
329,192,157150,128,0,157545:0:0:0:0:
36,192,157150,128,0,157702:0:0:0:0:
402,192,157308,1,0,0:0:0:0:
402,192,157466,128,0,157663:0:0:0:0:
182,192,157466,1,0,0:0:0:0:
329,192,157623,128,0,157702:0:0:0:0:
109,192,157623,1,0,0:0:0:0:
182,192,157663,128,0,157821:0:0:0:0:
256,192,157781,128,0,157860:0:0:0:0:
475,192,157781,1,0,0:0:0:0:
36,192,157781,128,0,158492:0:0:0:0:
329,192,157821,128,0,157979:0:0:0:0:
402,192,157939,128,0,158018:0:0:0:0:
182,192,157939,128,0,158097:0:0:0:0:
475,192,157979,128,0,158137:0:0:0:0:
402,192,158097,128,0,158176:0:0:0:0:
329,192,158137,128,0,158295:0:0:0:0:
402,192,158255,128,0,158334:0:0:0:0:
109,192,158255,128,0,158492:0:0:0:0:
475,192,158295,128,0,158492:0:0:0:0:
256,192,158413,1,0,0:0:0:0:
329,192,158413,128,0,158808:0:0:0:0:
182,192,158413,128,0,158650:0:0:0:0:
402,192,158571,1,0,0:0:0:0:
36,192,158571,1,0,0:0:0:0:
256,192,158729,128,0,158926:0:0:0:0:
475,192,158729,1,0,0:0:0:0:
109,192,158729,128,0,158808:0:0:0:0:
329,192,158887,128,0,158966:0:0:0:0:
36,192,158887,128,0,158966:0:0:0:0:
402,192,158926,128,0,159084:0:0:0:0:
329,192,159045,128,0,159123:0:0:0:0:
36,192,159045,128,0,159597:0:0:0:0:
256,192,159084,128,0,159242:0:0:0:0:
402,192,159202,128,0,159281:0:0:0:0:
182,192,159202,128,0,159281:0:0:0:0:
109,192,159202,1,0,0:0:0:0:
475,192,159242,128,0,159400:0:0:0:0:
402,192,159360,128,0,159439:0:0:0:0:
182,192,159360,128,0,159913:0:0:0:0:
329,192,159400,128,0,159558:0:0:0:0:
402,192,159518,128,0,159597:0:0:0:0:
109,192,159518,128,0,160071:0:0:0:0:
475,192,159558,128,0,159755:0:0:0:0:
256,192,159676,1,0,0:0:0:0:
329,192,159676,128,0,160071:0:0:0:0:
36,192,159676,128,0,160229:0:0:0:0:
402,192,159834,1,0,0:0:0:0:
402,192,159992,128,0,160189:0:0:0:0:
182,192,159992,1,0,0:0:0:0:
329,192,160150,128,0,160229:0:0:0:0:
109,192,160150,1,0,0:0:0:0:
182,192,160189,128,0,160347:0:0:0:0:
256,192,160308,128,0,160387:0:0:0:0:
475,192,160308,1,0,0:0:0:0:
36,192,160308,128,0,160545:0:0:0:0:
329,192,160347,128,0,160584:0:0:0:0:
402,192,160466,128,0,160623:0:0:0:0:
109,192,160466,128,0,160545:0:0:0:0:
475,192,160505,128,0,160663:0:0:0:0:
256,192,160623,128,0,160702:0:0:0:0:
109,192,160623,128,0,160742:0:0:0:0:
329,192,160663,128,0,160821:0:0:0:0:
402,192,160702,128,0,160781:0:0:0:0:
475,192,160742,1,0,0:0:0:0:
256,192,160781,128,0,161018:0:0:0:0:
36,192,160781,1,0,0:0:0:0:
109,192,160821,1,0,0:0:0:0:
182,192,160860,1,0,0:0:0:0:
329,192,160939,128,0,161018:0:0:0:0:
475,192,160939,128,0,161354:0:0:0:0:
36,192,160939,1,0,0:0:0:0:
109,192,161018,1,0,0:0:0:0:
329,192,161097,128,0,161709:0:0:0:0:
402,192,161097,128,0,161512:0:0:0:0:
36,192,161097,1,0,0:0:0:0:
182,192,161137,1,0,0:0:0:0:
256,192,161255,1,0,0:0:0:0:
109,192,161295,1,0,0:0:0:0:
475,192,161413,128,0,161670:0:0:0:0:
36,192,161413,1,0,0:0:0:0:
182,192,161452,1,0,0:0:0:0:
402,192,161571,128,0,161689:0:0:0:0:
256,192,161571,1,0,0:0:0:0:
109,192,161610,1,0,0:0:0:0:
256,192,161729,1,0,0:0:0:0:
475,192,161729,128,0,161926:0:0:0:0:
36,192,161729,128,0,161808:0:0:0:0:
109,192,161768,128,0,161926:0:0:0:0:
329,192,161808,1,0,0:0:0:0:
182,192,161887,128,0,161966:0:0:0:0:
256,192,161926,128,0,162084:0:0:0:0:
402,192,161966,1,0,0:0:0:0:
36,192,162005,1,0,0:0:0:0:
182,192,162045,128,0,162123:0:0:0:0:
329,192,162045,1,0,0:0:0:0:
475,192,162045,128,0,162084:0:0:0:0:
109,192,162084,128,0,162360:0:0:0:0:
256,192,162202,128,0,162281:0:0:0:0:
329,192,162202,128,0,162400:0:0:0:0:
36,192,162202,128,0,162360:0:0:0:0:
402,192,162202,1,0,0:0:0:0:
182,192,162360,1,0,0:0:0:0:
475,192,162360,1,0,0:0:0:0:
402,192,162360,128,0,162400:0:0:0:0:
329,192,162518,128,0,162597:0:0:0:0:
402,192,162518,128,0,162755:0:0:0:0:
256,192,162518,1,0,0:0:0:0:
109,192,162518,1,0,0:0:0:0:
182,192,162676,128,0,162755:0:0:0:0:
36,192,162676,128,0,162716:0:0:0:0:
256,192,162716,128,0,162873:0:0:0:0:
475,192,162755,1,0,0:0:0:0:
182,192,162834,128,0,162913:0:0:0:0:
402,192,162834,1,0,0:0:0:0:
109,192,162873,128,0,163031:0:0:0:0:
329,192,162913,1,0,0:0:0:0:
475,192,162992,128,0,163071:0:0:0:0:
36,192,162992,128,0,163189:0:0:0:0:
256,192,162992,128,0,163031:0:0:0:0:
402,192,163031,128,0,163189:0:0:0:0:
182,192,163071,1,0,0:0:0:0:
329,192,163150,128,0,163229:0:0:0:0:
256,192,163189,128,0,163347:0:0:0:0:
109,192,163229,1,0,0:0:0:0:
475,192,163268,1,0,0:0:0:0:
329,192,163308,128,0,163387:0:0:0:0:
182,192,163308,1,0,0:0:0:0:
36,192,163308,128,0,163347:0:0:0:0:
402,192,163347,128,0,163623:0:0:0:0:
256,192,163466,128,0,163545:0:0:0:0:
182,192,163466,128,0,163663:0:0:0:0:
475,192,163466,128,0,163623:0:0:0:0:
109,192,163466,1,0,0:0:0:0:
329,192,163623,1,0,0:0:0:0:
36,192,163623,1,0,0:0:0:0:
109,192,163623,128,0,163663:0:0:0:0:
182,192,163781,128,0,163860:0:0:0:0:
109,192,163781,128,0,164018:0:0:0:0:
256,192,163781,1,0,0:0:0:0:
402,192,163781,1,0,0:0:0:0:
329,192,163939,128,0,164018:0:0:0:0:
475,192,163939,128,0,163979:0:0:0:0:
256,192,163979,128,0,164137:0:0:0:0:
36,192,164018,1,0,0:0:0:0:
329,192,164097,128,0,164176:0:0:0:0:
109,192,164097,1,0,0:0:0:0:
402,192,164137,128,0,164295:0:0:0:0:
182,192,164176,1,0,0:0:0:0:
475,192,164255,128,0,164452:0:0:0:0:
36,192,164255,128,0,164334:0:0:0:0:
256,192,164255,128,0,164295:0:0:0:0:
109,192,164295,128,0,164452:0:0:0:0:
329,192,164334,1,0,0:0:0:0:
182,192,164413,128,0,164492:0:0:0:0:
256,192,164452,128,0,164610:0:0:0:0:
402,192,164492,1,0,0:0:0:0:
36,192,164531,1,0,0:0:0:0:
182,192,164571,128,0,164650:0:0:0:0:
475,192,164571,128,0,164610:0:0:0:0:
329,192,164571,1,0,0:0:0:0:
109,192,164610,128,0,164887:0:0:0:0:
256,192,164729,128,0,164808:0:0:0:0:
36,192,164729,128,0,164887:0:0:0:0:
329,192,164729,128,0,164926:0:0:0:0:
402,192,164729,1,0,0:0:0:0:
475,192,164887,1,0,0:0:0:0:
182,192,164887,1,0,0:0:0:0:
402,192,164887,128,0,164926:0:0:0:0:
329,192,165045,128,0,165123:0:0:0:0:
402,192,165045,128,0,165281:0:0:0:0:
256,192,165045,1,0,0:0:0:0:
109,192,165045,1,0,0:0:0:0:
36,192,165202,128,0,165242:0:0:0:0:
182,192,165202,128,0,165281:0:0:0:0:
256,192,165242,128,0,165400:0:0:0:0:
475,192,165281,1,0,0:0:0:0:
182,192,165360,128,0,165439:0:0:0:0:
402,192,165360,128,0,165400:0:0:0:0:
109,192,165400,128,0,165558:0:0:0:0:
329,192,165439,128,0,165479:0:0:0:0:
36,192,165518,128,0,165716:0:0:0:0:
475,192,165518,128,0,165597:0:0:0:0:
256,192,165518,128,0,165558:0:0:0:0:
402,192,165558,128,0,165716:0:0:0:0:
182,192,165597,1,0,0:0:0:0:
329,192,165676,128,0,165755:0:0:0:0:
256,192,165716,128,0,165873:0:0:0:0:
109,192,165755,1,0,0:0:0:0:
475,192,165795,1,0,0:0:0:0:
182,192,165834,1,0,0:0:0:0:
329,192,165834,128,0,165913:0:0:0:0:
36,192,165834,128,0,165873:0:0:0:0:
402,192,165873,128,0,166150:0:0:0:0:
475,192,165992,128,0,166150:0:0:0:0:
256,192,165992,128,0,166071:0:0:0:0:
182,192,165992,128,0,166189:0:0:0:0:
109,192,165992,1,0,0:0:0:0:
329,192,166150,1,0,0:0:0:0:
36,192,166150,1,0,0:0:0:0:
109,192,166150,128,0,166189:0:0:0:0:
109,192,166308,128,0,166545:0:0:0:0:
256,192,166308,1,0,0:0:0:0:
402,192,166308,1,0,0:0:0:0:
182,192,166308,128,0,166387:0:0:0:0:
329,192,166466,128,0,166545:0:0:0:0:
475,192,166466,128,0,166505:0:0:0:0:
256,192,166505,128,0,166663:0:0:0:0:
36,192,166545,1,0,0:0:0:0:
329,192,166623,128,0,166702:0:0:0:0:
109,192,166623,1,0,0:0:0:0:
402,192,166663,128,0,166939:0:0:0:0:
182,192,166702,1,0,0:0:0:0:
109,192,166781,128,0,166860:0:0:0:0:
36,192,166781,128,0,166939:0:0:0:0:
256,192,166781,128,0,166860:0:0:0:0:
475,192,166860,1,0,0:0:0:0:
109,192,166939,128,0,167097:0:0:0:0:
182,192,166939,128,0,167018:0:0:0:0:
329,192,166939,128,0,167018:0:0:0:0:
475,192,167018,128,0,167097:0:0:0:0:
36,192,167018,1,0,0:0:0:0:
256,192,167097,128,0,167176:0:0:0:0:
182,192,167097,128,0,167255:0:0:0:0:
402,192,167097,128,0,167176:0:0:0:0:
109,192,167176,1,0,0:0:0:0:
36,192,167176,128,0,167255:0:0:0:0:
256,192,167255,128,0,167413:0:0:0:0:
329,192,167255,128,0,167334:0:0:0:0:
475,192,167255,128,0,167334:0:0:0:0:
182,192,167334,1,0,0:0:0:0:
109,192,167334,128,0,167413:0:0:0:0:
36,192,167413,128,0,167492:0:0:0:0:
402,192,167413,128,0,167492:0:0:0:0:
329,192,167413,128,0,167571:0:0:0:0:
256,192,167492,1,0,0:0:0:0:
182,192,167492,128,0,167571:0:0:0:0:
402,192,167571,128,0,167729:0:0:0:0:
475,192,167571,128,0,167650:0:0:0:0:
109,192,167571,128,0,167650:0:0:0:0:
256,192,167650,128,0,167729:0:0:0:0:
329,192,167650,1,0,0:0:0:0:
475,192,167729,128,0,167887:0:0:0:0:
182,192,167729,128,0,167808:0:0:0:0:
36,192,167729,128,0,167808:0:0:0:0:
329,192,167808,128,0,167887:0:0:0:0:
402,192,167808,1,0,0:0:0:0:
256,192,167887,128,0,167966:0:0:0:0:
109,192,167887,128,0,167966:0:0:0:0:
36,192,167887,128,0,168045:0:0:0:0:
329,192,167966,128,0,168045:0:0:0:0:
402,192,167966,1,0,0:0:0:0:
109,192,168045,128,0,168123:0:0:0:0:
182,192,168045,128,0,168123:0:0:0:0:
256,192,168045,128,0,168202:0:0:0:0:
475,192,168045,128,0,168281:0:0:0:0:
329,192,168123,1,0,0:0:0:0:
182,192,168202,128,0,168360:0:0:0:0:
109,192,168202,128,0,168281:0:0:0:0:
36,192,168202,128,0,168281:0:0:0:0:
402,192,168202,128,0,168439:0:0:0:0:
256,192,168281,1,0,0:0:0:0:
329,192,168360,128,0,168597:0:0:0:0:
109,192,168360,128,0,168518:0:0:0:0:
36,192,168360,128,0,168439:0:0:0:0:
475,192,168360,128,0,168439:0:0:0:0:
182,192,168439,1,0,0:0:0:0:
256,192,168518,128,0,168755:0:0:0:0:
36,192,168518,128,0,168676:0:0:0:0:
402,192,168518,128,0,168597:0:0:0:0:
475,192,168518,128,0,168597:0:0:0:0:
109,192,168597,1,0,0:0:0:0:
182,192,168676,128,0,168913:0:0:0:0:
475,192,168676,128,0,168834:0:0:0:0:
329,192,168676,128,0,168755:0:0:0:0:
402,192,168676,128,0,168755:0:0:0:0:
36,192,168755,1,0,0:0:0:0:
109,192,168834,128,0,169071:0:0:0:0:
402,192,168834,128,0,168992:0:0:0:0:
256,192,168834,128,0,168913:0:0:0:0:
329,192,168834,128,0,168913:0:0:0:0:
475,192,168913,1,0,0:0:0:0:
36,192,168992,128,0,169229:0:0:0:0:
329,192,168992,128,0,169150:0:0:0:0:
182,192,168992,128,0,169071:0:0:0:0:
256,192,168992,128,0,169071:0:0:0:0:
402,192,169071,1,0,0:0:0:0:
256,192,169150,128,0,169387:0:0:0:0:
109,192,169150,128,0,169229:0:0:0:0:
182,192,169150,128,0,169229:0:0:0:0:
475,192,169150,128,0,169308:0:0:0:0:
329,192,169229,1,0,0:0:0:0:
182,192,169308,128,0,169426:0:0:0:0:
402,192,169308,128,0,169663:0:0:0:0:
109,192,169347,128,0,169466:0:0:0:0:
36,192,169387,128,0,169505:0:0:0:0:
329,192,169426,1,0,0:0:0:0:
256,192,169466,1,0,0:0:0:0:
475,192,169466,128,0,169979:0:0:0:0:
182,192,169505,1,0,0:0:0:0:
109,192,169545,1,0,0:0:0:0:
329,192,169584,128,0,169702:0:0:0:0:
256,192,169623,128,0,169742:0:0:0:0:
36,192,169623,1,0,0:0:0:0:
182,192,169663,128,0,169781:0:0:0:0:
109,192,169702,128,0,169821:0:0:0:0:
402,192,169742,1,0,0:0:0:0:
329,192,169781,1,0,0:0:0:0:
36,192,169781,128,0,170295:0:0:0:0:
256,192,169821,1,0,0:0:0:0:
182,192,169860,1,0,0:0:0:0:
402,192,169900,128,0,170018:0:0:0:0:
109,192,169939,1,0,0:0:0:0:
329,192,169939,128,0,170058:0:0:0:0:
256,192,169979,128,0,170097:0:0:0:0:
182,192,170018,128,0,170137:0:0:0:0:
475,192,170058,1,0,0:0:0:0:
109,192,170097,128,0,170531:0:0:0:0:
402,192,170097,1,0,0:0:0:0:
329,192,170137,1,0,0:0:0:0:
256,192,170176,1,0,0:0:0:0:
475,192,170216,128,0,170334:0:0:0:0:
182,192,170255,1,0,0:0:0:0:
402,192,170255,128,0,170373:0:0:0:0:
329,192,170295,128,0,170413:0:0:0:0:
256,192,170334,128,0,170452:0:0:0:0:
36,192,170373,128,0,170571:0:0:0:0:
475,192,170413,128,0,170571:0:0:0:0:
182,192,170413,128,0,170492:0:0:0:0:
402,192,170452,128,0,170571:0:0:0:0:
329,192,170492,128,0,170571:0:0:0:0:
256,192,170531,128,0,170571:0:0:0:0:
182,192,170571,1,0,0:0:0:0:
329,192,170650,1,0,0:0:0:0:
182,192,170729,1,0,0:0:0:0:
329,192,170808,1,0,0:0:0:0:
182,192,170887,1,0,0:0:0:0:
109,192,170887,1,0,0:0:0:0:
329,192,170966,1,0,0:0:0:0:
402,192,170966,1,0,0:0:0:0:
109,192,171045,1,0,0:0:0:0:
182,192,171045,1,0,0:0:0:0:
329,192,171123,1,0,0:0:0:0:
402,192,171123,1,0,0:0:0:0:
256,192,171202,1,0,0:0:0:0:
109,192,171202,1,0,0:0:0:0:
36,192,171202,1,0,0:0:0:0:
402,192,171281,1,0,0:0:0:0:
475,192,171281,1,0,0:0:0:0:
329,192,171281,1,0,0:0:0:0:
182,192,171334,1,0,0:0:0:0:
109,192,171360,1,0,0:0:0:0:
36,192,171387,1,0,0:0:0:0:
256,192,171439,1,0,0:0:0:0:
402,192,171439,1,0,0:0:0:0:
182,192,171492,1,0,0:0:0:0:
329,192,171518,1,0,0:0:0:0:
475,192,171518,1,0,0:0:0:0:
109,192,171545,1,0,0:0:0:0:
36,192,171597,1,0,0:0:0:0:
329,192,171676,1,0,0:0:0:0:
182,192,171676,1,0,0:0:0:0:
256,192,171676,1,0,0:0:0:0:
256,192,171834,1,0,0:0:0:0:
109,192,171834,1,0,0:0:0:0:
36,192,171834,1,0,0:0:0:0:
475,192,171834,1,0,0:0:0:0:
402,192,171913,1,0,0:0:0:0:
329,192,171952,1,0,0:0:0:0:
256,192,171972,1,0,0:0:0:0:
182,192,171992,1,0,0:0:0:0:
109,192,172031,1,0,0:0:0:0:
402,192,172071,1,0,0:0:0:0:
329,192,172150,1,0,0:0:0:0:
36,192,172150,1,0,0:0:0:0:
182,192,172150,1,0,0:0:0:0:
475,192,172150,1,0,0:0:0:0:
256,192,172308,1,0,0:0:0:0:
182,192,172466,1,0,0:0:0:0:
36,192,172466,1,0,0:0:0:0:
329,192,172466,1,0,0:0:0:0:
475,192,172466,1,0,0:0:0:0:
256,192,172623,1,0,0:0:0:0:
182,192,172781,1,0,0:0:0:0:
36,192,172781,1,0,0:0:0:0:
329,192,172781,1,0,0:0:0:0:
475,192,172781,1,0,0:0:0:0:
256,192,172939,1,0,0:0:0:0:
109,192,173097,1,0,0:0:0:0:
36,192,173097,1,0,0:0:0:0:
475,192,173097,1,0,0:0:0:0:
329,192,173097,1,0,0:0:0:0:
402,192,173097,1,0,0:0:0:0:
256,192,173255,1,0,0:0:0:0:
109,192,173413,1,0,0:0:0:0:
36,192,173413,1,0,0:0:0:0:
402,192,173413,1,0,0:0:0:0:
475,192,173413,1,0,0:0:0:0:
182,192,173413,1,0,0:0:0:0:
256,192,173571,1,0,0:0:0:0:
182,192,173729,1,0,0:0:0:0:
475,192,173729,1,0,0:0:0:0:
329,192,173729,1,0,0:0:0:0:
36,192,173729,1,0,0:0:0:0:
182,192,173887,1,0,0:0:0:0:
329,192,173887,1,0,0:0:0:0:
256,192,173887,1,0,0:0:0:0:
109,192,174045,1,0,0:0:0:0:
36,192,174045,1,0,0:0:0:0:
475,192,174045,1,0,0:0:0:0:
329,192,174045,1,0,0:0:0:0:
109,192,174150,1,0,0:0:0:0:
182,192,174150,1,0,0:0:0:0:
256,192,174202,1,0,0:0:0:0:
402,192,174255,1,0,0:0:0:0:
329,192,174255,1,0,0:0:0:0:
36,192,174360,1,0,0:0:0:0:
475,192,174360,1,0,0:0:0:0:
402,192,174360,1,0,0:0:0:0:
182,192,174360,1,0,0:0:0:0:
109,192,174360,1,0,0:0:0:0:
256,192,174518,1,0,0:0:0:0:
36,192,174676,1,0,0:0:0:0:
109,192,174676,1,0,0:0:0:0:
402,192,174676,1,0,0:0:0:0:
475,192,174676,1,0,0:0:0:0:
329,192,174676,1,0,0:0:0:0:
256,192,174834,1,0,0:0:0:0:
182,192,174992,1,0,0:0:0:0:
36,192,174992,1,0,0:0:0:0:
329,192,174992,1,0,0:0:0:0:
475,192,174992,1,0,0:0:0:0:
329,192,175150,1,0,0:0:0:0:
182,192,175150,1,0,0:0:0:0:
256,192,175150,1,0,0:0:0:0:
182,192,175308,1,0,0:0:0:0:
36,192,175308,1,0,0:0:0:0:
475,192,175308,1,0,0:0:0:0:
402,192,175308,1,0,0:0:0:0:
402,192,175413,1,0,0:0:0:0:
329,192,175413,1,0,0:0:0:0:
256,192,175466,1,0,0:0:0:0:
109,192,175518,1,0,0:0:0:0:
182,192,175518,1,0,0:0:0:0:
109,192,175623,1,0,0:0:0:0:
36,192,175623,1,0,0:0:0:0:
329,192,175623,1,0,0:0:0:0:
475,192,175623,1,0,0:0:0:0:
182,192,175729,1,0,0:0:0:0:
329,192,175729,1,0,0:0:0:0:
475,192,175729,1,0,0:0:0:0:
402,192,175729,1,0,0:0:0:0:
475,192,175834,1,0,0:0:0:0:
329,192,175834,1,0,0:0:0:0:
36,192,175834,1,0,0:0:0:0:
402,192,175834,1,0,0:0:0:0:
256,192,175939,1,0,0:0:0:0:
182,192,175939,1,0,0:0:0:0:
36,192,175939,1,0,0:0:0:0:
256,192,176045,1,0,0:0:0:0:
329,192,176045,1,0,0:0:0:0:
475,192,176045,1,0,0:0:0:0:
182,192,176150,1,0,0:0:0:0:
109,192,176150,1,0,0:0:0:0:
329,192,176150,1,0,0:0:0:0:
402,192,176255,1,0,0:0:0:0:
475,192,176255,1,0,0:0:0:0:
36,192,176255,1,0,0:0:0:0:
329,192,176308,1,0,0:0:0:0:
182,192,176308,1,0,0:0:0:0:
402,192,176360,1,0,0:0:0:0:
475,192,176360,1,0,0:0:0:0:
256,192,176360,1,0,0:0:0:0:
109,192,176466,1,0,0:0:0:0:
36,192,176466,1,0,0:0:0:0:
256,192,176466,1,0,0:0:0:0:
109,192,176571,1,0,0:0:0:0:
36,192,176571,1,0,0:0:0:0:
402,192,176571,1,0,0:0:0:0:
475,192,176571,1,0,0:0:0:0:
256,192,176571,128,0,176729:0:0:0:0:
182,192,176781,1,0,0:0:0:0:
109,192,176781,1,0,0:0:0:0:
329,192,176781,1,0,0:0:0:0:
402,192,176781,1,0,0:0:0:0:
256,192,176887,1,0,0:0:0:0:
182,192,176887,1,0,0:0:0:0:
36,192,176887,1,0,0:0:0:0:
329,192,176887,1,0,0:0:0:0:
475,192,176887,1,0,0:0:0:0:
109,192,176966,1,0,0:0:0:0:
182,192,177005,1,0,0:0:0:0:
256,192,177025,1,0,0:0:0:0:
329,192,177045,1,0,0:0:0:0:
402,192,177084,1,0,0:0:0:0:
109,192,177123,1,0,0:0:0:0:
256,192,177202,1,0,0:0:0:0:
182,192,177202,1,0,0:0:0:0:
36,192,177202,1,0,0:0:0:0:
475,192,177202,128,0,177360:0:0:0:0:
256,192,177360,1,0,0:0:0:0:
182,192,177518,1,0,0:0:0:0:
36,192,177518,1,0,0:0:0:0:
475,192,177518,1,0,0:0:0:0:
402,192,177518,1,0,0:0:0:0:
256,192,177676,1,0,0:0:0:0:
256,192,177834,1,0,0:0:0:0:
36,192,177834,1,0,0:0:0:0:
109,192,177834,1,0,0:0:0:0:
402,192,177834,1,0,0:0:0:0:
402,192,177939,1,0,0:0:0:0:
329,192,177972,1,0,0:0:0:0:
475,192,177972,1,0,0:0:0:0:
256,192,178150,1,0,0:0:0:0:
109,192,178150,1,0,0:0:0:0:
36,192,178150,1,0,0:0:0:0:
402,192,178150,1,0,0:0:0:0:
329,192,178308,1,0,0:0:0:0:
256,192,178466,1,0,0:0:0:0:
182,192,178466,1,0,0:0:0:0:
36,192,178466,1,0,0:0:0:0:
475,192,178466,128,0,178623:0:0:0:0:
256,192,178623,1,0,0:0:0:0:
182,192,178781,1,0,0:0:0:0:
36,192,178781,1,0,0:0:0:0:
475,192,178781,1,0,0:0:0:0:
402,192,178834,1,0,0:0:0:0:
329,192,178887,1,0,0:0:0:0:
182,192,178939,1,0,0:0:0:0:
256,192,179097,1,0,0:0:0:0:
475,192,179097,128,0,179354:0:0:0:0:
36,192,179097,128,0,179354:0:0:0:0:
109,192,179137,128,0,179235:0:0:0:0:
402,192,179137,128,0,179235:0:0:0:0:
256,192,179255,128,0,179354:0:0:0:0:
182,192,179255,128,0,179354:0:0:0:0:
329,192,179255,128,0,179354:0:0:0:0:
329,192,179413,1,0,0:0:0:0:
402,192,179413,1,0,0:0:0:0:
475,192,179413,1,0,0:0:0:0:
36,192,179413,1,0,0:0:0:0:
109,192,179452,1,0,0:0:0:0:
182,192,179492,1,0,0:0:0:0:
256,192,179531,1,0,0:0:0:0:
329,192,179571,1,0,0:0:0:0:
256,192,179729,1,0,0:0:0:0:
182,192,179729,1,0,0:0:0:0:
36,192,179729,1,0,0:0:0:0:
475,192,179729,128,0,179887:0:0:0:0:
256,192,179887,1,0,0:0:0:0:
182,192,180045,1,0,0:0:0:0:
36,192,180045,1,0,0:0:0:0:
402,192,180045,128,0,180084:0:0:0:0:
475,192,180045,128,0,180084:0:0:0:0:
256,192,180202,1,0,0:0:0:0:
256,192,180360,1,0,0:0:0:0:
475,192,180360,1,0,0:0:0:0:
402,192,180360,1,0,0:0:0:0:
36,192,180360,1,0,0:0:0:0:
109,192,180518,1,0,0:0:0:0:
402,192,180518,1,0,0:0:0:0:
329,192,180676,1,0,0:0:0:0:
182,192,180676,1,0,0:0:0:0:
475,192,180676,1,0,0:0:0:0:
36,192,180676,1,0,0:0:0:0:
256,192,180676,128,0,181288:0:0:0:0:
109,192,180834,128,0,180873:0:0:0:0:
402,192,180913,128,0,180952:0:0:0:0:
109,192,180992,128,0,181031:0:0:0:0:
402,192,181071,128,0,181110:0:0:0:0:
36,192,181150,128,0,181209:0:0:0:0:
182,192,181150,128,0,181209:0:0:0:0:
329,192,181229,128,0,181288:0:0:0:0:
475,192,181229,128,0,181288:0:0:0:0:
402,192,181308,1,0,0:0:0:0:
182,192,181308,128,0,181387:0:0:0:0:
109,192,181308,128,0,181387:0:0:0:0:
36,192,181308,128,0,181387:0:0:0:0:
109,192,181466,1,0,0:0:0:0:
329,192,181466,128,0,181545:0:0:0:0:
402,192,181466,128,0,181545:0:0:0:0:
475,192,181466,128,0,181545:0:0:0:0:
182,192,181623,128,0,181702:0:0:0:0:
329,192,181623,128,0,181702:0:0:0:0:
475,192,181623,128,0,181781:0:0:0:0:
36,192,181623,128,0,181781:0:0:0:0:
256,192,181623,128,0,181702:0:0:0:0:
256,192,181781,128,0,181939:0:0:0:0:
109,192,181939,1,0,0:0:0:0:
36,192,181939,1,0,0:0:0:0:
475,192,181939,1,0,0:0:0:0:
402,192,181939,1,0,0:0:0:0:
109,192,182097,1,0,0:0:0:0:
402,192,182176,128,0,182255:0:0:0:0:
329,192,182255,1,0,0:0:0:0:
256,192,182255,1,0,0:0:0:0:
36,192,182255,1,0,0:0:0:0:
182,192,182255,1,0,0:0:0:0:
475,192,182255,1,0,0:0:0:0:
109,192,182334,1,0,0:0:0:0:
182,192,182413,1,0,0:0:0:0:
475,192,182413,1,0,0:0:0:0:
329,192,182413,1,0,0:0:0:0:
109,192,182492,1,0,0:0:0:0:
36,192,182492,1,0,0:0:0:0:
329,192,182492,1,0,0:0:0:0:
256,192,182571,1,0,0:0:0:0:
402,192,182571,1,0,0:0:0:0:
475,192,182571,1,0,0:0:0:0:
182,192,182571,128,0,182729:0:0:0:0:
36,192,182650,1,0,0:0:0:0:
256,192,182729,1,0,0:0:0:0:
329,192,182729,1,0,0:0:0:0:
109,192,182808,128,0,182887:0:0:0:0:
182,192,182808,1,0,0:0:0:0:
402,192,182808,1,0,0:0:0:0:
256,192,182887,1,0,0:0:0:0:
36,192,182887,1,0,0:0:0:0:
475,192,182887,1,0,0:0:0:0:
329,192,182887,1,0,0:0:0:0:
402,192,182966,1,0,0:0:0:0:
182,192,183045,1,0,0:0:0:0:
36,192,183045,1,0,0:0:0:0:
329,192,183045,1,0,0:0:0:0:
182,192,183123,1,0,0:0:0:0:
402,192,183123,1,0,0:0:0:0:
475,192,183123,1,0,0:0:0:0:
329,192,183202,1,0,0:0:0:0:
256,192,183202,1,0,0:0:0:0:
36,192,183202,1,0,0:0:0:0:
109,192,183202,128,0,183360:0:0:0:0:
475,192,183281,1,0,0:0:0:0:
402,192,183360,1,0,0:0:0:0:
182,192,183360,1,0,0:0:0:0:
256,192,183439,128,0,183518:0:0:0:0:
36,192,183439,1,0,0:0:0:0:
109,192,183439,1,0,0:0:0:0:
182,192,183518,1,0,0:0:0:0:
329,192,183518,1,0,0:0:0:0:
402,192,183518,1,0,0:0:0:0:
475,192,183518,1,0,0:0:0:0:
109,192,183597,1,0,0:0:0:0:
256,192,183676,1,0,0:0:0:0:
402,192,183676,1,0,0:0:0:0:
475,192,183676,1,0,0:0:0:0:
475,192,183755,1,0,0:0:0:0:
182,192,183755,1,0,0:0:0:0:
109,192,183755,1,0,0:0:0:0:
402,192,183834,128,0,183992:0:0:0:0:
329,192,183834,1,0,0:0:0:0:
256,192,183834,1,0,0:0:0:0:
36,192,183834,1,0,0:0:0:0:
182,192,183913,1,0,0:0:0:0:
109,192,183992,1,0,0:0:0:0:
329,192,183992,1,0,0:0:0:0:
256,192,184071,128,0,184150:0:0:0:0:
475,192,184071,1,0,0:0:0:0:
402,192,184071,1,0,0:0:0:0:
329,192,184150,1,0,0:0:0:0:
182,192,184150,1,0,0:0:0:0:
109,192,184150,1,0,0:0:0:0:
36,192,184150,1,0,0:0:0:0:
329,192,184308,1,0,0:0:0:0:
36,192,184308,128,0,184406:0:0:0:0:
256,192,184308,128,0,184406:0:0:0:0:
475,192,184308,128,0,184406:0:0:0:0:
182,192,184308,1,0,0:0:0:0:
109,192,184466,1,0,0:0:0:0:
402,192,184466,1,0,0:0:0:0:
475,192,184466,1,0,0:0:0:0:
36,192,184466,128,0,184623:0:0:0:0:
182,192,184466,1,0,0:0:0:0:
256,192,184545,1,0,0:0:0:0:
329,192,184623,1,0,0:0:0:0:
475,192,184623,1,0,0:0:0:0:
182,192,184702,128,0,184781:0:0:0:0:
256,192,184702,1,0,0:0:0:0:
36,192,184702,1,0,0:0:0:0:
109,192,184781,1,0,0:0:0:0:
329,192,184781,1,0,0:0:0:0:
402,192,184781,1,0,0:0:0:0:
475,192,184781,1,0,0:0:0:0:
182,192,184860,1,0,0:0:0:0:
36,192,184939,1,0,0:0:0:0:
109,192,184939,1,0,0:0:0:0:
402,192,184939,1,0,0:0:0:0:
256,192,185018,1,0,0:0:0:0:
329,192,185018,1,0,0:0:0:0:
109,192,185018,1,0,0:0:0:0:
475,192,185097,128,0,185255:0:0:0:0:
402,192,185097,1,0,0:0:0:0:
182,192,185097,1,0,0:0:0:0:
36,192,185097,1,0,0:0:0:0:
256,192,185176,1,0,0:0:0:0:
182,192,185255,1,0,0:0:0:0:
36,192,185255,1,0,0:0:0:0:
329,192,185334,128,0,185413:0:0:0:0:
256,192,185334,1,0,0:0:0:0:
475,192,185334,1,0,0:0:0:0:
402,192,185413,1,0,0:0:0:0:
182,192,185413,1,0,0:0:0:0:
109,192,185413,1,0,0:0:0:0:
36,192,185413,1,0,0:0:0:0:
329,192,185492,1,0,0:0:0:0:
402,192,185571,1,0,0:0:0:0:
475,192,185571,1,0,0:0:0:0:
109,192,185571,1,0,0:0:0:0:
256,192,185650,1,0,0:0:0:0:
182,192,185650,1,0,0:0:0:0:
402,192,185650,1,0,0:0:0:0:
329,192,185729,1,0,0:0:0:0:
475,192,185729,1,0,0:0:0:0:
109,192,185729,1,0,0:0:0:0:
36,192,185729,1,0,0:0:0:0:
109,192,185887,1,0,0:0:0:0:
402,192,185887,1,0,0:0:0:0:
182,192,185887,1,0,0:0:0:0:
329,192,186045,1,0,0:0:0:0:
256,192,186045,1,0,0:0:0:0:
182,192,186045,1,0,0:0:0:0:
329,192,186202,1,0,0:0:0:0:
402,192,186202,1,0,0:0:0:0:
109,192,186202,1,0,0:0:0:0:
475,192,186360,1,0,0:0:0:0:
36,192,186360,1,0,0:0:0:0:
402,192,186360,1,0,0:0:0:0:
182,192,186360,128,0,186439:0:0:0:0:
256,192,186400,128,0,186439:0:0:0:0:
329,192,186439,1,0,0:0:0:0:
36,192,186518,1,0,0:0:0:0:
109,192,186518,1,0,0:0:0:0:
36,192,186676,1,0,0:0:0:0:
329,192,186676,1,0,0:0:0:0:
402,192,186676,1,0,0:0:0:0:
475,192,186676,1,0,0:0:0:0:
256,192,186676,1,0,0:0:0:0:
402,192,186834,1,0,0:0:0:0:
475,192,186834,1,0,0:0:0:0:
109,192,186834,1,0,0:0:0:0:
256,192,186834,1,0,0:0:0:0:
256,192,186913,1,0,0:0:0:0:
36,192,186992,128,0,187229:0:0:0:0:
475,192,186992,128,0,187229:0:0:0:0:
109,192,186992,1,0,0:0:0:0:
329,192,186992,128,0,187229:0:0:0:0:
182,192,186992,128,0,187229:0:0:0:0:
256,192,187150,128,0,187229:0:0:0:0:
402,192,187150,128,0,187229:0:0:0:0:
109,192,187150,128,0,187229:0:0:0:0:
182,192,187308,128,0,187406:0:0:0:0:
475,192,187308,128,0,187406:0:0:0:0:
109,192,187308,128,0,187406:0:0:0:0:
329,192,187308,128,0,187545:0:0:0:0:
402,192,187308,128,0,187406:0:0:0:0:
36,192,187308,128,0,187545:0:0:0:0:
109,192,187466,128,0,187545:0:0:0:0:
256,192,187466,128,0,187545:0:0:0:0:
475,192,187466,128,0,187545:0:0:0:0:
329,192,187623,1,0,0:0:0:0:
36,192,187623,128,0,187722:0:0:0:0:
475,192,187623,1,0,0:0:0:0:
182,192,187623,128,0,187722:0:0:0:0:
256,192,187623,128,0,187860:0:0:0:0:
402,192,187623,128,0,187860:0:0:0:0:
329,192,187781,128,0,187860:0:0:0:0:
475,192,187781,128,0,187860:0:0:0:0:
109,192,187781,128,0,187860:0:0:0:0:
36,192,187939,128,0,188038:0:0:0:0:
329,192,187939,128,0,188038:0:0:0:0:
402,192,187939,128,0,188038:0:0:0:0:
109,192,187939,128,0,188038:0:0:0:0:
182,192,187939,128,0,188176:0:0:0:0:
475,192,187939,128,0,188176:0:0:0:0:
256,192,188097,128,0,188176:0:0:0:0:
36,192,188097,128,0,188176:0:0:0:0:
329,192,188097,1,0,0:0:0:0:
402,192,188176,1,0,0:0:0:0:
256,192,188255,128,0,188492:0:0:0:0:
36,192,188255,1,0,0:0:0:0:
182,192,188255,1,0,0:0:0:0:
475,192,188255,128,0,188354:0:0:0:0:
109,192,188255,128,0,188492:0:0:0:0:
329,192,188255,128,0,188354:0:0:0:0:
36,192,188413,128,0,188492:0:0:0:0:
475,192,188413,128,0,188492:0:0:0:0:
402,192,188413,128,0,188492:0:0:0:0:
109,192,188571,128,0,188670:0:0:0:0:
256,192,188571,128,0,188670:0:0:0:0:
475,192,188571,128,0,188689:0:0:0:0:
182,192,188571,128,0,188670:0:0:0:0:
36,192,188571,128,0,188808:0:0:0:0:
329,192,188571,128,0,188808:0:0:0:0:
109,192,188729,128,0,188808:0:0:0:0:
256,192,188729,128,0,188808:0:0:0:0:
402,192,188729,128,0,188808:0:0:0:0:
329,192,188887,1,0,0:0:0:0:
475,192,188887,1,0,0:0:0:0:
182,192,188887,128,0,188985:0:0:0:0:
36,192,188887,128,0,188985:0:0:0:0:
109,192,188887,128,0,189123:0:0:0:0:
402,192,188887,128,0,189123:0:0:0:0:
475,192,189045,128,0,189123:0:0:0:0:
182,192,189045,128,0,189123:0:0:0:0:
256,192,189045,128,0,189123:0:0:0:0:
329,192,189202,1,0,0:0:0:0:
475,192,189202,128,0,189281:0:0:0:0:
256,192,189202,128,0,189439:0:0:0:0:
182,192,189281,1,0,0:0:0:0:
36,192,189281,128,0,189360:0:0:0:0:
402,192,189281,1,0,0:0:0:0:
329,192,189360,1,0,0:0:0:0:
475,192,189360,128,0,189439:0:0:0:0:
109,192,189360,1,0,0:0:0:0:
182,192,189439,1,0,0:0:0:0:
36,192,189439,128,0,189518:0:0:0:0:
402,192,189518,1,0,0:0:0:0:
475,192,189518,128,0,190071:0:0:0:0:
256,192,189518,128,0,189597:0:0:0:0:
109,192,189597,128,0,189676:0:0:0:0:
256,192,189676,128,0,189755:0:0:0:0:
402,192,189676,128,0,189834:0:0:0:0:
182,192,189755,128,0,189834:0:0:0:0:
329,192,189834,128,0,189992:0:0:0:0:
109,192,189834,128,0,189913:0:0:0:0:
182,192,189913,128,0,189992:0:0:0:0:
256,192,189992,128,0,190150:0:0:0:0:
36,192,189992,128,0,190071:0:0:0:0:
402,192,190071,128,0,190229:0:0:0:0:
475,192,190150,128,0,190387:0:0:0:0:
36,192,190150,128,0,190229:0:0:0:0:
182,192,190150,128,0,190308:0:0:0:0:
329,192,190229,128,0,190387:0:0:0:0:
109,192,190308,128,0,190623:0:0:0:0:
402,192,190308,1,0,0:0:0:0:
256,192,190387,128,0,190466:0:0:0:0:
475,192,190466,1,0,0:0:0:0:
36,192,190466,128,0,190702:0:0:0:0:
182,192,190466,128,0,190545:0:0:0:0:
402,192,190466,1,0,0:0:0:0:
329,192,190545,1,0,0:0:0:0:
256,192,190623,1,0,0:0:0:0:
475,192,190623,1,0,0:0:0:0:
182,192,190702,1,0,0:0:0:0:
36,192,190781,1,0,0:0:0:0:
402,192,190781,1,0,0:0:0:0:
475,192,190781,1,0,0:0:0:0:
256,192,190781,1,0,0:0:0:0:
109,192,190939,1,0,0:0:0:0:
329,192,190939,1,0,0:0:0:0:
402,192,190939,1,0,0:0:0:0:
256,192,191097,1,0,0:0:0:0:
329,192,191097,1,0,0:0:0:0:
182,192,191097,1,0,0:0:0:0:
182,192,191255,1,0,0:0:0:0:
109,192,191255,1,0,0:0:0:0:
402,192,191255,1,0,0:0:0:0:
475,192,191413,1,0,0:0:0:0:
109,192,191413,1,0,0:0:0:0:
36,192,191413,1,0,0:0:0:0:
329,192,191413,128,0,191492:0:0:0:0:
256,192,191452,128,0,191492:0:0:0:0:
182,192,191492,1,0,0:0:0:0:
36,192,191571,1,0,0:0:0:0:
329,192,191571,1,0,0:0:0:0:
182,192,191729,1,0,0:0:0:0:
475,192,191729,1,0,0:0:0:0:
402,192,191808,1,0,0:0:0:0:
329,192,191808,1,0,0:0:0:0:
182,192,191887,1,0,0:0:0:0:
475,192,191887,1,0,0:0:0:0:
402,192,191966,1,0,0:0:0:0:
329,192,191966,1,0,0:0:0:0:
256,192,192045,1,0,0:0:0:0:
182,192,192045,1,0,0:0:0:0:
109,192,192045,1,0,0:0:0:0:
36,192,192045,128,0,192281:0:0:0:0:
475,192,192045,1,0,0:0:0:0:
256,192,192202,128,0,192439:0:0:0:0:
402,192,192202,1,0,0:0:0:0:
182,192,192255,1,0,0:0:0:0:
109,192,192308,1,0,0:0:0:0:
402,192,192360,128,0,192597:0:0:0:0:
36,192,192360,1,0,0:0:0:0:
329,192,192360,1,0,0:0:0:0:
475,192,192360,1,0,0:0:0:0:
109,192,192439,128,0,192518:0:0:0:0:
182,192,192479,128,0,192597:0:0:0:0:
475,192,192518,128,0,192755:0:0:0:0:
256,192,192518,128,0,192676:0:0:0:0:
109,192,192597,1,0,0:0:0:0:
36,192,192676,1,0,0:0:0:0:
329,192,192676,1,0,0:0:0:0:
182,192,192755,1,0,0:0:0:0:
402,192,192755,128,0,192795:0:0:0:0:
329,192,192834,128,0,193071:0:0:0:0:
109,192,192834,1,0,0:0:0:0:
475,192,192834,1,0,0:0:0:0:
256,192,192913,1,0,0:0:0:0:
182,192,192992,128,0,193229:0:0:0:0:
109,192,192992,1,0,0:0:0:0:
36,192,192992,1,0,0:0:0:0:
402,192,192992,1,0,0:0:0:0:
475,192,193071,1,0,0:0:0:0:
36,192,193150,128,0,193387:0:0:0:0:
256,192,193150,1,0,0:0:0:0:
329,192,193150,1,0,0:0:0:0:
402,192,193229,1,0,0:0:0:0:
109,192,193308,128,0,193466:0:0:0:0:
256,192,193308,1,0,0:0:0:0:
475,192,193308,1,0,0:0:0:0:
182,192,193308,1,0,0:0:0:0:
402,192,193387,1,0,0:0:0:0:
329,192,193466,1,0,0:0:0:0:
182,192,193466,128,0,193505:0:0:0:0:
402,192,193545,1,0,0:0:0:0:
109,192,193545,128,0,193584:0:0:0:0:
182,192,193623,128,0,193860:0:0:0:0:
475,192,193623,1,0,0:0:0:0:
36,192,193623,1,0,0:0:0:0:
329,192,193623,1,0,0:0:0:0:
256,192,193702,1,0,0:0:0:0:
36,192,193781,128,0,194018:0:0:0:0:
402,192,193781,1,0,0:0:0:0:
329,192,193781,1,0,0:0:0:0:
475,192,193860,1,0,0:0:0:0:
256,192,193939,1,0,0:0:0:0:
109,192,193939,1,0,0:0:0:0:
182,192,193939,128,0,194176:0:0:0:0:
402,192,194018,1,0,0:0:0:0:
36,192,194097,128,0,194334:0:0:0:0:
256,192,194097,1,0,0:0:0:0:
475,192,194097,1,0,0:0:0:0:
329,192,194176,1,0,0:0:0:0:
109,192,194255,128,0,194492:0:0:0:0:
402,192,194255,1,0,0:0:0:0:
475,192,194255,1,0,0:0:0:0:
256,192,194255,1,0,0:0:0:0:
182,192,194255,1,0,0:0:0:0:
256,192,194413,128,0,194650:0:0:0:0:
329,192,194413,1,0,0:0:0:0:
402,192,194413,1,0,0:0:0:0:
36,192,194413,1,0,0:0:0:0:
402,192,194571,128,0,194808:0:0:0:0:
182,192,194571,1,0,0:0:0:0:
475,192,194571,1,0,0:0:0:0:
36,192,194571,1,0,0:0:0:0:
329,192,194729,128,0,194966:0:0:0:0:
182,192,194781,1,0,0:0:0:0:
109,192,194834,1,0,0:0:0:0:
36,192,194887,1,0,0:0:0:0:
402,192,194887,1,0,0:0:0:0:
475,192,194887,1,0,0:0:0:0:
256,192,194887,128,0,195123:0:0:0:0:
109,192,194966,1,0,0:0:0:0:
475,192,195045,128,0,195281:0:0:0:0:
182,192,195045,1,0,0:0:0:0:
36,192,195045,1,0,0:0:0:0:
402,192,195045,128,0,195202:0:0:0:0:
329,192,195123,1,0,0:0:0:0:
182,192,195202,1,0,0:0:0:0:
36,192,195202,1,0,0:0:0:0:
256,192,195281,1,0,0:0:0:0:
402,192,195281,128,0,195321:0:0:0:0:
329,192,195360,128,0,195597:0:0:0:0:
475,192,195360,1,0,0:0:0:0:
109,192,195360,1,0,0:0:0:0:
256,192,195439,1,0,0:0:0:0:
182,192,195518,128,0,195755:0:0:0:0:
402,192,195518,1,0,0:0:0:0:
475,192,195518,1,0,0:0:0:0:
36,192,195518,1,0,0:0:0:0:
109,192,195597,1,0,0:0:0:0:
36,192,195676,128,0,195913:0:0:0:0:
256,192,195676,1,0,0:0:0:0:
329,192,195676,1,0,0:0:0:0:
402,192,195755,1,0,0:0:0:0:
109,192,195834,128,0,195913:0:0:0:0:
256,192,195834,1,0,0:0:0:0:
475,192,195834,1,0,0:0:0:0:
182,192,195834,1,0,0:0:0:0:
329,192,195913,1,0,0:0:0:0:
109,192,195992,128,0,196229:0:0:0:0:
256,192,195992,1,0,0:0:0:0:
182,192,195992,1,0,0:0:0:0:
475,192,195992,1,0,0:0:0:0:
329,192,196071,1,0,0:0:0:0:
182,192,196150,1,0,0:0:0:0:
402,192,196150,128,0,196308:0:0:0:0:
109,192,196308,128,0,196387:0:0:0:0:
329,192,196308,1,0,0:0:0:0:
182,192,196387,1,0,0:0:0:0:
402,192,196387,128,0,196466:0:0:0:0:
109,192,196466,1,0,0:0:0:0:
36,192,196466,128,0,196702:0:0:0:0:
256,192,196466,128,0,196702:0:0:0:0:
475,192,196466,128,0,196702:0:0:0:0:
329,192,196623,1,0,0:0:0:0:
182,192,196623,1,0,0:0:0:0:
36,192,196781,128,0,197097:0:0:0:0:
109,192,196808,128,0,197045:0:0:0:0:
182,192,196834,128,0,196992:0:0:0:0:
256,192,196860,128,0,196939:0:0:0:0:
329,192,196887,1,0,0:0:0:0:
475,192,196939,1,0,0:0:0:0:
402,192,196992,1,0,0:0:0:0:
329,192,197045,1,0,0:0:0:0:
256,192,197097,1,0,0:0:0:0:
475,192,197097,1,0,0:0:0:0:
182,192,197097,128,0,197334:0:0:0:0:
256,192,197255,128,0,197387:0:0:0:0:
36,192,197255,1,0,0:0:0:0:
329,192,197308,128,0,197413:0:0:0:0:
402,192,197360,128,0,197413:0:0:0:0:
475,192,197413,1,0,0:0:0:0:
36,192,197413,1,0,0:0:0:0:
109,192,197413,128,0,197650:0:0:0:0:
182,192,197413,1,0,0:0:0:0:
182,192,197571,128,0,197650:0:0:0:0:
329,192,197571,128,0,197650:0:0:0:0:
475,192,197571,1,0,0:0:0:0:
402,192,197571,128,0,197729:0:0:0:0:
109,192,197729,1,0,0:0:0:0:
36,192,197729,1,0,0:0:0:0:
256,192,197729,128,0,197966:0:0:0:0:
402,192,197808,1,0,0:0:0:0:
182,192,197887,128,0,198018:0:0:0:0:
402,192,197887,128,0,198123:0:0:0:0:
109,192,197939,128,0,198045:0:0:0:0:
36,192,197992,128,0,198045:0:0:0:0:
329,192,198045,128,0,198281:0:0:0:0:
475,192,198045,1,0,0:0:0:0:
256,192,198045,1,0,0:0:0:0:
182,192,198202,128,0,198439:0:0:0:0:
109,192,198202,1,0,0:0:0:0:
402,192,198202,1,0,0:0:0:0:
475,192,198360,128,0,198597:0:0:0:0:
36,192,198360,1,0,0:0:0:0:
329,192,198360,1,0,0:0:0:0:
109,192,198360,128,0,198518:0:0:0:0:
402,192,198518,128,0,198650:0:0:0:0:
182,192,198518,128,0,198558:0:0:0:0:
329,192,198571,128,0,198676:0:0:0:0:
109,192,198597,128,0,198637:0:0:0:0:
256,192,198623,128,0,198676:0:0:0:0:
182,192,198676,1,0,0:0:0:0:
475,192,198676,1,0,0:0:0:0:
36,192,198676,128,0,198913:0:0:0:0:
182,192,198834,128,0,199071:0:0:0:0:
329,192,198834,1,0,0:0:0:0:
256,192,198834,1,0,0:0:0:0:
329,192,198992,128,0,199229:0:0:0:0:
402,192,199012,1,0,0:0:0:0:
475,192,199031,1,0,0:0:0:0:
36,192,199031,1,0,0:0:0:0:
109,192,199051,1,0,0:0:0:0:
256,192,199150,128,0,199281:0:0:0:0:
182,192,199202,128,0,199308:0:0:0:0:
109,192,199255,128,0,199308:0:0:0:0:
36,192,199308,1,0,0:0:0:0:
402,192,199308,1,0,0:0:0:0:
475,192,199308,128,0,199545:0:0:0:0:
329,192,199308,1,0,0:0:0:0:
182,192,199466,128,0,199702:0:0:0:0:
36,192,199466,1,0,0:0:0:0:
329,192,199466,1,0,0:0:0:0:
36,192,199623,128,0,199860:0:0:0:0:
475,192,199623,128,0,199702:0:0:0:0:
402,192,199623,1,0,0:0:0:0:
256,192,199729,1,0,0:0:0:0:
329,192,199755,1,0,0:0:0:0:
109,192,199781,128,0,199913:0:0:0:0:
475,192,199781,128,0,199860:0:0:0:0:
182,192,199834,128,0,199939:0:0:0:0:
256,192,199887,128,0,199939:0:0:0:0:
329,192,199939,1,0,0:0:0:0:
36,192,199939,1,0,0:0:0:0:
475,192,199939,1,0,0:0:0:0:
402,192,199939,128,0,200176:0:0:0:0:
329,192,200097,128,0,200176:0:0:0:0:
182,192,200097,128,0,200176:0:0:0:0:
109,192,200097,128,0,200255:0:0:0:0:
36,192,200176,1,0,0:0:0:0:
256,192,200255,1,0,0:0:0:0:
402,192,200334,1,0,0:0:0:0:
109,192,200334,1,0,0:0:0:0:
109,192,200413,128,0,200729:0:0:0:0:
256,192,200413,1,0,0:0:0:0:
256,192,200571,128,0,200808:0:0:0:0:
402,192,200571,1,0,0:0:0:0:
402,192,200729,128,0,200887:0:0:0:0:
475,192,200729,1,0,0:0:0:0:
182,192,200808,1,0,0:0:0:0:
109,192,200887,1,0,0:0:0:0:
36,192,200887,1,0,0:0:0:0:
256,192,200887,1,0,0:0:0:0:
402,192,200966,5,0,0:0:0:0:
475,192,200966,1,0,0:0:0:0:
109,192,201045,1,0,0:0:0:0:
182,192,201045,1,0,0:0:0:0:
329,192,201123,1,0,0:0:0:0:
402,192,201123,1,0,0:0:0:0:
182,192,201202,1,0,0:0:0:0:
256,192,201242,1,0,0:0:0:0:
329,192,201281,1,0,0:0:0:0:
109,192,201360,1,0,0:0:0:0:
256,192,201400,1,0,0:0:0:0:
402,192,201439,1,0,0:0:0:0:
475,192,201518,1,0,0:0:0:0:
36,192,201518,128,0,201637:0:0:0:0:
256,192,201538,1,0,0:0:0:0:
182,192,201558,128,0,201716:0:0:0:0:
329,192,201597,128,0,201795:0:0:0:0:
109,192,201676,1,0,0:0:0:0:
256,192,201755,1,0,0:0:0:0:
182,192,201834,1,0,0:0:0:0:
475,192,201834,128,0,202071:0:0:0:0:
109,192,201860,1,0,0:0:0:0:
402,192,201873,128,0,202051:0:0:0:0:
36,192,201887,1,0,0:0:0:0:
329,192,201913,128,0,202031:0:0:0:0:
256,192,201952,128,0,202012:0:0:0:0:
182,192,201992,1,0,0:0:0:0:
329,192,202150,128,0,202248:0:0:0:0:
256,192,202150,1,0,0:0:0:0:
109,192,202150,1,0,0:0:0:0:
36,192,202150,1,0,0:0:0:0:
475,192,202189,128,0,202288:0:0:0:0:
329,192,202308,128,0,202367:0:0:0:0:
475,192,202347,128,0,202406:0:0:0:0:
329,192,202466,1,0,0:0:0:0:
36,192,202466,1,0,0:0:0:0:
109,192,202466,1,0,0:0:0:0:
182,192,202466,1,0,0:0:0:0:
475,192,202505,1,0,0:0:0:0:
256,192,202518,1,0,0:0:0:0:
182,192,202571,1,0,0:0:0:0:
109,192,202623,1,0,0:0:0:0:
402,192,202623,1,0,0:0:0:0:
36,192,202676,1,0,0:0:0:0:
329,192,202676,1,0,0:0:0:0:
256,192,202729,1,0,0:0:0:0:
109,192,202781,1,0,0:0:0:0:
402,192,202781,1,0,0:0:0:0:
475,192,202781,1,0,0:0:0:0:
182,192,202860,1,0,0:0:0:0:
329,192,202860,1,0,0:0:0:0:
36,192,202939,1,0,0:0:0:0:
402,192,202939,1,0,0:0:0:0:
182,192,202992,1,0,0:0:0:0:
475,192,202992,1,0,0:0:0:0:
256,192,203045,1,0,0:0:0:0:
109,192,203097,1,0,0:0:0:0:
475,192,203097,1,0,0:0:0:0:
36,192,203097,1,0,0:0:0:0:
402,192,203137,1,0,0:0:0:0:
329,192,203176,1,0,0:0:0:0:
109,192,203176,1,0,0:0:0:0:
256,192,203216,1,0,0:0:0:0:
36,192,203255,1,0,0:0:0:0:
402,192,203255,1,0,0:0:0:0:
109,192,203295,1,0,0:0:0:0:
182,192,203334,1,0,0:0:0:0:
256,192,203373,1,0,0:0:0:0:
329,192,203413,1,0,0:0:0:0:
475,192,203413,1,0,0:0:0:0:
109,192,203466,1,0,0:0:0:0:
36,192,203518,1,0,0:0:0:0:
402,192,203518,1,0,0:0:0:0:
182,192,203571,1,0,0:0:0:0:
329,192,203571,1,0,0:0:0:0:
109,192,203623,1,0,0:0:0:0:
475,192,203623,1,0,0:0:0:0:
402,192,203676,1,0,0:0:0:0:
256,192,203729,1,0,0:0:0:0:
182,192,203729,1,0,0:0:0:0:
36,192,203729,1,0,0:0:0:0:
475,192,203781,1,0,0:0:0:0:
182,192,203808,1,0,0:0:0:0:
329,192,203834,1,0,0:0:0:0:
36,192,203887,1,0,0:0:0:0:
402,192,203887,1,0,0:0:0:0:
475,192,203939,1,0,0:0:0:0:
109,192,203939,1,0,0:0:0:0:
182,192,203992,1,0,0:0:0:0:
256,192,204045,1,0,0:0:0:0:
36,192,204045,1,0,0:0:0:0:
402,192,204045,1,0,0:0:0:0:
329,192,204123,1,0,0:0:0:0:
109,192,204123,1,0,0:0:0:0:
182,192,204202,1,0,0:0:0:0:
475,192,204202,1,0,0:0:0:0:
256,192,204229,1,0,0:0:0:0:
329,192,204255,1,0,0:0:0:0:
109,192,204281,1,0,0:0:0:0:
182,192,204334,1,0,0:0:0:0:
36,192,204360,1,0,0:0:0:0:
402,192,204360,1,0,0:0:0:0:
475,192,204360,1,0,0:0:0:0:
329,192,204400,1,0,0:0:0:0:
256,192,204439,1,0,0:0:0:0:
109,192,204518,1,0,0:0:0:0:
36,192,204518,1,0,0:0:0:0:
475,192,204518,1,0,0:0:0:0:
182,192,204558,1,0,0:0:0:0:
256,192,204597,1,0,0:0:0:0:
402,192,204676,1,0,0:0:0:0:
109,192,204676,1,0,0:0:0:0:
329,192,204729,1,0,0:0:0:0:
182,192,204781,1,0,0:0:0:0:
475,192,204781,1,0,0:0:0:0:
329,192,204834,1,0,0:0:0:0:
36,192,204834,1,0,0:0:0:0:
402,192,204887,1,0,0:0:0:0:
182,192,204887,1,0,0:0:0:0:
109,192,204939,1,0,0:0:0:0:
256,192,204992,1,0,0:0:0:0:
329,192,204992,1,0,0:0:0:0:
475,192,204992,1,0,0:0:0:0:
36,192,205045,1,0,0:0:0:0:
329,192,205071,1,0,0:0:0:0:
109,192,205097,1,0,0:0:0:0:
182,192,205150,1,0,0:0:0:0:
402,192,205150,1,0,0:0:0:0:
475,192,205202,1,0,0:0:0:0:
256,192,205202,1,0,0:0:0:0:
109,192,205255,1,0,0:0:0:0:
402,192,205308,1,0,0:0:0:0:
36,192,205308,1,0,0:0:0:0:
182,192,205308,1,0,0:0:0:0:
329,192,205387,1,0,0:0:0:0:
109,192,205387,1,0,0:0:0:0:
256,192,205466,1,0,0:0:0:0:
475,192,205466,1,0,0:0:0:0:
402,192,205518,1,0,0:0:0:0:
182,192,205518,1,0,0:0:0:0:
109,192,205571,1,0,0:0:0:0:
475,192,205623,1,0,0:0:0:0:
36,192,205623,1,0,0:0:0:0:
256,192,205623,1,0,0:0:0:0:
402,192,205663,1,0,0:0:0:0:
329,192,205702,1,0,0:0:0:0:
36,192,205702,1,0,0:0:0:0:
256,192,205742,1,0,0:0:0:0:
182,192,205781,1,0,0:0:0:0:
402,192,205781,1,0,0:0:0:0:
109,192,205821,1,0,0:0:0:0:
329,192,205860,1,0,0:0:0:0:
475,192,205900,1,0,0:0:0:0:
256,192,205939,128,0,206018:0:0:0:0:
402,192,205939,128,0,206018:0:0:0:0:
182,192,205959,128,0,206058:0:0:0:0:
109,192,205979,128,0,206117:0:0:0:0:
36,192,205998,128,0,206196:0:0:0:0:
329,192,206058,1,0,0:0:0:0:
256,192,206097,1,0,0:0:0:0:
475,192,206097,1,0,0:0:0:0:
182,192,206137,1,0,0:0:0:0:
109,192,206216,1,0,0:0:0:0:
256,192,206255,128,0,206295:0:0:0:0:
329,192,206255,128,0,206334:0:0:0:0:
402,192,206255,128,0,206413:0:0:0:0:
475,192,206255,128,0,206492:0:0:0:0:
182,192,206334,1,0,0:0:0:0:
256,192,206373,1,0,0:0:0:0:
329,192,206413,1,0,0:0:0:0:
36,192,206413,128,0,206492:0:0:0:0:
109,192,206452,128,0,206571:0:0:0:0:
182,192,206492,128,0,206650:0:0:0:0:
402,192,206492,1,0,0:0:0:0:
36,192,206571,1,0,0:0:0:0:
329,192,206571,128,0,206808:0:0:0:0:
402,192,206610,128,0,206768:0:0:0:0:
109,192,206650,1,0,0:0:0:0:
182,192,206729,128,0,206887:0:0:0:0:
109,192,206808,128,0,206926:0:0:0:0:
36,192,206887,128,0,206966:0:0:0:0:
329,192,206887,128,0,207123:0:0:0:0:
475,192,206887,128,0,206966:0:0:0:0:
402,192,206887,128,0,206985:0:0:0:0:
256,192,206887,1,0,0:0:0:0:
256,192,207025,128,0,207123:0:0:0:0:
36,192,207045,1,0,0:0:0:0:
475,192,207045,1,0,0:0:0:0:
182,192,207045,128,0,207123:0:0:0:0:
402,192,207202,1,0,0:0:0:0:
109,192,207202,1,0,0:0:0:0:
36,192,207202,1,0,0:0:0:0:
256,192,207202,1,0,0:0:0:0:
329,192,207281,1,0,0:0:0:0:
182,192,207308,1,0,0:0:0:0:
475,192,207308,1,0,0:0:0:0:
402,192,207360,1,0,0:0:0:0:
36,192,207360,1,0,0:0:0:0:
329,192,207413,1,0,0:0:0:0:
109,192,207413,1,0,0:0:0:0:
256,192,207466,1,0,0:0:0:0:
475,192,207518,1,0,0:0:0:0:
402,192,207518,1,0,0:0:0:0:
36,192,207518,1,0,0:0:0:0:
182,192,207571,1,0,0:0:0:0:
475,192,207597,1,0,0:0:0:0:
329,192,207623,1,0,0:0:0:0:
402,192,207676,1,0,0:0:0:0:
109,192,207676,1,0,0:0:0:0:
475,192,207729,1,0,0:0:0:0:
182,192,207729,1,0,0:0:0:0:
256,192,207781,1,0,0:0:0:0:
402,192,207834,1,0,0:0:0:0:
109,192,207834,1,0,0:0:0:0:
36,192,207834,1,0,0:0:0:0:
329,192,207913,1,0,0:0:0:0:
182,192,207913,1,0,0:0:0:0:
475,192,207992,1,0,0:0:0:0:
109,192,207992,1,0,0:0:0:0:
329,192,208045,1,0,0:0:0:0:
36,192,208045,1,0,0:0:0:0:
256,192,208097,1,0,0:0:0:0:
402,192,208150,1,0,0:0:0:0:
475,192,208150,1,0,0:0:0:0:
36,192,208150,1,0,0:0:0:0:
109,192,208189,1,0,0:0:0:0:
182,192,208229,1,0,0:0:0:0:
402,192,208229,1,0,0:0:0:0:
256,192,208268,1,0,0:0:0:0:
475,192,208308,1,0,0:0:0:0:
109,192,208308,1,0,0:0:0:0:
402,192,208347,1,0,0:0:0:0:
329,192,208387,1,0,0:0:0:0:
256,192,208426,1,0,0:0:0:0:
182,192,208466,1,0,0:0:0:0:
36,192,208466,1,0,0:0:0:0:
402,192,208518,1,0,0:0:0:0:
475,192,208571,1,0,0:0:0:0:
109,192,208571,1,0,0:0:0:0:
329,192,208623,1,0,0:0:0:0:
182,192,208623,1,0,0:0:0:0:
402,192,208676,1,0,0:0:0:0:
36,192,208676,1,0,0:0:0:0:
109,192,208729,1,0,0:0:0:0:
256,192,208781,1,0,0:0:0:0:
329,192,208781,1,0,0:0:0:0:
475,192,208781,1,0,0:0:0:0:
36,192,208834,1,0,0:0:0:0:
329,192,208860,1,0,0:0:0:0:
182,192,208887,1,0,0:0:0:0:
475,192,208939,1,0,0:0:0:0:
109,192,208939,1,0,0:0:0:0:
36,192,208992,1,0,0:0:0:0:
402,192,208992,1,0,0:0:0:0:
329,192,209045,1,0,0:0:0:0:
256,192,209097,1,0,0:0:0:0:
109,192,209097,1,0,0:0:0:0:
475,192,209097,1,0,0:0:0:0:
182,192,209176,1,0,0:0:0:0:
402,192,209176,1,0,0:0:0:0:
329,192,209255,1,0,0:0:0:0:
36,192,209255,1,0,0:0:0:0:
256,192,209281,1,0,0:0:0:0:
182,192,209308,1,0,0:0:0:0:
402,192,209334,1,0,0:0:0:0:
329,192,209387,1,0,0:0:0:0:
475,192,209413,1,0,0:0:0:0:
109,192,209413,1,0,0:0:0:0:
36,192,209413,1,0,0:0:0:0:
182,192,209452,1,0,0:0:0:0:
256,192,209492,1,0,0:0:0:0:
402,192,209571,1,0,0:0:0:0:
475,192,209571,1,0,0:0:0:0:
36,192,209571,1,0,0:0:0:0:
329,192,209610,1,0,0:0:0:0:
256,192,209650,1,0,0:0:0:0:
109,192,209729,1,0,0:0:0:0:
402,192,209729,1,0,0:0:0:0:
182,192,209781,1,0,0:0:0:0:
329,192,209834,1,0,0:0:0:0:
36,192,209834,1,0,0:0:0:0:
182,192,209887,1,0,0:0:0:0:
475,192,209887,1,0,0:0:0:0:
109,192,209939,1,0,0:0:0:0:
329,192,209939,1,0,0:0:0:0:
402,192,209992,1,0,0:0:0:0:
256,192,210045,1,0,0:0:0:0:
182,192,210045,1,0,0:0:0:0:
36,192,210045,1,0,0:0:0:0:
475,192,210097,1,0,0:0:0:0:
182,192,210123,1,0,0:0:0:0:
402,192,210150,1,0,0:0:0:0:
329,192,210202,1,0,0:0:0:0:
109,192,210202,1,0,0:0:0:0:
36,192,210255,1,0,0:0:0:0:
256,192,210255,1,0,0:0:0:0:
402,192,210308,1,0,0:0:0:0:
109,192,210360,1,0,0:0:0:0:
475,192,210360,1,0,0:0:0:0:
329,192,210360,1,0,0:0:0:0:
182,192,210439,1,0,0:0:0:0:
402,192,210439,1,0,0:0:0:0:
256,192,210518,1,0,0:0:0:0:
36,192,210518,1,0,0:0:0:0:
109,192,210571,1,0,0:0:0:0:
329,192,210571,1,0,0:0:0:0:
402,192,210623,1,0,0:0:0:0:
36,192,210676,1,0,0:0:0:0:
475,192,210676,1,0,0:0:0:0:
256,192,210676,1,0,0:0:0:0:
109,192,210716,1,0,0:0:0:0:
182,192,210755,1,0,0:0:0:0:
475,192,210755,1,0,0:0:0:0:
256,192,210795,1,0,0:0:0:0:
329,192,210834,1,0,0:0:0:0:
109,192,210834,1,0,0:0:0:0:
402,192,210873,1,0,0:0:0:0:
182,192,210913,1,0,0:0:0:0:
36,192,210952,1,0,0:0:0:0:
256,192,210992,128,0,211071:0:0:0:0:
109,192,210992,128,0,211071:0:0:0:0:
329,192,211012,128,0,211110:0:0:0:0:
402,192,211031,128,0,211170:0:0:0:0:
475,192,211051,128,0,211248:0:0:0:0:
182,192,211110,5,0,0:0:0:0:
256,192,211150,1,0,0:0:0:0:
36,192,211150,1,0,0:0:0:0:
329,192,211189,1,0,0:0:0:0:
402,192,211268,1,0,0:0:0:0:
256,192,211308,128,0,211347:0:0:0:0:
182,192,211308,128,0,211387:0:0:0:0:
109,192,211308,128,0,211466:0:0:0:0:
36,192,211308,128,0,211545:0:0:0:0:
329,192,211387,1,0,0:0:0:0:
256,192,211426,1,0,0:0:0:0:
182,192,211466,1,0,0:0:0:0:
475,192,211466,128,0,211545:0:0:0:0:
402,192,211505,128,0,211623:0:0:0:0:
329,192,211545,128,0,211702:0:0:0:0:
109,192,211545,1,0,0:0:0:0:
182,192,211623,128,0,211860:0:0:0:0:
475,192,211623,1,0,0:0:0:0:
109,192,211663,128,0,211821:0:0:0:0:
329,192,211781,128,0,211939:0:0:0:0:
475,192,211781,1,0,0:0:0:0:
402,192,211860,128,0,211979:0:0:0:0:
475,192,211939,128,0,212018:0:0:0:0:
36,192,211939,1,0,0:0:0:0:
109,192,211959,1,0,0:0:0:0:
182,192,211979,1,0,0:0:0:0:
329,192,212018,1,0,0:0:0:0:
109,192,212058,1,0,0:0:0:0:
402,192,212097,128,0,212176:0:0:0:0:
329,192,212117,128,0,212156:0:0:0:0:
256,192,212137,1,0,0:0:0:0:
36,192,212176,1,0,0:0:0:0:
109,192,212216,1,0,0:0:0:0:
475,192,212255,128,0,212334:0:0:0:0:
182,192,212255,1,0,0:0:0:0:
256,192,212275,128,0,212314:0:0:0:0:
402,192,212295,128,0,212492:0:0:0:0:
36,192,212413,128,0,212492:0:0:0:0:
329,192,212413,1,0,0:0:0:0:
256,192,212433,128,0,212472:0:0:0:0:
109,192,212452,128,0,212650:0:0:0:0:
182,192,212571,128,0,212650:0:0:0:0:
402,192,212571,128,0,212650:0:0:0:0:
475,192,212571,128,0,212689:0:0:0:0:
329,192,212571,128,0,212827:0:0:0:0:
36,192,212650,1,0,0:0:0:0:
256,192,212729,128,0,212808:0:0:0:0:
182,192,212729,128,0,212788:0:0:0:0:
402,192,212748,128,0,212847:0:0:0:0:
475,192,212768,128,0,212946:0:0:0:0:
36,192,212808,128,0,212847:0:0:0:0:
109,192,212847,128,0,212887:0:0:0:0:
329,192,212887,1,0,0:0:0:0:
182,192,212887,128,0,213025:0:0:0:0:
256,192,212887,128,0,212946:0:0:0:0:
109,192,212966,128,0,213104:0:0:0:0:
402,192,212966,128,0,213025:0:0:0:0:
36,192,213045,128,0,213281:0:0:0:0:
329,192,213045,128,0,213104:0:0:0:0:
475,192,213045,128,0,213123:0:0:0:0:
182,192,213084,1,0,0:0:0:0:
256,192,213123,128,0,213183:0:0:0:0:
329,192,213163,1,0,0:0:0:0:
475,192,213202,128,0,213400:0:0:0:0:
109,192,213202,128,0,213281:0:0:0:0:
182,192,213202,128,0,213360:0:0:0:0:
402,192,213281,128,0,213400:0:0:0:0:
256,192,213281,1,0,0:0:0:0:
329,192,213360,128,0,213400:0:0:0:0:
109,192,213360,128,0,213518:0:0:0:0:
36,192,213360,128,0,213439:0:0:0:0:
475,192,213439,1,0,0:0:0:0:
256,192,213439,128,0,213479:0:0:0:0:
182,192,213518,1,0,0:0:0:0:
36,192,213518,128,0,213676:0:0:0:0:
329,192,213518,128,0,213676:0:0:0:0:
402,192,213558,128,0,213597:0:0:0:0:
256,192,213597,128,0,213755:0:0:0:0:
109,192,213637,1,0,0:0:0:0:
182,192,213676,128,0,213716:0:0:0:0:
475,192,213676,128,0,213834:0:0:0:0:
402,192,213716,128,0,213755:0:0:0:0:
36,192,213755,128,0,213913:0:0:0:0:
182,192,213795,1,0,0:0:0:0:
109,192,213834,128,0,213913:0:0:0:0:
256,192,213834,128,0,214091:0:0:0:0:
329,192,213834,128,0,213913:0:0:0:0:
402,192,213834,128,0,213952:0:0:0:0:
475,192,213913,1,0,0:0:0:0:
109,192,213992,128,0,214051:0:0:0:0:
182,192,213992,128,0,214071:0:0:0:0:
329,192,214012,128,0,214110:0:0:0:0:
402,192,214031,128,0,214209:0:0:0:0:
475,192,214071,128,0,214189:0:0:0:0:
109,192,214150,1,0,0:0:0:0:
256,192,214150,128,0,214387:0:0:0:0:
182,192,214150,1,0,0:0:0:0:
36,192,214150,1,0,0:0:0:0:
36,192,214229,128,0,214387:0:0:0:0:
329,192,214229,128,0,214288:0:0:0:0:
109,192,214308,128,0,214564:0:0:0:0:
182,192,214308,128,0,214387:0:0:0:0:
475,192,214308,128,0,214367:0:0:0:0:
329,192,214347,1,0,0:0:0:0:
402,192,214387,128,0,214446:0:0:0:0:
475,192,214426,1,0,0:0:0:0:
36,192,214466,128,0,214545:0:0:0:0:
182,192,214466,1,0,0:0:0:0:
256,192,214466,128,0,214545:0:0:0:0:
329,192,214466,128,0,214702:0:0:0:0:
182,192,214623,128,0,214722:0:0:0:0:
109,192,214623,128,0,214702:0:0:0:0:
402,192,214623,128,0,214860:0:0:0:0:
475,192,214623,1,0,0:0:0:0:
182,192,214781,128,0,214860:0:0:0:0:
475,192,214781,128,0,214821:0:0:0:0:
36,192,214781,1,0,0:0:0:0:
109,192,214821,128,0,215018:0:0:0:0:
256,192,214821,1,0,0:0:0:0:
329,192,214939,128,0,215018:0:0:0:0:
36,192,214939,128,0,214979:0:0:0:0:
402,192,214979,128,0,215137:0:0:0:0:
256,192,214979,1,0,0:0:0:0:
36,192,215097,128,0,215216:0:0:0:0:
182,192,215097,128,0,215354:0:0:0:0:
329,192,215097,128,0,215176:0:0:0:0:
109,192,215097,128,0,215176:0:0:0:0:
475,192,215176,1,0,0:0:0:0:
329,192,215255,128,0,215314:0:0:0:0:
256,192,215255,128,0,215334:0:0:0:0:
109,192,215275,128,0,215373:0:0:0:0:
36,192,215295,128,0,215472:0:0:0:0:
475,192,215334,128,0,215373:0:0:0:0:
402,192,215373,128,0,215413:0:0:0:0:
256,192,215413,128,0,215472:0:0:0:0:
329,192,215413,128,0,215551:0:0:0:0:
182,192,215413,1,0,0:0:0:0:
109,192,215492,128,0,215551:0:0:0:0:
402,192,215492,128,0,215630:0:0:0:0:
36,192,215571,128,0,215650:0:0:0:0:
182,192,215571,128,0,215630:0:0:0:0:
475,192,215571,128,0,215808:0:0:0:0:
329,192,215610,1,0,0:0:0:0:
256,192,215650,128,0,215709:0:0:0:0:
182,192,215689,1,0,0:0:0:0:
329,192,215729,128,0,215887:0:0:0:0:
36,192,215729,128,0,215926:0:0:0:0:
402,192,215729,128,0,215808:0:0:0:0:
256,192,215808,1,0,0:0:0:0:
109,192,215808,128,0,215926:0:0:0:0:
475,192,215887,128,0,215966:0:0:0:0:
182,192,215887,128,0,215926:0:0:0:0:
402,192,215887,128,0,216202:0:0:0:0:
256,192,215966,128,0,216005:0:0:0:0:
109,192,215966,1,0,0:0:0:0:
182,192,216045,128,0,216123:0:0:0:0:
475,192,216045,128,0,216242:0:0:0:0:
329,192,216045,128,0,216163:0:0:0:0:
36,192,216045,1,0,0:0:0:0:
256,192,216202,1,0,0:0:0:0:
36,192,216202,128,0,216360:0:0:0:0:
329,192,216242,128,0,216281:0:0:0:0:
402,192,216281,128,0,216360:0:0:0:0:
109,192,216281,128,0,216479:0:0:0:0:
475,192,216321,128,0,216439:0:0:0:0:
182,192,216360,128,0,216597:0:0:0:0:
256,192,216360,1,0,0:0:0:0:
36,192,216479,1,0,0:0:0:0:
256,192,216518,128,0,216597:0:0:0:0:
475,192,216518,128,0,216597:0:0:0:0:
329,192,216518,128,0,216913:0:0:0:0:
109,192,216597,1,0,0:0:0:0:
256,192,216676,1,0,0:0:0:0:
402,192,216696,128,0,216834:0:0:0:0:
182,192,216716,128,0,216952:0:0:0:0:
109,192,216735,128,0,216873:0:0:0:0:
475,192,216834,1,0,0:0:0:0:
402,192,216913,1,0,0:0:0:0:
256,192,216992,128,0,217091:0:0:0:0:
329,192,216992,128,0,217248:0:0:0:0:
36,192,216992,128,0,217051:0:0:0:0:
109,192,216992,128,0,217071:0:0:0:0:
475,192,216992,1,0,0:0:0:0:
402,192,217150,128,0,217248:0:0:0:0:
109,192,217150,128,0,217209:0:0:0:0:
182,192,217150,128,0,217229:0:0:0:0:
36,192,217150,128,0,217189:0:0:0:0:
109,192,217308,1,0,0:0:0:0:
36,192,217308,1,0,0:0:0:0:
475,192,217308,128,0,217545:0:0:0:0:
329,192,217308,1,0,0:0:0:0:
256,192,217347,128,0,217505:0:0:0:0:
182,192,217466,128,0,217702:0:0:0:0:
36,192,217466,1,0,0:0:0:0:
402,192,217505,128,0,217663:0:0:0:0:
475,192,217623,128,0,217860:0:0:0:0:
109,192,217623,1,0,0:0:0:0:
256,192,217663,128,0,217821:0:0:0:0:
182,192,217781,128,0,217939:0:0:0:0:
36,192,217781,1,0,0:0:0:0:
402,192,217821,128,0,217979:0:0:0:0:
329,192,217939,1,0,0:0:0:0:
182,192,218018,1,0,0:0:0:0:
109,192,218097,128,0,218295:0:0:0:0:
329,192,218097,128,0,218334:0:0:0:0:
475,192,218097,1,0,0:0:0:0:
36,192,218255,128,0,218492:0:0:0:0:
402,192,218255,1,0,0:0:0:0:
256,192,218295,128,0,218452:0:0:0:0:
475,192,218413,1,0,0:0:0:0:
329,192,218413,128,0,218650:0:0:0:0:
109,192,218452,128,0,218610:0:0:0:0:
475,192,218571,128,0,218808:0:0:0:0:
182,192,218571,1,0,0:0:0:0:
36,192,218571,1,0,0:0:0:0:
256,192,218610,128,0,218768:0:0:0:0:
182,192,218729,128,0,218966:0:0:0:0:
36,192,218729,1,0,0:0:0:0:
402,192,218768,128,0,218926:0:0:0:0:
475,192,218887,128,0,219123:0:0:0:0:
109,192,218887,1,0,0:0:0:0:
256,192,218926,128,0,219084:0:0:0:0:
182,192,219045,128,0,219202:0:0:0:0:
36,192,219045,1,0,0:0:0:0:
402,192,219084,128,0,219242:0:0:0:0:
329,192,219202,1,0,0:0:0:0:
182,192,219281,1,0,0:0:0:0:
475,192,219360,1,0,0:0:0:0:
109,192,219360,128,0,219597:0:0:0:0:
256,192,219360,128,0,219439:0:0:0:0:
256,192,219518,128,0,219755:0:0:0:0:
36,192,219518,128,0,219597:0:0:0:0:
402,192,219518,128,0,219597:0:0:0:0:
182,192,219676,128,0,219755:0:0:0:0:
402,192,219676,128,0,219913:0:0:0:0:
475,192,219676,1,0,0:0:0:0:
256,192,219834,128,0,220071:0:0:0:0:
329,192,219834,1,0,0:0:0:0:
109,192,219834,1,0,0:0:0:0:
36,192,219873,128,0,220031:0:0:0:0:
109,192,219992,128,0,220229:0:0:0:0:
329,192,220031,128,0,220189:0:0:0:0:
256,192,220150,128,0,220387:0:0:0:0:
36,192,220150,128,0,220387:0:0:0:0:
402,192,220150,1,0,0:0:0:0:
402,192,220308,128,0,220545:0:0:0:0:
475,192,220308,1,0,0:0:0:0:
182,192,220308,128,0,220505:0:0:0:0:
256,192,220466,128,0,220545:0:0:0:0:
329,192,220505,128,0,220663:0:0:0:0:
402,192,220623,128,0,220702:0:0:0:0:
36,192,220623,1,0,0:0:0:0:
182,192,220623,128,0,220860:0:0:0:0:
109,192,220781,1,0,0:0:0:0:
329,192,220781,128,0,220939:0:0:0:0:
475,192,220801,128,0,221018:0:0:0:0:
36,192,220939,1,0,0:0:0:0:
182,192,220939,1,0,0:0:0:0:
329,192,221018,1,0,0:0:0:0:
109,192,221097,128,0,221176:0:0:0:0:
36,192,221097,128,0,221334:0:0:0:0:
256,192,221097,128,0,221373:0:0:0:0:
475,192,221097,128,0,221295:0:0:0:0:
329,192,221255,128,0,221295:0:0:0:0:
182,192,221255,128,0,221452:0:0:0:0:
402,192,221413,128,0,221610:0:0:0:0:
109,192,221413,128,0,221610:0:0:0:0:
329,192,221413,128,0,221452:0:0:0:0:
256,192,221492,128,0,221531:0:0:0:0:
329,192,221571,128,0,221768:0:0:0:0:
36,192,221571,1,0,0:0:0:0:
475,192,221571,1,0,0:0:0:0:
182,192,221571,128,0,221610:0:0:0:0:
256,192,221650,128,0,221966:0:0:0:0:
182,192,221729,128,0,221768:0:0:0:0:
475,192,221729,128,0,222045:0:0:0:0:
36,192,221729,128,0,221887:0:0:0:0:
402,192,221887,128,0,222005:0:0:0:0:
109,192,221966,1,0,0:0:0:0:
36,192,222045,1,0,0:0:0:0:
182,192,222045,1,0,0:0:0:0:
256,192,222064,1,0,0:0:0:0:
329,192,222084,1,0,0:0:0:0:
402,192,222123,1,0,0:0:0:0:
109,192,222163,1,0,0:0:0:0:
329,192,222202,1,0,0:0:0:0:
475,192,222202,1,0,0:0:0:0:
256,192,222222,1,0,0:0:0:0:
182,192,222242,1,0,0:0:0:0:
109,192,222281,1,0,0:0:0:0:
402,192,222321,1,0,0:0:0:0:
36,192,222360,1,0,0:0:0:0:
475,192,222360,1,0,0:0:0:0:
256,192,222400,128,0,222459:0:0:0:0:
36,192,222518,1,0,0:0:0:0:
475,192,222518,1,0,0:0:0:0:
256,192,222558,128,0,222617:0:0:0:0:
182,192,222676,128,0,222913:0:0:0:0:
36,192,222676,128,0,222755:0:0:0:0:
109,192,222676,1,0,0:0:0:0:
402,192,222676,128,0,222755:0:0:0:0:
329,192,222676,128,0,222755:0:0:0:0:
256,192,222755,128,0,222834:0:0:0:0:
475,192,222755,128,0,222834:0:0:0:0:
109,192,222834,128,0,223071:0:0:0:0:
402,192,222834,128,0,222913:0:0:0:0:
36,192,222913,128,0,222992:0:0:0:0:
329,192,222913,128,0,223150:0:0:0:0:
182,192,222992,1,0,0:0:0:0:
402,192,222992,1,0,0:0:0:0:
475,192,222992,128,0,223229:0:0:0:0:
256,192,222992,128,0,223150:0:0:0:0:
36,192,223071,128,0,223150:0:0:0:0:
182,192,223150,128,0,223229:0:0:0:0:
402,192,223150,128,0,223229:0:0:0:0:
109,192,223229,128,0,223308:0:0:0:0:
329,192,223229,128,0,223308:0:0:0:0:
36,192,223308,128,0,223545:0:0:0:0:
256,192,223308,128,0,223466:0:0:0:0:
475,192,223308,128,0,223387:0:0:0:0:
182,192,223308,128,0,223347:0:0:0:0:
402,192,223387,128,0,223545:0:0:0:0:
329,192,223387,128,0,223426:0:0:0:0:
182,192,223466,128,0,223623:0:0:0:0:
475,192,223466,1,0,0:0:0:0:
109,192,223466,128,0,223505:0:0:0:0:
329,192,223545,128,0,223702:0:0:0:0:
256,192,223545,128,0,223584:0:0:0:0:
36,192,223623,1,0,0:0:0:0:
109,192,223623,128,0,223860:0:0:0:0:
475,192,223623,128,0,223860:0:0:0:0:
402,192,223623,1,0,0:0:0:0:
256,192,223702,128,0,223781:0:0:0:0:
182,192,223702,1,0,0:0:0:0:
402,192,223781,128,0,223860:0:0:0:0:
329,192,223781,128,0,224018:0:0:0:0:
36,192,223781,128,0,223860:0:0:0:0:
182,192,223860,128,0,223939:0:0:0:0:
109,192,223939,1,0,0:0:0:0:
36,192,223939,128,0,224176:0:0:0:0:
256,192,223939,128,0,224018:0:0:0:0:
475,192,223939,128,0,224018:0:0:0:0:
182,192,224018,128,0,224097:0:0:0:0:
402,192,224018,128,0,224097:0:0:0:0:
109,192,224097,128,0,224334:0:0:0:0:
329,192,224097,128,0,224176:0:0:0:0:
256,192,224176,128,0,224255:0:0:0:0:
475,192,224176,128,0,224413:0:0:0:0:
36,192,224255,128,0,224334:0:0:0:0:
182,192,224255,1,0,0:0:0:0:
402,192,224255,1,0,0:0:0:0:
329,192,224255,128,0,224492:0:0:0:0:
256,192,224334,128,0,224413:0:0:0:0:
402,192,224413,128,0,224650:0:0:0:0:
109,192,224413,128,0,224492:0:0:0:0:
36,192,224413,1,0,0:0:0:0:
475,192,224492,128,0,224571:0:0:0:0:
182,192,224492,128,0,224571:0:0:0:0:
109,192,224571,1,0,0:0:0:0:
36,192,224571,128,0,224808:0:0:0:0:
256,192,224571,128,0,224729:0:0:0:0:
329,192,224571,128,0,224650:0:0:0:0:
182,192,224650,128,0,224808:0:0:0:0:
329,192,224729,1,0,0:0:0:0:
109,192,224729,128,0,224808:0:0:0:0:
402,192,224729,128,0,224887:0:0:0:0:
475,192,224729,128,0,224808:0:0:0:0:
256,192,224808,128,0,225045:0:0:0:0:
182,192,224887,1,0,0:0:0:0:
36,192,224887,128,0,225045:0:0:0:0:
329,192,224887,128,0,224966:0:0:0:0:
475,192,224887,128,0,225045:0:0:0:0:
109,192,224966,128,0,225202:0:0:0:0:
402,192,224966,128,0,225123:0:0:0:0:
182,192,225045,128,0,225123:0:0:0:0:
329,192,225045,128,0,225202:0:0:0:0:
36,192,225123,128,0,225281:0:0:0:0:
182,192,225202,1,0,0:0:0:0:
402,192,225202,1,0,0:0:0:0:
475,192,225202,128,0,225439:0:0:0:0:
256,192,225202,128,0,225281:0:0:0:0:
109,192,225281,128,0,225360:0:0:0:0:
329,192,225281,128,0,225360:0:0:0:0:
402,192,225360,128,0,225439:0:0:0:0:
182,192,225360,128,0,225439:0:0:0:0:
36,192,225439,128,0,225676:0:0:0:0:
256,192,225439,128,0,225597:0:0:0:0:
182,192,225518,1,0,0:0:0:0:
402,192,225518,128,0,225755:0:0:0:0:
109,192,225518,128,0,225597:0:0:0:0:
475,192,225518,1,0,0:0:0:0:
329,192,225597,128,0,225676:0:0:0:0:
182,192,225676,128,0,225834:0:0:0:0:
475,192,225676,128,0,225755:0:0:0:0:
256,192,225676,1,0,0:0:0:0:
109,192,225755,1,0,0:0:0:0:
36,192,225755,128,0,225913:0:0:0:0:
475,192,225834,128,0,226071:0:0:0:0:
256,192,225834,128,0,225992:0:0:0:0:
402,192,225834,128,0,225913:0:0:0:0:
329,192,225834,128,0,225873:0:0:0:0:
109,192,225913,128,0,226071:0:0:0:0:
182,192,225913,128,0,225952:0:0:0:0:
329,192,225992,128,0,226071:0:0:0:0:
36,192,225992,1,0,0:0:0:0:
402,192,225992,128,0,226031:0:0:0:0:
182,192,226071,128,0,226150:0:0:0:0:
256,192,226071,128,0,226110:0:0:0:0:
329,192,226150,128,0,226426:0:0:0:0:
402,192,226150,128,0,226268:0:0:0:0:
475,192,226150,128,0,226229:0:0:0:0:
109,192,226150,1,0,0:0:0:0:
36,192,226150,128,0,226229:0:0:0:0:
109,192,226268,1,0,0:0:0:0:
256,192,226308,128,0,226426:0:0:0:0:
36,192,226308,1,0,0:0:0:0:
182,192,226347,128,0,226426:0:0:0:0:
475,192,226360,1,0,0:0:0:0:
402,192,226413,1,0,0:0:0:0:
109,192,226466,128,0,226623:0:0:0:0:
256,192,226466,128,0,226663:0:0:0:0:
475,192,226466,128,0,226571:0:0:0:0:
182,192,226466,1,0,0:0:0:0:
329,192,226623,128,0,226702:0:0:0:0:
36,192,226623,1,0,0:0:0:0:
402,192,226663,128,0,226781:0:0:0:0:
475,192,226702,128,0,226860:0:0:0:0:
109,192,226702,1,0,0:0:0:0:
329,192,226781,1,0,0:0:0:0:
182,192,226781,128,0,227018:0:0:0:0:
109,192,226821,128,0,226979:0:0:0:0:
402,192,226860,1,0,0:0:0:0:
475,192,226939,128,0,227097:0:0:0:0:
256,192,226939,1,0,0:0:0:0:
402,192,227018,128,0,227137:0:0:0:0:
329,192,227097,128,0,227176:0:0:0:0:
109,192,227097,128,0,227196:0:0:0:0:
36,192,227097,128,0,227334:0:0:0:0:
256,192,227097,128,0,227176:0:0:0:0:
402,192,227235,128,0,227334:0:0:0:0:
182,192,227255,128,0,227334:0:0:0:0:
256,192,227255,128,0,227354:0:0:0:0:
475,192,227255,128,0,227571:0:0:0:0:
329,192,227413,128,0,227492:0:0:0:0:
36,192,227413,128,0,227492:0:0:0:0:
182,192,227413,128,0,227571:0:0:0:0:
256,192,227413,1,0,0:0:0:0:
109,192,227492,128,0,227650:0:0:0:0:
402,192,227492,1,0,0:0:0:0:
36,192,227571,128,0,227729:0:0:0:0:
256,192,227571,128,0,227729:0:0:0:0:
329,192,227571,1,0,0:0:0:0:
402,192,227650,128,0,227808:0:0:0:0:
329,192,227729,128,0,227966:0:0:0:0:
475,192,227729,128,0,227808:0:0:0:0:
182,192,227729,128,0,227808:0:0:0:0:
109,192,227729,1,0,0:0:0:0:
256,192,227808,128,0,227887:0:0:0:0:
36,192,227808,128,0,227887:0:0:0:0:
402,192,227887,128,0,228123:0:0:0:0:
109,192,227887,128,0,227966:0:0:0:0:
475,192,227966,128,0,228045:0:0:0:0:
182,192,227966,128,0,228202:0:0:0:0:
329,192,228045,1,0,0:0:0:0:
109,192,228045,1,0,0:0:0:0:
36,192,228045,128,0,228281:0:0:0:0:
256,192,228045,128,0,228202:0:0:0:0:
475,192,228123,128,0,228202:0:0:0:0:
329,192,228202,128,0,228281:0:0:0:0:
109,192,228202,128,0,228281:0:0:0:0:
402,192,228281,128,0,228360:0:0:0:0:
182,192,228281,128,0,228360:0:0:0:0:
475,192,228360,128,0,228597:0:0:0:0:
256,192,228360,128,0,228518:0:0:0:0:
36,192,228360,128,0,228439:0:0:0:0:
329,192,228360,128,0,228400:0:0:0:0:
109,192,228439,128,0,228597:0:0:0:0:
182,192,228439,128,0,228479:0:0:0:0:
329,192,228518,128,0,228676:0:0:0:0:
36,192,228518,1,0,0:0:0:0:
402,192,228518,128,0,228558:0:0:0:0:
182,192,228597,128,0,228755:0:0:0:0:
256,192,228597,128,0,228637:0:0:0:0:
475,192,228676,1,0,0:0:0:0:
402,192,228676,128,0,228913:0:0:0:0:
36,192,228676,128,0,228913:0:0:0:0:
109,192,228676,1,0,0:0:0:0:
256,192,228755,128,0,228834:0:0:0:0:
329,192,228755,1,0,0:0:0:0:
109,192,228834,128,0,228913:0:0:0:0:
182,192,228834,128,0,229071:0:0:0:0:
475,192,228834,128,0,228913:0:0:0:0:
329,192,228913,128,0,228992:0:0:0:0:
402,192,228992,1,0,0:0:0:0:
475,192,228992,128,0,229229:0:0:0:0:
256,192,228992,128,0,229071:0:0:0:0:
36,192,228992,128,0,229071:0:0:0:0:
329,192,229071,128,0,229150:0:0:0:0:
109,192,229071,128,0,229150:0:0:0:0:
402,192,229150,128,0,229387:0:0:0:0:
182,192,229150,128,0,229229:0:0:0:0:
256,192,229229,128,0,229308:0:0:0:0:
36,192,229229,128,0,229466:0:0:0:0:
475,192,229308,128,0,229387:0:0:0:0:
329,192,229308,1,0,0:0:0:0:
109,192,229308,1,0,0:0:0:0:
182,192,229308,128,0,229545:0:0:0:0:
256,192,229387,128,0,229466:0:0:0:0:
109,192,229466,128,0,229702:0:0:0:0:
402,192,229466,128,0,229545:0:0:0:0:
475,192,229466,1,0,0:0:0:0:
36,192,229545,128,0,229623:0:0:0:0:
329,192,229545,128,0,229623:0:0:0:0:
402,192,229623,1,0,0:0:0:0:
475,192,229623,128,0,229860:0:0:0:0:
256,192,229623,128,0,229781:0:0:0:0:
182,192,229623,128,0,229702:0:0:0:0:
329,192,229702,128,0,229860:0:0:0:0:
182,192,229781,1,0,0:0:0:0:
402,192,229781,128,0,229860:0:0:0:0:
109,192,229781,128,0,229939:0:0:0:0:
36,192,229781,128,0,229860:0:0:0:0:
256,192,229860,1,0,0:0:0:0:
182,192,229939,1,0,0:0:0:0:
36,192,229939,1,0,0:0:0:0:
475,192,229939,128,0,230176:0:0:0:0:
402,192,229939,1,0,0:0:0:0:
256,192,229979,128,0,230137:0:0:0:0:
182,192,230097,128,0,230334:0:0:0:0:
36,192,230097,1,0,0:0:0:0:
402,192,230137,128,0,230295:0:0:0:0:
475,192,230255,128,0,230492:0:0:0:0:
109,192,230255,1,0,0:0:0:0:
256,192,230295,128,0,230847:0:0:0:0:
109,192,230413,128,0,230571:0:0:0:0:
36,192,230413,1,0,0:0:0:0:
402,192,230452,128,0,230650:0:0:0:0:
329,192,230571,1,0,0:0:0:0:
182,192,230650,1,0,0:0:0:0:
109,192,230729,128,0,230966:0:0:0:0:
402,192,230729,128,0,230966:0:0:0:0:
475,192,230729,1,0,0:0:0:0:
36,192,230887,128,0,231123:0:0:0:0:
329,192,230887,1,0,0:0:0:0:
256,192,230926,128,0,231163:0:0:0:0:
402,192,231045,1,0,0:0:0:0:
109,192,231045,128,0,231123:0:0:0:0:
329,192,231084,128,0,231163:0:0:0:0:
182,192,231202,128,0,231479:0:0:0:0:
109,192,231202,128,0,231321:0:0:0:0:
36,192,231202,128,0,231281:0:0:0:0:
475,192,231202,1,0,0:0:0:0:
402,192,231321,1,0,0:0:0:0:
256,192,231360,128,0,231479:0:0:0:0:
475,192,231360,1,0,0:0:0:0:
36,192,231360,1,0,0:0:0:0:
329,192,231400,128,0,231479:0:0:0:0:
109,192,231439,1,0,0:0:0:0:
329,192,231518,1,0,0:0:0:0:
402,192,231518,128,0,231676:0:0:0:0:
256,192,231518,128,0,231716:0:0:0:0:
36,192,231518,128,0,231637:0:0:0:0:
475,192,231518,1,0,0:0:0:0:
109,192,231597,1,0,0:0:0:0:
182,192,231676,128,0,231755:0:0:0:0:
475,192,231676,1,0,0:0:0:0:
109,192,231716,128,0,231834:0:0:0:0:
36,192,231755,128,0,231913:0:0:0:0:
402,192,231755,1,0,0:0:0:0:
329,192,231834,128,0,232071:0:0:0:0:
256,192,231834,1,0,0:0:0:0:
402,192,231873,128,0,232031:0:0:0:0:
36,192,231992,128,0,232150:0:0:0:0:
182,192,231992,1,0,0:0:0:0:
109,192,232071,128,0,232189:0:0:0:0:
256,192,232071,1,0,0:0:0:0:
182,192,232150,128,0,232229:0:0:0:0:
475,192,232150,1,0,0:0:0:0:
402,192,232170,1,0,0:0:0:0:
329,192,232189,1,0,0:0:0:0:
256,192,232229,1,0,0:0:0:0:
402,192,232268,1,0,0:0:0:0:
109,192,232308,128,0,232387:0:0:0:0:
182,192,232327,128,0,232367:0:0:0:0:
256,192,232347,1,0,0:0:0:0:
329,192,232387,1,0,0:0:0:0:
182,192,232426,1,0,0:0:0:0:
475,192,232466,1,0,0:0:0:0:
36,192,232466,1,0,0:0:0:0:
402,192,232505,128,0,232564:0:0:0:0:
36,192,232623,1,0,0:0:0:0:
475,192,232623,1,0,0:0:0:0:
109,192,232663,128,0,232722:0:0:0:0:
256,192,232781,1,0,0:0:0:0:
36,192,232781,1,0,0:0:0:0:
402,192,232781,128,0,232959:0:0:0:0:
475,192,232781,1,0,0:0:0:0:
329,192,232781,128,0,232841:0:0:0:0:
109,192,232821,128,0,233038:0:0:0:0:
182,192,232860,1,0,0:0:0:0:
256,192,232900,128,0,232998:0:0:0:0:
475,192,232939,1,0,0:0:0:0:
329,192,232979,128,0,233235:0:0:0:0:
182,192,233018,128,0,233196:0:0:0:0:
36,192,233058,128,0,233216:0:0:0:0:
475,192,233097,128,0,233275:0:0:0:0:
402,192,233097,128,0,233137:0:0:0:0:
256,192,233097,1,0,0:0:0:0:
109,192,233176,128,0,233275:0:0:0:0:
402,192,233255,128,0,233354:0:0:0:0:
256,192,233255,1,0,0:0:0:0:
182,192,233295,128,0,233413:0:0:0:0:
329,192,233334,128,0,233492:0:0:0:0:
475,192,233373,128,0,233571:0:0:0:0:
36,192,233413,1,0,0:0:0:0:
256,192,233413,128,0,233610:0:0:0:0:
109,192,233452,1,0,0:0:0:0:
402,192,233492,128,0,233689:0:0:0:0:
182,192,233531,1,0,0:0:0:0:
329,192,233571,128,0,233650:0:0:0:0:
36,192,233571,1,0,0:0:0:0:
109,192,233610,1,0,0:0:0:0:
475,192,233650,128,0,233729:0:0:0:0:
182,192,233689,128,0,233966:0:0:0:0:
36,192,233729,128,0,233926:0:0:0:0:
256,192,233729,128,0,233808:0:0:0:0:
329,192,233768,1,0,0:0:0:0:
475,192,233808,128,0,234123:0:0:0:0:
109,192,233887,128,0,233946:0:0:0:0:
256,192,233887,1,0,0:0:0:0:
329,192,233926,128,0,234045:0:0:0:0:
402,192,233966,128,0,234084:0:0:0:0:
109,192,234045,128,0,234301:0:0:0:0:
182,192,234045,1,0,0:0:0:0:
36,192,234045,128,0,234104:0:0:0:0:
256,192,234084,128,0,234262:0:0:0:0:
329,192,234123,1,0,0:0:0:0:
402,192,234163,128,0,234222:0:0:0:0:
475,192,234202,1,0,0:0:0:0:
329,192,234242,128,0,234439:0:0:0:0:
182,192,234281,128,0,234558:0:0:0:0:
36,192,234321,128,0,234597:0:0:0:0:
256,192,234360,1,0,0:0:0:0:
402,192,234360,128,0,234400:0:0:0:0:
475,192,234360,128,0,234597:0:0:0:0:
109,192,234439,1,0,0:0:0:0:
256,192,234518,128,0,234597:0:0:0:0:
402,192,234518,1,0,0:0:0:0:
329,192,234558,128,0,234834:0:0:0:0:
109,192,234597,128,0,234676:0:0:0:0:
475,192,234676,128,0,234795:0:0:0:0:
36,192,234676,1,0,0:0:0:0:
182,192,234676,128,0,234913:0:0:0:0:
256,192,234676,1,0,0:0:0:0:
109,192,234834,128,0,234913:0:0:0:0:
256,192,234834,1,0,0:0:0:0:
36,192,234834,1,0,0:0:0:0:
402,192,234834,128,0,234913:0:0:0:0:
475,192,234913,128,0,235229:0:0:0:0:
36,192,234992,128,0,235229:0:0:0:0:
109,192,234992,128,0,235150:0:0:0:0:
256,192,234992,128,0,235110:0:0:0:0:
329,192,235031,1,0,0:0:0:0:
182,192,235071,1,0,0:0:0:0:
402,192,235150,128,0,235229:0:0:0:0:
256,192,235189,128,0,235347:0:0:0:0:
109,192,235229,1,0,0:0:0:0:
402,192,235308,128,0,235485:0:0:0:0:
329,192,235308,128,0,235367:0:0:0:0:
36,192,235308,1,0,0:0:0:0:
109,192,235347,128,0,235564:0:0:0:0:
182,192,235387,1,0,0:0:0:0:
256,192,235426,128,0,235525:0:0:0:0:
475,192,235466,1,0,0:0:0:0:
329,192,235505,128,0,235762:0:0:0:0:
182,192,235545,128,0,235722:0:0:0:0:
36,192,235584,128,0,235742:0:0:0:0:
402,192,235623,128,0,235663:0:0:0:0:
475,192,235623,128,0,235801:0:0:0:0:
256,192,235623,1,0,0:0:0:0:
109,192,235702,128,0,235801:0:0:0:0:
402,192,235781,128,0,235880:0:0:0:0:
256,192,235781,1,0,0:0:0:0:
182,192,235821,128,0,235939:0:0:0:0:
329,192,235860,128,0,236018:0:0:0:0:
475,192,235900,128,0,236097:0:0:0:0:
256,192,235939,128,0,236137:0:0:0:0:
36,192,235939,1,0,0:0:0:0:
109,192,235979,1,0,0:0:0:0:
402,192,236018,128,0,236216:0:0:0:0:
182,192,236058,1,0,0:0:0:0:
36,192,236097,1,0,0:0:0:0:
329,192,236097,128,0,236176:0:0:0:0:
109,192,236137,1,0,0:0:0:0:
475,192,236176,128,0,236255:0:0:0:0:
182,192,236216,1,0,0:0:0:0:
36,192,236255,128,0,236531:0:0:0:0:
329,192,236255,128,0,236334:0:0:0:0:
256,192,236255,128,0,236373:0:0:0:0:
475,192,236334,128,0,236413:0:0:0:0:
402,192,236373,128,0,236492:0:0:0:0:
109,192,236413,128,0,236531:0:0:0:0:
329,192,236413,128,0,236650:0:0:0:0:
182,192,236452,128,0,236531:0:0:0:0:
256,192,236492,1,0,0:0:0:0:
182,192,236571,1,0,0:0:0:0:
109,192,236571,128,0,236808:0:0:0:0:
475,192,236571,1,0,0:0:0:0:
402,192,236591,128,0,236966:0:0:0:0:
36,192,236729,1,0,0:0:0:0:
182,192,236729,128,0,237123:0:0:0:0:
329,192,236729,1,0,0:0:0:0:
475,192,236808,1,0,0:0:0:0:
329,192,236887,128,0,237281:0:0:0:0:
36,192,236887,128,0,237084:0:0:0:0:
256,192,236966,1,0,0:0:0:0:
402,192,237045,1,0,0:0:0:0:
109,192,237123,1,0,0:0:0:0:
402,192,237183,128,0,237281:0:0:0:0:
256,192,237202,1,0,0:0:0:0:
182,192,237202,128,0,237479:0:0:0:0:
475,192,237202,128,0,237281:0:0:0:0:
36,192,237202,1,0,0:0:0:0:
109,192,237341,128,0,237439:0:0:0:0:
329,192,237360,128,0,237439:0:0:0:0:
36,192,237360,128,0,237439:0:0:0:0:
256,192,237360,128,0,237459:0:0:0:0:
402,192,237518,128,0,237676:0:0:0:0:
256,192,237518,128,0,237637:0:0:0:0:
475,192,237518,128,0,237755:0:0:0:0:
36,192,237518,128,0,237597:0:0:0:0:
182,192,237558,1,0,0:0:0:0:
329,192,237597,1,0,0:0:0:0:
109,192,237676,128,0,237755:0:0:0:0:
36,192,237676,1,0,0:0:0:0:
256,192,237716,128,0,237873:0:0:0:0:
402,192,237755,1,0,0:0:0:0:
475,192,237834,1,0,0:0:0:0:
109,192,237834,128,0,238012:0:0:0:0:
182,192,237834,128,0,237893:0:0:0:0:
402,192,237873,128,0,238091:0:0:0:0:
329,192,237913,1,0,0:0:0:0:
256,192,237952,128,0,238051:0:0:0:0:
36,192,237992,1,0,0:0:0:0:
182,192,238031,128,0,238288:0:0:0:0:
329,192,238071,128,0,238248:0:0:0:0:
475,192,238110,128,0,238268:0:0:0:0:
36,192,238150,128,0,238327:0:0:0:0:
109,192,238150,128,0,238189:0:0:0:0:
256,192,238150,1,0,0:0:0:0:
402,192,238229,128,0,238327:0:0:0:0:
109,192,238308,128,0,238406:0:0:0:0:
256,192,238308,1,0,0:0:0:0:
329,192,238347,128,0,238466:0:0:0:0:
182,192,238387,128,0,238545:0:0:0:0:
36,192,238426,128,0,238623:0:0:0:0:
475,192,238466,1,0,0:0:0:0:
256,192,238466,128,0,238663:0:0:0:0:
402,192,238505,1,0,0:0:0:0:
109,192,238545,128,0,238742:0:0:0:0:
329,192,238584,1,0,0:0:0:0:
182,192,238623,128,0,238702:0:0:0:0:
475,192,238623,1,0,0:0:0:0:
402,192,238663,1,0,0:0:0:0:
36,192,238702,128,0,238781:0:0:0:0:
329,192,238742,128,0,239018:0:0:0:0:
475,192,238781,128,0,238979:0:0:0:0:
256,192,238781,128,0,238860:0:0:0:0:
182,192,238821,1,0,0:0:0:0:
36,192,238860,128,0,239176:0:0:0:0:
402,192,238939,128,0,238998:0:0:0:0:
256,192,238939,1,0,0:0:0:0:
182,192,238979,128,0,239097:0:0:0:0:
109,192,239018,128,0,239137:0:0:0:0:
402,192,239097,128,0,239354:0:0:0:0:
329,192,239097,1,0,0:0:0:0:
475,192,239097,128,0,239156:0:0:0:0:
256,192,239137,128,0,239314:0:0:0:0:
182,192,239176,1,0,0:0:0:0:
109,192,239216,128,0,239275:0:0:0:0:
36,192,239255,1,0,0:0:0:0:
182,192,239295,128,0,239492:0:0:0:0:
329,192,239334,128,0,239610:0:0:0:0:
475,192,239373,128,0,239650:0:0:0:0:
256,192,239413,1,0,0:0:0:0:
109,192,239413,128,0,239452:0:0:0:0:
36,192,239413,128,0,239650:0:0:0:0:
402,192,239492,1,0,0:0:0:0:
256,192,239571,128,0,239650:0:0:0:0:
109,192,239571,1,0,0:0:0:0:
182,192,239610,128,0,239966:0:0:0:0:
402,192,239650,128,0,239729:0:0:0:0:
475,192,239729,1,0,0:0:0:0:
329,192,239729,128,0,239966:0:0:0:0:
256,192,239729,1,0,0:0:0:0:
36,192,239729,128,0,239808:0:0:0:0:
402,192,239887,128,0,239966:0:0:0:0:
475,192,239887,1,0,0:0:0:0:
256,192,239887,128,0,239966:0:0:0:0:
109,192,239887,128,0,239966:0:0:0:0:
36,192,239887,1,0,0:0:0:0:
329,192,240045,128,0,240163:0:0:0:0:
182,192,240045,1,0,0:0:0:0:
109,192,240045,128,0,240242:0:0:0:0:
36,192,240045,128,0,240123:0:0:0:0:
402,192,240084,128,0,240183:0:0:0:0:
475,192,240123,128,0,240202:0:0:0:0:
182,192,240202,128,0,240281:0:0:0:0:
36,192,240202,1,0,0:0:0:0:
256,192,240222,128,0,240321:0:0:0:0:
329,192,240242,128,0,240360:0:0:0:0:
475,192,240360,128,0,240558:0:0:0:0:
182,192,240360,128,0,240479:0:0:0:0:
109,192,240518,128,0,240656:0:0:0:0:
402,192,240518,128,0,240597:0:0:0:0:
329,192,240558,128,0,240716:0:0:0:0:
256,192,240676,128,0,240755:0:0:0:0:
182,192,240716,128,0,240873:0:0:0:0:
109,192,240834,128,0,240913:0:0:0:0:
402,192,240834,128,0,240972:0:0:0:0:
36,192,240873,128,0,241229:0:0:0:0:
256,192,240992,128,0,241229:0:0:0:0:
329,192,241031,128,0,241189:0:0:0:0:
182,192,241031,128,0,241189:0:0:0:0:
475,192,241150,1,0,0:0:0:0:
256,192,241308,1,0,0:0:0:0:
109,192,241308,128,0,241387:0:0:0:0:
182,192,241308,128,0,241387:0:0:0:0:
402,192,241308,128,0,241545:0:0:0:0:
182,192,241466,128,0,241545:0:0:0:0:
256,192,241466,128,0,241623:0:0:0:0:
329,192,241466,1,0,0:0:0:0:
475,192,241466,128,0,241623:0:0:0:0:
109,192,241545,128,0,241584:0:0:0:0:
182,192,241623,128,0,241663:0:0:0:0:
36,192,241623,128,0,241781:0:0:0:0:
402,192,241623,128,0,241663:0:0:0:0:
109,192,241702,128,0,241781:0:0:0:0:
329,192,241702,128,0,241742:0:0:0:0:
256,192,241781,128,0,241939:0:0:0:0:
475,192,241781,1,0,0:0:0:0:
402,192,241781,1,0,0:0:0:0:
329,192,241860,128,0,241939:0:0:0:0:
109,192,241860,128,0,242018:0:0:0:0:
36,192,241860,128,0,242058:0:0:0:0:
402,192,241939,128,0,242176:0:0:0:0:
475,192,241939,128,0,242137:0:0:0:0:
182,192,241939,1,0,0:0:0:0:
109,192,242097,1,0,0:0:0:0:
256,192,242097,128,0,242137:0:0:0:0:
36,192,242255,128,0,242354:0:0:0:0:
182,192,242255,128,0,242492:0:0:0:0:
329,192,242255,128,0,242492:0:0:0:0:
256,192,242255,128,0,242531:0:0:0:0:
475,192,242255,128,0,242354:0:0:0:0:
109,192,242413,128,0,242472:0:0:0:0:
402,192,242413,128,0,242472:0:0:0:0:
182,192,242571,1,0,0:0:0:0:
109,192,242571,1,0,0:0:0:0:
36,192,242571,1,0,0:0:0:0:
475,192,242571,1,0,0:0:0:0:
329,192,242650,1,0,0:0:0:0:
256,192,242689,1,0,0:0:0:0:
182,192,242709,1,0,0:0:0:0:
109,192,242729,1,0,0:0:0:0:
36,192,242768,1,0,0:0:0:0:
402,192,242781,1,0,0:0:0:0:
36,192,242887,1,0,0:0:0:0:
329,192,242887,1,0,0:0:0:0:
402,192,242887,1,0,0:0:0:0:
475,192,242887,1,0,0:0:0:0:
256,192,242906,1,0,0:0:0:0:
109,192,243045,1,0,0:0:0:0:
475,192,243045,1,0,0:0:0:0:
329,192,243045,1,0,0:0:0:0:
182,192,243064,1,0,0:0:0:0:
256,192,243202,1,0,0:0:0:0:
109,192,243202,1,0,0:0:0:0:
36,192,243202,1,0,0:0:0:0:
475,192,243202,1,0,0:0:0:0:
182,192,243281,1,0,0:0:0:0:
36,192,243360,1,0,0:0:0:0:
329,192,243360,1,0,0:0:0:0:
402,192,243360,1,0,0:0:0:0:
182,192,243439,1,0,0:0:0:0:
256,192,243518,1,0,0:0:0:0:
36,192,243518,1,0,0:0:0:0:
109,192,243518,1,0,0:0:0:0:
475,192,243518,1,0,0:0:0:0:
402,192,243538,1,0,0:0:0:0:
329,192,243637,1,0,0:0:0:0:
109,192,243676,1,0,0:0:0:0:
402,192,243676,1,0,0:0:0:0:
182,192,243696,1,0,0:0:0:0:
329,192,243755,1,0,0:0:0:0:
256,192,243834,1,0,0:0:0:0:
475,192,243834,1,0,0:0:0:0:
36,192,243834,1,0,0:0:0:0:
182,192,243834,1,0,0:0:0:0:
402,192,243913,1,0,0:0:0:0:
256,192,243913,1,0,0:0:0:0:
329,192,243992,1,0,0:0:0:0:
36,192,243992,1,0,0:0:0:0:
109,192,243992,1,0,0:0:0:0:
182,192,244150,1,0,0:0:0:0:
475,192,244150,1,0,0:0:0:0:
402,192,244150,1,0,0:0:0:0:
256,192,244170,1,0,0:0:0:0:
36,192,244189,1,0,0:0:0:0:
109,192,244229,1,0,0:0:0:0:
329,192,244229,1,0,0:0:0:0:
402,192,244268,1,0,0:0:0:0:
182,192,244308,1,0,0:0:0:0:
475,192,244308,1,0,0:0:0:0:
329,192,244387,1,0,0:0:0:0:
256,192,244466,1,0,0:0:0:0:
182,192,244466,1,0,0:0:0:0:
36,192,244466,1,0,0:0:0:0:
402,192,244518,1,0,0:0:0:0:
256,192,244571,1,0,0:0:0:0:
109,192,244623,1,0,0:0:0:0:
475,192,244623,1,0,0:0:0:0:
402,192,244676,1,0,0:0:0:0:
182,192,244781,1,0,0:0:0:0:
36,192,244781,1,0,0:0:0:0:
329,192,244781,1,0,0:0:0:0:
475,192,244781,1,0,0:0:0:0:
256,192,244801,1,0,0:0:0:0:
109,192,244841,1,0,0:0:0:0:
402,192,244841,1,0,0:0:0:0:
329,192,244900,1,0,0:0:0:0:
475,192,244900,1,0,0:0:0:0:
182,192,244939,1,0,0:0:0:0:
36,192,244939,1,0,0:0:0:0:
256,192,244992,1,0,0:0:0:0:
402,192,245045,1,0,0:0:0:0:
182,192,245097,1,0,0:0:0:0:
109,192,245097,1,0,0:0:0:0:
36,192,245097,1,0,0:0:0:0:
475,192,245097,1,0,0:0:0:0:
256,192,245097,1,0,0:0:0:0:
109,192,245255,1,0,0:0:0:0:
402,192,245255,1,0,0:0:0:0:
256,192,245334,1,0,0:0:0:0:
109,192,245334,1,0,0:0:0:0:
329,192,245413,1,0,0:0:0:0:
402,192,245413,1,0,0:0:0:0:
475,192,245413,1,0,0:0:0:0:
182,192,245413,1,0,0:0:0:0:
36,192,245433,1,0,0:0:0:0:
109,192,245571,1,0,0:0:0:0:
475,192,245571,1,0,0:0:0:0:
329,192,245571,1,0,0:0:0:0:
256,192,245591,1,0,0:0:0:0:
329,192,245729,1,0,0:0:0:0:
36,192,245729,1,0,0:0:0:0:
109,192,245729,1,0,0:0:0:0:
402,192,245729,1,0,0:0:0:0:
182,192,245808,1,0,0:0:0:0:
256,192,245887,1,0,0:0:0:0:
402,192,245887,1,0,0:0:0:0:
36,192,245887,1,0,0:0:0:0:
182,192,245966,1,0,0:0:0:0:
36,192,246045,1,0,0:0:0:0:
475,192,246045,1,0,0:0:0:0:
256,192,246045,1,0,0:0:0:0:
109,192,246045,1,0,0:0:0:0:
329,192,246064,1,0,0:0:0:0:
182,192,246163,1,0,0:0:0:0:
109,192,246202,1,0,0:0:0:0:
475,192,246202,1,0,0:0:0:0:
329,192,246222,1,0,0:0:0:0:
182,192,246281,1,0,0:0:0:0:
256,192,246360,1,0,0:0:0:0:
402,192,246360,1,0,0:0:0:0:
475,192,246360,1,0,0:0:0:0:
36,192,246360,1,0,0:0:0:0:
109,192,246439,1,0,0:0:0:0:
256,192,246439,1,0,0:0:0:0:
329,192,246518,1,0,0:0:0:0:
402,192,246518,1,0,0:0:0:0:
475,192,246518,1,0,0:0:0:0:
182,192,246597,1,0,0:0:0:0:
109,192,246597,1,0,0:0:0:0:
36,192,246597,1,0,0:0:0:0:
402,192,246676,1,0,0:0:0:0:
475,192,246676,1,0,0:0:0:0:
329,192,246676,1,0,0:0:0:0:
182,192,246755,1,0,0:0:0:0:
256,192,246834,1,0,0:0:0:0:
402,192,246834,1,0,0:0:0:0:
36,192,246834,1,0,0:0:0:0:
182,192,246913,1,0,0:0:0:0:
109,192,246992,1,0,0:0:0:0:
36,192,246992,1,0,0:0:0:0:
329,192,246992,1,0,0:0:0:0:
109,192,247071,1,0,0:0:0:0:
36,192,247071,1,0,0:0:0:0:
329,192,247071,1,0,0:0:0:0:
182,192,247150,1,0,0:0:0:0:
402,192,247150,1,0,0:0:0:0:
475,192,247150,1,0,0:0:0:0:
36,192,247308,1,0,0:0:0:0:
475,192,247308,1,0,0:0:0:0:
256,192,247308,1,0,0:0:0:0:
402,192,247327,1,0,0:0:0:0:
109,192,247327,1,0,0:0:0:0:
256,192,247466,1,0,0:0:0:0:
36,192,247466,1,0,0:0:0:0:
329,192,247623,1,0,0:0:0:0:
256,192,247623,1,0,0:0:0:0:
36,192,247623,1,0,0:0:0:0:
402,192,247623,1,0,0:0:0:0:
475,192,247623,1,0,0:0:0:0:
182,192,247781,1,0,0:0:0:0:
402,192,247781,1,0,0:0:0:0:
182,192,247860,1,0,0:0:0:0:
36,192,247860,1,0,0:0:0:0:
329,192,247939,1,0,0:0:0:0:
402,192,247939,1,0,0:0:0:0:
475,192,247939,1,0,0:0:0:0:
109,192,247939,1,0,0:0:0:0:
256,192,247959,1,0,0:0:0:0:
329,192,248097,1,0,0:0:0:0:
36,192,248097,1,0,0:0:0:0:
402,192,248097,1,0,0:0:0:0:
182,192,248117,1,0,0:0:0:0:
109,192,248255,1,0,0:0:0:0:
36,192,248255,1,0,0:0:0:0:
475,192,248255,1,0,0:0:0:0:
402,192,248255,1,0,0:0:0:0:
182,192,248334,1,0,0:0:0:0:
329,192,248413,1,0,0:0:0:0:
109,192,248413,1,0,0:0:0:0:
256,192,248413,1,0,0:0:0:0:
402,192,248492,1,0,0:0:0:0:
256,192,248571,1,0,0:0:0:0:
36,192,248571,1,0,0:0:0:0:
475,192,248571,1,0,0:0:0:0:
182,192,248571,1,0,0:0:0:0:
329,192,248591,1,0,0:0:0:0:
402,192,248689,1,0,0:0:0:0:
109,192,248729,1,0,0:0:0:0:
182,192,248729,1,0,0:0:0:0:
256,192,248748,1,0,0:0:0:0:
402,192,248808,1,0,0:0:0:0:
475,192,248887,1,0,0:0:0:0:
36,192,248887,1,0,0:0:0:0:
182,192,248887,1,0,0:0:0:0:
329,192,248887,1,0,0:0:0:0:
109,192,248966,1,0,0:0:0:0:
475,192,248966,1,0,0:0:0:0:
329,192,249045,1,0,0:0:0:0:
36,192,249045,1,0,0:0:0:0:
182,192,249045,1,0,0:0:0:0:
329,192,249202,1,0,0:0:0:0:
475,192,249202,1,0,0:0:0:0:
109,192,249202,1,0,0:0:0:0:
256,192,249222,1,0,0:0:0:0:
182,192,249242,1,0,0:0:0:0:
36,192,249281,1,0,0:0:0:0:
402,192,249281,1,0,0:0:0:0:
329,192,249321,1,0,0:0:0:0:
256,192,249360,1,0,0:0:0:0:
475,192,249360,1,0,0:0:0:0:
402,192,249439,1,0,0:0:0:0:
182,192,249518,1,0,0:0:0:0:
109,192,249518,1,0,0:0:0:0:
36,192,249518,1,0,0:0:0:0:
329,192,249571,1,0,0:0:0:0:
109,192,249623,1,0,0:0:0:0:
256,192,249676,1,0,0:0:0:0:
475,192,249676,1,0,0:0:0:0:
182,192,249729,1,0,0:0:0:0:
36,192,249834,1,0,0:0:0:0:
256,192,249834,1,0,0:0:0:0:
475,192,249834,1,0,0:0:0:0:
109,192,249854,1,0,0:0:0:0:
402,192,249873,1,0,0:0:0:0:
329,192,249913,1,0,0:0:0:0:
36,192,249992,1,0,0:0:0:0:
182,192,249992,1,0,0:0:0:0:
402,192,249992,1,0,0:0:0:0:
256,192,250045,1,0,0:0:0:0:
329,192,250097,1,0,0:0:0:0:
182,192,250150,1,0,0:0:0:0:
109,192,250150,1,0,0:0:0:0:
36,192,250150,1,0,0:0:0:0:
475,192,250150,1,0,0:0:0:0:
256,192,250150,1,0,0:0:0:0:
36,192,250308,1,0,0:0:0:0:
329,192,250308,1,0,0:0:0:0:
182,192,250387,1,0,0:0:0:0:
36,192,250387,1,0,0:0:0:0:
329,192,250466,1,0,0:0:0:0:
402,192,250466,1,0,0:0:0:0:
475,192,250466,1,0,0:0:0:0:
256,192,250466,1,0,0:0:0:0:
109,192,250485,1,0,0:0:0:0:
182,192,250623,1,0,0:0:0:0:
475,192,250623,1,0,0:0:0:0:
402,192,250623,1,0,0:0:0:0:
256,192,250643,1,0,0:0:0:0:
329,192,250781,1,0,0:0:0:0:
36,192,250781,1,0,0:0:0:0:
109,192,250781,1,0,0:0:0:0:
475,192,250781,1,0,0:0:0:0:
182,192,250860,1,0,0:0:0:0:
329,192,250939,1,0,0:0:0:0:
402,192,250939,1,0,0:0:0:0:
109,192,250939,1,0,0:0:0:0:
182,192,251018,1,0,0:0:0:0:
36,192,251097,1,0,0:0:0:0:
475,192,251097,1,0,0:0:0:0:
256,192,251097,1,0,0:0:0:0:
109,192,251097,1,0,0:0:0:0:
329,192,251117,1,0,0:0:0:0:
402,192,251216,1,0,0:0:0:0:
329,192,251255,1,0,0:0:0:0:
36,192,251255,1,0,0:0:0:0:
256,192,251275,1,0,0:0:0:0:
182,192,251295,1,0,0:0:0:0:
109,192,251334,1,0,0:0:0:0:
256,192,251413,1,0,0:0:0:0:
475,192,251413,1,0,0:0:0:0:
36,192,251413,1,0,0:0:0:0:
402,192,251433,1,0,0:0:0:0:
182,192,251433,1,0,0:0:0:0:
109,192,251551,1,0,0:0:0:0:
329,192,251571,1,0,0:0:0:0:
182,192,251591,1,0,0:0:0:0:
402,192,251610,1,0,0:0:0:0:
256,192,251650,1,0,0:0:0:0:
475,192,251670,1,0,0:0:0:0:
256,192,251729,1,0,0:0:0:0:
36,192,251729,1,0,0:0:0:0:
109,192,251781,1,0,0:0:0:0:
182,192,251834,1,0,0:0:0:0:
256,192,251887,1,0,0:0:0:0:
475,192,251887,1,0,0:0:0:0:
182,192,251939,1,0,0:0:0:0:
402,192,251966,1,0,0:0:0:0:
109,192,251992,1,0,0:0:0:0:
36,192,252045,1,0,0:0:0:0:
475,192,252045,1,0,0:0:0:0:
256,192,252045,1,0,0:0:0:0:
329,192,252123,1,0,0:0:0:0:
475,192,252202,1,0,0:0:0:0:
182,192,252202,1,0,0:0:0:0:
109,192,252202,1,0,0:0:0:0:
36,192,252202,1,0,0:0:0:0:
329,192,252281,1,0,0:0:0:0:
475,192,252360,1,0,0:0:0:0:
109,192,252360,1,0,0:0:0:0:
329,192,252439,1,0,0:0:0:0:
182,192,252518,1,0,0:0:0:0:
402,192,252558,1,0,0:0:0:0:
256,192,252597,1,0,0:0:0:0:
109,192,252637,1,0,0:0:0:0:
402,192,252676,1,0,0:0:0:0:
329,192,252676,1,0,0:0:0:0:
475,192,252676,1,0,0:0:0:0:
36,192,252676,1,0,0:0:0:0:
182,192,252755,1,0,0:0:0:0:
256,192,252795,1,0,0:0:0:0:
329,192,252814,1,0,0:0:0:0:
402,192,252834,1,0,0:0:0:0:
475,192,252873,1,0,0:0:0:0:
109,192,252887,1,0,0:0:0:0:
475,192,252992,1,0,0:0:0:0:
182,192,252992,1,0,0:0:0:0:
109,192,252992,1,0,0:0:0:0:
36,192,252992,1,0,0:0:0:0:
256,192,253012,1,0,0:0:0:0:
402,192,253150,1,0,0:0:0:0:
36,192,253150,1,0,0:0:0:0:
182,192,253150,1,0,0:0:0:0:
329,192,253170,1,0,0:0:0:0:
256,192,253308,1,0,0:0:0:0:
402,192,253308,1,0,0:0:0:0:
475,192,253308,1,0,0:0:0:0:
36,192,253308,1,0,0:0:0:0:
329,192,253387,1,0,0:0:0:0:
475,192,253466,1,0,0:0:0:0:
182,192,253466,1,0,0:0:0:0:
109,192,253466,1,0,0:0:0:0:
329,192,253545,1,0,0:0:0:0:
256,192,253623,1,0,0:0:0:0:
475,192,253623,1,0,0:0:0:0:
402,192,253623,1,0,0:0:0:0:
36,192,253623,1,0,0:0:0:0:
109,192,253643,1,0,0:0:0:0:
182,192,253742,1,0,0:0:0:0:
402,192,253781,1,0,0:0:0:0:
109,192,253781,1,0,0:0:0:0:
329,192,253801,1,0,0:0:0:0:
182,192,253860,1,0,0:0:0:0:
256,192,253939,1,0,0:0:0:0:
36,192,253939,1,0,0:0:0:0:
475,192,253939,1,0,0:0:0:0:
329,192,253939,1,0,0:0:0:0:
109,192,254018,1,0,0:0:0:0:
256,192,254018,1,0,0:0:0:0:
182,192,254097,1,0,0:0:0:0:
402,192,254097,1,0,0:0:0:0:
475,192,254097,1,0,0:0:0:0:
329,192,254255,1,0,0:0:0:0:
36,192,254255,1,0,0:0:0:0:
109,192,254255,1,0,0:0:0:0:
256,192,254275,1,0,0:0:0:0:
475,192,254295,1,0,0:0:0:0:
402,192,254334,1,0,0:0:0:0:
182,192,254334,1,0,0:0:0:0:
109,192,254373,1,0,0:0:0:0:
329,192,254413,1,0,0:0:0:0:
36,192,254413,1,0,0:0:0:0:
182,192,254492,1,0,0:0:0:0:
256,192,254571,1,0,0:0:0:0:
329,192,254571,1,0,0:0:0:0:
475,192,254571,1,0,0:0:0:0:
109,192,254623,1,0,0:0:0:0:
256,192,254676,1,0,0:0:0:0:
402,192,254729,1,0,0:0:0:0:
36,192,254729,1,0,0:0:0:0:
182,192,254781,1,0,0:0:0:0:
475,192,254887,1,0,0:0:0:0:
36,192,254887,1,0,0:0:0:0:
256,192,254887,1,0,0:0:0:0:
402,192,254906,1,0,0:0:0:0:
109,192,254926,1,0,0:0:0:0:
182,192,254966,1,0,0:0:0:0:
329,192,255045,1,0,0:0:0:0:
475,192,255045,1,0,0:0:0:0:
109,192,255045,1,0,0:0:0:0:
256,192,255097,1,0,0:0:0:0:
182,192,255150,1,0,0:0:0:0:
329,192,255202,1,0,0:0:0:0:
402,192,255202,1,0,0:0:0:0:
475,192,255202,1,0,0:0:0:0:
36,192,255202,1,0,0:0:0:0:
256,192,255202,1,0,0:0:0:0:
402,192,255360,1,0,0:0:0:0:
109,192,255360,1,0,0:0:0:0:
256,192,255439,1,0,0:0:0:0:
402,192,255439,1,0,0:0:0:0:
182,192,255518,1,0,0:0:0:0:
109,192,255518,1,0,0:0:0:0:
36,192,255518,1,0,0:0:0:0:
329,192,255518,1,0,0:0:0:0:
475,192,255538,1,0,0:0:0:0:
402,192,255676,1,0,0:0:0:0:
36,192,255676,1,0,0:0:0:0:
182,192,255676,1,0,0:0:0:0:
256,192,255696,1,0,0:0:0:0:
182,192,255834,1,0,0:0:0:0:
475,192,255834,1,0,0:0:0:0:
402,192,255834,1,0,0:0:0:0:
109,192,255834,1,0,0:0:0:0:
329,192,255913,1,0,0:0:0:0:
256,192,255992,1,0,0:0:0:0:
109,192,255992,1,0,0:0:0:0:
475,192,255992,1,0,0:0:0:0:
329,192,256071,1,0,0:0:0:0:
475,192,256150,1,0,0:0:0:0:
36,192,256150,1,0,0:0:0:0:
256,192,256150,1,0,0:0:0:0:
402,192,256150,1,0,0:0:0:0:
182,192,256170,1,0,0:0:0:0:
329,192,256268,1,0,0:0:0:0:
402,192,256308,1,0,0:0:0:0:
36,192,256308,1,0,0:0:0:0:
182,192,256327,1,0,0:0:0:0:
329,192,256387,1,0,0:0:0:0:
109,192,256466,1,0,0:0:0:0:
36,192,256466,1,0,0:0:0:0:
475,192,256466,1,0,0:0:0:0:
256,192,256466,1,0,0:0:0:0:
402,192,256545,1,0,0:0:0:0:
256,192,256545,1,0,0:0:0:0:
182,192,256623,1,0,0:0:0:0:
109,192,256623,1,0,0:0:0:0:
36,192,256623,1,0,0:0:0:0:
329,192,256702,1,0,0:0:0:0:
402,192,256702,1,0,0:0:0:0:
475,192,256702,1,0,0:0:0:0:
109,192,256781,1,0,0:0:0:0:
36,192,256781,1,0,0:0:0:0:
182,192,256781,1,0,0:0:0:0:
329,192,256860,1,0,0:0:0:0:
256,192,256939,1,0,0:0:0:0:
109,192,256939,1,0,0:0:0:0:
475,192,256939,1,0,0:0:0:0:
329,192,257018,1,0,0:0:0:0:
402,192,257097,1,0,0:0:0:0:
475,192,257097,1,0,0:0:0:0:
182,192,257097,1,0,0:0:0:0:
402,192,257176,1,0,0:0:0:0:
475,192,257176,1,0,0:0:0:0:
182,192,257176,1,0,0:0:0:0:
329,192,257255,1,0,0:0:0:0:
109,192,257255,1,0,0:0:0:0:
36,192,257255,1,0,0:0:0:0:
475,192,257413,1,0,0:0:0:0:
36,192,257413,1,0,0:0:0:0:
256,192,257413,1,0,0:0:0:0:
109,192,257433,1,0,0:0:0:0:
402,192,257433,1,0,0:0:0:0:
256,192,257571,1,0,0:0:0:0:
475,192,257571,1,0,0:0:0:0:
256,192,257729,1,0,0:0:0:0:
182,192,257729,1,0,0:0:0:0:
475,192,257729,1,0,0:0:0:0:
109,192,257729,1,0,0:0:0:0:
329,192,257887,1,0,0:0:0:0:
109,192,257887,1,0,0:0:0:0:
329,192,257966,1,0,0:0:0:0:
475,192,257966,1,0,0:0:0:0:
182,192,258045,1,0,0:0:0:0:
109,192,258045,1,0,0:0:0:0:
36,192,258045,1,0,0:0:0:0:
402,192,258045,1,0,0:0:0:0:
256,192,258064,1,0,0:0:0:0:
182,192,258202,1,0,0:0:0:0:
475,192,258202,1,0,0:0:0:0:
36,192,258202,1,0,0:0:0:0:
329,192,258222,1,0,0:0:0:0:
402,192,258360,1,0,0:0:0:0:
475,192,258360,1,0,0:0:0:0:
36,192,258360,1,0,0:0:0:0:
109,192,258360,1,0,0:0:0:0:
329,192,258439,1,0,0:0:0:0:
402,192,258518,1,0,0:0:0:0:
256,192,258518,1,0,0:0:0:0:
109,192,258518,1,0,0:0:0:0:
182,192,258597,1,0,0:0:0:0:
475,192,258676,1,0,0:0:0:0:
36,192,258676,1,0,0:0:0:0:
329,192,258676,1,0,0:0:0:0:
109,192,258676,1,0,0:0:0:0:
256,192,258696,1,0,0:0:0:0:
182,192,258795,1,0,0:0:0:0:
402,192,258834,1,0,0:0:0:0:
109,192,258834,1,0,0:0:0:0:
329,192,258854,1,0,0:0:0:0:
182,192,258913,1,0,0:0:0:0:
36,192,258992,1,0,0:0:0:0:
475,192,258992,1,0,0:0:0:0:
329,192,258992,1,0,0:0:0:0:
256,192,258992,1,0,0:0:0:0:
402,192,259071,1,0,0:0:0:0:
36,192,259071,1,0,0:0:0:0:
109,192,259150,1,0,0:0:0:0:
475,192,259150,1,0,0:0:0:0:
256,192,259150,1,0,0:0:0:0:
182,192,259308,1,0,0:0:0:0:
36,192,259308,1,0,0:0:0:0:
402,192,259308,1,0,0:0:0:0:
256,192,259327,1,0,0:0:0:0:
329,192,259347,1,0,0:0:0:0:
475,192,259387,1,0,0:0:0:0:
109,192,259387,1,0,0:0:0:0:
182,192,259426,1,0,0:0:0:0:
256,192,259466,1,0,0:0:0:0:
36,192,259466,1,0,0:0:0:0:
109,192,259545,1,0,0:0:0:0:
329,192,259623,1,0,0:0:0:0:
402,192,259623,1,0,0:0:0:0:
475,192,259623,1,0,0:0:0:0:
182,192,259676,1,0,0:0:0:0:
402,192,259729,1,0,0:0:0:0:
329,192,259781,1,0,0:0:0:0:
109,192,259781,1,0,0:0:0:0:
182,192,259834,1,0,0:0:0:0:
475,192,259939,1,0,0:0:0:0:
256,192,259939,1,0,0:0:0:0:
36,192,259939,1,0,0:0:0:0:
402,192,259959,1,0,0:0:0:0:
182,192,259979,1,0,0:0:0:0:
109,192,260018,1,0,0:0:0:0:
475,192,260097,1,0,0:0:0:0:
36,192,260097,1,0,0:0:0:0:
329,192,260097,1,0,0:0:0:0:
182,192,260150,1,0,0:0:0:0:
256,192,260202,1,0,0:0:0:0:
329,192,260255,1,0,0:0:0:0:
402,192,260255,1,0,0:0:0:0:
475,192,260255,1,0,0:0:0:0:
36,192,260255,1,0,0:0:0:0:
182,192,260255,1,0,0:0:0:0:
475,192,260413,1,0,0:0:0:0:
329,192,260413,1,0,0:0:0:0:
329,192,260492,1,0,0:0:0:0:
475,192,260492,1,0,0:0:0:0:
182,192,260571,1,0,0:0:0:0:
109,192,260571,1,0,0:0:0:0:
256,192,260571,1,0,0:0:0:0:
402,192,260591,1,0,0:0:0:0:
36,192,260729,1,0,0:0:0:0:
109,192,260729,1,0,0:0:0:0:
182,192,260729,1,0,0:0:0:0:
329,192,260748,1,0,0:0:0:0:
256,192,260887,1,0,0:0:0:0:
36,192,260887,1,0,0:0:0:0:
182,192,260966,1,0,0:0:0:0:
402,192,260966,1,0,0:0:0:0:
256,192,261045,1,0,0:0:0:0:
36,192,261045,1,0,0:0:0:0:
475,192,261045,1,0,0:0:0:0:
109,192,261123,1,0,0:0:0:0:
402,192,261123,1,0,0:0:0:0:
475,192,261202,1,0,0:0:0:0:
256,192,261202,1,0,0:0:0:0:
36,192,261202,1,0,0:0:0:0:
182,192,261222,1,0,0:0:0:0:
329,192,261222,1,0,0:0:0:0:
109,192,261360,1,0,0:0:0:0:
475,192,261360,1,0,0:0:0:0:
182,192,261387,1,0,0:0:0:0:
256,192,261413,1,0,0:0:0:0:
329,192,261466,1,0,0:0:0:0:
182,192,261518,1,0,0:0:0:0:
109,192,261518,1,0,0:0:0:0:
36,192,261518,1,0,0:0:0:0:
402,192,261518,128,0,262150:0:0:0:0:
256,192,261637,1,0,0:0:0:0:
109,192,261676,1,0,0:0:0:0:
109,192,261755,1,0,0:0:0:0:
256,192,261834,1,0,0:0:0:0:
329,192,261834,1,0,0:0:0:0:
475,192,261834,1,0,0:0:0:0:
109,192,261992,1,0,0:0:0:0:
36,192,261992,1,0,0:0:0:0:
182,192,262071,1,0,0:0:0:0:
329,192,262071,1,0,0:0:0:0:
109,192,262150,1,0,0:0:0:0:
36,192,262150,1,0,0:0:0:0:
256,192,262150,1,0,0:0:0:0:
256,192,262229,1,0,0:0:0:0:
182,192,262308,1,0,0:0:0:0:
36,192,262308,1,0,0:0:0:0:
475,192,262308,128,0,262387:0:0:0:0:
402,192,262308,1,0,0:0:0:0:
402,192,262466,128,0,262545:0:0:0:0:
475,192,262466,128,0,262545:0:0:0:0:
329,192,262466,1,0,0:0:0:0:
182,192,262466,1,0,0:0:0:0:
329,192,262623,128,0,262702:0:0:0:0:
402,192,262623,128,0,262702:0:0:0:0:
475,192,262623,128,0,262702:0:0:0:0:
256,192,262623,1,0,0:0:0:0:
109,192,262623,1,0,0:0:0:0:
36,192,262781,128,0,263018:0:0:0:0:
182,192,262781,128,0,262939:0:0:0:0:
256,192,262781,1,0,0:0:0:0:
475,192,262781,128,0,262860:0:0:0:0:
402,192,262821,1,0,0:0:0:0:
109,192,262860,128,0,263018:0:0:0:0:
329,192,262860,128,0,262979:0:0:0:0:
256,192,262939,128,0,263018:0:0:0:0:
475,192,262939,128,0,263018:0:0:0:0:
182,192,263018,128,0,263097:0:0:0:0:
402,192,263018,128,0,263097:0:0:0:0:
256,192,263097,1,0,0:0:0:0:
475,192,263097,128,0,263334:0:0:0:0:
329,192,263097,128,0,263255:0:0:0:0:
36,192,263097,128,0,263176:0:0:0:0:
109,192,263137,1,0,0:0:0:0:
402,192,263176,128,0,263334:0:0:0:0:
182,192,263176,128,0,263295:0:0:0:0:
36,192,263255,128,0,263334:0:0:0:0:
256,192,263255,128,0,263334:0:0:0:0:
109,192,263334,128,0,263413:0:0:0:0:
329,192,263334,128,0,263413:0:0:0:0:
36,192,263413,128,0,263492:0:0:0:0:
475,192,263413,128,0,263492:0:0:0:0:
402,192,263413,128,0,263650:0:0:0:0:
182,192,263413,128,0,263571:0:0:0:0:
256,192,263492,128,0,263571:0:0:0:0:
329,192,263492,1,0,0:0:0:0:
36,192,263571,128,0,263650:0:0:0:0:
109,192,263571,128,0,263808:0:0:0:0:
475,192,263571,128,0,263650:0:0:0:0:
182,192,263650,1,0,0:0:0:0:
329,192,263650,128,0,263729:0:0:0:0:
36,192,263729,1,0,0:0:0:0:
256,192,263729,128,0,263808:0:0:0:0:
402,192,263729,128,0,263966:0:0:0:0:
475,192,263729,1,0,0:0:0:0:
182,192,263808,128,0,263887:0:0:0:0:
329,192,263808,1,0,0:0:0:0:
36,192,263887,128,0,263966:0:0:0:0:
109,192,263887,128,0,264045:0:0:0:0:
475,192,263887,128,0,263966:0:0:0:0:
256,192,263966,128,0,264123:0:0:0:0:
182,192,263966,1,0,0:0:0:0:
329,192,264045,128,0,264202:0:0:0:0:
36,192,264045,128,0,264123:0:0:0:0:
475,192,264045,1,0,0:0:0:0:
402,192,264123,128,0,264281:0:0:0:0:
182,192,264123,128,0,264202:0:0:0:0:
256,192,264202,128,0,264281:0:0:0:0:
109,192,264202,128,0,264242:0:0:0:0:
475,192,264202,128,0,264439:0:0:0:0:
329,192,264281,128,0,264360:0:0:0:0:
182,192,264281,128,0,264321:0:0:0:0:
256,192,264360,128,0,264597:0:0:0:0:
402,192,264360,128,0,264439:0:0:0:0:
109,192,264360,1,0,0:0:0:0:
36,192,264360,128,0,264439:0:0:0:0:
182,192,264439,128,0,264479:0:0:0:0:
329,192,264439,128,0,264518:0:0:0:0:
109,192,264518,128,0,264558:0:0:0:0:
36,192,264518,128,0,264755:0:0:0:0:
402,192,264518,128,0,264558:0:0:0:0:
329,192,264597,128,0,264637:0:0:0:0:
182,192,264597,128,0,264676:0:0:0:0:
109,192,264676,128,0,264755:0:0:0:0:
256,192,264676,128,0,264913:0:0:0:0:
475,192,264676,128,0,264755:0:0:0:0:
402,192,264676,1,0,0:0:0:0:
182,192,264755,128,0,264834:0:0:0:0:
329,192,264755,128,0,264795:0:0:0:0:
402,192,264834,128,0,264873:0:0:0:0:
109,192,264834,128,0,264873:0:0:0:0:
475,192,264834,128,0,265071:0:0:0:0:
182,192,264913,128,0,264952:0:0:0:0:
329,192,264913,128,0,264992:0:0:0:0:
109,192,264992,128,0,265071:0:0:0:0:
256,192,264992,128,0,265071:0:0:0:0:
36,192,264992,128,0,265229:0:0:0:0:
402,192,264992,128,0,265071:0:0:0:0:
182,192,265150,128,0,265229:0:0:0:0:
256,192,265150,128,0,265229:0:0:0:0:
329,192,265150,128,0,265229:0:0:0:0:
475,192,265150,128,0,265229:0:0:0:0:
109,192,265229,1,0,0:0:0:0:
36,192,265308,128,0,265545:0:0:0:0:
182,192,265308,128,0,265466:0:0:0:0:
256,192,265308,1,0,0:0:0:0:
475,192,265308,128,0,265387:0:0:0:0:
402,192,265347,1,0,0:0:0:0:
109,192,265387,128,0,265545:0:0:0:0:
329,192,265387,128,0,265505:0:0:0:0:
256,192,265466,128,0,265545:0:0:0:0:
475,192,265466,128,0,265545:0:0:0:0:
182,192,265545,128,0,265623:0:0:0:0:
402,192,265545,128,0,265623:0:0:0:0:
256,192,265623,1,0,0:0:0:0:
475,192,265623,128,0,265860:0:0:0:0:
329,192,265623,128,0,265781:0:0:0:0:
36,192,265623,128,0,265702:0:0:0:0:
109,192,265663,1,0,0:0:0:0:
402,192,265702,128,0,265860:0:0:0:0:
182,192,265702,128,0,265821:0:0:0:0:
36,192,265781,128,0,265860:0:0:0:0:
256,192,265781,128,0,265860:0:0:0:0:
109,192,265860,128,0,265939:0:0:0:0:
329,192,265860,128,0,265939:0:0:0:0:
36,192,265939,128,0,266018:0:0:0:0:
475,192,265939,128,0,266018:0:0:0:0:
402,192,265939,128,0,266097:0:0:0:0:
182,192,265939,128,0,266176:0:0:0:0:
256,192,266018,128,0,266097:0:0:0:0:
109,192,266018,1,0,0:0:0:0:
36,192,266097,128,0,266176:0:0:0:0:
329,192,266097,128,0,266334:0:0:0:0:
475,192,266097,128,0,266176:0:0:0:0:
402,192,266176,1,0,0:0:0:0:
109,192,266176,128,0,266255:0:0:0:0:
36,192,266255,1,0,0:0:0:0:
256,192,266255,128,0,266334:0:0:0:0:
475,192,266255,1,0,0:0:0:0:
182,192,266255,128,0,266492:0:0:0:0:
402,192,266334,128,0,266413:0:0:0:0:
109,192,266334,1,0,0:0:0:0:
36,192,266413,128,0,266492:0:0:0:0:
475,192,266413,128,0,266492:0:0:0:0:
329,192,266413,128,0,267676:0:0:0:0:
109,192,266492,128,0,266571:0:0:0:0:
256,192,266492,128,0,266650:0:0:0:0:
36,192,266571,1,0,0:0:0:0:
402,192,266571,128,0,266650:0:0:0:0:
475,192,266571,1,0,0:0:0:0:
182,192,266571,1,0,0:0:0:0:
109,192,266689,1,0,0:0:0:0:
475,192,266729,128,0,266808:0:0:0:0:
36,192,266729,1,0,0:0:0:0:
475,192,266887,128,0,266966:0:0:0:0:
182,192,266887,1,0,0:0:0:0:
256,192,266926,1,0,0:0:0:0:
475,192,267045,128,0,267123:0:0:0:0:
36,192,267045,1,0,0:0:0:0:
475,192,267202,128,0,267281:0:0:0:0:
182,192,267202,1,0,0:0:0:0:
475,192,267360,128,0,267439:0:0:0:0:
109,192,267360,1,0,0:0:0:0:
256,192,267360,1,0,0:0:0:0:
402,192,267518,1,0,0:0:0:0:
109,192,267676,1,0,0:0:0:0:
402,192,267676,1,0,0:0:0:0:
475,192,267834,128,0,268071:0:0:0:0:
329,192,267834,128,0,267992:0:0:0:0:
256,192,267834,1,0,0:0:0:0:
36,192,267834,128,0,267913:0:0:0:0:
109,192,267873,1,0,0:0:0:0:
402,192,267913,128,0,268071:0:0:0:0:
182,192,267913,128,0,268031:0:0:0:0:
256,192,267992,128,0,268071:0:0:0:0:
36,192,267992,128,0,268071:0:0:0:0:
329,192,268071,128,0,268150:0:0:0:0:
109,192,268071,128,0,268150:0:0:0:0:
256,192,268150,1,0,0:0:0:0:
36,192,268150,128,0,268387:0:0:0:0:
182,192,268150,128,0,268308:0:0:0:0:
475,192,268150,128,0,268229:0:0:0:0:
402,192,268189,1,0,0:0:0:0:
109,192,268229,128,0,268387:0:0:0:0:
329,192,268229,128,0,268347:0:0:0:0:
475,192,268308,128,0,268387:0:0:0:0:
256,192,268308,128,0,268387:0:0:0:0:
402,192,268387,128,0,268466:0:0:0:0:
182,192,268387,128,0,268466:0:0:0:0:
475,192,268466,128,0,268545:0:0:0:0:
36,192,268466,128,0,268545:0:0:0:0:
109,192,268466,128,0,268702:0:0:0:0:
329,192,268466,128,0,268623:0:0:0:0:
256,192,268545,128,0,268623:0:0:0:0:
182,192,268545,1,0,0:0:0:0:
475,192,268623,128,0,268702:0:0:0:0:
402,192,268623,128,0,268860:0:0:0:0:
36,192,268623,128,0,268702:0:0:0:0:
329,192,268702,1,0,0:0:0:0:
182,192,268702,128,0,268781:0:0:0:0:
475,192,268781,1,0,0:0:0:0:
256,192,268781,128,0,268860:0:0:0:0:
109,192,268781,128,0,269018:0:0:0:0:
36,192,268781,1,0,0:0:0:0:
329,192,268860,128,0,268939:0:0:0:0:
182,192,268860,1,0,0:0:0:0:
475,192,268939,128,0,269018:0:0:0:0:
402,192,268939,128,0,269097:0:0:0:0:
36,192,268939,128,0,269018:0:0:0:0:
256,192,269018,128,0,269176:0:0:0:0:
329,192,269018,1,0,0:0:0:0:
182,192,269097,128,0,269255:0:0:0:0:
475,192,269097,128,0,269176:0:0:0:0:
36,192,269097,1,0,0:0:0:0:
109,192,269176,128,0,269334:0:0:0:0:
329,192,269176,128,0,269255:0:0:0:0:
256,192,269255,128,0,269334:0:0:0:0:
402,192,269255,128,0,269295:0:0:0:0:
36,192,269255,128,0,269492:0:0:0:0:
182,192,269334,128,0,269413:0:0:0:0:
329,192,269334,128,0,269373:0:0:0:0:
256,192,269413,128,0,269650:0:0:0:0:
109,192,269413,128,0,269492:0:0:0:0:
402,192,269413,1,0,0:0:0:0:
475,192,269413,128,0,269492:0:0:0:0:
329,192,269492,128,0,269531:0:0:0:0:
182,192,269492,128,0,269571:0:0:0:0:
402,192,269571,128,0,269610:0:0:0:0:
475,192,269571,128,0,269808:0:0:0:0:
109,192,269571,128,0,269610:0:0:0:0:
182,192,269650,128,0,269689:0:0:0:0:
329,192,269650,128,0,269729:0:0:0:0:
402,192,269729,128,0,269808:0:0:0:0:
256,192,269729,128,0,269966:0:0:0:0:
36,192,269729,128,0,269808:0:0:0:0:
109,192,269729,1,0,0:0:0:0:
182,192,269808,128,0,269847:0:0:0:0:
329,192,269808,128,0,269887:0:0:0:0:
109,192,269887,128,0,269926:0:0:0:0:
402,192,269887,128,0,269926:0:0:0:0:
36,192,269887,128,0,270123:0:0:0:0:
182,192,269966,128,0,270045:0:0:0:0:
329,192,269966,128,0,270005:0:0:0:0:
402,192,270045,128,0,270123:0:0:0:0:
256,192,270045,128,0,270123:0:0:0:0:
475,192,270045,128,0,270281:0:0:0:0:
109,192,270045,128,0,270123:0:0:0:0:
329,192,270202,128,0,270281:0:0:0:0:
256,192,270202,128,0,270281:0:0:0:0:
182,192,270202,128,0,270281:0:0:0:0:
36,192,270202,128,0,270281:0:0:0:0:
402,192,270281,1,0,0:0:0:0:
475,192,270360,128,0,270597:0:0:0:0:
329,192,270360,128,0,270518:0:0:0:0:
256,192,270360,1,0,0:0:0:0:
36,192,270360,128,0,270439:0:0:0:0:
109,192,270400,1,0,0:0:0:0:
402,192,270439,128,0,270597:0:0:0:0:
182,192,270439,128,0,270558:0:0:0:0:
256,192,270518,128,0,270597:0:0:0:0:
36,192,270518,128,0,270597:0:0:0:0:
329,192,270597,128,0,270676:0:0:0:0:
109,192,270597,128,0,270676:0:0:0:0:
256,192,270676,1,0,0:0:0:0:
36,192,270676,128,0,270913:0:0:0:0:
182,192,270676,128,0,270834:0:0:0:0:
475,192,270676,128,0,270755:0:0:0:0:
402,192,270716,1,0,0:0:0:0:
109,192,270755,128,0,270913:0:0:0:0:
329,192,270755,128,0,270873:0:0:0:0:
475,192,270834,128,0,270913:0:0:0:0:
256,192,270834,128,0,270913:0:0:0:0:
402,192,270913,128,0,270992:0:0:0:0:
182,192,270913,128,0,270992:0:0:0:0:
475,192,270992,128,0,271071:0:0:0:0:
36,192,270992,128,0,271071:0:0:0:0:
109,192,270992,128,0,271150:0:0:0:0:
329,192,270992,128,0,271229:0:0:0:0:
256,192,271071,128,0,271150:0:0:0:0:
402,192,271071,1,0,0:0:0:0:
475,192,271150,128,0,271229:0:0:0:0:
182,192,271150,128,0,271387:0:0:0:0:
36,192,271150,128,0,271229:0:0:0:0:
109,192,271229,1,0,0:0:0:0:
402,192,271229,128,0,271308:0:0:0:0:
475,192,271308,1,0,0:0:0:0:
256,192,271308,128,0,271387:0:0:0:0:
36,192,271308,1,0,0:0:0:0:
329,192,271308,128,0,271545:0:0:0:0:
109,192,271387,128,0,271466:0:0:0:0:
402,192,271387,1,0,0:0:0:0:
36,192,271466,128,0,271545:0:0:0:0:
182,192,271466,128,0,271623:0:0:0:0:
475,192,271466,128,0,271545:0:0:0:0:
402,192,271545,128,0,271623:0:0:0:0:
256,192,271545,128,0,271623:0:0:0:0:
109,192,271623,128,0,271702:0:0:0:0:
36,192,271623,128,0,271702:0:0:0:0:
329,192,271623,1,0,0:0:0:0:
475,192,271623,1,0,0:0:0:0:
109,192,271781,128,0,271860:0:0:0:0:
182,192,271781,128,0,271860:0:0:0:0:
329,192,271860,1,0,0:0:0:0:
402,192,271860,1,0,0:0:0:0:
109,192,271939,128,0,272018:0:0:0:0:
36,192,271939,128,0,272018:0:0:0:0:
402,192,272018,1,0,0:0:0:0:
475,192,272018,1,0,0:0:0:0:
182,192,272097,128,0,272176:0:0:0:0:
256,192,272097,128,0,272176:0:0:0:0:
329,192,272097,1,0,0:0:0:0:
109,192,272176,1,0,0:0:0:0:
36,192,272176,1,0,0:0:0:0:
475,192,272176,1,0,0:0:0:0:
329,192,272255,128,0,272334:0:0:0:0:
256,192,272255,128,0,272334:0:0:0:0:
329,192,272413,1,0,0:0:0:0:
402,192,272413,128,0,272492:0:0:0:0:
475,192,272413,128,0,272492:0:0:0:0:
182,192,272492,1,0,0:0:0:0:
109,192,272492,1,0,0:0:0:0:
36,192,272492,1,0,0:0:0:0:
402,192,272571,128,0,272650:0:0:0:0:
256,192,272571,128,0,272808:0:0:0:0:
329,192,272571,128,0,272650:0:0:0:0:
182,192,272729,128,0,272808:0:0:0:0:
109,192,272729,128,0,272808:0:0:0:0:
402,192,272729,1,0,0:0:0:0:
36,192,272887,128,0,272966:0:0:0:0:
109,192,272887,128,0,272966:0:0:0:0:
182,192,272887,128,0,273123:0:0:0:0:
329,192,272887,128,0,272966:0:0:0:0:
475,192,272887,128,0,273123:0:0:0:0:
256,192,272966,128,0,273045:0:0:0:0:
402,192,272966,1,0,0:0:0:0:
109,192,273045,128,0,273281:0:0:0:0:
329,192,273045,128,0,273084:0:0:0:0:
36,192,273123,128,0,273202:0:0:0:0:
256,192,273123,128,0,273163:0:0:0:0:
402,192,273202,128,0,273281:0:0:0:0:
475,192,273202,128,0,273281:0:0:0:0:
329,192,273202,128,0,273439:0:0:0:0:
182,192,273202,128,0,273242:0:0:0:0:
256,192,273281,128,0,273360:0:0:0:0:
36,192,273281,128,0,273439:0:0:0:0:
402,192,273360,128,0,273597:0:0:0:0:
182,192,273360,128,0,273400:0:0:0:0:
475,192,273439,128,0,273518:0:0:0:0:
256,192,273439,128,0,273479:0:0:0:0:
329,192,273518,128,0,273558:0:0:0:0:
36,192,273518,128,0,273597:0:0:0:0:
109,192,273518,128,0,273597:0:0:0:0:
182,192,273518,128,0,273755:0:0:0:0:
256,192,273597,128,0,273676:0:0:0:0:
109,192,273676,128,0,273755:0:0:0:0:
36,192,273676,128,0,273913:0:0:0:0:
329,192,273676,128,0,273755:0:0:0:0:
475,192,273676,1,0,0:0:0:0:
402,192,273755,128,0,273834:0:0:0:0:
109,192,273834,128,0,273913:0:0:0:0:
182,192,273834,128,0,274071:0:0:0:0:
329,192,273834,1,0,0:0:0:0:
256,192,273834,128,0,273913:0:0:0:0:
475,192,273834,128,0,273913:0:0:0:0:
402,192,273913,128,0,273992:0:0:0:0:
36,192,273992,128,0,274229:0:0:0:0:
109,192,273992,128,0,274150:0:0:0:0:
329,192,273992,128,0,274071:0:0:0:0:
475,192,273992,1,0,0:0:0:0:
256,192,274071,128,0,274150:0:0:0:0:
402,192,274071,128,0,274387:0:0:0:0:
182,192,274150,128,0,274229:0:0:0:0:
329,192,274150,1,0,0:0:0:0:
475,192,274150,128,0,274229:0:0:0:0:
109,192,274229,128,0,274308:0:0:0:0:
329,192,274308,128,0,274387:0:0:0:0:
475,192,274308,128,0,274545:0:0:0:0:
36,192,274308,128,0,274387:0:0:0:0:
256,192,274308,1,0,0:0:0:0:
109,192,274387,128,0,274466:0:0:0:0:
402,192,274466,128,0,274545:0:0:0:0:
329,192,274466,128,0,274702:0:0:0:0:
182,192,274466,128,0,274545:0:0:0:0:
256,192,274466,1,0,0:0:0:0:
36,192,274466,128,0,274545:0:0:0:0:
109,192,274545,128,0,274623:0:0:0:0:
475,192,274623,128,0,274860:0:0:0:0:
402,192,274623,128,0,274702:0:0:0:0:
182,192,274623,128,0,274702:0:0:0:0:
36,192,274623,1,0,0:0:0:0:
256,192,274702,128,0,274781:0:0:0:0:
329,192,274781,128,0,275018:0:0:0:0:
402,192,274781,128,0,274860:0:0:0:0:
182,192,274781,1,0,0:0:0:0:
109,192,274781,128,0,274860:0:0:0:0:
36,192,274860,128,0,274939:0:0:0:0:
402,192,274939,128,0,275018:0:0:0:0:
109,192,274939,128,0,275018:0:0:0:0:
256,192,274939,1,0,0:0:0:0:
475,192,274939,128,0,275176:0:0:0:0:
182,192,275018,128,0,275137:0:0:0:0:
36,192,275097,128,0,275334:0:0:0:0:
402,192,275097,128,0,275176:0:0:0:0:
329,192,275097,128,0,275334:0:0:0:0:
109,192,275097,128,0,275137:0:0:0:0:
256,192,275097,128,0,275137:0:0:0:0:
109,192,275255,128,0,275334:0:0:0:0:
182,192,275255,128,0,275334:0:0:0:0:
256,192,275255,128,0,275334:0:0:0:0:
402,192,275255,1,0,0:0:0:0:
475,192,275255,128,0,275492:0:0:0:0:
256,192,275413,128,0,275492:0:0:0:0:
36,192,275413,128,0,275571:0:0:0:0:
182,192,275413,1,0,0:0:0:0:
329,192,275413,128,0,275729:0:0:0:0:
402,192,275413,1,0,0:0:0:0:
109,192,275492,128,0,275650:0:0:0:0:
475,192,275571,1,0,0:0:0:0:
182,192,275571,128,0,275650:0:0:0:0:
402,192,275650,128,0,275808:0:0:0:0:
182,192,275729,128,0,275887:0:0:0:0:
475,192,275729,128,0,275966:0:0:0:0:
109,192,275729,1,0,0:0:0:0:
36,192,275729,128,0,276123:0:0:0:0:
256,192,275808,128,0,275966:0:0:0:0:
402,192,275887,1,0,0:0:0:0:
329,192,275887,128,0,276123:0:0:0:0:
475,192,276045,128,0,276123:0:0:0:0:
109,192,276045,128,0,276202:0:0:0:0:
256,192,276045,1,0,0:0:0:0:
182,192,276123,128,0,276281:0:0:0:0:
475,192,276202,128,0,276281:0:0:0:0:
256,192,276202,128,0,276755:0:0:0:0:
36,192,276281,1,0,0:0:0:0:
475,192,276360,128,0,276439:0:0:0:0:
329,192,276360,1,0,0:0:0:0:
402,192,276360,1,0,0:0:0:0:
182,192,276439,1,0,0:0:0:0:
109,192,276439,1,0,0:0:0:0:
36,192,276439,128,0,276518:0:0:0:0:
329,192,276518,1,0,0:0:0:0:
475,192,276518,1,0,0:0:0:0:
402,192,276518,128,0,276597:0:0:0:0:
36,192,276597,1,0,0:0:0:0:
182,192,276597,1,0,0:0:0:0:
109,192,276597,128,0,276676:0:0:0:0:
329,192,276676,1,0,0:0:0:0:
475,192,276676,1,0,0:0:0:0:
256,192,276834,128,0,276913:0:0:0:0:
109,192,276834,1,0,0:0:0:0:
36,192,276834,1,0,0:0:0:0:
256,192,276992,128,0,277071:0:0:0:0:
402,192,276992,1,0,0:0:0:0:
475,192,276992,1,0,0:0:0:0:
256,192,277150,128,0,277229:0:0:0:0:
36,192,277150,1,0,0:0:0:0:
182,192,277150,1,0,0:0:0:0:
329,192,277229,1,0,0:0:0:0:
475,192,277229,1,0,0:0:0:0:
256,192,277308,128,0,277387:0:0:0:0:
36,192,277308,1,0,0:0:0:0:
182,192,277308,1,0,0:0:0:0:
256,192,277466,128,0,277545:0:0:0:0:
329,192,277466,1,0,0:0:0:0:
475,192,277466,1,0,0:0:0:0:
402,192,277623,1,0,0:0:0:0:
36,192,277623,128,0,277702:0:0:0:0:
182,192,277663,128,0,277860:0:0:0:0:
475,192,277781,128,0,277860:0:0:0:0:
109,192,277781,1,0,0:0:0:0:
329,192,277821,128,0,278018:0:0:0:0:
475,192,277939,1,0,0:0:0:0:
109,192,277939,1,0,0:0:0:0:
256,192,277939,128,0,278058:0:0:0:0:
182,192,277939,128,0,278097:0:0:0:0:
36,192,277939,128,0,278334:0:0:0:0:
329,192,278097,1,0,0:0:0:0:
402,192,278097,1,0,0:0:0:0:
109,192,278255,128,0,278373:0:0:0:0:
402,192,278255,1,0,0:0:0:0:
475,192,278255,1,0,0:0:0:0:
182,192,278255,128,0,278808:0:0:0:0:
329,192,278413,1,0,0:0:0:0:
402,192,278413,1,0,0:0:0:0:
36,192,278571,128,0,278650:0:0:0:0:
402,192,278571,1,0,0:0:0:0:
475,192,278571,1,0,0:0:0:0:
329,192,278729,1,0,0:0:0:0:
36,192,278729,128,0,279281:0:0:0:0:
402,192,278729,1,0,0:0:0:0:
182,192,278887,128,0,278966:0:0:0:0:
402,192,278887,1,0,0:0:0:0:
475,192,278887,1,0,0:0:0:0:
182,192,279045,128,0,279597:0:0:0:0:
329,192,279045,1,0,0:0:0:0:
402,192,279045,1,0,0:0:0:0:
109,192,279202,1,0,0:0:0:0:
475,192,279202,1,0,0:0:0:0:
329,192,279202,1,0,0:0:0:0:
402,192,279281,1,0,0:0:0:0:
36,192,279360,128,0,279439:0:0:0:0:
329,192,279360,1,0,0:0:0:0:
256,192,279439,1,0,0:0:0:0:
36,192,279518,128,0,279913:0:0:0:0:
475,192,279518,1,0,0:0:0:0:
402,192,279518,1,0,0:0:0:0:
329,192,279597,1,0,0:0:0:0:
182,192,279676,128,0,279755:0:0:0:0:
475,192,279676,1,0,0:0:0:0:
329,192,279755,1,0,0:0:0:0:
182,192,279834,128,0,280308:0:0:0:0:
256,192,279834,1,0,0:0:0:0:
475,192,279834,1,0,0:0:0:0:
329,192,279913,1,0,0:0:0:0:
402,192,279992,1,0,0:0:0:0:
36,192,279992,128,0,280071:0:0:0:0:
256,192,280071,1,0,0:0:0:0:
475,192,280150,1,0,0:0:0:0:
36,192,280150,128,0,280387:0:0:0:0:
329,192,280150,128,0,280229:0:0:0:0:
109,192,280308,1,0,0:0:0:0:
329,192,280308,128,0,280387:0:0:0:0:
402,192,280308,1,0,0:0:0:0:
475,192,280308,1,0,0:0:0:0:
182,192,280387,128,0,280545:0:0:0:0:
256,192,280466,128,0,280584:0:0:0:0:
329,192,280466,128,0,280623:0:0:0:0:
475,192,280466,128,0,280860:0:0:0:0:
36,192,280466,1,0,0:0:0:0:
109,192,280545,1,0,0:0:0:0:
182,192,280623,1,0,0:0:0:0:
36,192,280702,1,0,0:0:0:0:
402,192,280781,128,0,280900:0:0:0:0:
182,192,280781,1,0,0:0:0:0:
329,192,280781,128,0,281255:0:0:0:0:
256,192,280781,1,0,0:0:0:0:
109,192,280860,1,0,0:0:0:0:
182,192,280939,1,0,0:0:0:0:
36,192,281018,1,0,0:0:0:0:
475,192,281097,128,0,281176:0:0:0:0:
109,192,281097,1,0,0:0:0:0:
402,192,281097,1,0,0:0:0:0:
182,192,281176,1,0,0:0:0:0:
109,192,281255,1,0,0:0:0:0:
475,192,281255,128,0,281729:0:0:0:0:
256,192,281334,1,0,0:0:0:0:
329,192,281413,128,0,281492:0:0:0:0:
109,192,281413,1,0,0:0:0:0:
36,192,281413,1,0,0:0:0:0:
182,192,281492,1,0,0:0:0:0:
36,192,281571,1,0,0:0:0:0:
329,192,281571,128,0,281966:0:0:0:0:
182,192,281650,1,0,0:0:0:0:
256,192,281729,1,0,0:0:0:0:
109,192,281729,1,0,0:0:0:0:
36,192,281729,1,0,0:0:0:0:
402,192,281729,1,0,0:0:0:0:
182,192,281847,1,0,0:0:0:0:
109,192,281887,1,0,0:0:0:0:
475,192,281887,128,0,281966:0:0:0:0:
36,192,281926,1,0,0:0:0:0:
182,192,281966,1,0,0:0:0:0:
256,192,282005,1,0,0:0:0:0:
475,192,282045,1,0,0:0:0:0:
329,192,282045,128,0,282123:0:0:0:0:
475,192,282202,1,0,0:0:0:0:
329,192,282202,128,0,282281:0:0:0:0:
182,192,282360,1,0,0:0:0:0:
36,192,282360,1,0,0:0:0:0:
329,192,282360,128,0,282439:0:0:0:0:
182,192,282439,1,0,0:0:0:0:
36,192,282439,1,0,0:0:0:0:
475,192,282518,1,0,0:0:0:0:
329,192,282518,128,0,282597:0:0:0:0:
256,192,282676,1,0,0:0:0:0:
475,192,282676,1,0,0:0:0:0:
109,192,282676,1,0,0:0:0:0:
402,192,282676,1,0,0:0:0:0:
402,192,282834,1,0,0:0:0:0:
256,192,282834,1,0,0:0:0:0:
109,192,282834,1,0,0:0:0:0:
36,192,282834,1,0,0:0:0:0:
475,192,282834,1,0,0:0:0:0:
329,192,282992,1,0,0:0:0:0:
182,192,282992,1,0,0:0:0:0:
36,192,282992,1,0,0:0:0:0:
475,192,282992,1,0,0:0:0:0:
256,192,282992,128,0,284571:0:0:0:0:
109,192,283623,1,0,0:0:0:0:
182,192,283623,1,0,0:0:0:0:
36,192,284571,128,0,284729:0:0:0:0:
475,192,284729,128,0,284768:0:0:0:0:
329,192,284808,128,0,284847:0:0:0:0:
109,192,284887,1,0,0:0:0:0:
475,192,284887,128,0,284926:0:0:0:0:
182,192,284887,1,0,0:0:0:0:
475,192,285045,128,0,285123:0:0:0:0:
182,192,285202,128,0,285301:0:0:0:0:
256,192,285242,128,0,285400:0:0:0:0:
329,192,285341,128,0,285439:0:0:0:0:
36,192,285360,1,0,0:0:0:0:
329,192,285518,128,0,285834:0:0:0:0:
402,192,285518,128,0,286150:0:0:0:0:
475,192,285518,128,0,286781:0:0:0:0:
36,192,285518,1,0,0:0:0:0:
256,192,285518,1,0,0:0:0:0:
182,192,285558,1,0,0:0:0:0:
36,192,285676,1,0,0:0:0:0:
109,192,285716,1,0,0:0:0:0:
36,192,285834,1,0,0:0:0:0:
109,192,285873,1,0,0:0:0:0:
256,192,285992,1,0,0:0:0:0:
182,192,285992,1,0,0:0:0:0:
36,192,285992,128,0,286189:0:0:0:0:
256,192,286150,128,0,286189:0:0:0:0:
109,192,286150,128,0,286189:0:0:0:0:
329,192,286308,1,0,0:0:0:0:
329,192,286466,1,0,0:0:0:0:
109,192,286466,1,0,0:0:0:0:
256,192,286505,1,0,0:0:0:0:
329,192,286623,1,0,0:0:0:0:
36,192,286623,1,0,0:0:0:0:
256,192,286663,1,0,0:0:0:0:
36,192,286781,1,0,0:0:0:0:
182,192,286821,1,0,0:0:0:0:
36,192,286939,1,0,0:0:0:0:
329,192,286939,1,0,0:0:0:0:
182,192,286979,1,0,0:0:0:0:
36,192,287097,1,0,0:0:0:0:
182,192,287137,1,0,0:0:0:0:
329,192,287255,1,0,0:0:0:0:
475,192,287255,1,0,0:0:0:0:
36,192,287255,128,0,287452:0:0:0:0:
256,192,287413,128,0,287452:0:0:0:0:
475,192,287413,128,0,287492:0:0:0:0:
329,192,287413,128,0,287452:0:0:0:0:
182,192,287413,128,0,287452:0:0:0:0:
475,192,287571,128,0,287966:0:0:0:0:
182,192,287571,1,0,0:0:0:0:
36,192,287571,1,0,0:0:0:0:
109,192,287571,1,0,0:0:0:0:
329,192,287729,128,0,287808:0:0:0:0:
182,192,287729,1,0,0:0:0:0:
402,192,287729,1,0,0:0:0:0:
329,192,287887,128,0,288045:0:0:0:0:
182,192,287887,1,0,0:0:0:0:
109,192,287926,1,0,0:0:0:0:
256,192,288045,1,0,0:0:0:0:
475,192,288045,1,0,0:0:0:0:
36,192,288045,1,0,0:0:0:0:
182,192,288084,1,0,0:0:0:0:
402,192,288097,1,0,0:0:0:0:
36,192,288202,1,0,0:0:0:0:
109,192,288242,1,0,0:0:0:0:
36,192,288360,1,0,0:0:0:0:
109,192,288400,1,0,0:0:0:0:
256,192,288518,1,0,0:0:0:0:
329,192,288518,1,0,0:0:0:0:
36,192,288518,128,0,288716:0:0:0:0:
402,192,288676,128,0,288716:0:0:0:0:
329,192,288676,128,0,288716:0:0:0:0:
475,192,288676,128,0,288716:0:0:0:0:
329,192,288834,1,0,0:0:0:0:
329,192,288992,1,0,0:0:0:0:
109,192,288992,1,0,0:0:0:0:
402,192,289031,1,0,0:0:0:0:
329,192,289150,1,0,0:0:0:0:
36,192,289150,1,0,0:0:0:0:
256,192,289150,1,0,0:0:0:0:
402,192,289189,1,0,0:0:0:0:
36,192,289308,128,0,289505:0:0:0:0:
475,192,289308,1,0,0:0:0:0:
329,192,289308,128,0,289492:0:0:0:0:
182,192,289308,1,0,0:0:0:0:
109,192,289308,128,0,289387:0:0:0:0:
256,192,289466,128,0,289545:0:0:0:0:
475,192,289466,128,0,289571:0:0:0:0:
182,192,289518,128,0,290354:0:0:0:0:
402,192,289518,128,0,289623:0:0:0:0:
109,192,289571,128,0,289702:0:0:0:0:
329,192,289571,128,0,289702:0:0:0:0:
36,192,289623,128,0,290038:0:0:0:0:
256,192,289623,128,0,289781:0:0:0:0:
475,192,289781,1,0,0:0:0:0:
109,192,289781,128,0,290196:0:0:0:0:
402,192,289781,1,0,0:0:0:0:
329,192,289939,128,0,290196:0:0:0:0:
402,192,289939,128,0,290196:0:0:0:0:
475,192,289939,128,0,290354:0:0:0:0:
256,192,289939,128,0,289992:0:0:0:0:
36,192,290097,128,0,290512:0:0:0:0:
256,192,290097,1,0,0:0:0:0:
109,192,290255,128,0,290512:0:0:0:0:
329,192,290255,128,0,290512:0:0:0:0:
402,192,290255,128,0,290354:0:0:0:0:
182,192,290413,128,0,290512:0:0:0:0:
475,192,290413,128,0,290512:0:0:0:0:
402,192,290413,128,0,290512:0:0:0:0:
329,192,290571,128,0,290887:0:0:0:0:
402,192,290571,128,0,291202:0:0:0:0:
475,192,290571,128,0,291834:0:0:0:0:
36,192,290571,1,0,0:0:0:0:
256,192,290571,1,0,0:0:0:0:
182,192,290610,1,0,0:0:0:0:
36,192,290729,1,0,0:0:0:0:
109,192,290768,1,0,0:0:0:0:
36,192,290887,1,0,0:0:0:0:
109,192,290926,1,0,0:0:0:0:
256,192,291045,1,0,0:0:0:0:
182,192,291045,1,0,0:0:0:0:
36,192,291045,128,0,291242:0:0:0:0:
256,192,291202,128,0,291242:0:0:0:0:
109,192,291202,128,0,291242:0:0:0:0:
329,192,291360,1,0,0:0:0:0:
329,192,291518,1,0,0:0:0:0:
109,192,291518,1,0,0:0:0:0:
256,192,291558,1,0,0:0:0:0:
329,192,291676,1,0,0:0:0:0:
36,192,291676,1,0,0:0:0:0:
256,192,291716,1,0,0:0:0:0:
36,192,291834,1,0,0:0:0:0:
182,192,291873,1,0,0:0:0:0:
36,192,291992,1,0,0:0:0:0:
329,192,291992,1,0,0:0:0:0:
182,192,292031,1,0,0:0:0:0:
36,192,292150,1,0,0:0:0:0:
182,192,292189,1,0,0:0:0:0:
329,192,292308,1,0,0:0:0:0:
475,192,292308,1,0,0:0:0:0:
36,192,292308,128,0,292505:0:0:0:0:
256,192,292466,128,0,292505:0:0:0:0:
475,192,292466,128,0,292545:0:0:0:0:
329,192,292466,128,0,292505:0:0:0:0:
182,192,292466,128,0,292505:0:0:0:0:
475,192,292623,128,0,293018:0:0:0:0:
182,192,292623,1,0,0:0:0:0:
36,192,292623,1,0,0:0:0:0:
109,192,292623,1,0,0:0:0:0:
329,192,292781,128,0,292860:0:0:0:0:
182,192,292781,1,0,0:0:0:0:
402,192,292781,1,0,0:0:0:0:
329,192,292939,128,0,293097:0:0:0:0:
182,192,292939,1,0,0:0:0:0:
109,192,292979,1,0,0:0:0:0:
256,192,293097,1,0,0:0:0:0:
475,192,293097,1,0,0:0:0:0:
36,192,293097,1,0,0:0:0:0:
182,192,293137,1,0,0:0:0:0:
402,192,293150,1,0,0:0:0:0:
36,192,293255,1,0,0:0:0:0:
109,192,293295,1,0,0:0:0:0:
36,192,293413,1,0,0:0:0:0:
109,192,293452,1,0,0:0:0:0:
256,192,293571,1,0,0:0:0:0:
329,192,293571,1,0,0:0:0:0:
36,192,293571,128,0,293768:0:0:0:0:
402,192,293729,128,0,293768:0:0:0:0:
329,192,293729,128,0,293768:0:0:0:0:
475,192,293729,128,0,293768:0:0:0:0:
329,192,293887,1,0,0:0:0:0:
329,192,294045,1,0,0:0:0:0:
109,192,294045,1,0,0:0:0:0:
402,192,294084,1,0,0:0:0:0:
329,192,294202,1,0,0:0:0:0:
36,192,294202,1,0,0:0:0:0:
256,192,294202,1,0,0:0:0:0:
402,192,294242,1,0,0:0:0:0:
36,192,294360,128,0,294558:0:0:0:0:
475,192,294360,1,0,0:0:0:0:
329,192,294360,128,0,294545:0:0:0:0:
182,192,294360,1,0,0:0:0:0:
109,192,294360,128,0,294439:0:0:0:0:
256,192,294518,128,0,294597:0:0:0:0:
475,192,294518,128,0,294623:0:0:0:0:
182,192,294571,128,0,295406:0:0:0:0:
402,192,294571,128,0,294676:0:0:0:0:
109,192,294623,128,0,294755:0:0:0:0:
329,192,294623,128,0,294755:0:0:0:0:
36,192,294676,128,0,295091:0:0:0:0:
256,192,294676,128,0,294834:0:0:0:0:
475,192,294834,1,0,0:0:0:0:
109,192,294834,128,0,295248:0:0:0:0:
402,192,294834,1,0,0:0:0:0:
329,192,294992,128,0,295248:0:0:0:0:
402,192,294992,128,0,295248:0:0:0:0:
475,192,294992,128,0,295406:0:0:0:0:
256,192,294992,128,0,295045:0:0:0:0:
36,192,295150,128,0,295564:0:0:0:0:
256,192,295150,1,0,0:0:0:0:
109,192,295308,128,0,295564:0:0:0:0:
329,192,295308,128,0,295564:0:0:0:0:
402,192,295308,128,0,295406:0:0:0:0:
182,192,295466,128,0,295564:0:0:0:0:
475,192,295466,128,0,295564:0:0:0:0:
402,192,295466,128,0,295564:0:0:0:0:
182,192,295623,128,0,295939:0:0:0:0:
109,192,295623,128,0,296255:0:0:0:0:
36,192,295623,128,0,296887:0:0:0:0:
475,192,295623,1,0,0:0:0:0:
256,192,295623,1,0,0:0:0:0:
329,192,295663,1,0,0:0:0:0:
475,192,295781,1,0,0:0:0:0:
402,192,295821,1,0,0:0:0:0:
475,192,295939,1,0,0:0:0:0:
402,192,295979,1,0,0:0:0:0:
256,192,296097,1,0,0:0:0:0:
329,192,296097,1,0,0:0:0:0:
475,192,296097,128,0,296295:0:0:0:0:
256,192,296255,128,0,296295:0:0:0:0:
402,192,296255,128,0,296295:0:0:0:0:
182,192,296413,1,0,0:0:0:0:
182,192,296571,1,0,0:0:0:0:
402,192,296571,1,0,0:0:0:0:
256,192,296610,1,0,0:0:0:0:
182,192,296729,1,0,0:0:0:0:
475,192,296729,1,0,0:0:0:0:
256,192,296768,1,0,0:0:0:0:
475,192,296887,1,0,0:0:0:0:
329,192,296926,1,0,0:0:0:0:
475,192,297045,1,0,0:0:0:0:
182,192,297045,1,0,0:0:0:0:
329,192,297084,1,0,0:0:0:0:
475,192,297202,1,0,0:0:0:0:
329,192,297242,1,0,0:0:0:0:
182,192,297360,1,0,0:0:0:0:
36,192,297360,1,0,0:0:0:0:
475,192,297360,128,0,297558:0:0:0:0:
256,192,297518,128,0,297558:0:0:0:0:
36,192,297518,128,0,297597:0:0:0:0:
182,192,297518,128,0,297558:0:0:0:0:
329,192,297518,128,0,297558:0:0:0:0:
36,192,297676,128,0,298071:0:0:0:0:
329,192,297676,1,0,0:0:0:0:
475,192,297676,1,0,0:0:0:0:
402,192,297676,1,0,0:0:0:0:
182,192,297834,128,0,297913:0:0:0:0:
329,192,297834,1,0,0:0:0:0:
109,192,297834,1,0,0:0:0:0:
182,192,297992,128,0,298150:0:0:0:0:
329,192,297992,1,0,0:0:0:0:
402,192,298031,1,0,0:0:0:0:
256,192,298150,1,0,0:0:0:0:
36,192,298150,1,0,0:0:0:0:
475,192,298150,1,0,0:0:0:0:
329,192,298189,1,0,0:0:0:0:
109,192,298202,1,0,0:0:0:0:
475,192,298308,1,0,0:0:0:0:
402,192,298347,1,0,0:0:0:0:
475,192,298466,1,0,0:0:0:0:
402,192,298505,1,0,0:0:0:0:
256,192,298623,1,0,0:0:0:0:
182,192,298623,1,0,0:0:0:0:
475,192,298623,128,0,298821:0:0:0:0:
109,192,298781,128,0,298821:0:0:0:0:
182,192,298781,128,0,298821:0:0:0:0:
36,192,298781,128,0,298821:0:0:0:0:
182,192,298939,1,0,0:0:0:0:
182,192,299097,1,0,0:0:0:0:
402,192,299097,1,0,0:0:0:0:
109,192,299137,1,0,0:0:0:0:
182,192,299255,1,0,0:0:0:0:
475,192,299255,1,0,0:0:0:0:
256,192,299255,1,0,0:0:0:0:
109,192,299295,1,0,0:0:0:0:
475,192,299413,128,0,299610:0:0:0:0:
36,192,299413,1,0,0:0:0:0:
182,192,299413,128,0,299597:0:0:0:0:
329,192,299413,1,0,0:0:0:0:
402,192,299413,128,0,299492:0:0:0:0:
256,192,299571,128,0,299650:0:0:0:0:
36,192,299571,128,0,299676:0:0:0:0:
329,192,299623,128,0,300459:0:0:0:0:
109,192,299623,128,0,299729:0:0:0:0:
402,192,299676,128,0,299808:0:0:0:0:
182,192,299676,128,0,299808:0:0:0:0:
475,192,299729,128,0,300143:0:0:0:0:
256,192,299729,128,0,299887:0:0:0:0:
36,192,299887,1,0,0:0:0:0:
402,192,299887,128,0,300301:0:0:0:0:
109,192,299887,1,0,0:0:0:0:
182,192,300045,128,0,300301:0:0:0:0:
109,192,300045,128,0,300301:0:0:0:0:
36,192,300045,128,0,300459:0:0:0:0:
256,192,300045,128,0,300097:0:0:0:0:
475,192,300202,128,0,300617:0:0:0:0:
256,192,300202,1,0,0:0:0:0:
402,192,300360,128,0,300617:0:0:0:0:
182,192,300360,128,0,300617:0:0:0:0:
109,192,300360,128,0,300459:0:0:0:0:
329,192,300518,128,0,300617:0:0:0:0:
36,192,300518,128,0,300617:0:0:0:0:
109,192,300518,128,0,300617:0:0:0:0:
182,192,300676,128,0,300992:0:0:0:0:
109,192,300676,128,0,301308:0:0:0:0:
36,192,300676,128,0,301939:0:0:0:0:
475,192,300676,1,0,0:0:0:0:
256,192,300676,1,0,0:0:0:0:
329,192,300716,1,0,0:0:0:0:
475,192,300834,1,0,0:0:0:0:
402,192,300873,1,0,0:0:0:0:
475,192,300992,1,0,0:0:0:0:
402,192,301031,1,0,0:0:0:0:
256,192,301150,1,0,0:0:0:0:
329,192,301150,1,0,0:0:0:0:
475,192,301150,128,0,301347:0:0:0:0:
256,192,301308,128,0,301347:0:0:0:0:
402,192,301308,128,0,301347:0:0:0:0:
182,192,301466,1,0,0:0:0:0:
182,192,301623,1,0,0:0:0:0:
402,192,301623,1,0,0:0:0:0:
256,192,301663,1,0,0:0:0:0:
182,192,301781,1,0,0:0:0:0:
475,192,301781,1,0,0:0:0:0:
256,192,301821,1,0,0:0:0:0:
475,192,301939,1,0,0:0:0:0:
329,192,301979,1,0,0:0:0:0:
475,192,302097,1,0,0:0:0:0:
182,192,302097,1,0,0:0:0:0:
329,192,302137,1,0,0:0:0:0:
475,192,302255,1,0,0:0:0:0:
329,192,302295,1,0,0:0:0:0:
182,192,302413,1,0,0:0:0:0:
36,192,302413,1,0,0:0:0:0:
475,192,302413,128,0,302610:0:0:0:0:
256,192,302571,128,0,302610:0:0:0:0:
36,192,302571,128,0,302650:0:0:0:0:
182,192,302571,128,0,302610:0:0:0:0:
329,192,302571,128,0,302610:0:0:0:0:
36,192,302729,128,0,303123:0:0:0:0:
329,192,302729,1,0,0:0:0:0:
475,192,302729,1,0,0:0:0:0:
402,192,302729,1,0,0:0:0:0:
182,192,302887,128,0,302966:0:0:0:0:
329,192,302887,1,0,0:0:0:0:
109,192,302887,1,0,0:0:0:0:
182,192,303045,128,0,303202:0:0:0:0:
329,192,303045,1,0,0:0:0:0:
402,192,303084,1,0,0:0:0:0:
256,192,303202,1,0,0:0:0:0:
36,192,303202,1,0,0:0:0:0:
475,192,303202,1,0,0:0:0:0:
329,192,303242,1,0,0:0:0:0:
109,192,303255,1,0,0:0:0:0:
475,192,303360,1,0,0:0:0:0:
402,192,303400,1,0,0:0:0:0:
475,192,303518,1,0,0:0:0:0:
402,192,303558,1,0,0:0:0:0:
256,192,303676,1,0,0:0:0:0:
182,192,303676,1,0,0:0:0:0:
475,192,303676,128,0,303873:0:0:0:0:
109,192,303834,128,0,303873:0:0:0:0:
182,192,303834,128,0,303873:0:0:0:0:
36,192,303834,128,0,303873:0:0:0:0:
182,192,303992,1,0,0:0:0:0:
182,192,304150,1,0,0:0:0:0:
402,192,304150,1,0,0:0:0:0:
109,192,304189,1,0,0:0:0:0:
182,192,304308,1,0,0:0:0:0:
475,192,304308,1,0,0:0:0:0:
256,192,304308,1,0,0:0:0:0:
109,192,304347,1,0,0:0:0:0:
475,192,304466,128,0,304663:0:0:0:0:
36,192,304466,1,0,0:0:0:0:
182,192,304466,128,0,304650:0:0:0:0:
329,192,304466,1,0,0:0:0:0:
402,192,304466,128,0,304545:0:0:0:0:
256,192,304623,128,0,304702:0:0:0:0:
36,192,304623,128,0,304729:0:0:0:0:
329,192,304676,128,0,305512:0:0:0:0:
109,192,304676,128,0,304781:0:0:0:0:
402,192,304729,128,0,304860:0:0:0:0:
182,192,304729,128,0,304860:0:0:0:0:
475,192,304781,128,0,305196:0:0:0:0:
256,192,304781,128,0,304939:0:0:0:0:
36,192,304939,1,0,0:0:0:0:
402,192,304939,128,0,305354:0:0:0:0:
109,192,304939,1,0,0:0:0:0:
182,192,305097,128,0,305354:0:0:0:0:
109,192,305097,128,0,305354:0:0:0:0:
36,192,305097,128,0,305512:0:0:0:0:
256,192,305097,128,0,305150:0:0:0:0:
475,192,305255,128,0,305670:0:0:0:0:
256,192,305255,1,0,0:0:0:0:
402,192,305413,128,0,305670:0:0:0:0:
182,192,305413,128,0,305670:0:0:0:0:
109,192,305413,128,0,305512:0:0:0:0:
329,192,305571,128,0,305670:0:0:0:0:
36,192,305571,128,0,305670:0:0:0:0:
109,192,305571,128,0,305670:0:0:0:0:
256,192,305729,128,0,305966:0:0:0:0:
182,192,305729,1,0,0:0:0:0:
402,192,305729,1,0,0:0:0:0:
475,192,305729,1,0,0:0:0:0:
36,192,305768,128,0,305926:0:0:0:0:
109,192,305887,128,0,306123:0:0:0:0:
475,192,305887,128,0,305966:0:0:0:0:
329,192,305926,128,0,306084:0:0:0:0:
256,192,306045,128,0,306281:0:0:0:0:
182,192,306045,1,0,0:0:0:0:
402,192,306045,1,0,0:0:0:0:
475,192,306045,1,0,0:0:0:0:
36,192,306084,128,0,306242:0:0:0:0:
109,192,306202,128,0,306360:0:0:0:0:
402,192,306202,128,0,306439:0:0:0:0:
475,192,306202,128,0,306321:0:0:0:0:
256,192,306360,128,0,306597:0:0:0:0:
36,192,306360,1,0,0:0:0:0:
475,192,306400,128,0,306558:0:0:0:0:
402,192,306518,128,0,306755:0:0:0:0:
36,192,306518,128,0,306597:0:0:0:0:
182,192,306558,128,0,306716:0:0:0:0:
256,192,306676,128,0,306913:0:0:0:0:
109,192,306676,1,0,0:0:0:0:
329,192,306676,1,0,0:0:0:0:
36,192,306676,1,0,0:0:0:0:
475,192,306716,128,0,306873:0:0:0:0:
402,192,306834,128,0,307031:0:0:0:0:
109,192,306834,1,0,0:0:0:0:
182,192,306873,128,0,307071:0:0:0:0:
36,192,306992,128,0,307229:0:0:0:0:
329,192,306992,128,0,307071:0:0:0:0:
256,192,307031,128,0,307189:0:0:0:0:
329,192,307150,128,0,307387:0:0:0:0:
475,192,307150,1,0,0:0:0:0:
109,192,307189,128,0,307347:0:0:0:0:
402,192,307308,1,0,0:0:0:0:
36,192,307308,128,0,307584:0:0:0:0:
475,192,307308,128,0,307466:0:0:0:0:
256,192,307347,128,0,307466:0:0:0:0:
182,192,307387,128,0,307545:0:0:0:0:
109,192,307426,1,0,0:0:0:0:
402,192,307466,128,0,307545:0:0:0:0:
256,192,307545,128,0,307623:0:0:0:0:
475,192,307623,128,0,307702:0:0:0:0:
329,192,307623,128,0,307860:0:0:0:0:
109,192,307623,128,0,307702:0:0:0:0:
402,192,307781,128,0,307860:0:0:0:0:
475,192,307781,128,0,308018:0:0:0:0:
182,192,307781,1,0,0:0:0:0:
182,192,307939,128,0,308018:0:0:0:0:
402,192,307939,1,0,0:0:0:0:
329,192,307939,128,0,308137:0:0:0:0:
36,192,307939,1,0,0:0:0:0:
109,192,307939,1,0,0:0:0:0:
256,192,308097,128,0,308176:0:0:0:0:
475,192,308097,1,0,0:0:0:0:
182,192,308137,128,0,308334:0:0:0:0:
402,192,308176,1,0,0:0:0:0:
109,192,308176,1,0,0:0:0:0:
256,192,308255,128,0,308492:0:0:0:0:
475,192,308255,1,0,0:0:0:0:
329,192,308255,1,0,0:0:0:0:
36,192,308295,128,0,308452:0:0:0:0:
109,192,308413,128,0,308650:0:0:0:0:
475,192,308413,128,0,308492:0:0:0:0:
329,192,308452,128,0,308610:0:0:0:0:
256,192,308571,128,0,308808:0:0:0:0:
182,192,308571,1,0,0:0:0:0:
402,192,308571,1,0,0:0:0:0:
475,192,308571,1,0,0:0:0:0:
36,192,308610,128,0,308768:0:0:0:0:
109,192,308729,128,0,308966:0:0:0:0:
402,192,308729,128,0,309005:0:0:0:0:
475,192,308729,128,0,308847:0:0:0:0:
182,192,308887,128,0,309123:0:0:0:0:
36,192,308887,1,0,0:0:0:0:
329,192,308926,128,0,309163:0:0:0:0:
475,192,309045,1,0,0:0:0:0:
109,192,309045,128,0,309281:0:0:0:0:
402,192,309084,128,0,309281:0:0:0:0:
182,192,309202,128,0,309360:0:0:0:0:
256,192,309202,1,0,0:0:0:0:
475,192,309202,1,0,0:0:0:0:
36,192,309202,1,0,0:0:0:0:
329,192,309242,128,0,309439:0:0:0:0:
402,192,309360,128,0,309676:0:0:0:0:
109,192,309360,128,0,309479:0:0:0:0:
36,192,309360,1,0,0:0:0:0:
182,192,309439,128,0,309518:0:0:0:0:
329,192,309518,1,0,0:0:0:0:
475,192,309518,1,0,0:0:0:0:
256,192,309518,128,0,309755:0:0:0:0:
329,192,309656,128,0,309716:0:0:0:0:
182,192,309676,128,0,309834:0:0:0:0:
36,192,309676,1,0,0:0:0:0:
402,192,309755,128,0,309873:0:0:0:0:
36,192,309834,128,0,310071:0:0:0:0:
329,192,309834,128,0,309913:0:0:0:0:
109,192,309834,1,0,0:0:0:0:
475,192,309834,1,0,0:0:0:0:
256,192,309873,128,0,310031:0:0:0:0:
329,192,309992,128,0,310229:0:0:0:0:
475,192,309992,1,0,0:0:0:0:
109,192,310031,128,0,310189:0:0:0:0:
402,192,310150,1,0,0:0:0:0:
182,192,310150,128,0,310387:0:0:0:0:
475,192,310150,128,0,310229:0:0:0:0:
256,192,310308,1,0,0:0:0:0:
329,192,310308,128,0,310387:0:0:0:0:
475,192,310308,128,0,310663:0:0:0:0:
109,192,310308,1,0,0:0:0:0:
256,192,310466,128,0,310545:0:0:0:0:
109,192,310466,128,0,310545:0:0:0:0:
329,192,310466,1,0,0:0:0:0:
402,192,310466,128,0,310702:0:0:0:0:
36,192,310466,1,0,0:0:0:0:
182,192,310623,128,0,310702:0:0:0:0:
36,192,310623,128,0,310702:0:0:0:0:
329,192,310623,128,0,310742:0:0:0:0:
256,192,310623,1,0,0:0:0:0:
256,192,310781,128,0,311018:0:0:0:0:
402,192,310781,1,0,0:0:0:0:
475,192,310781,1,0,0:0:0:0:
182,192,310781,1,0,0:0:0:0:
109,192,310821,128,0,310979:0:0:0:0:
36,192,310939,128,0,311176:0:0:0:0:
475,192,310939,128,0,311018:0:0:0:0:
329,192,310979,128,0,311137:0:0:0:0:
256,192,311097,128,0,311334:0:0:0:0:
182,192,311097,1,0,0:0:0:0:
402,192,311097,1,0,0:0:0:0:
475,192,311097,1,0,0:0:0:0:
109,192,311137,128,0,311295:0:0:0:0:
36,192,311255,128,0,311413:0:0:0:0:
475,192,311255,128,0,311492:0:0:0:0:
402,192,311255,128,0,311373:0:0:0:0:
256,192,311413,128,0,311650:0:0:0:0:
182,192,311413,1,0,0:0:0:0:
402,192,311452,128,0,311610:0:0:0:0:
475,192,311571,128,0,311808:0:0:0:0:
36,192,311571,128,0,311650:0:0:0:0:
182,192,311610,128,0,311768:0:0:0:0:
256,192,311729,128,0,311966:0:0:0:0:
109,192,311729,1,0,0:0:0:0:
329,192,311729,1,0,0:0:0:0:
36,192,311729,1,0,0:0:0:0:
402,192,311768,128,0,311926:0:0:0:0:
475,192,311887,128,0,312084:0:0:0:0:
109,192,311887,1,0,0:0:0:0:
182,192,311926,128,0,312123:0:0:0:0:
36,192,312045,128,0,312281:0:0:0:0:
402,192,312045,128,0,312123:0:0:0:0:
256,192,312084,128,0,312242:0:0:0:0:
329,192,312202,128,0,312439:0:0:0:0:
475,192,312202,1,0,0:0:0:0:
109,192,312242,128,0,312400:0:0:0:0:
402,192,312360,1,0,0:0:0:0:
36,192,312360,128,0,312637:0:0:0:0:
475,192,312360,128,0,312518:0:0:0:0:
256,192,312400,128,0,312518:0:0:0:0:
182,192,312439,128,0,312597:0:0:0:0:
109,192,312479,1,0,0:0:0:0:
402,192,312518,128,0,312597:0:0:0:0:
256,192,312597,128,0,312676:0:0:0:0:
475,192,312676,128,0,312755:0:0:0:0:
329,192,312676,128,0,312913:0:0:0:0:
109,192,312676,128,0,312755:0:0:0:0:
182,192,312834,128,0,312913:0:0:0:0:
402,192,312834,128,0,313071:0:0:0:0:
475,192,312834,1,0,0:0:0:0:
182,192,312992,128,0,313071:0:0:0:0:
475,192,312992,1,0,0:0:0:0:
329,192,312992,128,0,313189:0:0:0:0:
36,192,312992,1,0,0:0:0:0:
109,192,312992,1,0,0:0:0:0:
256,192,313150,128,0,313229:0:0:0:0:
36,192,313150,1,0,0:0:0:0:
182,192,313189,128,0,313387:0:0:0:0:
402,192,313229,1,0,0:0:0:0:
109,192,313229,1,0,0:0:0:0:
256,192,313308,128,0,313545:0:0:0:0:
475,192,313308,1,0,0:0:0:0:
329,192,313308,1,0,0:0:0:0:
36,192,313347,128,0,313505:0:0:0:0:
109,192,313466,128,0,313702:0:0:0:0:
475,192,313466,128,0,313545:0:0:0:0:
329,192,313505,128,0,313663:0:0:0:0:
256,192,313623,128,0,313860:0:0:0:0:
182,192,313623,1,0,0:0:0:0:
402,192,313623,1,0,0:0:0:0:
475,192,313623,1,0,0:0:0:0:
36,192,313663,128,0,313821:0:0:0:0:
109,192,313781,128,0,314018:0:0:0:0:
402,192,313781,128,0,314058:0:0:0:0:
475,192,313781,128,0,313900:0:0:0:0:
182,192,313939,128,0,314176:0:0:0:0:
36,192,313939,1,0,0:0:0:0:
329,192,313979,128,0,314216:0:0:0:0:
475,192,314097,1,0,0:0:0:0:
109,192,314097,128,0,314334:0:0:0:0:
402,192,314137,128,0,314334:0:0:0:0:
182,192,314255,128,0,314413:0:0:0:0:
256,192,314255,1,0,0:0:0:0:
475,192,314255,1,0,0:0:0:0:
36,192,314255,1,0,0:0:0:0:
329,192,314295,128,0,314492:0:0:0:0:
402,192,314413,128,0,314729:0:0:0:0:
109,192,314413,128,0,314531:0:0:0:0:
36,192,314413,1,0,0:0:0:0:
182,192,314492,128,0,314571:0:0:0:0:
329,192,314571,1,0,0:0:0:0:
475,192,314571,1,0,0:0:0:0:
256,192,314571,128,0,314808:0:0:0:0:
329,192,314709,128,0,314768:0:0:0:0:
182,192,314729,128,0,314887:0:0:0:0:
36,192,314729,1,0,0:0:0:0:
402,192,314808,128,0,314926:0:0:0:0:
36,192,314887,128,0,315123:0:0:0:0:
329,192,314887,128,0,314966:0:0:0:0:
109,192,314887,1,0,0:0:0:0:
475,192,314887,1,0,0:0:0:0:
256,192,314926,128,0,315084:0:0:0:0:
329,192,315045,128,0,315281:0:0:0:0:
475,192,315045,1,0,0:0:0:0:
109,192,315084,128,0,315242:0:0:0:0:
402,192,315202,1,0,0:0:0:0:
182,192,315202,128,0,315439:0:0:0:0:
475,192,315202,128,0,315281:0:0:0:0:
475,192,315360,128,0,315518:0:0:0:0:
329,192,315360,1,0,0:0:0:0:
256,192,315360,128,0,315439:0:0:0:0:
109,192,315360,1,0,0:0:0:0:
402,192,315479,128,0,315676:0:0:0:0:
182,192,315518,128,0,315597:0:0:0:0:
109,192,315518,128,0,315597:0:0:0:0:
256,192,315518,1,0,0:0:0:0:
36,192,315518,1,0,0:0:0:0:
475,192,315597,128,0,315795:0:0:0:0:
329,192,315637,128,0,315755:0:0:0:0:
109,192,315676,128,0,315755:0:0:0:0:
36,192,315676,128,0,315755:0:0:0:0:
182,192,315676,1,0,0:0:0:0:
402,192,315755,128,0,315873:0:0:0:0:
256,192,315834,128,0,316071:0:0:0:0:
329,192,315834,1,0,0:0:0:0:
109,192,315834,1,0,0:0:0:0:
36,192,315834,1,0,0:0:0:0:
475,192,315873,128,0,316031:0:0:0:0:
402,192,315992,128,0,316229:0:0:0:0:
36,192,315992,128,0,316071:0:0:0:0:
182,192,316031,128,0,316189:0:0:0:0:
256,192,316150,128,0,316387:0:0:0:0:
329,192,316150,1,0,0:0:0:0:
109,192,316150,1,0,0:0:0:0:
36,192,316150,1,0,0:0:0:0:
475,192,316189,128,0,316347:0:0:0:0:
402,192,316308,128,0,316466:0:0:0:0:
109,192,316308,128,0,316545:0:0:0:0:
36,192,316308,128,0,316426:0:0:0:0:
256,192,316466,128,0,316702:0:0:0:0:
475,192,316466,1,0,0:0:0:0:
36,192,316505,128,0,316663:0:0:0:0:
109,192,316623,128,0,316860:0:0:0:0:
475,192,316623,128,0,316702:0:0:0:0:
329,192,316663,128,0,316821:0:0:0:0:
256,192,316781,128,0,317018:0:0:0:0:
402,192,316781,1,0,0:0:0:0:
182,192,316781,1,0,0:0:0:0:
475,192,316781,1,0,0:0:0:0:
36,192,316821,128,0,316979:0:0:0:0:
109,192,316939,128,0,317137:0:0:0:0:
402,192,316939,1,0,0:0:0:0:
329,192,316979,128,0,317176:0:0:0:0:
475,192,317097,128,0,317334:0:0:0:0:
182,192,317097,128,0,317176:0:0:0:0:
256,192,317137,128,0,317295:0:0:0:0:
182,192,317255,128,0,317492:0:0:0:0:
36,192,317255,1,0,0:0:0:0:
402,192,317295,128,0,317452:0:0:0:0:
109,192,317413,1,0,0:0:0:0:
475,192,317413,128,0,317689:0:0:0:0:
36,192,317413,128,0,317571:0:0:0:0:
256,192,317452,128,0,317571:0:0:0:0:
329,192,317492,128,0,317650:0:0:0:0:
402,192,317531,1,0,0:0:0:0:
109,192,317571,128,0,317650:0:0:0:0:
256,192,317650,128,0,317729:0:0:0:0:
36,192,317729,128,0,317808:0:0:0:0:
182,192,317729,128,0,317966:0:0:0:0:
402,192,317729,128,0,317808:0:0:0:0:
109,192,317887,128,0,317966:0:0:0:0:
36,192,317887,128,0,318123:0:0:0:0:
329,192,317887,1,0,0:0:0:0:
329,192,318045,128,0,318123:0:0:0:0:
109,192,318045,1,0,0:0:0:0:
182,192,318045,128,0,318242:0:0:0:0:
475,192,318045,1,0,0:0:0:0:
402,192,318045,1,0,0:0:0:0:
256,192,318202,128,0,318281:0:0:0:0:
36,192,318202,1,0,0:0:0:0:
329,192,318242,128,0,318439:0:0:0:0:
109,192,318281,1,0,0:0:0:0:
402,192,318281,1,0,0:0:0:0:
256,192,318360,128,0,318597:0:0:0:0:
36,192,318360,1,0,0:0:0:0:
182,192,318360,1,0,0:0:0:0:
475,192,318400,128,0,318558:0:0:0:0:
402,192,318518,128,0,318755:0:0:0:0:
36,192,318518,128,0,318597:0:0:0:0:
182,192,318558,128,0,318716:0:0:0:0:
256,192,318676,128,0,318913:0:0:0:0:
329,192,318676,1,0,0:0:0:0:
109,192,318676,1,0,0:0:0:0:
36,192,318676,1,0,0:0:0:0:
475,192,318716,128,0,318873:0:0:0:0:
402,192,318834,128,0,319071:0:0:0:0:
109,192,318834,128,0,319110:0:0:0:0:
36,192,318834,128,0,318952:0:0:0:0:
329,192,318992,128,0,319229:0:0:0:0:
475,192,318992,1,0,0:0:0:0:
182,192,319031,128,0,319268:0:0:0:0:
36,192,319150,1,0,0:0:0:0:
402,192,319150,128,0,319387:0:0:0:0:
109,192,319189,128,0,319387:0:0:0:0:
329,192,319308,128,0,319466:0:0:0:0:
256,192,319308,1,0,0:0:0:0:
36,192,319308,1,0,0:0:0:0:
475,192,319308,1,0,0:0:0:0:
182,192,319347,128,0,319545:0:0:0:0:
475,192,319466,1,0,0:0:0:0:
109,192,319466,128,0,319781:0:0:0:0:
402,192,319466,128,0,319584:0:0:0:0:
329,192,319545,128,0,319623:0:0:0:0:
182,192,319623,1,0,0:0:0:0:
36,192,319623,1,0,0:0:0:0:
256,192,319623,128,0,319860:0:0:0:0:
182,192,319762,128,0,319821:0:0:0:0:
329,192,319781,128,0,319939:0:0:0:0:
475,192,319781,1,0,0:0:0:0:
109,192,319860,128,0,319979:0:0:0:0:
475,192,319939,128,0,320176:0:0:0:0:
182,192,319939,128,0,320018:0:0:0:0:
402,192,319939,1,0,0:0:0:0:
36,192,319939,1,0,0:0:0:0:
256,192,319979,128,0,320137:0:0:0:0:
182,192,320097,128,0,320334:0:0:0:0:
36,192,320097,1,0,0:0:0:0:
402,192,320137,128,0,320295:0:0:0:0:
109,192,320255,1,0,0:0:0:0:
329,192,320255,128,0,320492:0:0:0:0:
36,192,320255,128,0,320334:0:0:0:0:
256,192,320413,1,0,0:0:0:0:
182,192,320413,128,0,320492:0:0:0:0:
36,192,320413,128,0,320768:0:0:0:0:
402,192,320413,1,0,0:0:0:0:
256,192,320571,128,0,320650:0:0:0:0:
402,192,320571,128,0,320650:0:0:0:0:
182,192,320571,1,0,0:0:0:0:
109,192,320571,128,0,320808:0:0:0:0:
475,192,320571,1,0,0:0:0:0:
329,192,320729,128,0,320808:0:0:0:0:
475,192,320729,128,0,320808:0:0:0:0:
182,192,320729,128,0,320847:0:0:0:0:
256,192,320729,1,0,0:0:0:0:
256,192,320887,128,0,321123:0:0:0:0:
109,192,320887,1,0,0:0:0:0:
36,192,320887,1,0,0:0:0:0:
329,192,320887,1,0,0:0:0:0:
402,192,320926,128,0,321084:0:0:0:0:
475,192,321045,128,0,321281:0:0:0:0:
36,192,321045,128,0,321123:0:0:0:0:
182,192,321084,128,0,321242:0:0:0:0:
256,192,321202,128,0,321439:0:0:0:0:
329,192,321202,1,0,0:0:0:0:
109,192,321202,1,0,0:0:0:0:
36,192,321202,1,0,0:0:0:0:
402,192,321242,128,0,321400:0:0:0:0:
475,192,321360,128,0,321518:0:0:0:0:
36,192,321360,128,0,321597:0:0:0:0:
109,192,321360,128,0,321479:0:0:0:0:
256,192,321518,128,0,321755:0:0:0:0:
329,192,321518,1,0,0:0:0:0:
109,192,321558,128,0,321716:0:0:0:0:
36,192,321676,128,0,321913:0:0:0:0:
475,192,321676,128,0,321755:0:0:0:0:
329,192,321716,128,0,321873:0:0:0:0:
256,192,321834,128,0,322071:0:0:0:0:
402,192,321834,1,0,0:0:0:0:
182,192,321834,1,0,0:0:0:0:
475,192,321834,1,0,0:0:0:0:
109,192,321873,128,0,322031:0:0:0:0:
36,192,321992,128,0,322189:0:0:0:0:
402,192,321992,1,0,0:0:0:0:
329,192,322031,128,0,322229:0:0:0:0:
475,192,322150,128,0,322387:0:0:0:0:
109,192,322150,128,0,322229:0:0:0:0:
256,192,322189,128,0,322347:0:0:0:0:
182,192,322308,128,0,322545:0:0:0:0:
36,192,322308,1,0,0:0:0:0:
402,192,322347,128,0,322505:0:0:0:0:
109,192,322466,1,0,0:0:0:0:
475,192,322466,128,0,322742:0:0:0:0:
36,192,322466,128,0,322623:0:0:0:0:
256,192,322505,128,0,322623:0:0:0:0:
329,192,322545,128,0,322702:0:0:0:0:
402,192,322584,1,0,0:0:0:0:
109,192,322623,128,0,322702:0:0:0:0:
256,192,322702,128,0,322781:0:0:0:0:
36,192,322781,128,0,322860:0:0:0:0:
182,192,322781,128,0,323018:0:0:0:0:
402,192,322781,128,0,322860:0:0:0:0:
329,192,322939,128,0,323018:0:0:0:0:
109,192,322939,128,0,323176:0:0:0:0:
36,192,322939,1,0,0:0:0:0:
329,192,323097,128,0,323176:0:0:0:0:
36,192,323097,1,0,0:0:0:0:
182,192,323097,128,0,323295:0:0:0:0:
475,192,323097,1,0,0:0:0:0:
402,192,323097,1,0,0:0:0:0:
256,192,323255,128,0,323334:0:0:0:0:
475,192,323255,1,0,0:0:0:0:
329,192,323295,128,0,323492:0:0:0:0:
109,192,323334,1,0,0:0:0:0:
402,192,323334,1,0,0:0:0:0:
256,192,323413,128,0,323650:0:0:0:0:
36,192,323413,1,0,0:0:0:0:
182,192,323413,1,0,0:0:0:0:
475,192,323452,128,0,323610:0:0:0:0:
402,192,323571,128,0,323808:0:0:0:0:
36,192,323571,128,0,323650:0:0:0:0:
182,192,323610,128,0,323768:0:0:0:0:
256,192,323729,128,0,323966:0:0:0:0:
329,192,323729,1,0,0:0:0:0:
109,192,323729,1,0,0:0:0:0:
36,192,323729,1,0,0:0:0:0:
475,192,323768,128,0,323926:0:0:0:0:
402,192,323887,128,0,324123:0:0:0:0:
109,192,323887,128,0,324163:0:0:0:0:
36,192,323887,128,0,324005:0:0:0:0:
329,192,324045,128,0,324281:0:0:0:0:
475,192,324045,1,0,0:0:0:0:
182,192,324084,128,0,324321:0:0:0:0:
36,192,324202,1,0,0:0:0:0:
402,192,324202,128,0,324439:0:0:0:0:
109,192,324242,128,0,324439:0:0:0:0:
256,192,324360,1,0,0:0:0:0:
36,192,324360,1,0,0:0:0:0:
329,192,324360,128,0,324518:0:0:0:0:
475,192,324360,1,0,0:0:0:0:
182,192,324400,128,0,324597:0:0:0:0:
109,192,324518,128,0,324834:0:0:0:0:
402,192,324518,128,0,324637:0:0:0:0:
475,192,324518,1,0,0:0:0:0:
329,192,324597,128,0,324676:0:0:0:0:
182,192,324676,1,0,0:0:0:0:
36,192,324676,1,0,0:0:0:0:
256,192,324676,128,0,324913:0:0:0:0:
182,192,324814,128,0,324873:0:0:0:0:
329,192,324834,128,0,324992:0:0:0:0:
475,192,324834,1,0,0:0:0:0:
109,192,324913,128,0,325031:0:0:0:0:
475,192,324992,128,0,325229:0:0:0:0:
182,192,324992,128,0,325071:0:0:0:0:
402,192,324992,1,0,0:0:0:0:
36,192,324992,1,0,0:0:0:0:
256,192,325031,128,0,325189:0:0:0:0:
182,192,325150,128,0,325387:0:0:0:0:
36,192,325150,1,0,0:0:0:0:
402,192,325189,128,0,325347:0:0:0:0:
109,192,325308,1,0,0:0:0:0:
329,192,325308,128,0,325545:0:0:0:0:
36,192,325308,128,0,325387:0:0:0:0:
256,192,325466,128,0,325545:0:0:0:0:
182,192,325466,128,0,325545:0:0:0:0:
36,192,325466,128,0,325821:0:0:0:0:
402,192,325466,1,0,0:0:0:0:
329,192,325623,128,0,325702:0:0:0:0:
402,192,325623,128,0,325702:0:0:0:0:
256,192,325623,128,0,325702:0:0:0:0:
109,192,325623,128,0,325860:0:0:0:0:
475,192,325623,1,0,0:0:0:0:
402,192,325781,128,0,325860:0:0:0:0:
475,192,325781,128,0,325860:0:0:0:0:
329,192,325781,128,0,325860:0:0:0:0:
182,192,325781,128,0,325900:0:0:0:0:
256,192,325939,128,0,326176:0:0:0:0:
36,192,325939,128,0,326018:0:0:0:0:
475,192,325939,1,0,0:0:0:0:
402,192,325939,128,0,325979:0:0:0:0:
109,192,325979,128,0,326137:0:0:0:0:
329,192,326018,1,0,0:0:0:0:
36,192,326097,128,0,326176:0:0:0:0:
475,192,326097,128,0,326176:0:0:0:0:
402,192,326137,128,0,326295:0:0:0:0:
182,192,326176,1,0,0:0:0:0:
475,192,326255,128,0,326334:0:0:0:0:
329,192,326255,1,0,0:0:0:0:
256,192,326255,128,0,326492:0:0:0:0:
36,192,326255,128,0,326334:0:0:0:0:
109,192,326295,128,0,326650:0:0:0:0:
329,192,326413,128,0,326492:0:0:0:0:
475,192,326413,128,0,326610:0:0:0:0:
182,192,326413,1,0,0:0:0:0:
402,192,326571,128,0,326610:0:0:0:0:
256,192,326571,1,0,0:0:0:0:
182,192,326571,128,0,327045:0:0:0:0:
36,192,326571,128,0,326650:0:0:0:0:
36,192,326729,128,0,326966:0:0:0:0:
329,192,326729,128,0,326847:0:0:0:0:
402,192,326729,1,0,0:0:0:0:
256,192,326729,128,0,326887:0:0:0:0:
109,192,326887,1,0,0:0:0:0:
475,192,326887,128,0,327045:0:0:0:0:
402,192,326926,128,0,327005:0:0:0:0:
256,192,326966,1,0,0:0:0:0:
36,192,327045,1,0,0:0:0:0:
329,192,327045,128,0,327123:0:0:0:0:
402,192,327084,128,0,327163:0:0:0:0:
182,192,327123,1,0,0:0:0:0:
475,192,327123,128,0,327281:0:0:0:0:
256,192,327202,128,0,327439:0:0:0:0:
36,192,327202,1,0,0:0:0:0:
109,192,327202,128,0,327242:0:0:0:0:
402,192,327242,128,0,327400:0:0:0:0:
182,192,327281,1,0,0:0:0:0:
475,192,327360,128,0,327439:0:0:0:0:
36,192,327360,128,0,327439:0:0:0:0:
109,192,327400,128,0,327558:0:0:0:0:
329,192,327439,1,0,0:0:0:0:
36,192,327518,128,0,327597:0:0:0:0:
182,192,327518,1,0,0:0:0:0:
256,192,327518,128,0,327755:0:0:0:0:
475,192,327518,128,0,327597:0:0:0:0:
402,192,327558,128,0,327913:0:0:0:0:
182,192,327676,128,0,327755:0:0:0:0:
36,192,327676,128,0,327873:0:0:0:0:
329,192,327676,1,0,0:0:0:0:
109,192,327834,128,0,327873:0:0:0:0:
256,192,327834,1,0,0:0:0:0:
329,192,327834,128,0,328308:0:0:0:0:
475,192,327834,128,0,327913:0:0:0:0:
475,192,327992,128,0,328229:0:0:0:0:
182,192,327992,128,0,328110:0:0:0:0:
109,192,327992,1,0,0:0:0:0:
256,192,327992,128,0,328150:0:0:0:0:
402,192,328150,1,0,0:0:0:0:
36,192,328150,128,0,328308:0:0:0:0:
109,192,328189,128,0,328268:0:0:0:0:
256,192,328229,1,0,0:0:0:0:
475,192,328308,1,0,0:0:0:0:
182,192,328308,128,0,328387:0:0:0:0:
109,192,328347,128,0,328426:0:0:0:0:
329,192,328387,1,0,0:0:0:0:
36,192,328387,128,0,328545:0:0:0:0:
256,192,328466,128,0,328702:0:0:0:0:
475,192,328466,1,0,0:0:0:0:
402,192,328466,128,0,328505:0:0:0:0:
109,192,328505,128,0,328663:0:0:0:0:
329,192,328545,1,0,0:0:0:0:
36,192,328623,128,0,328702:0:0:0:0:
475,192,328623,128,0,328702:0:0:0:0:
402,192,328663,128,0,328821:0:0:0:0:
182,192,328702,1,0,0:0:0:0:
475,192,328781,128,0,328860:0:0:0:0:
329,192,328781,1,0,0:0:0:0:
256,192,328781,128,0,329018:0:0:0:0:
36,192,328781,128,0,328860:0:0:0:0:
109,192,328821,128,0,329176:0:0:0:0:
329,192,328939,128,0,329018:0:0:0:0:
475,192,328939,128,0,329137:0:0:0:0:
182,192,328939,1,0,0:0:0:0:
402,192,329097,128,0,329137:0:0:0:0:
256,192,329097,1,0,0:0:0:0:
182,192,329097,128,0,329571:0:0:0:0:
36,192,329097,128,0,329176:0:0:0:0:
36,192,329255,128,0,329492:0:0:0:0:
329,192,329255,128,0,329373:0:0:0:0:
402,192,329255,1,0,0:0:0:0:
256,192,329255,128,0,329413:0:0:0:0:
109,192,329413,1,0,0:0:0:0:
475,192,329413,128,0,329571:0:0:0:0:
402,192,329452,128,0,329531:0:0:0:0:
256,192,329492,1,0,0:0:0:0:
329,192,329571,128,0,329650:0:0:0:0:
36,192,329571,128,0,329610:0:0:0:0:
402,192,329610,128,0,329689:0:0:0:0:
475,192,329650,128,0,329808:0:0:0:0:
182,192,329650,128,0,329689:0:0:0:0:
256,192,329729,128,0,329966:0:0:0:0:
36,192,329729,1,0,0:0:0:0:
109,192,329729,128,0,329768:0:0:0:0:
402,192,329768,128,0,329926:0:0:0:0:
182,192,329808,1,0,0:0:0:0:
475,192,329887,128,0,329966:0:0:0:0:
36,192,329887,128,0,329966:0:0:0:0:
109,192,329926,128,0,330084:0:0:0:0:
329,192,329966,1,0,0:0:0:0:
36,192,330045,128,0,330123:0:0:0:0:
182,192,330045,1,0,0:0:0:0:
256,192,330045,128,0,330281:0:0:0:0:
475,192,330045,128,0,330123:0:0:0:0:
402,192,330084,128,0,330439:0:0:0:0:
182,192,330202,128,0,330281:0:0:0:0:
36,192,330202,128,0,330400:0:0:0:0:
329,192,330202,1,0,0:0:0:0:
109,192,330360,128,0,330400:0:0:0:0:
256,192,330360,1,0,0:0:0:0:
329,192,330360,128,0,330834:0:0:0:0:
475,192,330360,128,0,330439:0:0:0:0:
475,192,330518,128,0,330755:0:0:0:0:
182,192,330518,128,0,330637:0:0:0:0:
109,192,330518,1,0,0:0:0:0:
256,192,330518,128,0,330676:0:0:0:0:
402,192,330676,1,0,0:0:0:0:
36,192,330676,128,0,330834:0:0:0:0:
109,192,330716,128,0,330795:0:0:0:0:
256,192,330755,1,0,0:0:0:0:
475,192,330834,1,0,0:0:0:0:
182,192,330834,128,0,330913:0:0:0:0:
109,192,330873,128,0,331150:0:0:0:0:
329,192,330913,1,0,0:0:0:0:
402,192,330992,128,0,331071:0:0:0:0:
475,192,330992,128,0,331150:0:0:0:0:
256,192,330992,128,0,331071:0:0:0:0:
36,192,331071,1,0,0:0:0:0:
402,192,331150,128,0,331308:0:0:0:0:
329,192,331150,128,0,331229:0:0:0:0:
182,192,331150,128,0,331229:0:0:0:0:
36,192,331229,128,0,331308:0:0:0:0:
475,192,331229,1,0,0:0:0:0:
256,192,331308,128,0,331387:0:0:0:0:
329,192,331308,128,0,331466:0:0:0:0:
109,192,331308,128,0,331387:0:0:0:0:
402,192,331387,1,0,0:0:0:0:
475,192,331387,128,0,331466:0:0:0:0:
256,192,331466,128,0,331623:0:0:0:0:
182,192,331466,128,0,331545:0:0:0:0:
36,192,331466,128,0,331545:0:0:0:0:
329,192,331545,1,0,0:0:0:0:
402,192,331545,128,0,331623:0:0:0:0:
475,192,331623,128,0,331702:0:0:0:0:
109,192,331623,128,0,331702:0:0:0:0:
182,192,331623,128,0,331781:0:0:0:0:
256,192,331702,1,0,0:0:0:0:
329,192,331702,128,0,331781:0:0:0:0:
109,192,331781,128,0,331939:0:0:0:0:
36,192,331781,128,0,331860:0:0:0:0:
402,192,331781,128,0,331860:0:0:0:0:
256,192,331860,128,0,331939:0:0:0:0:
182,192,331860,1,0,0:0:0:0:
36,192,331939,128,0,332097:0:0:0:0:
329,192,331939,128,0,332018:0:0:0:0:
475,192,331939,128,0,332018:0:0:0:0:
182,192,332018,128,0,332097:0:0:0:0:
109,192,332018,1,0,0:0:0:0:
256,192,332097,128,0,332176:0:0:0:0:
402,192,332097,128,0,332176:0:0:0:0:
475,192,332097,128,0,332255:0:0:0:0:
109,192,332176,1,0,0:0:0:0:
182,192,332176,128,0,332255:0:0:0:0:
402,192,332255,128,0,332334:0:0:0:0:
329,192,332255,128,0,332334:0:0:0:0:
256,192,332255,128,0,332413:0:0:0:0:
36,192,332255,128,0,332492:0:0:0:0:
182,192,332334,1,0,0:0:0:0:
329,192,332413,128,0,332571:0:0:0:0:
402,192,332413,128,0,332492:0:0:0:0:
475,192,332413,128,0,332492:0:0:0:0:
109,192,332413,128,0,332650:0:0:0:0:
256,192,332492,1,0,0:0:0:0:
182,192,332571,128,0,332808:0:0:0:0:
402,192,332571,128,0,332729:0:0:0:0:
475,192,332571,128,0,332650:0:0:0:0:
36,192,332571,128,0,332650:0:0:0:0:
329,192,332650,1,0,0:0:0:0:
256,192,332729,128,0,332966:0:0:0:0:
475,192,332729,128,0,332887:0:0:0:0:
109,192,332729,128,0,332808:0:0:0:0:
36,192,332729,128,0,332808:0:0:0:0:
402,192,332808,1,0,0:0:0:0:
329,192,332887,128,0,333123:0:0:0:0:
36,192,332887,128,0,333045:0:0:0:0:
182,192,332887,128,0,332966:0:0:0:0:
109,192,332887,128,0,332966:0:0:0:0:
475,192,332966,1,0,0:0:0:0:
402,192,333045,128,0,333281:0:0:0:0:
109,192,333045,128,0,333202:0:0:0:0:
256,192,333045,128,0,333123:0:0:0:0:
182,192,333045,128,0,333123:0:0:0:0:
36,192,333123,1,0,0:0:0:0:
475,192,333202,128,0,333439:0:0:0:0:
182,192,333202,128,0,333360:0:0:0:0:
329,192,333202,128,0,333281:0:0:0:0:
256,192,333202,128,0,333281:0:0:0:0:
109,192,333281,1,0,0:0:0:0:
256,192,333360,128,0,333597:0:0:0:0:
402,192,333360,128,0,333439:0:0:0:0:
329,192,333360,128,0,333439:0:0:0:0:
36,192,333360,128,0,333518:0:0:0:0:
182,192,333439,1,0,0:0:0:0:
329,192,333518,128,0,333637:0:0:0:0:
109,192,333518,128,0,333873:0:0:0:0:
402,192,333558,128,0,333676:0:0:0:0:
475,192,333597,128,0,333716:0:0:0:0:
182,192,333637,1,0,0:0:0:0:
256,192,333676,1,0,0:0:0:0:
36,192,333676,128,0,334189:0:0:0:0:
329,192,333716,1,0,0:0:0:0:
402,192,333755,1,0,0:0:0:0:
182,192,333795,128,0,333913:0:0:0:0:
256,192,333834,128,0,333952:0:0:0:0:
475,192,333834,1,0,0:0:0:0:
329,192,333873,128,0,333992:0:0:0:0:
402,192,333913,128,0,334031:0:0:0:0:
109,192,333952,1,0,0:0:0:0:
182,192,333992,1,0,0:0:0:0:
475,192,333992,128,0,334505:0:0:0:0:
256,192,334031,1,0,0:0:0:0:
329,192,334071,1,0,0:0:0:0:
109,192,334110,128,0,334229:0:0:0:0:
402,192,334150,1,0,0:0:0:0:
182,192,334150,128,0,334268:0:0:0:0:
256,192,334189,128,0,334308:0:0:0:0:
329,192,334229,128,0,334347:0:0:0:0:
36,192,334268,1,0,0:0:0:0:
402,192,334308,128,0,334742:0:0:0:0:
109,192,334308,1,0,0:0:0:0:
182,192,334347,1,0,0:0:0:0:
256,192,334387,1,0,0:0:0:0:
36,192,334426,128,0,334545:0:0:0:0:
329,192,334466,1,0,0:0:0:0:
109,192,334466,128,0,334584:0:0:0:0:
182,192,334505,128,0,334623:0:0:0:0:
256,192,334545,128,0,334663:0:0:0:0:
475,192,334584,128,0,334781:0:0:0:0:
329,192,334623,128,0,334702:0:0:0:0:
36,192,334623,128,0,334781:0:0:0:0:
109,192,334663,128,0,334781:0:0:0:0:
182,192,334702,128,0,334781:0:0:0:0:
256,192,334742,128,0,334781:0:0:0:0:
329,192,334781,1,0,0:0:0:0:
182,192,334860,1,0,0:0:0:0:
329,192,334939,1,0,0:0:0:0:
182,192,335018,1,0,0:0:0:0:
329,192,335097,1,0,0:0:0:0:
402,192,335097,1,0,0:0:0:0:
182,192,335176,1,0,0:0:0:0:
109,192,335176,1,0,0:0:0:0:
402,192,335255,1,0,0:0:0:0:
329,192,335255,128,0,335334:0:0:0:0:
109,192,335334,1,0,0:0:0:0:
182,192,335334,128,0,335413:0:0:0:0:
475,192,335413,1,0,0:0:0:0:
329,192,335413,128,0,335492:0:0:0:0:
402,192,335413,128,0,335492:0:0:0:0:
36,192,335492,1,0,0:0:0:0:
109,192,335492,128,0,335571:0:0:0:0:
182,192,335492,128,0,335571:0:0:0:0:
329,192,335571,128,0,335650:0:0:0:0:
402,192,335571,128,0,335650:0:0:0:0:
475,192,335571,128,0,335650:0:0:0:0:
182,192,335650,128,0,335939:0:0:0:0:
109,192,335650,128,0,335887:0:0:0:0:
36,192,335650,128,0,335834:0:0:0:0:
329,192,335729,128,0,335867:0:0:0:0:
402,192,335729,128,0,335887:0:0:0:0:
475,192,335729,128,0,335906:0:0:0:0:
36,192,335913,1,0,0:0:0:0:
109,192,335966,1,0,0:0:0:0:
402,192,336045,1,0,0:0:0:0:
475,192,336045,1,0,0:0:0:0:
36,192,336045,1,0,0:0:0:0:
256,192,336045,1,0,0:0:0:0:
109,192,336123,1,0,0:0:0:0:
329,192,336150,1,0,0:0:0:0:
256,192,336183,1,0,0:0:0:0:
182,192,336220,1,0,0:0:0:0:
402,192,336242,1,0,0:0:0:0:
329,192,336281,1,0,0:0:0:0:
256,192,336360,1,0,0:0:0:0:
36,192,336360,1,0,0:0:0:0:
475,192,336360,1,0,0:0:0:0:
182,192,336380,1,0,0:0:0:0:
109,192,336400,1,0,0:0:0:0:
402,192,336466,1,0,0:0:0:0:
109,192,336518,1,0,0:0:0:0:
329,192,336571,1,0,0:0:0:0:
182,192,336676,1,0,0:0:0:0:
475,192,336676,1,0,0:0:0:0:
36,192,336676,1,0,0:0:0:0:
256,192,336711,1,0,0:0:0:0:
329,192,336746,1,0,0:0:0:0:
36,192,336834,1,0,0:0:0:0:
256,192,336834,1,0,0:0:0:0:
36,192,336913,1,0,0:0:0:0:
182,192,336913,1,0,0:0:0:0:
475,192,336992,1,0,0:0:0:0:
402,192,336992,1,0,0:0:0:0:
329,192,336992,1,0,0:0:0:0:
256,192,336992,1,0,0:0:0:0:
36,192,337130,1,0,0:0:0:0:
182,192,337150,1,0,0:0:0:0:
329,192,337150,1,0,0:0:0:0:
182,192,337229,1,0,0:0:0:0:
402,192,337229,1,0,0:0:0:0:
109,192,337281,1,0,0:0:0:0:
256,192,337308,1,0,0:0:0:0:
475,192,337308,1,0,0:0:0:0:
36,192,337334,1,0,0:0:0:0:
109,192,337387,1,0,0:0:0:0:
329,192,337413,1,0,0:0:0:0:
182,192,337439,1,0,0:0:0:0:
402,192,337518,1,0,0:0:0:0:
36,192,337623,1,0,0:0:0:0:
329,192,337623,1,0,0:0:0:0:
109,192,337623,1,0,0:0:0:0:
402,192,337643,1,0,0:0:0:0:
475,192,337663,1,0,0:0:0:0:
182,192,337676,1,0,0:0:0:0:
109,192,337729,1,0,0:0:0:0:
256,192,337781,1,0,0:0:0:0:
475,192,337781,1,0,0:0:0:0:
329,192,337834,1,0,0:0:0:0:
475,192,337939,1,0,0:0:0:0:
256,192,337939,1,0,0:0:0:0:
182,192,337939,1,0,0:0:0:0:
36,192,337939,1,0,0:0:0:0:
402,192,337974,1,0,0:0:0:0:
329,192,338009,1,0,0:0:0:0:
36,192,338058,1,0,0:0:0:0:
182,192,338097,1,0,0:0:0:0:
256,192,338137,1,0,0:0:0:0:
36,192,338176,1,0,0:0:0:0:
109,192,338216,1,0,0:0:0:0:
256,192,338255,1,0,0:0:0:0:
329,192,338255,1,0,0:0:0:0:
402,192,338255,1,0,0:0:0:0:
475,192,338255,1,0,0:0:0:0:
182,192,338395,1,0,0:0:0:0:
402,192,338413,1,0,0:0:0:0:
109,192,338430,1,0,0:0:0:0:
329,192,338452,1,0,0:0:0:0:
256,192,338492,1,0,0:0:0:0:
109,192,338531,1,0,0:0:0:0:
475,192,338531,1,0,0:0:0:0:
402,192,338551,1,0,0:0:0:0:
36,192,338571,1,0,0:0:0:0:
329,192,338571,1,0,0:0:0:0:
182,192,338591,1,0,0:0:0:0:
109,192,338676,1,0,0:0:0:0:
402,192,338729,1,0,0:0:0:0:
256,192,338729,1,0,0:0:0:0:
182,192,338781,1,0,0:0:0:0:
402,192,338808,1,0,0:0:0:0:
329,192,338887,1,0,0:0:0:0:
36,192,338887,1,0,0:0:0:0:
475,192,338887,1,0,0:0:0:0:
109,192,338906,1,0,0:0:0:0:
256,192,338926,1,0,0:0:0:0:
182,192,338992,1,0,0:0:0:0:
329,192,339045,1,0,0:0:0:0:
109,192,339097,1,0,0:0:0:0:
182,192,339202,1,0,0:0:0:0:
36,192,339202,1,0,0:0:0:0:
475,192,339202,1,0,0:0:0:0:
402,192,339237,1,0,0:0:0:0:
329,192,339273,1,0,0:0:0:0:
256,192,339360,1,0,0:0:0:0:
36,192,339360,1,0,0:0:0:0:
36,192,339439,1,0,0:0:0:0:
329,192,339439,1,0,0:0:0:0:
256,192,339518,1,0,0:0:0:0:
182,192,339518,1,0,0:0:0:0:
402,192,339518,1,0,0:0:0:0:
475,192,339518,1,0,0:0:0:0:
182,192,339656,1,0,0:0:0:0:
475,192,339676,1,0,0:0:0:0:
329,192,339676,1,0,0:0:0:0:
475,192,339755,1,0,0:0:0:0:
109,192,339755,1,0,0:0:0:0:
402,192,339808,1,0,0:0:0:0:
256,192,339834,1,0,0:0:0:0:
36,192,339834,1,0,0:0:0:0:
109,192,339860,1,0,0:0:0:0:
182,192,339913,1,0,0:0:0:0:
329,192,339913,1,0,0:0:0:0:
256,192,339992,1,0,0:0:0:0:
402,192,339992,1,0,0:0:0:0:
256,192,340150,1,0,0:0:0:0:
402,192,340150,1,0,0:0:0:0:
475,192,340150,1,0,0:0:0:0:
109,192,340150,1,0,0:0:0:0:
109,192,340255,1,0,0:0:0:0:
329,192,340308,1,0,0:0:0:0:
475,192,340308,1,0,0:0:0:0:
256,192,340439,128,0,340623:0:0:0:0:
475,192,340466,1,0,0:0:0:0:
182,192,340466,128,0,340571:0:0:0:0:
109,192,340492,128,0,340545:0:0:0:0:
402,192,340505,1,0,0:0:0:0:
36,192,340518,1,0,0:0:0:0:
329,192,340545,1,0,0:0:0:0:
402,192,340623,1,0,0:0:0:0:
109,192,340623,1,0,0:0:0:0:
182,192,340663,1,0,0:0:0:0:
256,192,340702,1,0,0:0:0:0:
182,192,340781,1,0,0:0:0:0:
36,192,340781,1,0,0:0:0:0:
329,192,340781,1,0,0:0:0:0:
475,192,340781,1,0,0:0:0:0:
182,192,340939,1,0,0:0:0:0:
475,192,340939,1,0,0:0:0:0:
329,192,340939,1,0,0:0:0:0:
36,192,340939,1,0,0:0:0:0:
109,192,341097,1,0,0:0:0:0:
36,192,341097,1,0,0:0:0:0:
475,192,341097,1,0,0:0:0:0:
256,192,341097,1,0,0:0:0:0:
402,192,341176,1,0,0:0:0:0:
182,192,341202,1,0,0:0:0:0:
256,192,341235,1,0,0:0:0:0:
329,192,341273,1,0,0:0:0:0:
109,192,341295,1,0,0:0:0:0:
182,192,341334,1,0,0:0:0:0:
256,192,341413,1,0,0:0:0:0:
475,192,341413,1,0,0:0:0:0:
36,192,341413,1,0,0:0:0:0:
329,192,341433,1,0,0:0:0:0:
402,192,341452,1,0,0:0:0:0:
109,192,341518,1,0,0:0:0:0:
402,192,341571,1,0,0:0:0:0:
182,192,341623,1,0,0:0:0:0:
329,192,341729,1,0,0:0:0:0:
36,192,341729,1,0,0:0:0:0:
475,192,341729,1,0,0:0:0:0:
256,192,341764,1,0,0:0:0:0:
182,192,341799,1,0,0:0:0:0:
475,192,341887,1,0,0:0:0:0:
256,192,341887,1,0,0:0:0:0:
475,192,341966,1,0,0:0:0:0:
329,192,341966,1,0,0:0:0:0:
36,192,342045,1,0,0:0:0:0:
109,192,342045,1,0,0:0:0:0:
182,192,342045,1,0,0:0:0:0:
256,192,342045,1,0,0:0:0:0:
36,192,342183,1,0,0:0:0:0:
329,192,342202,1,0,0:0:0:0:
109,192,342202,1,0,0:0:0:0:
329,192,342281,1,0,0:0:0:0:
182,192,342281,1,0,0:0:0:0:
402,192,342334,1,0,0:0:0:0:
256,192,342360,1,0,0:0:0:0:
36,192,342360,1,0,0:0:0:0:
475,192,342387,1,0,0:0:0:0:
402,192,342439,1,0,0:0:0:0:
109,192,342466,1,0,0:0:0:0:
329,192,342492,1,0,0:0:0:0:
182,192,342571,1,0,0:0:0:0:
475,192,342676,1,0,0:0:0:0:
256,192,342676,1,0,0:0:0:0:
329,192,342676,1,0,0:0:0:0:
109,192,342696,1,0,0:0:0:0:
36,192,342716,1,0,0:0:0:0:
402,192,342729,1,0,0:0:0:0:
256,192,342781,1,0,0:0:0:0:
329,192,342834,1,0,0:0:0:0:
36,192,342834,1,0,0:0:0:0:
182,192,342887,1,0,0:0:0:0:
36,192,342992,1,0,0:0:0:0:
256,192,342992,1,0,0:0:0:0:
402,192,342992,1,0,0:0:0:0:
475,192,342992,1,0,0:0:0:0:
109,192,343027,1,0,0:0:0:0:
182,192,343062,1,0,0:0:0:0:
475,192,343110,1,0,0:0:0:0:
329,192,343150,1,0,0:0:0:0:
256,192,343189,1,0,0:0:0:0:
475,192,343229,1,0,0:0:0:0:
402,192,343268,1,0,0:0:0:0:
256,192,343308,1,0,0:0:0:0:
182,192,343308,1,0,0:0:0:0:
109,192,343308,1,0,0:0:0:0:
36,192,343308,1,0,0:0:0:0:
329,192,343446,1,0,0:0:0:0:
109,192,343466,1,0,0:0:0:0:
402,192,343483,1,0,0:0:0:0:
182,192,343505,1,0,0:0:0:0:
256,192,343545,1,0,0:0:0:0:
402,192,343584,1,0,0:0:0:0:
36,192,343584,1,0,0:0:0:0:
109,192,343604,1,0,0:0:0:0:
475,192,343623,1,0,0:0:0:0:
182,192,343623,1,0,0:0:0:0:
329,192,343643,1,0,0:0:0:0:
402,192,343729,1,0,0:0:0:0:
109,192,343781,1,0,0:0:0:0:
256,192,343781,1,0,0:0:0:0:
329,192,343834,1,0,0:0:0:0:
109,192,343860,1,0,0:0:0:0:
182,192,343939,1,0,0:0:0:0:
475,192,343939,1,0,0:0:0:0:
36,192,343939,1,0,0:0:0:0:
402,192,343959,1,0,0:0:0:0:
256,192,343979,1,0,0:0:0:0:
109,192,344045,1,0,0:0:0:0:
256,192,344097,1,0,0:0:0:0:
36,192,344150,1,0,0:0:0:0:
329,192,344255,1,0,0:0:0:0:
475,192,344255,1,0,0:0:0:0:
182,192,344255,1,0,0:0:0:0:
109,192,344290,1,0,0:0:0:0:
36,192,344325,1,0,0:0:0:0:
256,192,344413,1,0,0:0:0:0:
475,192,344413,1,0,0:0:0:0:
475,192,344492,1,0,0:0:0:0:
402,192,344492,1,0,0:0:0:0:
256,192,344571,1,0,0:0:0:0:
329,192,344571,1,0,0:0:0:0:
182,192,344571,1,0,0:0:0:0:
36,192,344571,1,0,0:0:0:0:
109,192,344709,1,0,0:0:0:0:
256,192,344729,1,0,0:0:0:0:
475,192,344729,1,0,0:0:0:0:
256,192,344808,1,0,0:0:0:0:
402,192,344808,1,0,0:0:0:0:
329,192,344887,1,0,0:0:0:0:
475,192,344887,1,0,0:0:0:0:
182,192,344887,1,0,0:0:0:0:
109,192,344887,1,0,0:0:0:0:
36,192,344887,1,0,0:0:0:0:
36,192,345045,128,0,345163:0:0:0:0:
329,192,345045,1,0,0:0:0:0:
475,192,345045,1,0,0:0:0:0:
109,192,345202,128,0,345321:0:0:0:0:
402,192,345202,1,0,0:0:0:0:
256,192,345202,1,0,0:0:0:0:
475,192,345202,1,0,0:0:0:0:
36,192,345242,128,0,345360:0:0:0:0:
329,192,345281,1,0,0:0:0:0:
182,192,345360,128,0,345518:0:0:0:0:
475,192,345360,1,0,0:0:0:0:
109,192,345400,128,0,345597:0:0:0:0:
36,192,345439,128,0,345676:0:0:0:0:
329,192,345439,1,0,0:0:0:0:
402,192,345518,1,0,0:0:0:0:
329,192,345676,1,0,0:0:0:0:
475,192,345676,128,0,345913:0:0:0:0:
256,192,345716,1,0,0:0:0:0:
402,192,345755,128,0,345952:0:0:0:0:
182,192,345755,1,0,0:0:0:0:
329,192,345834,128,0,345992:0:0:0:0:
36,192,345834,1,0,0:0:0:0:
109,192,345873,1,0,0:0:0:0:
182,192,345913,1,0,0:0:0:0:
36,192,345952,1,0,0:0:0:0:
475,192,345992,128,0,346071:0:0:0:0:
256,192,345992,1,0,0:0:0:0:
402,192,346031,128,0,346110:0:0:0:0:
182,192,346031,1,0,0:0:0:0:
109,192,346071,1,0,0:0:0:0:
256,192,346110,1,0,0:0:0:0:
475,192,346150,128,0,346189:0:0:0:0:
329,192,346150,1,0,0:0:0:0:
36,192,346150,1,0,0:0:0:0:
329,192,346308,1,0,0:0:0:0:
36,192,346308,1,0,0:0:0:0:
182,192,346387,1,0,0:0:0:0:
329,192,346446,1,0,0:0:0:0:
402,192,346466,1,0,0:0:0:0:
36,192,346466,1,0,0:0:0:0:
475,192,346485,128,0,346643:0:0:0:0:
402,192,346623,128,0,346683:0:0:0:0:
256,192,346623,1,0,0:0:0:0:
109,192,346623,1,0,0:0:0:0:
329,192,346762,1,0,0:0:0:0:
475,192,346781,128,0,346821:0:0:0:0:
256,192,346781,1,0,0:0:0:0:
36,192,346781,1,0,0:0:0:0:
182,192,346801,1,0,0:0:0:0:
109,192,346860,1,0,0:0:0:0:
475,192,346939,128,0,346979:0:0:0:0:
256,192,346939,1,0,0:0:0:0:
402,192,347018,1,0,0:0:0:0:
36,192,347077,1,0,0:0:0:0:
475,192,347097,128,0,347295:0:0:0:0:
109,192,347097,1,0,0:0:0:0:
329,192,347097,1,0,0:0:0:0:
182,192,347117,1,0,0:0:0:0:
256,192,347176,1,0,0:0:0:0:
402,192,347255,128,0,347334:0:0:0:0:
109,192,347255,1,0,0:0:0:0:
36,192,347334,1,0,0:0:0:0:
256,192,347393,1,0,0:0:0:0:
475,192,347413,128,0,347472:0:0:0:0:
182,192,347413,1,0,0:0:0:0:
402,192,347413,1,0,0:0:0:0:
109,192,347433,1,0,0:0:0:0:
329,192,347492,1,0,0:0:0:0:
475,192,347571,128,0,347630:0:0:0:0:
182,192,347571,1,0,0:0:0:0:
182,192,347709,1,0,0:0:0:0:
475,192,347729,128,0,347946:0:0:0:0:
256,192,347729,1,0,0:0:0:0:
36,192,347729,1,0,0:0:0:0:
329,192,347748,1,0,0:0:0:0:
36,192,347834,1,0,0:0:0:0:
402,192,347887,128,0,347985:0:0:0:0:
109,192,347887,1,0,0:0:0:0:
182,192,347939,1,0,0:0:0:0:
256,192,348025,1,0,0:0:0:0:
475,192,348045,128,0,348123:0:0:0:0:
182,192,348045,1,0,0:0:0:0:
402,192,348045,1,0,0:0:0:0:
109,192,348064,1,0,0:0:0:0:
329,192,348150,1,0,0:0:0:0:
475,192,348202,128,0,348281:0:0:0:0:
256,192,348202,1,0,0:0:0:0:
182,192,348255,1,0,0:0:0:0:
36,192,348341,1,0,0:0:0:0:
475,192,348360,128,0,348597:0:0:0:0:
109,192,348360,1,0,0:0:0:0:
329,192,348360,1,0,0:0:0:0:
182,192,348380,1,0,0:0:0:0:
109,192,348498,1,0,0:0:0:0:
402,192,348518,128,0,348637:0:0:0:0:
256,192,348518,128,0,348597:0:0:0:0:
36,192,348518,1,0,0:0:0:0:
256,192,348656,1,0,0:0:0:0:
36,192,348676,128,0,348755:0:0:0:0:
329,192,348676,1,0,0:0:0:0:
475,192,348676,128,0,348834:0:0:0:0:
402,192,348696,1,0,0:0:0:0:
182,192,348716,128,0,348873:0:0:0:0:
109,192,348834,128,0,348913:0:0:0:0:
329,192,348834,1,0,0:0:0:0:
36,192,348873,128,0,349031:0:0:0:0:
475,192,348913,1,0,0:0:0:0:
402,192,348972,1,0,0:0:0:0:
109,192,348992,128,0,349071:0:0:0:0:
329,192,348992,1,0,0:0:0:0:
256,192,349012,1,0,0:0:0:0:
182,192,349031,128,0,349248:0:0:0:0:
36,192,349150,128,0,349860:0:0:0:0:
402,192,349150,1,0,0:0:0:0:
329,192,349288,1,0,0:0:0:0:
109,192,349308,128,0,349387:0:0:0:0:
402,192,349308,1,0,0:0:0:0:
475,192,349327,1,0,0:0:0:0:
256,192,349347,128,0,349505:0:0:0:0:
182,192,349466,128,0,349545:0:0:0:0:
329,192,349466,1,0,0:0:0:0:
109,192,349505,128,0,349663:0:0:0:0:
475,192,349604,1,0,0:0:0:0:
182,192,349623,128,0,349702:0:0:0:0:
402,192,349623,1,0,0:0:0:0:
329,192,349643,1,0,0:0:0:0:
256,192,349663,128,0,349900:0:0:0:0:
109,192,349781,128,0,349860:0:0:0:0:
475,192,349781,1,0,0:0:0:0:
329,192,349860,1,0,0:0:0:0:
182,192,349939,128,0,350018:0:0:0:0:
402,192,349939,1,0,0:0:0:0:
36,192,349939,128,0,350018:0:0:0:0:
109,192,349939,128,0,350492:0:0:0:0:
475,192,349939,128,0,350571:0:0:0:0:
329,192,349979,128,0,350137:0:0:0:0:
256,192,350097,128,0,350176:0:0:0:0:
36,192,350097,128,0,350334:0:0:0:0:
182,192,350137,128,0,350295:0:0:0:0:
256,192,350255,128,0,350334:0:0:0:0:
329,192,350295,128,0,350531:0:0:0:0:
182,192,350413,128,0,350808:0:0:0:0:
36,192,350413,128,0,350650:0:0:0:0:
256,192,350571,128,0,350650:0:0:0:0:
109,192,350571,128,0,350808:0:0:0:0:
402,192,350610,128,0,350768:0:0:0:0:
329,192,350729,128,0,350808:0:0:0:0:
36,192,350729,128,0,350926:0:0:0:0:
256,192,350768,128,0,350926:0:0:0:0:
329,192,350887,128,0,350966:0:0:0:0:
109,192,350887,128,0,350966:0:0:0:0:
475,192,350887,1,0,0:0:0:0:
182,192,350887,1,0,0:0:0:0:
402,192,350926,128,0,351084:0:0:0:0:
36,192,351045,1,0,0:0:0:0:
109,192,351045,128,0,351084:0:0:0:0:
256,192,351045,128,0,351301:0:0:0:0:
475,192,351045,1,0,0:0:0:0:
182,192,351045,128,0,351123:0:0:0:0:
329,192,351123,128,0,351301:0:0:0:0:
402,192,351202,1,0,0:0:0:0:
36,192,351202,128,0,351301:0:0:0:0:
475,192,351202,128,0,351439:0:0:0:0:
182,192,351202,128,0,351360:0:0:0:0:
109,192,351281,128,0,351439:0:0:0:0:
256,192,351360,128,0,351439:0:0:0:0:
329,192,351360,1,0,0:0:0:0:
36,192,351360,128,0,351538:0:0:0:0:
182,192,351439,128,0,351518:0:0:0:0:
329,192,351518,128,0,351617:0:0:0:0:
109,192,351518,128,0,351617:0:0:0:0:
402,192,351518,128,0,351617:0:0:0:0:
475,192,351518,128,0,351755:0:0:0:0:
256,192,351518,128,0,351676:0:0:0:0:
182,192,351597,128,0,351755:0:0:0:0:
329,192,351676,128,0,351755:0:0:0:0:
402,192,351676,1,0,0:0:0:0:
109,192,351676,128,0,351854:0:0:0:0:
256,192,351755,128,0,351834:0:0:0:0:
182,192,351834,128,0,351933:0:0:0:0:
402,192,351834,128,0,351933:0:0:0:0:
475,192,351834,128,0,351933:0:0:0:0:
36,192,351834,128,0,352071:0:0:0:0:
329,192,351834,128,0,351992:0:0:0:0:
256,192,351913,128,0,352071:0:0:0:0:
402,192,351992,128,0,352071:0:0:0:0:
182,192,351992,128,0,352170:0:0:0:0:
475,192,351992,1,0,0:0:0:0:
329,192,352071,128,0,352150:0:0:0:0:
109,192,352150,128,0,352387:0:0:0:0:
36,192,352150,128,0,352229:0:0:0:0:
475,192,352150,128,0,352248:0:0:0:0:
256,192,352150,128,0,352248:0:0:0:0:
402,192,352150,128,0,352308:0:0:0:0:
329,192,352229,128,0,352387:0:0:0:0:
475,192,352308,128,0,352387:0:0:0:0:
256,192,352308,128,0,352564:0:0:0:0:
36,192,352308,128,0,352387:0:0:0:0:
402,192,352387,128,0,352466:0:0:0:0:
182,192,352387,1,0,0:0:0:0:
109,192,352466,128,0,352722:0:0:0:0:
36,192,352466,128,0,352880:0:0:0:0:
329,192,352466,128,0,352564:0:0:0:0:
475,192,352466,128,0,352702:0:0:0:0:
402,192,352545,1,0,0:0:0:0:
182,192,352623,128,0,352722:0:0:0:0:
256,192,352623,128,0,352722:0:0:0:0:
329,192,352623,128,0,352722:0:0:0:0:
402,192,352702,128,0,352821:0:0:0:0:
109,192,352781,128,0,352880:0:0:0:0:
182,192,352781,128,0,352880:0:0:0:0:
475,192,352781,128,0,353650:0:0:0:0:
256,192,352781,128,0,352880:0:0:0:0:
329,192,352860,128,0,352979:0:0:0:0:
182,192,352939,128,0,353038:0:0:0:0:
109,192,352939,128,0,353038:0:0:0:0:
36,192,352939,128,0,353038:0:0:0:0:
256,192,353018,128,0,353137:0:0:0:0:
109,192,353097,128,0,353196:0:0:0:0:
36,192,353097,128,0,353196:0:0:0:0:
402,192,353097,128,0,353729:0:0:0:0:
182,192,353176,128,0,353295:0:0:0:0:
36,192,353255,128,0,353354:0:0:0:0:
329,192,353255,128,0,353808:0:0:0:0:
109,192,353334,128,0,353452:0:0:0:0:
256,192,353413,128,0,353650:0:0:0:0:
182,192,353413,1,0,0:0:0:0:
36,192,353492,128,0,353610:0:0:0:0:
182,192,353571,128,0,354123:0:0:0:0:
109,192,353650,1,0,0:0:0:0:
256,192,353729,128,0,353887:0:0:0:0:
475,192,353729,128,0,353966:0:0:0:0:
36,192,353729,128,0,353966:0:0:0:0:
402,192,353808,128,0,353966:0:0:0:0:
329,192,353887,128,0,353966:0:0:0:0:
109,192,353887,128,0,354045:0:0:0:0:
256,192,353966,128,0,354202:0:0:0:0:
475,192,354045,128,0,354281:0:0:0:0:
329,192,354045,128,0,354439:0:0:0:0:
36,192,354045,128,0,354281:0:0:0:0:
402,192,354045,1,0,0:0:0:0:
109,192,354123,128,0,354439:0:0:0:0:
182,192,354202,128,0,354281:0:0:0:0:
402,192,354202,128,0,354360:0:0:0:0:
256,192,354281,128,0,354913:0:0:0:0:
475,192,354360,128,0,354597:0:0:0:0:
36,192,354360,128,0,354597:0:0:0:0:
182,192,354360,128,0,354518:0:0:0:0:
402,192,354439,128,0,354755:0:0:0:0:
109,192,354518,128,0,354676:0:0:0:0:
329,192,354518,128,0,354597:0:0:0:0:
182,192,354597,128,0,354755:0:0:0:0:
475,192,354676,128,0,354913:0:0:0:0:
36,192,354676,128,0,354913:0:0:0:0:
329,192,354676,128,0,354834:0:0:0:0:
109,192,354755,128,0,354913:0:0:0:0:
402,192,354834,128,0,354913:0:0:0:0:
182,192,354834,128,0,354913:0:0:0:0:
329,192,354913,1,0,0:0:0:0:
256,192,354992,1,0,0:0:0:0:
475,192,354992,1,0,0:0:0:0:
36,192,354992,128,0,355860:0:0:0:0:
109,192,355150,1,0,0:0:0:0:
329,192,355150,1,0,0:0:0:0:
402,192,355150,1,0,0:0:0:0:
182,192,355308,1,0,0:0:0:0:
402,192,355308,1,0,0:0:0:0:
475,192,355308,1,0,0:0:0:0:
256,192,355466,128,0,355505:0:0:0:0:
475,192,355466,1,0,0:0:0:0:
329,192,355604,1,0,0:0:0:0:
256,192,355623,128,0,355821:0:0:0:0:
182,192,355643,1,0,0:0:0:0:
329,192,355781,128,0,355821:0:0:0:0:
402,192,355781,128,0,355821:0:0:0:0:
475,192,355781,128,0,355821:0:0:0:0:
182,192,355939,5,0,0:0:0:0:
36,192,355939,1,0,0:0:0:0:
109,192,355939,1,0,0:0:0:0:
475,192,355939,1,0,0:0:0:0:
329,192,356018,1,0,0:0:0:0:
402,192,356018,1,0,0:0:0:0:
256,192,356097,1,0,0:0:0:0:
109,192,356097,1,0,0:0:0:0:
329,192,356176,1,0,0:0:0:0:
402,192,356176,1,0,0:0:0:0:
475,192,356255,1,0,0:0:0:0:
36,192,356255,1,0,0:0:0:0:
182,192,356295,128,0,356354:0:0:0:0:
36,192,356413,1,0,0:0:0:0:
475,192,356413,1,0,0:0:0:0:
329,192,356452,128,0,356512:0:0:0:0:
109,192,356571,1,0,0:0:0:0:
475,192,356571,128,0,356650:0:0:0:0:
256,192,356571,128,0,356887:0:0:0:0:
36,192,356571,128,0,356650:0:0:0:0:
402,192,356610,128,0,356689:0:0:0:0:
329,192,356650,128,0,356729:0:0:0:0:
182,192,356650,1,0,0:0:0:0:
109,192,356729,128,0,356808:0:0:0:0:
36,192,356729,1,0,0:0:0:0:
475,192,356729,128,0,356966:0:0:0:0:
402,192,356808,128,0,356887:0:0:0:0:
182,192,356808,128,0,356966:0:0:0:0:
109,192,356887,1,0,0:0:0:0:
329,192,356887,128,0,356966:0:0:0:0:
36,192,356887,128,0,357123:0:0:0:0:
256,192,356966,128,0,357045:0:0:0:0:
402,192,356966,128,0,357045:0:0:0:0:
329,192,357045,128,0,357123:0:0:0:0:
475,192,357045,128,0,357281:0:0:0:0:
109,192,357045,128,0,357123:0:0:0:0:
256,192,357123,1,0,0:0:0:0:
182,192,357123,128,0,357202:0:0:0:0:
109,192,357202,128,0,357439:0:0:0:0:
36,192,357202,128,0,357281:0:0:0:0:
329,192,357202,128,0,357360:0:0:0:0:
402,192,357202,128,0,357242:0:0:0:0:
256,192,357281,128,0,357360:0:0:0:0:
182,192,357281,128,0,357321:0:0:0:0:
36,192,357360,128,0,357439:0:0:0:0:
402,192,357360,128,0,357518:0:0:0:0:
475,192,357360,128,0,357400:0:0:0:0:
256,192,357439,128,0,357479:0:0:0:0:
329,192,357439,128,0,357518:0:0:0:0:
109,192,357518,1,0,0:0:0:0:
182,192,357518,128,0,357755:0:0:0:0:
36,192,357518,128,0,357676:0:0:0:0:
475,192,357518,128,0,357755:0:0:0:0:
402,192,357597,128,0,357755:0:0:0:0:
256,192,357597,1,0,0:0:0:0:
109,192,357676,128,0,357755:0:0:0:0:
329,192,357676,128,0,357755:0:0:0:0:
36,192,357755,128,0,357834:0:0:0:0:
256,192,357755,128,0,357834:0:0:0:0:
402,192,357834,128,0,357913:0:0:0:0:
475,192,357834,128,0,357873:0:0:0:0:
182,192,357834,1,0,0:0:0:0:
109,192,357834,128,0,358150:0:0:0:0:
329,192,357873,128,0,357952:0:0:0:0:
256,192,357913,128,0,357992:0:0:0:0:
36,192,357913,1,0,0:0:0:0:
182,192,357992,128,0,358071:0:0:0:0:
475,192,357992,1,0,0:0:0:0:
402,192,357992,128,0,358229:0:0:0:0:
36,192,358071,128,0,358229:0:0:0:0:
329,192,358071,128,0,358150:0:0:0:0:
182,192,358150,1,0,0:0:0:0:
256,192,358150,128,0,358229:0:0:0:0:
475,192,358150,128,0,358229:0:0:0:0:
109,192,358229,128,0,358308:0:0:0:0:
329,192,358229,128,0,358308:0:0:0:0:
182,192,358308,128,0,358387:0:0:0:0:
402,192,358308,128,0,358387:0:0:0:0:
475,192,358308,128,0,358545:0:0:0:0:
36,192,358387,128,0,358545:0:0:0:0:
256,192,358387,128,0,358702:0:0:0:0:
109,192,358466,128,0,358545:0:0:0:0:
182,192,358466,128,0,358545:0:0:0:0:
329,192,358466,128,0,358545:0:0:0:0:
402,192,358466,128,0,358545:0:0:0:0:
109,192,358623,128,0,358702:0:0:0:0:
182,192,358623,128,0,358702:0:0:0:0:
36,192,358623,1,0,0:0:0:0:
475,192,358623,1,0,0:0:0:0:
329,192,358623,128,0,358702:0:0:0:0:
402,192,358623,128,0,358702:0:0:0:0:
36,192,358781,128,0,359018:0:0:0:0:
475,192,358781,128,0,358939:0:0:0:0:
256,192,358781,128,0,358939:0:0:0:0:
329,192,358781,128,0,358821:0:0:0:0:
182,192,358781,128,0,358821:0:0:0:0:
109,192,358860,128,0,358939:0:0:0:0:
402,192,358860,128,0,358939:0:0:0:0:
182,192,358939,128,0,359018:0:0:0:0:
329,192,358939,128,0,359097:0:0:0:0:
402,192,359018,1,0,0:0:0:0:
109,192,359018,128,0,359097:0:0:0:0:
36,192,359097,1,0,0:0:0:0:
475,192,359097,128,0,359176:0:0:0:0:
182,192,359097,128,0,359413:0:0:0:0:
256,192,359097,128,0,359176:0:0:0:0:
402,192,359137,128,0,359216:0:0:0:0:
329,192,359176,128,0,359255:0:0:0:0:
109,192,359176,1,0,0:0:0:0:
36,192,359255,128,0,359334:0:0:0:0:
256,192,359255,1,0,0:0:0:0:
475,192,359255,128,0,359492:0:0:0:0:
402,192,359334,128,0,359413:0:0:0:0:
329,192,359334,128,0,359492:0:0:0:0:
36,192,359413,1,0,0:0:0:0:
109,192,359413,128,0,359492:0:0:0:0:
256,192,359413,128,0,359650:0:0:0:0:
182,192,359492,128,0,359571:0:0:0:0:
402,192,359492,128,0,359571:0:0:0:0:
36,192,359571,128,0,359650:0:0:0:0:
329,192,359571,128,0,359768:0:0:0:0:
475,192,359571,128,0,359650:0:0:0:0:
109,192,359650,1,0,0:0:0:0:
182,192,359650,128,0,359729:0:0:0:0:
36,192,359729,128,0,359887:0:0:0:0:
475,192,359729,128,0,359966:0:0:0:0:
402,192,359729,128,0,359808:0:0:0:0:
256,192,359729,1,0,0:0:0:0:
109,192,359808,128,0,359887:0:0:0:0:
182,192,359808,128,0,359847:0:0:0:0:
329,192,359887,128,0,360045:0:0:0:0:
402,192,359887,128,0,359966:0:0:0:0:
256,192,359887,128,0,359926:0:0:0:0:
36,192,359966,128,0,360045:0:0:0:0:
109,192,359966,128,0,360005:0:0:0:0:
256,192,360045,128,0,360163:0:0:0:0:
182,192,360045,128,0,360123:0:0:0:0:
475,192,360045,128,0,360321:0:0:0:0:
402,192,360045,1,0,0:0:0:0:
36,192,360123,128,0,360202:0:0:0:0:
109,192,360163,128,0,360281:0:0:0:0:
182,192,360202,128,0,360439:0:0:0:0:
402,192,360202,128,0,360321:0:0:0:0:
329,192,360242,128,0,360321:0:0:0:0:
256,192,360281,1,0,0:0:0:0:
36,192,360360,1,0,0:0:0:0:
402,192,360360,128,0,360597:0:0:0:0:
329,192,360360,1,0,0:0:0:0:
109,192,360380,128,0,360755:0:0:0:0:
182,192,360518,1,0,0:0:0:0:
329,192,360518,128,0,360913:0:0:0:0:
475,192,360518,1,0,0:0:0:0:
36,192,360597,1,0,0:0:0:0:
475,192,360676,128,0,360873:0:0:0:0:
182,192,360676,128,0,361071:0:0:0:0:
256,192,360755,1,0,0:0:0:0:
109,192,360834,1,0,0:0:0:0:
402,192,360913,1,0,0:0:0:0:
109,192,360972,128,0,361071:0:0:0:0:
36,192,360992,128,0,361071:0:0:0:0:
475,192,360992,1,0,0:0:0:0:
256,192,360992,1,0,0:0:0:0:
329,192,360992,128,0,361268:0:0:0:0:
402,192,361130,128,0,361229:0:0:0:0:
256,192,361150,128,0,361248:0:0:0:0:
475,192,361150,128,0,361229:0:0:0:0:
182,192,361150,128,0,361229:0:0:0:0:
475,192,361308,128,0,361387:0:0:0:0:
109,192,361308,128,0,361466:0:0:0:0:
36,192,361308,128,0,361387:0:0:0:0:
256,192,361308,128,0,361387:0:0:0:0:
402,192,361387,128,0,361466:0:0:0:0:
182,192,361387,128,0,361545:0:0:0:0:
475,192,361466,128,0,361545:0:0:0:0:
256,192,361466,128,0,361545:0:0:0:0:
36,192,361466,1,0,0:0:0:0:
109,192,361545,1,0,0:0:0:0:
329,192,361545,128,0,361623:0:0:0:0:
402,192,361623,1,0,0:0:0:0:
36,192,361623,128,0,361702:0:0:0:0:
256,192,361623,128,0,361939:0:0:0:0:
475,192,361623,128,0,361702:0:0:0:0:
109,192,361663,128,0,361742:0:0:0:0:
182,192,361702,128,0,361781:0:0:0:0:
329,192,361702,1,0,0:0:0:0:
402,192,361781,128,0,361860:0:0:0:0:
475,192,361781,1,0,0:0:0:0:
36,192,361781,128,0,362018:0:0:0:0:
109,192,361860,128,0,361939:0:0:0:0:
329,192,361860,128,0,362018:0:0:0:0:
402,192,361939,1,0,0:0:0:0:
182,192,361939,128,0,362018:0:0:0:0:
475,192,361939,128,0,362176:0:0:0:0:
256,192,362018,128,0,362097:0:0:0:0:
109,192,362018,128,0,362097:0:0:0:0:
182,192,362097,128,0,362176:0:0:0:0:
36,192,362097,128,0,362334:0:0:0:0:
402,192,362097,128,0,362176:0:0:0:0:
256,192,362176,1,0,0:0:0:0:
329,192,362176,128,0,362255:0:0:0:0:
402,192,362255,128,0,362492:0:0:0:0:
475,192,362255,128,0,362334:0:0:0:0:
182,192,362255,128,0,362413:0:0:0:0:
109,192,362255,128,0,362295:0:0:0:0:
256,192,362334,128,0,362413:0:0:0:0:
329,192,362334,128,0,362373:0:0:0:0:
475,192,362413,128,0,362492:0:0:0:0:
109,192,362413,128,0,362571:0:0:0:0:
36,192,362413,128,0,362452:0:0:0:0:
256,192,362492,128,0,362531:0:0:0:0:
182,192,362492,128,0,362571:0:0:0:0:
402,192,362571,1,0,0:0:0:0:
329,192,362571,128,0,362808:0:0:0:0:
475,192,362571,128,0,362729:0:0:0:0:
36,192,362571,128,0,362808:0:0:0:0:
109,192,362650,128,0,362808:0:0:0:0:
256,192,362650,1,0,0:0:0:0:
402,192,362729,128,0,362808:0:0:0:0:
182,192,362729,128,0,362808:0:0:0:0:
475,192,362808,128,0,362887:0:0:0:0:
256,192,362808,128,0,362887:0:0:0:0:
109,192,362887,128,0,362966:0:0:0:0:
36,192,362887,128,0,362926:0:0:0:0:
329,192,362887,1,0,0:0:0:0:
402,192,362887,128,0,363202:0:0:0:0:
182,192,362926,128,0,363005:0:0:0:0:
256,192,362966,128,0,363045:0:0:0:0:
475,192,362966,1,0,0:0:0:0:
329,192,363045,128,0,363123:0:0:0:0:
36,192,363045,1,0,0:0:0:0:
109,192,363045,128,0,363281:0:0:0:0:
475,192,363123,128,0,363281:0:0:0:0:
182,192,363123,128,0,363202:0:0:0:0:
329,192,363202,1,0,0:0:0:0:
256,192,363202,128,0,363281:0:0:0:0:
36,192,363202,128,0,363281:0:0:0:0:
402,192,363281,128,0,363360:0:0:0:0:
182,192,363281,128,0,363360:0:0:0:0:
329,192,363360,128,0,363439:0:0:0:0:
109,192,363360,128,0,363439:0:0:0:0:
36,192,363360,128,0,363597:0:0:0:0:
475,192,363439,128,0,363597:0:0:0:0:
256,192,363439,128,0,363755:0:0:0:0:
402,192,363518,128,0,363597:0:0:0:0:
329,192,363518,128,0,363597:0:0:0:0:
182,192,363518,128,0,363597:0:0:0:0:
109,192,363518,128,0,363597:0:0:0:0:
329,192,363676,128,0,363755:0:0:0:0:
402,192,363676,128,0,363755:0:0:0:0:
475,192,363676,1,0,0:0:0:0:
36,192,363676,1,0,0:0:0:0:
109,192,363676,128,0,363755:0:0:0:0:
182,192,363676,128,0,363755:0:0:0:0:
402,192,363834,128,0,364031:0:0:0:0:
475,192,363834,128,0,363913:0:0:0:0:
182,192,363834,128,0,363952:0:0:0:0:
329,192,363834,1,0,0:0:0:0:
109,192,363873,128,0,363972:0:0:0:0:
36,192,363913,128,0,363992:0:0:0:0:
475,192,363992,1,0,0:0:0:0:
329,192,363992,128,0,364071:0:0:0:0:
256,192,364012,128,0,364110:0:0:0:0:
182,192,364031,128,0,364150:0:0:0:0:
329,192,364150,128,0,364268:0:0:0:0:
36,192,364150,128,0,364347:0:0:0:0:
109,192,364308,128,0,364387:0:0:0:0:
402,192,364308,128,0,364446:0:0:0:0:
182,192,364347,128,0,364505:0:0:0:0:
256,192,364466,128,0,364545:0:0:0:0:
329,192,364505,128,0,364663:0:0:0:0:
109,192,364623,128,0,364762:0:0:0:0:
402,192,364623,128,0,364702:0:0:0:0:
475,192,364663,128,0,365018:0:0:0:0:
256,192,364781,128,0,365018:0:0:0:0:
329,192,364821,128,0,364979:0:0:0:0:
182,192,364821,128,0,364979:0:0:0:0:
36,192,364939,1,0,0:0:0:0:
329,192,365097,128,0,365176:0:0:0:0:
109,192,365097,128,0,365334:0:0:0:0:
256,192,365097,1,0,0:0:0:0:
402,192,365097,128,0,365176:0:0:0:0:
182,192,365255,1,0,0:0:0:0:
36,192,365255,128,0,365413:0:0:0:0:
329,192,365255,128,0,365334:0:0:0:0:
256,192,365255,128,0,365413:0:0:0:0:
402,192,365334,128,0,365373:0:0:0:0:
109,192,365413,128,0,365452:0:0:0:0:
475,192,365413,128,0,365571:0:0:0:0:
329,192,365413,128,0,365452:0:0:0:0:
182,192,365492,128,0,365531:0:0:0:0:
402,192,365492,128,0,365571:0:0:0:0:
109,192,365571,1,0,0:0:0:0:
36,192,365571,1,0,0:0:0:0:
256,192,365571,128,0,365729:0:0:0:0:
475,192,365650,128,0,365847:0:0:0:0:
402,192,365650,128,0,365808:0:0:0:0:
182,192,365650,128,0,365729:0:0:0:0:
329,192,365729,1,0,0:0:0:0:
36,192,365729,128,0,365926:0:0:0:0:
109,192,365729,128,0,365966:0:0:0:0:
256,192,365887,128,0,365926:0:0:0:0:
402,192,365887,1,0,0:0:0:0:
256,192,366045,128,0,366321:0:0:0:0:
36,192,366045,128,0,366143:0:0:0:0:
182,192,366045,128,0,366281:0:0:0:0:
475,192,366045,128,0,366143:0:0:0:0:
329,192,366045,128,0,366281:0:0:0:0:
109,192,366202,128,0,366262:0:0:0:0:
402,192,366202,128,0,366262:0:0:0:0:
36,192,366360,1,0,0:0:0:0:
475,192,366360,1,0,0:0:0:0:
256,192,366400,128,0,366459:0:0:0:0:
475,192,366518,1,0,0:0:0:0:
36,192,366518,1,0,0:0:0:0:
256,192,366558,128,0,366617:0:0:0:0:
475,192,366676,1,0,0:0:0:0:
36,192,366676,1,0,0:0:0:0:
182,192,366676,128,0,366735:0:0:0:0:
109,192,366676,128,0,366854:0:0:0:0:
402,192,366716,128,0,366933:0:0:0:0:
329,192,366755,1,0,0:0:0:0:
256,192,366795,128,0,366893:0:0:0:0:
36,192,366834,128,0,366913:0:0:0:0:
182,192,366873,128,0,366992:0:0:0:0:
329,192,366913,128,0,367071:0:0:0:0:
475,192,366952,128,0,367229:0:0:0:0:
256,192,366992,1,0,0:0:0:0:
36,192,366992,128,0,367189:0:0:0:0:
109,192,367031,128,0,367150:0:0:0:0:
182,192,367071,1,0,0:0:0:0:
256,192,367110,128,0,367367:0:0:0:0:
329,192,367150,128,0,367229:0:0:0:0:
402,192,367189,1,0,0:0:0:0:
182,192,367229,128,0,367308:0:0:0:0:
109,192,367268,1,0,0:0:0:0:
475,192,367308,1,0,0:0:0:0:
36,192,367308,1,0,0:0:0:0:
402,192,367308,128,0,367485:0:0:0:0:
329,192,367347,128,0,367446:0:0:0:0:
109,192,367387,128,0,367545:0:0:0:0:
36,192,367426,128,0,367505:0:0:0:0:
182,192,367466,128,0,367623:0:0:0:0:
256,192,367505,128,0,367584:0:0:0:0:
475,192,367545,1,0,0:0:0:0:
402,192,367584,1,0,0:0:0:0:
329,192,367623,128,0,367781:0:0:0:0:
109,192,367623,1,0,0:0:0:0:
256,192,367663,128,0,367742:0:0:0:0:
402,192,367702,128,0,367860:0:0:0:0:
475,192,367742,128,0,367821:0:0:0:0:
36,192,367781,1,0,0:0:0:0:
109,192,367781,128,0,367959:0:0:0:0:
256,192,367821,1,0,0:0:0:0:
182,192,367860,128,0,367939:0:0:0:0:
36,192,367900,128,0,367979:0:0:0:0:
329,192,367939,128,0,368176:0:0:0:0:
402,192,367939,128,0,367979:0:0:0:0:
475,192,367939,128,0,368176:0:0:0:0:
256,192,367979,128,0,368137:0:0:0:0:
182,192,368018,128,0,368097:0:0:0:0:
109,192,368058,1,0,0:0:0:0:
36,192,368097,1,0,0:0:0:0:
402,192,368097,1,0,0:0:0:0:
109,192,368176,1,0,0:0:0:0:
475,192,368255,128,0,368492:0:0:0:0:
36,192,368255,128,0,368492:0:0:0:0:
329,192,368255,128,0,368373:0:0:0:0:
402,192,368255,128,0,368413:0:0:0:0:
182,192,368255,128,0,368334:0:0:0:0:
256,192,368255,128,0,368650:0:0:0:0:
109,192,368413,128,0,368492:0:0:0:0:
182,192,368433,128,0,368492:0:0:0:0:
329,192,368472,128,0,368610:0:0:0:0:
109,192,368571,128,0,368827:0:0:0:0:
402,192,368571,128,0,368827:0:0:0:0:
36,192,368571,128,0,368650:0:0:0:0:
475,192,368571,1,0,0:0:0:0:
182,192,368571,128,0,368689:0:0:0:0:
475,192,368709,128,0,368827:0:0:0:0:
329,192,368729,128,0,368827:0:0:0:0:
36,192,368729,1,0,0:0:0:0:
256,192,368748,128,0,368827:0:0:0:0:
182,192,368768,1,0,0:0:0:0:
402,192,368887,1,0,0:0:0:0:
475,192,368887,1,0,0:0:0:0:
329,192,368887,128,0,369123:0:0:0:0:
109,192,368887,1,0,0:0:0:0:
182,192,368926,128,0,369163:0:0:0:0:
36,192,368966,128,0,369045:0:0:0:0:
402,192,369045,128,0,369104:0:0:0:0:
256,192,369084,1,0,0:0:0:0:
109,192,369123,128,0,369183:0:0:0:0:
36,192,369202,1,0,0:0:0:0:
475,192,369202,1,0,0:0:0:0:
329,192,369202,128,0,369262:0:0:0:0:
402,192,369202,128,0,369380:0:0:0:0:
109,192,369242,128,0,369459:0:0:0:0:
182,192,369281,1,0,0:0:0:0:
256,192,369321,128,0,369420:0:0:0:0:
475,192,369360,128,0,369439:0:0:0:0:
329,192,369400,128,0,369518:0:0:0:0:
182,192,369439,128,0,369597:0:0:0:0:
36,192,369479,128,0,369755:0:0:0:0:
256,192,369518,1,0,0:0:0:0:
475,192,369518,128,0,369696:0:0:0:0:
402,192,369558,128,0,369676:0:0:0:0:
329,192,369597,128,0,369656:0:0:0:0:
256,192,369637,1,0,0:0:0:0:
109,192,369676,128,0,369795:0:0:0:0:
182,192,369716,128,0,369834:0:0:0:0:
256,192,369755,128,0,369913:0:0:0:0:
329,192,369795,128,0,370012:0:0:0:0:
402,192,369834,1,0,0:0:0:0:
36,192,369834,1,0,0:0:0:0:
475,192,369834,128,0,369972:0:0:0:0:
109,192,369873,1,0,0:0:0:0:
182,192,369913,128,0,370051:0:0:0:0:
36,192,369952,1,0,0:0:0:0:
402,192,369992,128,0,370051:0:0:0:0:
256,192,370031,128,0,370091:0:0:0:0:
109,192,370071,128,0,370130:0:0:0:0:
329,192,370110,128,0,370150:0:0:0:0:
182,192,370150,128,0,370189:0:0:0:0:
36,192,370150,128,0,370466:0:0:0:0:
109,192,370308,128,0,370347:0:0:0:0:
475,192,370308,1,0,0:0:0:0:
402,192,370347,1,0,0:0:0:0:
329,192,370387,1,0,0:0:0:0:
402,192,370466,128,0,370781:0:0:0:0:
256,192,370466,128,0,370702:0:0:0:0:
182,192,370485,128,0,370604:0:0:0:0:
109,192,370505,128,0,370564:0:0:0:0:
36,192,370623,1,0,0:0:0:0:
109,192,370663,1,0,0:0:0:0:
182,192,370702,128,0,370781:0:0:0:0:
329,192,370781,1,0,0:0:0:0:
109,192,370781,128,0,371196:0:0:0:0:
475,192,370939,128,0,371018:0:0:0:0:
329,192,370939,128,0,371176:0:0:0:0:
256,192,371018,1,0,0:0:0:0:
402,192,371077,128,0,371196:0:0:0:0:
182,192,371097,128,0,371196:0:0:0:0:
36,192,371097,128,0,371196:0:0:0:0:
475,192,371097,128,0,371334:0:0:0:0:
36,192,371255,1,0,0:0:0:0:
109,192,371255,128,0,371295:0:0:0:0:
182,192,371255,128,0,371295:0:0:0:0:
256,192,371255,128,0,371531:0:0:0:0:
36,192,371413,1,0,0:0:0:0:
182,192,371413,128,0,371492:0:0:0:0:
329,192,371413,128,0,371571:0:0:0:0:
402,192,371452,128,0,371650:0:0:0:0:
475,192,371492,128,0,371729:0:0:0:0:
36,192,371571,128,0,371768:0:0:0:0:
109,192,371610,128,0,371709:0:0:0:0:
182,192,371650,1,0,0:0:0:0:
256,192,371729,128,0,371946:0:0:0:0:
402,192,371729,1,0,0:0:0:0:
182,192,371768,1,0,0:0:0:0:
109,192,371808,128,0,371985:0:0:0:0:
36,192,371847,1,0,0:0:0:0:
475,192,371887,1,0,0:0:0:0:
329,192,371926,128,0,372104:0:0:0:0:
182,192,371966,128,0,372064:0:0:0:0:
36,192,372005,1,0,0:0:0:0:
109,192,372045,1,0,0:0:0:0:
256,192,372084,128,0,372262:0:0:0:0:
402,192,372123,128,0,372301:0:0:0:0:
475,192,372163,1,0,0:0:0:0:
109,192,372202,1,0,0:0:0:0:
182,192,372242,1,0,0:0:0:0:
329,192,372281,128,0,372439:0:0:0:0:
475,192,372321,128,0,372577:0:0:0:0:
256,192,372360,1,0,0:0:0:0:
36,192,372360,1,0,0:0:0:0:
182,192,372400,128,0,372518:0:0:0:0:
109,192,372439,128,0,372597:0:0:0:0:
36,192,372479,128,0,372913:0:0:0:0:
402,192,372518,128,0,372597:0:0:0:0:
329,192,372558,128,0,372617:0:0:0:0:
256,192,372597,128,0,372637:0:0:0:0:
182,192,372637,1,0,0:0:0:0:
402,192,372676,1,0,0:0:0:0:
256,192,372729,1,0,0:0:0:0:
109,192,372781,1,0,0:0:0:0:
182,192,372834,128,0,372952:0:0:0:0:
256,192,372873,128,0,372972:0:0:0:0:
329,192,372913,128,0,372992:0:0:0:0:
402,192,372952,1,0,0:0:0:0:
36,192,372992,128,0,373071:0:0:0:0:
475,192,372992,128,0,373110:0:0:0:0:
109,192,373012,128,0,373150:0:0:0:0:
182,192,373031,128,0,373229:0:0:0:0:
256,192,373071,1,0,0:0:0:0:
402,192,373150,128,0,373189:0:0:0:0:
329,192,373229,128,0,373268:0:0:0:0:
256,192,373308,128,0,373387:0:0:0:0:
36,192,373308,1,0,0:0:0:0:
109,192,373308,128,0,373742:0:0:0:0:
256,192,373466,128,0,373545:0:0:0:0:
329,192,373466,128,0,373545:0:0:0:0:
36,192,373466,1,0,0:0:0:0:
329,192,373623,128,0,373702:0:0:0:0:
402,192,373623,128,0,373702:0:0:0:0:
36,192,373623,1,0,0:0:0:0:
256,192,373623,128,0,373860:0:0:0:0:
182,192,373623,1,0,0:0:0:0:
329,192,373781,128,0,373860:0:0:0:0:
402,192,373781,128,0,373860:0:0:0:0:
475,192,373781,128,0,373860:0:0:0:0:
109,192,373821,128,0,373979:0:0:0:0:
36,192,373939,128,0,374176:0:0:0:0:
402,192,373939,1,0,0:0:0:0:
475,192,373939,128,0,374176:0:0:0:0:
256,192,373979,128,0,374137:0:0:0:0:
329,192,374097,128,0,374295:0:0:0:0:
182,192,374137,128,0,374334:0:0:0:0:
36,192,374255,128,0,374492:0:0:0:0:
256,192,374295,128,0,374847:0:0:0:0:
402,192,374413,128,0,374571:0:0:0:0:
109,192,374452,128,0,374650:0:0:0:0:
402,192,374729,128,0,374966:0:0:0:0:
109,192,374729,128,0,374966:0:0:0:0:
475,192,374887,128,0,375123:0:0:0:0:
256,192,374926,128,0,375183:0:0:0:0:
329,192,375045,128,0,375123:0:0:0:0:
182,192,375084,128,0,375242:0:0:0:0:
36,192,375202,1,0,0:0:0:0:
109,192,375202,1,0,0:0:0:0:
475,192,375202,128,0,375281:0:0:0:0:
329,192,375202,128,0,375281:0:0:0:0:
256,192,375360,128,0,375439:0:0:0:0:
329,192,375360,128,0,375518:0:0:0:0:
36,192,375360,128,0,375676:0:0:0:0:
475,192,375360,128,0,375597:0:0:0:0:
182,192,375439,128,0,375479:0:0:0:0:
256,192,375518,128,0,375558:0:0:0:0:
109,192,375518,128,0,375676:0:0:0:0:
182,192,375597,128,0,375676:0:0:0:0:
402,192,375597,128,0,375637:0:0:0:0:
329,192,375676,128,0,375755:0:0:0:0:
475,192,375676,128,0,375755:0:0:0:0:
256,192,375676,1,0,0:0:0:0:
182,192,375755,128,0,375834:0:0:0:0:
36,192,375755,128,0,375834:0:0:0:0:
109,192,375755,1,0,0:0:0:0:
475,192,375834,128,0,375913:0:0:0:0:
402,192,375834,128,0,376071:0:0:0:0:
256,192,375834,128,0,376071:0:0:0:0:
475,192,375992,1,0,0:0:0:0:
109,192,375992,128,0,376031:0:0:0:0:
109,192,376150,128,0,376347:0:0:0:0:
256,192,376150,128,0,376387:0:0:0:0:
402,192,376150,128,0,376347:0:0:0:0:
36,192,376150,1,0,0:0:0:0:
182,192,376150,1,0,0:0:0:0:
329,192,376308,1,0,0:0:0:0:
475,192,376308,1,0,0:0:0:0:
329,192,376466,1,0,0:0:0:0:
475,192,376466,1,0,0:0:0:0:
182,192,376466,1,0,0:0:0:0:
109,192,376466,1,0,0:0:0:0:
36,192,376466,1,0,0:0:0:0:
182,192,376623,1,0,0:0:0:0:
36,192,376623,1,0,0:0:0:0:
329,192,376623,1,0,0:0:0:0:
109,192,376623,1,0,0:0:0:0:
36,192,376781,1,0,0:0:0:0:
256,192,376781,1,0,0:0:0:0:
402,192,376781,1,0,0:0:0:0:
475,192,376781,1,0,0:0:0:0:
329,192,376860,1,0,0:0:0:0:
109,192,376860,1,0,0:0:0:0:
182,192,376939,1,0,0:0:0:0:
36,192,376939,1,0,0:0:0:0:
402,192,376939,1,0,0:0:0:0:
329,192,377018,1,0,0:0:0:0:
256,192,377018,1,0,0:0:0:0:
109,192,377097,1,0,0:0:0:0:
36,192,377097,1,0,0:0:0:0:
475,192,377097,1,0,0:0:0:0:
402,192,377176,1,0,0:0:0:0:
256,192,377176,1,0,0:0:0:0:
182,192,377255,1,0,0:0:0:0:
109,192,377255,1,0,0:0:0:0:
475,192,377255,1,0,0:0:0:0:
329,192,377334,1,0,0:0:0:0:
256,192,377334,1,0,0:0:0:0:
36,192,377413,1,0,0:0:0:0:
402,192,377413,1,0,0:0:0:0:
475,192,377413,1,0,0:0:0:0:
182,192,377413,1,0,0:0:0:0:
109,192,377492,1,0,0:0:0:0:
329,192,377492,1,0,0:0:0:0:
256,192,377571,1,0,0:0:0:0:
36,192,377571,1,0,0:0:0:0:
402,192,377571,1,0,0:0:0:0:
329,192,377650,1,0,0:0:0:0:
182,192,377650,1,0,0:0:0:0:
256,192,377729,1,0,0:0:0:0:
109,192,377729,1,0,0:0:0:0:
36,192,377729,1,0,0:0:0:0:
475,192,377729,1,0,0:0:0:0:
182,192,377808,1,0,0:0:0:0:
402,192,377808,1,0,0:0:0:0:
256,192,377887,1,0,0:0:0:0:
109,192,377887,1,0,0:0:0:0:
329,192,377887,1,0,0:0:0:0:
475,192,377966,1,0,0:0:0:0:
182,192,377966,1,0,0:0:0:0:
329,192,378045,1,0,0:0:0:0:
109,192,378045,1,0,0:0:0:0:
36,192,378045,1,0,0:0:0:0:
402,192,378045,1,0,0:0:0:0:
256,192,378123,1,0,0:0:0:0:
475,192,378123,1,0,0:0:0:0:
402,192,378202,1,0,0:0:0:0:
182,192,378202,1,0,0:0:0:0:
36,192,378202,1,0,0:0:0:0:
109,192,378281,1,0,0:0:0:0:
329,192,378281,1,0,0:0:0:0:
182,192,378360,1,0,0:0:0:0:
256,192,378360,1,0,0:0:0:0:
475,192,378360,1,0,0:0:0:0:
402,192,378360,1,0,0:0:0:0:
329,192,378439,1,0,0:0:0:0:
36,192,378439,1,0,0:0:0:0:
182,192,378518,1,0,0:0:0:0:
475,192,378518,1,0,0:0:0:0:
402,192,378518,1,0,0:0:0:0:
256,192,378597,1,0,0:0:0:0:
109,192,378597,1,0,0:0:0:0:
182,192,378676,1,0,0:0:0:0:
329,192,378676,1,0,0:0:0:0:
36,192,378676,1,0,0:0:0:0:
475,192,378676,1,0,0:0:0:0:
402,192,378755,1,0,0:0:0:0:
256,192,378834,1,0,0:0:0:0:
109,192,378834,1,0,0:0:0:0:
475,192,378834,1,0,0:0:0:0:
36,192,378834,1,0,0:0:0:0:
329,192,378913,1,0,0:0:0:0:
256,192,378992,1,0,0:0:0:0:
109,192,378992,1,0,0:0:0:0:
475,192,378992,1,0,0:0:0:0:
182,192,378992,1,0,0:0:0:0:
329,192,379071,1,0,0:0:0:0:
36,192,379071,1,0,0:0:0:0:
402,192,379150,1,0,0:0:0:0:
109,192,379150,1,0,0:0:0:0:
329,192,379229,1,0,0:0:0:0:
182,192,379229,1,0,0:0:0:0:
256,192,379308,1,0,0:0:0:0:
109,192,379308,1,0,0:0:0:0:
36,192,379308,1,0,0:0:0:0:
475,192,379308,1,0,0:0:0:0:
329,192,379387,1,0,0:0:0:0:
182,192,379387,1,0,0:0:0:0:
256,192,379466,1,0,0:0:0:0:
36,192,379466,1,0,0:0:0:0:
402,192,379466,1,0,0:0:0:0:
329,192,379545,1,0,0:0:0:0:
109,192,379545,1,0,0:0:0:0:
182,192,379623,1,0,0:0:0:0:
36,192,379623,1,0,0:0:0:0:
402,192,379623,1,0,0:0:0:0:
475,192,379623,1,0,0:0:0:0:
256,192,379702,1,0,0:0:0:0:
109,192,379702,1,0,0:0:0:0:
182,192,379781,1,0,0:0:0:0:
329,192,379781,1,0,0:0:0:0:
475,192,379781,1,0,0:0:0:0:
256,192,379860,1,0,0:0:0:0:
109,192,379860,1,0,0:0:0:0:
182,192,379939,1,0,0:0:0:0:
36,192,379939,1,0,0:0:0:0:
402,192,379939,1,0,0:0:0:0:
475,192,379939,1,0,0:0:0:0:
329,192,380018,1,0,0:0:0:0:
256,192,380018,1,0,0:0:0:0:
109,192,380097,1,0,0:0:0:0:
36,192,380097,1,0,0:0:0:0:
402,192,380097,1,0,0:0:0:0:
329,192,380176,1,0,0:0:0:0:
182,192,380176,1,0,0:0:0:0:
475,192,380255,1,0,0:0:0:0:
36,192,380255,1,0,0:0:0:0:
109,192,380255,128,0,380887:0:0:0:0:
256,192,380255,1,0,0:0:0:0:
402,192,380295,1,0,0:0:0:0:
329,192,380334,1,0,0:0:0:0:
182,192,380413,1,0,0:0:0:0:
256,192,380452,1,0,0:0:0:0:
329,192,380492,1,0,0:0:0:0:
36,192,380571,1,0,0:0:0:0:
182,192,380571,1,0,0:0:0:0:
329,192,380650,1,0,0:0:0:0:
256,192,380729,1,0,0:0:0:0:
36,192,380729,128,0,380887:0:0:0:0:
402,192,380729,128,0,380847:0:0:0:0:
475,192,380729,128,0,380847:0:0:0:0:
329,192,380887,1,0,0:0:0:0:
256,192,380926,1,0,0:0:0:0:
182,192,380966,1,0,0:0:0:0:
329,192,381045,1,0,0:0:0:0:
402,192,381045,1,0,0:0:0:0:
475,192,381045,1,0,0:0:0:0:
36,192,381045,1,0,0:0:0:0:
109,192,381084,1,0,0:0:0:0:
182,192,381123,1,0,0:0:0:0:
256,192,381202,1,0,0:0:0:0:
475,192,381202,1,0,0:0:0:0:
402,192,381281,1,0,0:0:0:0:
109,192,381281,1,0,0:0:0:0:
182,192,381360,1,0,0:0:0:0:
36,192,381360,1,0,0:0:0:0:
256,192,381400,1,0,0:0:0:0:
402,192,381439,1,0,0:0:0:0:
475,192,381479,1,0,0:0:0:0:
36,192,381518,1,0,0:0:0:0:
329,192,381518,1,0,0:0:0:0:
182,192,381518,1,0,0:0:0:0:
109,192,381518,1,0,0:0:0:0:
329,192,381676,1,0,0:0:0:0:
36,192,381676,1,0,0:0:0:0:
182,192,381676,1,0,0:0:0:0:
109,192,381676,1,0,0:0:0:0:
475,192,381834,1,0,0:0:0:0:
256,192,381834,1,0,0:0:0:0:
109,192,381834,1,0,0:0:0:0:
36,192,381834,1,0,0:0:0:0:
182,192,381913,1,0,0:0:0:0:
402,192,381913,1,0,0:0:0:0:
329,192,381992,1,0,0:0:0:0:
475,192,381992,1,0,0:0:0:0:
109,192,381992,1,0,0:0:0:0:
182,192,382071,1,0,0:0:0:0:
256,192,382071,1,0,0:0:0:0:
402,192,382150,1,0,0:0:0:0:
475,192,382150,1,0,0:0:0:0:
36,192,382150,1,0,0:0:0:0:
109,192,382229,1,0,0:0:0:0:
256,192,382229,1,0,0:0:0:0:
329,192,382308,1,0,0:0:0:0:
402,192,382308,1,0,0:0:0:0:
36,192,382308,1,0,0:0:0:0:
182,192,382387,1,0,0:0:0:0:
256,192,382387,1,0,0:0:0:0:
475,192,382466,1,0,0:0:0:0:
109,192,382466,1,0,0:0:0:0:
36,192,382466,1,0,0:0:0:0:
329,192,382466,1,0,0:0:0:0:
402,192,382545,1,0,0:0:0:0:
182,192,382545,1,0,0:0:0:0:
256,192,382623,1,0,0:0:0:0:
475,192,382623,1,0,0:0:0:0:
109,192,382623,1,0,0:0:0:0:
182,192,382702,1,0,0:0:0:0:
329,192,382702,1,0,0:0:0:0:
256,192,382781,1,0,0:0:0:0:
402,192,382781,1,0,0:0:0:0:
475,192,382781,1,0,0:0:0:0:
36,192,382781,1,0,0:0:0:0:
329,192,382860,1,0,0:0:0:0:
109,192,382860,1,0,0:0:0:0:
256,192,382939,1,0,0:0:0:0:
402,192,382939,1,0,0:0:0:0:
182,192,382939,1,0,0:0:0:0:
36,192,383018,1,0,0:0:0:0:
329,192,383018,1,0,0:0:0:0:
182,192,383097,1,0,0:0:0:0:
402,192,383097,1,0,0:0:0:0:
475,192,383097,1,0,0:0:0:0:
109,192,383097,1,0,0:0:0:0:
256,192,383176,1,0,0:0:0:0:
36,192,383176,1,0,0:0:0:0:
109,192,383255,1,0,0:0:0:0:
329,192,383255,1,0,0:0:0:0:
475,192,383255,1,0,0:0:0:0:
402,192,383334,1,0,0:0:0:0:
182,192,383334,1,0,0:0:0:0:
329,192,383413,1,0,0:0:0:0:
256,192,383413,1,0,0:0:0:0:
36,192,383413,1,0,0:0:0:0:
109,192,383413,1,0,0:0:0:0:
182,192,383492,1,0,0:0:0:0:
475,192,383492,1,0,0:0:0:0:
329,192,383571,1,0,0:0:0:0:
36,192,383571,1,0,0:0:0:0:
109,192,383571,1,0,0:0:0:0:
256,192,383650,1,0,0:0:0:0:
402,192,383650,1,0,0:0:0:0:
329,192,383729,1,0,0:0:0:0:
182,192,383729,1,0,0:0:0:0:
475,192,383729,1,0,0:0:0:0:
36,192,383729,1,0,0:0:0:0:
109,192,383808,1,0,0:0:0:0:
256,192,383887,1,0,0:0:0:0:
402,192,383887,1,0,0:0:0:0:
36,192,383887,1,0,0:0:0:0:
475,192,383887,1,0,0:0:0:0:
182,192,383966,1,0,0:0:0:0:
256,192,384045,1,0,0:0:0:0:
402,192,384045,1,0,0:0:0:0:
36,192,384045,1,0,0:0:0:0:
329,192,384045,1,0,0:0:0:0:
182,192,384123,1,0,0:0:0:0:
475,192,384123,1,0,0:0:0:0:
109,192,384202,1,0,0:0:0:0:
402,192,384202,1,0,0:0:0:0:
182,192,384281,1,0,0:0:0:0:
329,192,384281,1,0,0:0:0:0:
256,192,384360,1,0,0:0:0:0:
402,192,384360,1,0,0:0:0:0:
475,192,384360,1,0,0:0:0:0:
36,192,384360,1,0,0:0:0:0:
182,192,384439,1,0,0:0:0:0:
329,192,384439,1,0,0:0:0:0:
256,192,384518,1,0,0:0:0:0:
475,192,384518,1,0,0:0:0:0:
109,192,384518,1,0,0:0:0:0:
182,192,384597,1,0,0:0:0:0:
402,192,384597,1,0,0:0:0:0:
329,192,384676,1,0,0:0:0:0:
475,192,384676,1,0,0:0:0:0:
109,192,384676,1,0,0:0:0:0:
36,192,384676,1,0,0:0:0:0:
256,192,384755,1,0,0:0:0:0:
402,192,384755,1,0,0:0:0:0:
329,192,384834,1,0,0:0:0:0:
182,192,384834,1,0,0:0:0:0:
36,192,384834,1,0,0:0:0:0:
256,192,384913,1,0,0:0:0:0:
402,192,384913,1,0,0:0:0:0:
329,192,384992,1,0,0:0:0:0:
475,192,384992,1,0,0:0:0:0:
109,192,384992,1,0,0:0:0:0:
36,192,384992,1,0,0:0:0:0:
182,192,385071,1,0,0:0:0:0:
256,192,385071,1,0,0:0:0:0:
402,192,385150,1,0,0:0:0:0:
475,192,385150,1,0,0:0:0:0:
109,192,385150,1,0,0:0:0:0:
182,192,385229,1,0,0:0:0:0:
329,192,385229,1,0,0:0:0:0:
402,192,385308,1,0,0:0:0:0:
36,192,385308,1,0,0:0:0:0:
256,192,385308,1,0,0:0:0:0:
109,192,385308,1,0,0:0:0:0:
475,192,385387,1,0,0:0:0:0:
182,192,385387,1,0,0:0:0:0:
402,192,385466,1,0,0:0:0:0:
109,192,385466,1,0,0:0:0:0:
329,192,385545,1,0,0:0:0:0:
36,192,385545,1,0,0:0:0:0:
256,192,385623,1,0,0:0:0:0:
475,192,385623,1,0,0:0:0:0:
182,192,385623,1,0,0:0:0:0:
402,192,385623,1,0,0:0:0:0:
109,192,385702,1,0,0:0:0:0:
256,192,385781,1,0,0:0:0:0:
475,192,385781,1,0,0:0:0:0:
402,192,385781,1,0,0:0:0:0:
182,192,385781,1,0,0:0:0:0:
109,192,385860,1,0,0:0:0:0:
36,192,385939,1,0,0:0:0:0:
402,192,385939,1,0,0:0:0:0:
475,192,385939,1,0,0:0:0:0:
182,192,385939,1,0,0:0:0:0:
329,192,385939,1,0,0:0:0:0:
109,192,386097,1,0,0:0:0:0:
256,192,386097,1,0,0:0:0:0:
329,192,386176,1,0,0:0:0:0:
402,192,386176,1,0,0:0:0:0:
256,192,386255,1,0,0:0:0:0:
109,192,386255,1,0,0:0:0:0:
256,192,386413,1,0,0:0:0:0:
329,192,386413,1,0,0:0:0:0:
475,192,386413,1,0,0:0:0:0:
109,192,386492,1,0,0:0:0:0:
36,192,386492,1,0,0:0:0:0:
182,192,386571,1,0,0:0:0:0:
402,192,386571,128,0,386650:0:0:0:0:
475,192,386571,128,0,386650:0:0:0:0:
256,192,386571,128,0,386887:0:0:0:0:
182,192,386729,1,0,0:0:0:0:
475,192,386729,1,0,0:0:0:0:
402,192,386729,1,0,0:0:0:0:
329,192,386729,1,0,0:0:0:0:
475,192,386887,1,0,0:0:0:0:
109,192,386887,1,0,0:0:0:0:
36,192,386887,1,0,0:0:0:0:
329,192,386887,1,0,0:0:0:0:
256,192,386966,1,0,0:0:0:0:
182,192,387045,1,0,0:0:0:0:
36,192,387045,1,0,0:0:0:0:
402,192,387045,1,0,0:0:0:0:
109,192,387123,1,0,0:0:0:0:
402,192,387123,1,0,0:0:0:0:
36,192,387202,1,0,0:0:0:0:
475,192,387202,1,0,0:0:0:0:
256,192,387202,1,0,0:0:0:0:
329,192,387281,1,0,0:0:0:0:
182,192,387281,1,0,0:0:0:0:
109,192,387360,1,0,0:0:0:0:
475,192,387360,1,0,0:0:0:0:
329,192,387439,1,0,0:0:0:0:
256,192,387439,1,0,0:0:0:0:
182,192,387439,1,0,0:0:0:0:
109,192,387518,1,0,0:0:0:0:
36,192,387518,1,0,0:0:0:0:
402,192,387518,1,0,0:0:0:0:
475,192,387518,1,0,0:0:0:0:
256,192,387597,1,0,0:0:0:0:
329,192,387676,1,0,0:0:0:0:
36,192,387676,1,0,0:0:0:0:
182,192,387676,1,0,0:0:0:0:
402,192,387755,1,0,0:0:0:0:
182,192,387755,1,0,0:0:0:0:
36,192,387834,1,0,0:0:0:0:
256,192,387834,1,0,0:0:0:0:
475,192,387834,1,0,0:0:0:0:
109,192,387913,1,0,0:0:0:0:
329,192,387913,1,0,0:0:0:0:
256,192,387992,1,0,0:0:0:0:
402,192,387992,1,0,0:0:0:0:
182,192,388071,1,0,0:0:0:0:
109,192,388071,1,0,0:0:0:0:
36,192,388071,1,0,0:0:0:0:
256,192,388150,1,0,0:0:0:0:
329,192,388150,1,0,0:0:0:0:
402,192,388150,1,0,0:0:0:0:
475,192,388150,1,0,0:0:0:0:
36,192,388229,1,0,0:0:0:0:
182,192,388308,1,0,0:0:0:0:
329,192,388308,1,0,0:0:0:0:
475,192,388308,1,0,0:0:0:0:
109,192,388387,1,0,0:0:0:0:
329,192,388387,1,0,0:0:0:0:
182,192,388466,1,0,0:0:0:0:
36,192,388466,1,0,0:0:0:0:
256,192,388466,1,0,0:0:0:0:
329,192,388545,1,0,0:0:0:0:
402,192,388545,1,0,0:0:0:0:
109,192,388623,1,0,0:0:0:0:
475,192,388623,1,0,0:0:0:0:
402,192,388702,1,0,0:0:0:0:
329,192,388702,1,0,0:0:0:0:
256,192,388702,1,0,0:0:0:0:
182,192,388781,1,0,0:0:0:0:
109,192,388781,1,0,0:0:0:0:
36,192,388781,1,0,0:0:0:0:
475,192,388781,1,0,0:0:0:0:
329,192,388860,1,0,0:0:0:0:
109,192,388939,1,0,0:0:0:0:
36,192,388939,1,0,0:0:0:0:
256,192,388939,1,0,0:0:0:0:
475,192,388939,1,0,0:0:0:0:
402,192,389018,1,0,0:0:0:0:
109,192,389018,1,0,0:0:0:0:
329,192,389097,1,0,0:0:0:0:
36,192,389097,1,0,0:0:0:0:
182,192,389097,1,0,0:0:0:0:
256,192,389176,1,0,0:0:0:0:
402,192,389176,1,0,0:0:0:0:
475,192,389255,1,0,0:0:0:0:
329,192,389255,1,0,0:0:0:0:
256,192,389334,1,0,0:0:0:0:
182,192,389334,1,0,0:0:0:0:
109,192,389334,1,0,0:0:0:0:
36,192,389413,1,0,0:0:0:0:
329,192,389413,1,0,0:0:0:0:
402,192,389413,1,0,0:0:0:0:
475,192,389413,1,0,0:0:0:0:
182,192,389492,1,0,0:0:0:0:
256,192,389571,1,0,0:0:0:0:
402,192,389571,1,0,0:0:0:0:
36,192,389571,1,0,0:0:0:0:
475,192,389650,1,0,0:0:0:0:
36,192,389650,1,0,0:0:0:0:
402,192,389729,1,0,0:0:0:0:
182,192,389729,1,0,0:0:0:0:
109,192,389729,1,0,0:0:0:0:
329,192,389808,1,0,0:0:0:0:
36,192,389808,1,0,0:0:0:0:
109,192,389887,1,0,0:0:0:0:
256,192,389887,1,0,0:0:0:0:
402,192,389966,1,0,0:0:0:0:
475,192,389966,1,0,0:0:0:0:
329,192,389966,1,0,0:0:0:0:
256,192,390045,1,0,0:0:0:0:
182,192,390045,1,0,0:0:0:0:
109,192,390045,1,0,0:0:0:0:
36,192,390045,1,0,0:0:0:0:
402,192,390123,1,0,0:0:0:0:
475,192,390202,1,0,0:0:0:0:
36,192,390202,1,0,0:0:0:0:
256,192,390202,1,0,0:0:0:0:
109,192,390281,1,0,0:0:0:0:
256,192,390281,1,0,0:0:0:0:
475,192,390360,1,0,0:0:0:0:
36,192,390360,1,0,0:0:0:0:
182,192,390360,1,0,0:0:0:0:
329,192,390400,1,0,0:0:0:0:
402,192,390439,1,0,0:0:0:0:
109,192,390518,1,0,0:0:0:0:
182,192,390558,1,0,0:0:0:0:
256,192,390597,1,0,0:0:0:0:
109,192,390676,1,0,0:0:0:0:
475,192,390676,1,0,0:0:0:0:
256,192,390755,1,0,0:0:0:0:
402,192,390834,1,0,0:0:0:0:
36,192,390834,128,0,390992:0:0:0:0:
182,192,390834,128,0,390992:0:0:0:0:
329,192,390834,128,0,390952:0:0:0:0:
475,192,390834,128,0,390952:0:0:0:0:
402,192,390992,1,0,0:0:0:0:
329,192,391031,1,0,0:0:0:0:
256,192,391071,1,0,0:0:0:0:
402,192,391150,1,0,0:0:0:0:
109,192,391150,1,0,0:0:0:0:
36,192,391150,1,0,0:0:0:0:
475,192,391150,1,0,0:0:0:0:
182,192,391189,1,0,0:0:0:0:
256,192,391229,1,0,0:0:0:0:
329,192,391308,1,0,0:0:0:0:
475,192,391308,1,0,0:0:0:0:
109,192,391387,1,0,0:0:0:0:
402,192,391387,1,0,0:0:0:0:
329,192,391466,1,0,0:0:0:0:
256,192,391505,1,0,0:0:0:0:
109,192,391545,1,0,0:0:0:0:
36,192,391584,1,0,0:0:0:0:
182,192,391623,1,0,0:0:0:0:
329,192,391623,1,0,0:0:0:0:
402,192,391623,1,0,0:0:0:0:
475,192,391623,1,0,0:0:0:0:
182,192,391781,1,0,0:0:0:0:
402,192,391781,1,0,0:0:0:0:
475,192,391781,1,0,0:0:0:0:
329,192,391781,1,0,0:0:0:0:
256,192,391939,1,0,0:0:0:0:
109,192,391939,1,0,0:0:0:0:
36,192,391939,1,0,0:0:0:0:
475,192,391939,1,0,0:0:0:0:
182,192,391939,1,0,0:0:0:0:
402,192,392018,1,0,0:0:0:0:
329,192,392097,1,0,0:0:0:0:
182,192,392097,1,0,0:0:0:0:
109,192,392097,1,0,0:0:0:0:
36,192,392097,1,0,0:0:0:0:
402,192,392176,1,0,0:0:0:0:
256,192,392255,1,0,0:0:0:0:
182,192,392255,1,0,0:0:0:0:
109,192,392255,1,0,0:0:0:0:
475,192,392255,1,0,0:0:0:0:
402,192,392334,1,0,0:0:0:0:
182,192,392413,1,0,0:0:0:0:
36,192,392413,1,0,0:0:0:0:
256,192,392413,1,0,0:0:0:0:
329,192,392413,1,0,0:0:0:0:
109,192,392492,1,0,0:0:0:0:
402,192,392571,1,0,0:0:0:0:
329,192,392571,1,0,0:0:0:0:
256,192,392571,1,0,0:0:0:0:
36,192,392571,1,0,0:0:0:0:
475,192,392571,1,0,0:0:0:0:
109,192,392650,1,0,0:0:0:0:
329,192,392729,1,0,0:0:0:0:
475,192,392729,1,0,0:0:0:0:
402,192,392729,1,0,0:0:0:0:
182,192,392729,1,0,0:0:0:0:
109,192,392808,1,0,0:0:0:0:
182,192,392887,1,0,0:0:0:0:
256,192,392887,1,0,0:0:0:0:
329,192,392887,1,0,0:0:0:0:
475,192,392887,1,0,0:0:0:0:
36,192,392966,1,0,0:0:0:0:
109,192,393045,1,0,0:0:0:0:
256,192,393045,1,0,0:0:0:0:
402,192,393045,1,0,0:0:0:0:
182,192,393045,1,0,0:0:0:0:
475,192,393123,1,0,0:0:0:0:
329,192,393202,1,0,0:0:0:0:
109,192,393202,1,0,0:0:0:0:
36,192,393202,1,0,0:0:0:0:
182,192,393202,1,0,0:0:0:0:
256,192,393202,1,0,0:0:0:0:
402,192,393281,1,0,0:0:0:0:
109,192,393360,1,0,0:0:0:0:
36,192,393360,1,0,0:0:0:0:
256,192,393360,1,0,0:0:0:0:
475,192,393360,1,0,0:0:0:0:
402,192,393439,1,0,0:0:0:0:
329,192,393518,1,0,0:0:0:0:
475,192,393518,1,0,0:0:0:0:
182,192,393518,1,0,0:0:0:0:
36,192,393518,1,0,0:0:0:0:
109,192,393597,1,0,0:0:0:0:
256,192,393676,1,0,0:0:0:0:
402,192,393676,1,0,0:0:0:0:
475,192,393676,1,0,0:0:0:0:
36,192,393676,1,0,0:0:0:0:
109,192,393755,1,0,0:0:0:0:
182,192,393834,1,0,0:0:0:0:
329,192,393834,1,0,0:0:0:0:
402,192,393834,1,0,0:0:0:0:
475,192,393834,1,0,0:0:0:0:
256,192,393834,1,0,0:0:0:0:
109,192,393913,1,0,0:0:0:0:
182,192,393992,1,0,0:0:0:0:
36,192,393992,1,0,0:0:0:0:
475,192,393992,1,0,0:0:0:0:
329,192,393992,1,0,0:0:0:0:
256,192,394071,1,0,0:0:0:0:
182,192,394150,1,0,0:0:0:0:
36,192,394150,1,0,0:0:0:0:
109,192,394150,1,0,0:0:0:0:
475,192,394150,1,0,0:0:0:0:
329,192,394229,1,0,0:0:0:0:
256,192,394308,1,0,0:0:0:0:
36,192,394308,1,0,0:0:0:0:
182,192,394387,1,0,0:0:0:0:
109,192,394426,1,0,0:0:0:0:
36,192,394466,1,0,0:0:0:0:
402,192,394466,1,0,0:0:0:0:
475,192,394466,1,0,0:0:0:0:
329,192,394466,1,0,0:0:0:0:
182,192,394545,1,0,0:0:0:0:
256,192,394623,1,0,0:0:0:0:
475,192,394623,1,0,0:0:0:0:
329,192,394702,1,0,0:0:0:0:
402,192,394742,1,0,0:0:0:0:
182,192,394781,1,0,0:0:0:0:
36,192,394781,1,0,0:0:0:0:
475,192,394781,1,0,0:0:0:0:
329,192,394860,1,0,0:0:0:0:
256,192,394939,1,0,0:0:0:0:
36,192,394939,1,0,0:0:0:0:
182,192,395018,1,0,0:0:0:0:
109,192,395058,1,0,0:0:0:0:
36,192,395097,1,0,0:0:0:0:
329,192,395097,1,0,0:0:0:0:
475,192,395097,1,0,0:0:0:0:
402,192,395097,128,0,395571:0:0:0:0:
182,192,395255,1,0,0:0:0:0:
109,192,395413,1,0,0:0:0:0:
182,192,395413,1,0,0:0:0:0:
36,192,395413,1,0,0:0:0:0:
256,192,395413,1,0,0:0:0:0:
475,192,395492,1,0,0:0:0:0:
256,192,395531,1,0,0:0:0:0:
109,192,395571,1,0,0:0:0:0:
329,192,395610,1,0,0:0:0:0:
182,192,395650,1,0,0:0:0:0:
36,192,395689,1,0,0:0:0:0:
402,192,395729,1,0,0:0:0:0:
402,192,395887,1,0,0:0:0:0:
182,192,396045,1,0,0:0:0:0:
109,192,396045,1,0,0:0:0:0:
182,192,396123,1,0,0:0:0:0:
109,192,396123,1,0,0:0:0:0:
329,192,396202,1,0,0:0:0:0:
182,192,396360,128,0,396439:0:0:0:0:
256,192,396360,128,0,396439:0:0:0:0:
475,192,396360,128,0,396439:0:0:0:0:
109,192,396360,128,0,396439:0:0:0:0:
36,192,396360,1,0,0:0:0:0:
402,192,396400,128,0,396558:0:0:0:0:
329,192,396518,128,0,396597:0:0:0:0:
182,192,396518,128,0,396597:0:0:0:0:
109,192,396518,128,0,396597:0:0:0:0:
475,192,396518,1,0,0:0:0:0:
36,192,396518,128,0,396597:0:0:0:0:
256,192,396518,1,0,0:0:0:0:
109,192,396676,128,0,396755:0:0:0:0:
36,192,396676,128,0,399202:0:0:0:0:
475,192,396676,1,0,0:0:0:0:
329,192,396676,1,0,0:0:0:0:
256,192,396676,1,0,0:0:0:0:
182,192,396676,1,0,0:0:0:0:
402,192,396676,1,0,0:0:0:0:
329,192,396834,1,0,0:0:0:0:
402,192,396992,128,0,397071:0:0:0:0:
329,192,396992,128,0,397071:0:0:0:0:
182,192,396992,1,0,0:0:0:0:
182,192,397150,1,0,0:0:0:0:
329,192,397229,1,0,0:0:0:0:
475,192,397308,1,0,0:0:0:0:
256,192,397308,1,0,0:0:0:0:
109,192,397308,1,0,0:0:0:0:
402,192,397466,1,0,0:0:0:0:
182,192,397623,1,0,0:0:0:0:
256,192,397781,1,0,0:0:0:0:
402,192,397821,1,0,0:0:0:0:
475,192,397939,1,0,0:0:0:0:
109,192,397939,1,0,0:0:0:0:
329,192,398097,1,0,0:0:0:0:
329,192,398255,128,0,398334:0:0:0:0:
402,192,398255,128,0,398334:0:0:0:0:
182,192,398255,1,0,0:0:0:0:
182,192,398413,1,0,0:0:0:0:
182,192,398571,1,0,0:0:0:0:
475,192,398571,1,0,0:0:0:0:
109,192,398571,1,0,0:0:0:0:
402,192,398729,1,0,0:0:0:0:
182,192,398887,1,0,0:0:0:0:
256,192,399045,1,0,0:0:0:0:
329,192,399123,1,0,0:0:0:0:
402,192,399163,1,0,0:0:0:0:
475,192,399202,1,0,0:0:0:0:
109,192,399202,1,0,0:0:0:0:
329,192,399360,1,0,0:0:0:0:
402,192,399518,128,0,399597:0:0:0:0:
329,192,399518,128,0,399597:0:0:0:0:
182,192,399518,1,0,0:0:0:0:
182,192,399676,1,0,0:0:0:0:
329,192,399755,1,0,0:0:0:0:
256,192,399834,1,0,0:0:0:0:
475,192,399834,1,0,0:0:0:0:
109,192,399834,1,0,0:0:0:0:
402,192,399992,1,0,0:0:0:0:
182,192,400150,1,0,0:0:0:0:
256,192,400308,1,0,0:0:0:0:
402,192,400347,1,0,0:0:0:0:
36,192,400466,1,0,0:0:0:0:
475,192,400466,1,0,0:0:0:0:
109,192,400466,1,0,0:0:0:0:
329,192,400623,1,0,0:0:0:0:
402,192,400781,128,0,400860:0:0:0:0:
329,192,400781,128,0,400860:0:0:0:0:
182,192,400781,1,0,0:0:0:0:
109,192,400860,1,0,0:0:0:0:
182,192,400939,1,0,0:0:0:0:
182,192,401097,1,0,0:0:0:0:
475,192,401097,1,0,0:0:0:0:
109,192,401097,1,0,0:0:0:0:
329,192,401255,1,0,0:0:0:0:
109,192,401413,1,0,0:0:0:0:
256,192,401571,1,0,0:0:0:0:
475,192,401729,1,0,0:0:0:0:
182,192,401729,1,0,0:0:0:0:
109,192,401729,1,0,0:0:0:0:
36,192,401729,128,0,402360:0:0:0:0:
329,192,401887,1,0,0:0:0:0:
329,192,402045,128,0,402123:0:0:0:0:
402,192,402045,128,0,402123:0:0:0:0:
182,192,402045,1,0,0:0:0:0:
182,192,402202,1,0,0:0:0:0:
329,192,402281,1,0,0:0:0:0:
256,192,402360,1,0,0:0:0:0:
475,192,402360,1,0,0:0:0:0:
109,192,402360,1,0,0:0:0:0:
402,192,402518,1,0,0:0:0:0:
182,192,402676,1,0,0:0:0:0:
256,192,402834,1,0,0:0:0:0:
402,192,402873,1,0,0:0:0:0:
475,192,402992,1,0,0:0:0:0:
109,192,402992,1,0,0:0:0:0:
329,192,403150,1,0,0:0:0:0:
402,192,403308,128,0,403387:0:0:0:0:
329,192,403308,128,0,403387:0:0:0:0:
182,192,403308,1,0,0:0:0:0:
182,192,403466,1,0,0:0:0:0:
182,192,403623,1,0,0:0:0:0:
475,192,403623,1,0,0:0:0:0:
109,192,403623,1,0,0:0:0:0:
402,192,403781,1,0,0:0:0:0:
182,192,403939,1,0,0:0:0:0:
256,192,404097,1,0,0:0:0:0:
329,192,404176,1,0,0:0:0:0:
402,192,404216,1,0,0:0:0:0:
475,192,404255,1,0,0:0:0:0:
109,192,404255,1,0,0:0:0:0:
329,192,404413,1,0,0:0:0:0:
402,192,404571,128,0,404650:0:0:0:0:
329,192,404571,128,0,404650:0:0:0:0:
182,192,404571,1,0,0:0:0:0:
182,192,404729,1,0,0:0:0:0:
329,192,404808,1,0,0:0:0:0:
475,192,404887,1,0,0:0:0:0:
36,192,404887,1,0,0:0:0:0:
256,192,404887,1,0,0:0:0:0:
109,192,404887,1,0,0:0:0:0:
402,192,405045,1,0,0:0:0:0:
182,192,405202,1,0,0:0:0:0:
256,192,405360,1,0,0:0:0:0:
402,192,405400,1,0,0:0:0:0:
109,192,405518,1,0,0:0:0:0:
475,192,405518,1,0,0:0:0:0:
256,192,405518,1,0,0:0:0:0:
329,192,405676,1,0,0:0:0:0:
402,192,405834,128,0,405913:0:0:0:0:
329,192,405834,128,0,405913:0:0:0:0:
182,192,405834,1,0,0:0:0:0:
109,192,405913,1,0,0:0:0:0:
182,192,405992,1,0,0:0:0:0:
475,192,406150,1,0,0:0:0:0:
182,192,406150,1,0,0:0:0:0:
109,192,406150,1,0,0:0:0:0:
329,192,406308,1,0,0:0:0:0:
109,192,406466,1,0,0:0:0:0:
256,192,406623,1,0,0:0:0:0:
182,192,406781,1,0,0:0:0:0:
109,192,406781,128,0,406860:0:0:0:0:
329,192,406781,1,0,0:0:0:0:
475,192,406781,1,0,0:0:0:0:
36,192,406781,128,0,409308:0:0:0:0:
256,192,406781,1,0,0:0:0:0:
402,192,406781,1,0,0:0:0:0:
329,192,406939,1,0,0:0:0:0:
402,192,407097,128,0,407176:0:0:0:0:
329,192,407097,128,0,407176:0:0:0:0:
109,192,407097,1,0,0:0:0:0:
182,192,407255,1,0,0:0:0:0:
329,192,407334,1,0,0:0:0:0:
475,192,407413,1,0,0:0:0:0:
256,192,407413,1,0,0:0:0:0:
402,192,407571,1,0,0:0:0:0:
182,192,407729,1,0,0:0:0:0:
402,192,407834,1,0,0:0:0:0:
256,192,407887,1,0,0:0:0:0:
475,192,408045,1,0,0:0:0:0:
329,192,408202,1,0,0:0:0:0:
329,192,408360,128,0,408439:0:0:0:0:
402,192,408360,128,0,408439:0:0:0:0:
109,192,408360,1,0,0:0:0:0:
182,192,408518,1,0,0:0:0:0:
182,192,408676,1,0,0:0:0:0:
475,192,408676,1,0,0:0:0:0:
402,192,408834,1,0,0:0:0:0:
182,192,408992,1,0,0:0:0:0:
256,192,409150,1,0,0:0:0:0:
329,192,409229,1,0,0:0:0:0:
402,192,409268,1,0,0:0:0:0:
475,192,409308,1,0,0:0:0:0:
329,192,409466,1,0,0:0:0:0:
402,192,409623,128,0,409702:0:0:0:0:
329,192,409623,128,0,409702:0:0:0:0:
109,192,409623,1,0,0:0:0:0:
182,192,409781,1,0,0:0:0:0:
329,192,409860,1,0,0:0:0:0:
256,192,409939,1,0,0:0:0:0:
475,192,409939,1,0,0:0:0:0:
402,192,410097,1,0,0:0:0:0:
182,192,410255,1,0,0:0:0:0:
256,192,410413,1,0,0:0:0:0:
475,192,410571,1,0,0:0:0:0:
329,192,410729,1,0,0:0:0:0:
402,192,410887,128,0,410966:0:0:0:0:
329,192,410887,128,0,410966:0:0:0:0:
36,192,410887,1,0,0:0:0:0:
109,192,410966,1,0,0:0:0:0:
182,192,411045,1,0,0:0:0:0:
182,192,411202,1,0,0:0:0:0:
475,192,411202,1,0,0:0:0:0:
329,192,411360,1,0,0:0:0:0:
109,192,411518,1,0,0:0:0:0:
256,192,411676,1,0,0:0:0:0:
475,192,411834,1,0,0:0:0:0:
402,192,411834,1,0,0:0:0:0:
36,192,411834,128,0,412387:0:0:0:0:
329,192,411992,1,0,0:0:0:0:
329,192,412150,128,0,412229:0:0:0:0:
402,192,412150,128,0,412229:0:0:0:0:
109,192,412150,1,0,0:0:0:0:
182,192,412308,1,0,0:0:0:0:
329,192,412387,1,0,0:0:0:0:
256,192,412466,1,0,0:0:0:0:
475,192,412466,1,0,0:0:0:0:
36,192,412466,128,0,412505:0:0:0:0:
402,192,412623,1,0,0:0:0:0:
182,192,412781,1,0,0:0:0:0:
256,192,412939,1,0,0:0:0:0:
475,192,413097,1,0,0:0:0:0:
329,192,413255,1,0,0:0:0:0:
402,192,413413,128,0,413492:0:0:0:0:
329,192,413413,128,0,413492:0:0:0:0:
109,192,413413,1,0,0:0:0:0:
182,192,413571,1,0,0:0:0:0:
182,192,413729,1,0,0:0:0:0:
475,192,413729,1,0,0:0:0:0:
36,192,413729,128,0,413808:0:0:0:0:
402,192,413887,1,0,0:0:0:0:
475,192,414045,1,0,0:0:0:0:
182,192,414045,1,0,0:0:0:0:
109,192,414045,1,0,0:0:0:0:
329,192,414202,1,0,0:0:0:0:
402,192,414242,1,0,0:0:0:0:
256,192,414281,1,0,0:0:0:0:
182,192,414321,1,0,0:0:0:0:
475,192,414360,1,0,0:0:0:0:
36,192,414400,1,0,0:0:0:0:
109,192,414439,1,0,0:0:0:0:
182,192,414479,1,0,0:0:0:0:
329,192,414518,1,0,0:0:0:0:
402,192,414676,128,0,414755:0:0:0:0:
329,192,414676,128,0,414755:0:0:0:0:
109,192,414676,1,0,0:0:0:0:
182,192,414755,1,0,0:0:0:0:
402,192,414834,1,0,0:0:0:0:
475,192,414992,1,0,0:0:0:0:
36,192,414992,128,0,415110:0:0:0:0:
256,192,414992,1,0,0:0:0:0:
256,192,415150,1,0,0:0:0:0:
109,192,415308,1,0,0:0:0:0:
329,192,415308,1,0,0:0:0:0:
402,192,415466,1,0,0:0:0:0:
256,192,415623,128,0,416571:0:0:0:0:
36,192,415623,1,0,0:0:0:0:
475,192,415781,1,0,0:0:0:0:
109,192,415939,1,0,0:0:0:0:
402,192,416097,1,0,0:0:0:0:
182,192,416413,1,0,0:0:0:0:
402,192,416571,128,0,416610:0:0:0:0:
109,192,416729,128,0,416768:0:0:0:0:
