osu file format v14

[General]
AudioFilename: audio.mp3
AudioLeadIn: 0
PreviewTime: 49894
Countdown: 0
SampleSet: Normal
StackLeniency: 0.2
Mode: 0
LetterboxInBreaks: 0
WidescreenStoryboard: 1

[Editor]
Bookmarks: 90947,168552,244342
DistanceSpacing: 0.6
BeatDivisor: 4
GridSize: 32
TimelineZoom: 1.3

[Metadata]
Title:Labyrinth Of Mind
TitleUnicode:Labyrinth Of Mind
Artist:Dustvoxx & Loctek
ArtistUnicode:Dustvoxx & Loctek
Creator:-Napoleon-
Version:- H A R D T E K D E V I L -
Source:Supernatural
Tags:Hardtek SkyDevil
BeatmapID:0
BeatmapSetID:-1

[Difficulty]
HPDrainRate:4
CircleSize:4
OverallDifficulty:7
ApproachRate:9.5
SliderMultiplier:2.5
SliderTickRate:1

[Events]
//Background and Video events
0,0,"wallhaven-607977.jpg",0,0
//Break Periods
//Storyboard Layer 0 (Background)
//Storyboard Layer 1 (Fail)
//Storyboard Layer 2 (Pass)
//Storyboard Layer 3 (Foreground)
//Storyboard Sound Samples

[TimingPoints]
0,315.789473684211,4,1,0,100,1,0
50526,-100,4,1,0,100,0,1
70736,-100,4,1,0,100,0,0
90947,428.571428571429,4,1,0,100,1,0
90947,-500,4,1,0,40,0,0
92661,-500,4,1,0,20,0,0
94375,-500,4,1,0,5,0,0
104661,-500,4,1,0,25,0,0
113232,-500,4,1,0,35,0,0
114947,-500,4,1,0,45,0,0
116661,-500,4,1,0,55,0,0
117518,-500,4,1,0,65,0,0
118375,-285.714285714284,4,1,1,85,0,1
125661,-142.857142857143,4,1,1,85,0,1
126089,-71.4285714285714,4,1,1,85,0,1
126411,-47.6190476190476,4,1,1,85,0,1
126732,-35.7142857142857,4,1,1,85,0,1
127161,-28.5714285714286,4,1,1,85,0,1
129518,-50,4,1,1,85,0,1
130804,-500,4,1,1,85,0,1
132089,-45.4545454545455,4,1,1,85,0,1
145804,-500,4,1,0,80,0,0
147518,413.793103448276,4,1,0,80,1,0
147518,-250,4,1,0,80,0,0
149173,400,4,1,0,80,1,0
149173,-166.666666666667,4,1,0,80,0,0
150773,387.096774193548,4,1,0,80,1,0
150773,-125,4,1,0,80,0,0
152321,375,4,1,0,80,1,0
152321,-100,4,1,0,80,0,0
153821,363.636363636364,4,1,0,80,1,0
153821,-83.3333333333333,4,1,0,80,0,0
155275,352.941176470588,4,1,0,80,1,0
155275,-71.4285714285714,4,1,0,80,0,0
156686,348.837209302326,4,1,0,80,1,0
156686,-62.5,4,1,0,80,0,0
158081,-55.5555555555556,4,1,0,80,0,0
159476,344.827586206897,4,1,0,80,1,0
159476,-50,4,1,0,80,0,0
160855,340.909090909091,4,1,0,80,1,0
160855,-47.6190476190476,4,1,0,80,0,0
162200,324.324324324324,4,1,0,80,1,0
162200,-45.4545454545455,4,1,0,80,0,0
163500,315.789473684211,4,1,0,80,1,0
163500,-45.4545454545455,4,1,0,80,0,0
167289,-1000,4,1,0,80,0,0
168552,-100,4,1,0,100,0,1
188763,-100,4,1,0,100,0,0

[Colours]
Combo1 : 241,66,106
Combo2 : 255,159,247
Combo3 : 255,204,0
Combo4 : 104,80,218
Combo5 : 255,128,0
Combo6 : 19,189,255

[HitObjects]
88,173,90947,6,0,B|130:201|130:251|111:302|111:302|163:328|163:328|215:302|215:302|192:251|192:201|240:172,1,400
290,131,95018,1,0,0:0:0:0:
366,119,95661,1,0,0:0:0:0:
425,171,96089,1,0,0:0:0:0:
443,251,96518,1,0,0:0:0:0:
83,329,97804,6,0,P|74:313|62:283,1,50
137,268,98661,2,0,P|120:229|118:214,1,50
302,257,99518,6,0,P|304:288|298:313,1,50
389,309,100375,2,0,P|379:345|364:360,1,50
461,221,101232,6,0,L|474:194,3,25
392,174,102089,2,0,L|394:147,3,25
227,258,102947,5,0,0:0:0:0:
200,263,103161,1,0,0:0:0:0:
176,264,103375,1,0,0:0:0:0:
151,257,103589,1,0,0:0:0:0:
197,156,103804,1,0,0:0:0:0:
168,140,104018,1,0,0:0:0:0:
148,121,104232,1,0,0:0:0:0:
136,93,104447,1,0,0:0:0:0:
243,51,104661,6,0,L|254:41,7,12.5,4|0|0|0|0|0|0|0,0:0|0:0|0:0|0:0|0:0|0:0|0:0|0:0,0:0:0:0:
325,77,105518,2,0,L|344:77,7,12.5
223,220,106375,6,0,L|201:218,7,12.5
242,311,107232,2,0,L|220:319,7,12.5
333,341,108089,6,0,L|352:347,3,12.5
382,244,108518,2,0,L|401:239,3,12.5
179,341,108947,6,0,L|160:347,3,12.5
130,244,109375,2,0,L|111:239,3,12.5
139,131,109804,6,0,L|124:120,3,12.5
193,44,110232,2,0,L|189:24,3,12.5
373,131,110661,6,0,L|388:120,3,12.5
319,44,111089,2,0,L|323:24,3,12.5
456,55,111518,6,0,L|434:60,1,12.5
481,166,111732,2,0,L|460:161,1,12.5
449,279,111947,2,0,L|432:272,1,12.5
376,358,112161,2,0,L|367:346,1,12.5
320,247,112375,6,0,L|310:234,1,12.5
227,290,112589,2,0,L|220:270,1,12.5
124,289,112804,2,0,L|127:270,1,12.5
39,230,113018,2,0,L|53:221,1,12.5
48,321,113232,6,0,L|39:339,1,12.5
126,181,113447,2,0,L|128:167,1,12.5
178,349,113661,2,0,L|175:368,1,12.5
268,211,113875,2,0,L|271:193,1,12.5
353,352,114089,6,0,L|373:356,1,12.5
217,271,114304,2,0,L|199:267,1,12.5
430,231,114518,2,0,L|452:236,1,12.5
329,145,114732,2,0,L|314:141,1,12.5
187,54,114947,6,0,L|168:56,1,12.5
107,97,115161,2,0,L|91:100,1,12.5
37,239,115375,2,0,L|55:244,1,12.5
124,272,115589,2,0,L|142:277,1,12.5
285,271,115804,6,0,L|303:276,1,12.5
373,310,116018,2,0,L|391:315,1,12.5
348,145,116232,2,0,L|368:140,1,12.5
426,99,116447,2,0,L|446:94,1,12.5
220,70,116661,5,0,0:0:0:0:
208,72,116768,1,0,0:0:0:0:
197,76,116875,1,0,0:0:0:0:
188,82,116982,1,0,0:0:0:0:
289,237,117089,5,0,0:0:0:0:
301,234,117196,1,0,0:0:0:0:
312,230,117303,1,0,0:0:0:0:
321,224,117410,1,0,0:0:0:0:
358,85,117518,5,0,0:0:0:0:
345,88,117625,1,0,0:0:0:0:
334,92,117732,1,0,0:0:0:0:
325,98,117839,1,0,0:0:0:0:
126,204,117947,5,0,0:0:0:0:
113,201,118054,1,0,0:0:0:0:
102,197,118161,1,0,0:0:0:0:
93,191,118268,1,0,0:0:0:0:
51,56,118375,6,0,P|85:29|121:16,1,65.624997997284,4|0,0:2|2:0,0:0:0:0:
391,70,118804,2,0,P|417:122|418:144,1,65.624997997284,12|0,0:2|2:0,0:0:0:0:
221,345,119232,2,0,P|168:334|144:322,1,65.624997997284,4|0,0:2|0:0,0:0:0:0:
254,335,119661,2,0,P|220:337|195:334,1,43.749998664856,12|0,0:2|0:0,0:0:0:0:
350,349,120304,6,0,P|326:336|314:336,1,21.874999332428,4|0,0:2|0:0,0:0:0:0:
428,348,120518,2,0,P|406:348|345:336,1,65.624997997284,12|0,0:2|2:0,0:0:0:0:
76,49,120947,2,0,P|122:46|153:50,1,65.624997997284,4|0,0:2|0:0,0:0:0:0:
50,20,121375,2,0,P|89:39|100:41,1,43.749998664856,12|0,0:2|0:0,0:0:0:0:
29,282,121804,6,0,P|45:308|47:346,1,65.624997997284,4|0,0:2|2:0,0:0:0:0:
436,376,122232,2,0,P|458:346|492:330,1,65.624997997284,12|0,2:0|2:0,0:0:0:0:
303,19,122661,2,0,P|258:13|231:-5,1,65.624997997284,4|0,0:2|1:0,0:0:0:0:
357,46,123089,2,0,P|320:34|313:36,1,43.749998664856,12|0,0:2|0:0,0:0:0:0:
150,72,123732,6,0,P|137:62|123:61,1,21.874999332428,4|0,0:2|0:0,0:0:0:0:
207,62,123947,2,0,P|168:56|138:48,1,65.624997997284,12|0,0:2|2:0,0:0:0:0:
427,354,124375,2,0,P|457:352|507:361,1,65.624997997284,4|0,0:2|0:0,0:0:0:0:
387,331,124804,2,0,P|423:344|434:344,1,43.749998664856,12|0,0:2|0:0,0:0:0:0:
74,341,125232,6,0,L|50:344,1,21.874999332428,0|0,0:0|2:0,0:0:0:0:
419,37,125661,2,0,L|472:56,1,29.1666657765707,8|0,0:2|2:0,0:0:0:0:
99,337,126089,2,0,L|22:350,1,58.3333315531413,0|0,0:0|2:0,0:0:0:0:
394,29,126411,2,0,L|502:68,1,87.499997329712,0|8,0:0|2:0,0:0:0:0:
129,329,126732,2,0,L|-84:373,1,116.666663106283,0|0,0:0|2:0,0:0:0:0:
263,30,127161,6,0,P|198:30|230:91,1,145.833334724108,0|0,0:0|2:0,0:0:0:0:
283,55,127375,6,0,P|224:27|227:96,1,145.833334724108,8|0,0:2|2:0,0:0:0:0:
442,348,127804,6,0,B|510:364|510:364|442:329,1,145.833334724108,0|0,0:0|2:0,0:0:0:0:
68,44,128125,2,0,B|0:28|0:28|68:63,1,145.833334724108,0|8,0:0|2:0,0:0:0:0:
394,335,128447,2,0,B|462:351|462:351|394:316,1,145.833334724108,0|0,0:0|2:0,0:0:0:0:
174,304,128661,5,0,0:0:0:0:
92,291,128768,1,0,0:0:0:0:
37,350,128875,1,0,0:0:0:0:
250,272,129089,5,8,0:2:0:0:
144,218,129197,1,0,0:0:0:0:
41,161,129304,1,0,0:0:0:0:
364,268,129518,6,0,B|438:270|438:270|485:206,1,125
25,232,129839,2,0,B|14:289|14:289|42:362,1,125,0|8,0:0|2:0,0:0:0:0:
366,91,130161,2,0,B|278:19|278:19|74:61,1,250
313,341,130589,5,0,0:0:0:0:
299,112,130804,2,0,P|258:80|213:83,1,100,12|4,0:2|0:2,0:0:0:0:
18,298,132089,6,0,B|103:328|103:328|188:310|188:310|318:347,1,275.000008392334
279,23,132518,1,8,0:2:0:0:
468,336,132732,1,0,0:0:0:0:
112,198,132947,2,0,B|71:141|71:141|41:130|14:111|14:111|43:92|72:94|72:94|128:24,1,275.000008392334
492,182,133375,1,8,0:2:0:0:
33,255,133589,1,0,0:0:0:0:
403,75,133804,6,0,L|492:20,5,91.6666694641114
383,190,134232,2,0,B|358:238|368:285|368:285|349:313|349:313|383:311|383:311|419:343|480:359,1,275.000008392334,8|0,0:2|0:0,0:0:0:0:
468,251,134554,1,0,0:0:0:0:
329,120,134661,2,0,B|272:172|268:243|268:243|170:344,1,275.000008392334
102,49,135089,2,0,L|18:110,5,91.6666694641114,8|0|0|0|0|0,0:2|0:0|0:0|0:0|0:0|0:0,0:0:0:0:
108,140,135518,6,0,L|82:247,5,91.6666694641114
181,83,135947,2,0,B|241:43|241:43|293:74|293:74|346:42|346:42|424:87,1,275.000008392334,8|0,0:2|0:0,0:0:0:0:
103,315,136375,1,0,0:0:0:0:
349,46,136589,1,0,0:0:0:0:
0,71,136804,1,8,0:2:0:0:
393,216,137018,1,0,0:0:0:0:
65,72,137232,6,0,B|16:83|16:83|11:138,5,91.6666694641114
96,156,137661,2,0,B|167:122|161:59|161:59|202:55|202:55|221:41|221:41|240:52|240:52|315:46,1,275.000008392334,8|0,0:2|0:0,0:0:0:0:
416,134,137982,1,0,0:0:0:0:
297,175,138089,2,0,B|309:227|347:257|347:257|351:290|351:290|375:267|375:267|423:269|481:242,1,275.000008392334
94,304,138518,2,0,L|24:373,5,91.6666694641114,8|0|0|0|0|0,0:2|0:0|0:0|0:0|0:0|0:0,0:0:0:0:
38,249,138947,6,0,P|183:130|121:355,1,550.000016784668,0|8,0:0|0:2,0:0:0:0:
28,36,139589,1,0,0:0:0:0:
444,69,139804,2,0,B|468:161|468:161|370:344,1,275.000008392334
370,148,140125,1,0,0:0:0:0:
297,71,140232,2,0,B|257:152|257:152|306:234|306:234|251:336,1,275.000008392334,8|0,0:2|0:0,0:0:0:0:
170,342,140554,1,0,0:0:0:0:
167,29,140661,5,0,0:0:0:0:
64,80,140768,2,0,B|32:128|32:176|32:176|0:192|0:192|32:208|32:208|32:256|64:304,1,275.000008392334
144,150,141089,2,0,L|272:87,1,137.500004196167,8|0,0:2|0:0,0:0:0:0:
383,300,141304,2,0,L|511:237,1,137.500004196167
171,254,141518,2,0,P|122:250|34:172,1,137.500004196167
455,64,141732,2,0,B|485:118|446:187|446:187|411:254|481:330,1,275.000008392334,0|8,0:0|0:2,0:0:0:0:
132,21,142161,5,0,0:0:0:0:
28,92,142268,1,0,0:0:0:0:
60,235,142375,2,0,B|86:293|86:293|47:361,2,137.500004196167
498,250,142804,2,0,B|427:128|427:128|502:18,1,275.000008392334,8|0,0:2|0:0,0:0:0:0:
34,44,143232,5,0,0:0:0:0:
116,119,143339,2,0,B|136:212|136:212|192:251|192:251|221:380,1,275.000008392334
237,134,143661,2,0,P|290:69|465:104,1,275.000008392334,8|0,0:2|0:0,0:0:0:0:
115,341,144089,5,0,0:0:0:0:
47,278,144197,1,0,0:0:0:0:
50,192,144304,1,0,0:0:0:0:
337,288,144518,5,8,0:2:0:0:
223,276,144625,1,0,0:0:0:0:
134,343,144732,1,0,0:0:0:0:
134,66,144947,5,0,0:0:0:0:
231,46,145054,1,0,0:0:0:0:
334,49,145161,1,0,0:0:0:0:
426,72,145268,2,0,B|455:141|455:141|424:193|424:193|498:256|490:315|415:375|338:327|349:250,1,412.500012588501
172,135,145804,6,0,P|184:113|203:97,1,50,4|0,0:2|0:0,0:0:0:0:
340,249,146661,2,0,P|328:271|309:287,1,50
341,86,147518,6,0,B|388:69|388:69|439:91,1,100
177,291,148345,2,0,B|130:308|130:308|84:288,1,100
444,222,149173,6,0,B|409:249|425:284|425:284|388:363,1,149.999995422363
68,162,149973,2,0,B|103:135|87:100|87:100|124:21,1,149.999995422363
275,354,150773,6,0,B|200:336|200:336|151:347|151:347|56:325,1,200
237,30,151547,2,0,B|311:47|311:47|360:36|360:36|456:59,1,200
69,253,152321,6,0,B|13:275|13:275|-1:374,1,125,4|0,0:0|0:0,0:0:0:0:
417,169,152696,2,0,B|474:154|474:154|519:75,1,125
112,104,153071,1,0,0:0:0:0:
383,301,153258,1,0,0:0:0:0:
288,141,153446,1,0,0:0:0:0:
204,257,153633,1,0,0:0:0:0:
448,365,153821,6,0,B|474:293|474:293|464:247|420:210,1,149.999995422363
56,36,154184,2,0,B|30:108|30:108|40:154|84:191,1,149.999995422363
413,72,154548,1,0,0:0:0:0:
119,337,154730,1,0,0:0:0:0:
465,143,154911,1,0,0:0:0:0:
128,103,155093,1,0,0:0:0:0:
268,356,155275,6,0,B|300:327|300:327|333:356,3,87.499997329712
421,328,155627,2,0,P|463:316|419:230,1,174.999994659424
52,44,155980,2,0,P|30:87|50:116,3,87.499997329712
134,78,156333,2,0,B|222:52|222:52|304:78,1,174.999994659424
134,350,156686,6,0,B|93:328|93:328|75:330|75:330|32:297,3,100
99,196,157034,2,0,B|185:250|185:250|228:278|240:336,1,200
494,100,157383,2,0,P|472:55|414:24,3,100
392,143,157732,2,0,B|411:197|456:210|456:210|434:337,1,200
295,60,158081,6,0,P|261:124|270:207,3,112.499996566773
149,223,158430,2,0,P|198:275|273:299,3,112.499996566773
512,100,158779,2,0,P|428:104|370:140,3,112.499996566773
352,257,159127,2,0,P|406:261|485:231,3,112.499996566773
142,75,159476,6,0,B|107:55|107:55|-8:55,3,125
280,114,159820,2,0,L|417:104,3,125
51,188,160165,2,0,L|78:342,3,125
195,72,160510,2,0,B|227:38|227:38|327:28,3,125
142,247,160855,6,0,B|154:315|154:315|204:369,1,131.249995994568
209,149,161025,2,0,L|235:294,1,131.249995994568
177,59,161195,2,0,P|127:99|127:186,1,131.249995994568
177,59,161366,2,0,P|127:99|158:187,1,131.249995994568
297,95,161536,6,0,L|437:114,1,131.249995994568
494,208,161707,2,0,P|429:215|346:178,1,131.249995994568
272,254,161877,2,0,P|235:237|132:243,1,131.249995994568
61,335,162048,2,0,P|24:297|6:195,1,131.249995994568
25,42,162200,6,0,B|46:79|46:79|34:126|34:126|68:189,1,137.500004196167
128,120,162362,2,0,L|217:250,1,137.500004196167
275,168,162524,2,0,P|306:242|249:310,1,137.500004196167
236,78,162686,2,0,P|293:73|356:117,1,137.500004196167
395,207,162848,6,0,L|420:354,1,137.500004196167
315,240,163010,2,0,L|338:375,1,137.500004196167
231,277,163172,2,0,P|233:211|288:161,1,137.500004196167
302,81,163335,2,0,B|269:76|252:84|252:84|149:141,1,137.500004196167
101,172,163497,6,0,B|38:200|57:262|57:262|92:254|92:254|120:315|15:357,1,275.000008392334
411,212,163815,2,0,B|474:184|455:122|455:122|420:130|420:130|392:69|497:27,1,275.000008392334
34,154,164131,6,0,P|103:239|151:125,1,275.000008392334
477,231,164447,2,0,P|408:146|360:260,1,275.000008392334
95,49,164763,6,0,L|-1:322,1,275.000008392334
417,335,165078,2,0,L|513:62,1,275.000008392334
101,364,165394,6,0,B|141:303|135:237|135:237|57:221|1:266,1,275.000008392334
411,20,165710,2,0,B|371:81|377:147|377:147|455:163|511:118,1,275.000008392334
178,267,166026,6,0,P|182:304|272:376,1,137.500004196167
270,272,166184,2,0,P|324:311|424:313,1,137.500004196167
350,219,166342,2,0,P|406:223|497:185,1,137.500004196167
400,128,166500,2,0,P|435:97|470:4,1,137.500004196167
352,36,166657,6,0,P|317:67|282:160,1,137.500004196167
189,87,166815,2,0,P|168:156|216:250,1,137.500004196167
95,253,166973,2,0,P|155:307|247:306,1,137.500004196167
310,368,167131,2,0,P|313:301|272:228,1,137.500004196167
75,167,167289,6,0,P|51:180|19:217,1,75,0|2,0:0|2:0,0:0:0:0:
