osu file format v14

[General]
AudioFilename: audio.mp3
AudioLeadIn: 0
PreviewTime: 13406
Countdown: 0
SampleSet: Normal
StackLeniency: 0.2
Mode: 0
LetterboxInBreaks: 0
WidescreenStoryboard: 0

[Editor]
DistanceSpacing: 2
BeatDivisor: 4
GridSize: 4
TimelineZoom: 1.7

[Metadata]
Title:Juvenate
TitleUnicode:Juvenate
Artist:Duskly
ArtistUnicode:Duskly
Creator:Duskly
Version:Galactic Reverberant Dishonest Raging ULTRA BIG DIMENSIONS Lemur Control! Freeze
Source:
Tags:
BeatmapID:1960366
BeatmapSetID:938477

[Difficulty]
HPDrainRate:5
CircleSize:5
OverallDifficulty:5
ApproachRate:5
SliderMultiplier:1.5
SliderTickRate:1

[Events]
//Background and Video events
0,0,"hime HIME meme.jpg",0,0
//Break Periods
//Storyboard Layer 0 (Background)
//Storyboard Layer 1 (Fail)
//Storyboard Layer 2 (Pass)
//Storyboard Layer 3 (Foreground)
//Storyboard Sound Samples

[TimingPoints]
13406,375,4,1,0,100,1,0

[HitObjects]
144,120,13406,6,0,L|240:120,1,75
144,120,13968,2,0,L|320:120,1,150
444,120,14718,1,0,0:0:0:0:
444,120,15093,1,0,0:0:0:0:
292,120,15281,1,0,0:0:0:0:
216,120,15468,1,0,0:0:0:0:
444,120,15656,1,0,0:0:0:0:
216,120,15843,1,0,0:0:0:0:
292,120,16031,1,0,0:0:0:0:
444,120,16218,1,0,0:0:0:0:
444,224,16406,6,0,L|444:308,1,75
440,296,16968,1,0,0:0:0:0:
288,296,17343,1,0,0:0:0:0:
442,222,17718,1,0,0:0:0:0:
212,220,18093,1,0,0:0:0:0:
212,84,18281,1,0,0:0:0:0:
72,84,18468,1,0,0:0:0:0:
212,84,18656,1,0,0:0:0:0:
68,220,18843,1,0,0:0:0:0:
212,84,19031,1,0,0:0:0:0:
212,220,19218,1,0,0:0:0:0:
212,152,19406,5,0,0:0:0:0:
140,220,19593,1,0,0:0:0:0:
208,288,19968,1,0,0:0:0:0:
280,216,20343,1,0,0:0:0:0:
352,144,20718,1,0,0:0:0:0:
284,80,21093,1,0,0:0:0:0:
228,144,21281,1,0,0:0:0:0:
116,264,21468,1,0,0:0:0:0:
172,204,21656,1,0,0:0:0:0:
284,80,21843,1,0,0:0:0:0:
228,144,22031,1,0,0:0:0:0:
116,264,22218,1,0,0:0:0:0:
228,144,22406,6,0,L|164:212,1,75
60,160,22968,1,0,0:0:0:0:
60,320,23343,1,0,0:0:0:0:
288,320,23718,1,0,0:0:0:0:
288,160,24093,1,0,0:0:0:0:
224,160,24281,1,0,0:0:0:0:
288,96,24468,1,0,0:0:0:0:
288,160,24656,1,0,0:0:0:0:
352,160,24843,1,0,0:0:0:0:
224,160,25031,1,0,0:0:0:0:
288,96,25218,1,0,0:0:0:0:
352,160,25406,6,0,L|272:160,1,75
124,160,25968,1,0,0:0:0:0:
124,60,26343,1,0,0:0:0:0:
124,260,26718,1,0,0:0:0:0:
124,328,27093,1,0,0:0:0:0:
192,328,27281,1,0,0:0:0:0:
192,260,27468,1,0,0:0:0:0:
264,260,27656,1,0,0:0:0:0:
124,328,27843,1,0,0:0:0:0:
192,260,28031,1,0,0:0:0:0:
192,328,28218,1,0,0:0:0:0:
264,328,28406,6,0,L|340:328,1,75
408,328,28968,1,0,0:0:0:0:
264,328,29343,1,0,0:0:0:0:
336,328,29718,1,0,0:0:0:0:
336,256,30093,1,0,0:0:0:0:
408,328,30281,1,0,0:0:0:0:
336,256,30468,1,0,0:0:0:0:
264,328,30656,1,0,0:0:0:0:
336,328,30843,1,0,0:0:0:0:
264,328,31031,1,0,0:0:0:0:
408,328,31218,1,0,0:0:0:0:
408,192,31406,5,0,0:0:0:0:
408,260,31593,1,0,0:0:0:0:
408,124,31968,1,0,0:0:0:0:
408,56,32343,1,0,0:0:0:0:
408,124,32718,1,0,0:0:0:0:
408,56,33093,1,0,0:0:0:0:
288,192,33281,1,0,0:0:0:0:
408,124,33468,1,0,0:0:0:0:
408,192,33656,1,0,0:0:0:0:
288,192,33843,1,0,0:0:0:0:
348,192,34031,1,0,0:0:0:0:
408,124,34218,1,0,0:0:0:0:
408,56,34406,5,0,0:0:0:0:
408,192,34593,1,0,0:0:0:0:
348,124,34968,2,0,B|184:124|184:124,1,150
152,160,35718,2,0,L|152:244,1,75
216,200,36093,2,0,L|216:280,1,75
152,160,36656,1,0,0:0:0:0:
216,276,36843,1,0,0:0:0:0:
216,200,37031,1,0,0:0:0:0:
152,236,37218,1,0,0:0:0:0:
216,200,37406,6,0,L|216:284,1,75
216,128,37968,1,0,0:0:0:0:
140,128,38062,1,0,0:0:0:0:
66,128,38156,1,0,0:0:0:0:
216,128,38343,2,0,L|64:128,1,150
216,56,39093,1,0,0:0:0:0:
216,200,39281,1,0,0:0:0:0:
68,56,39468,1,0,0:0:0:0:
216,200,39656,1,0,0:0:0:0:
64,200,39843,1,0,0:0:0:0:
62,198,40031,1,0,0:0:0:0:
216,56,40218,1,0,0:0:0:0:
64,196,40406,6,0,L|168:196,1,75
212,196,40968,1,0,0:0:0:0:
368,196,41343,1,0,0:0:0:0:
