osu file format v14

[General]
AudioFilename: audio.mp3
AudioLeadIn: 0
PreviewTime: 42672
Countdown: 0
SampleSet: Soft
StackLeniency: 0.2
Mode: 0
LetterboxInBreaks: 0
WidescreenStoryboard: 0

[Editor]
Bookmarks: 22068,44137,66206,88275,110344,132413
DistanceSpacing: 0.7
BeatDivisor: 4
GridSize: 32
TimelineZoom: 2.2

[Metadata]
Title:Indifferences
TitleUnicode:Indifferences
Artist:Duoscience
ArtistUnicode:Duoscience
Creator:Mir
Version:Senseless
Source:
Tags:dnb sci-fi stuff timemon touhou futurism DTM9 Nowa Ametrin
BeatmapID:1538480
BeatmapSetID:722662

[Difficulty]
HPDrainRate:6
CircleSize:4
OverallDifficulty:8.5
ApproachRate:9.2
SliderMultiplier:2.4
SliderTickRate:1

[Events]
//Background and Video events
0,0,"angelicwings.jpg",0,0
//Break Periods
//Storyboard Layer 0 (Background)
//Storyboard Layer 1 (Fail)
//Storyboard Layer 2 (Pass)
//Storyboard Layer 3 (Foreground)
//Storyboard Sound Samples

[TimingPoints]
0,344.827586206897,4,2,0,50,1,0
21034,-100,4,2,0,55,0,0
21206,-100,4,2,0,60,0,0
21379,-100,4,2,0,65,0,0
21551,-100,4,2,0,70,0,0
21724,-100,4,2,0,75,0,0
21896,-100,4,2,0,80,0,0
22068,-100,4,2,1,80,0,0
44137,-133.333333333333,4,2,1,90,0,1
44655,-100,4,2,1,90,0,1
46896,-133.333333333333,4,2,1,90,0,1
47414,-100,4,2,1,90,0,1
49655,-133.333333333333,4,2,1,90,0,1
50173,-100,4,2,1,90,0,1
52413,-133.333333333333,4,2,1,90,0,1
52931,-100,4,2,1,90,0,1
55172,-133.333333333333,4,2,1,90,0,1
55862,-100,4,2,1,90,0,1
57931,-133.333333333333,4,2,1,90,0,1
58449,-100,4,2,1,90,0,1
60689,-133.333333333333,4,2,1,90,0,1
61379,-100,4,2,1,90,0,1
63448,-133.333333333333,4,2,1,90,0,1
63965,-100,4,2,1,90,0,1
64827,-100,4,2,1,90,0,1
66206,-100,4,2,1,80,0,0
88275,-66.6666666666667,4,2,1,90,0,1
98620,-200,4,2,1,80,0,0
99310,-66.6666666666667,4,2,1,90,0,1
109655,-200,4,2,1,80,0,0
110344,-100,4,2,1,80,0,0
129655,-100,4,2,1,70,0,0
130344,-100,4,2,1,60,0,0
131034,-100,4,2,1,50,0,0
131724,-100,4,2,1,40,0,0
132413,-100,4,2,1,30,0,0
132758,-133.333333333333,4,2,1,35,0,0
133103,-200,4,2,1,30,0,0
133448,-200,4,2,1,25,0,0
133793,-200,4,2,1,20,0,0
134137,-200,4,2,1,20,0,0
134482,-200,4,2,1,20,0,0
134827,-200,4,2,1,15,0,0

[Colours]
Combo1 : 240,170,226
Combo2 : 255,228,149
Combo3 : 176,176,255
Combo4 : 143,242,248

[HitObjects]
137,128,21034,6,0,L|136:217,1,60,2|0,0:0|0:0,0:0:0:0:
204,64,21206,1,0,0:0:0:0:
211,77,21293,1,2,0:0:0:0:
218,86,21379,1,2,0:0:0:0:
224,96,21465,2,0,P|307:100|323:98,1,60,2|0,0:0|0:0,0:0:0:0:
353,153,21637,1,2,0:0:0:0:
361,164,21724,2,0,P|444:168|460:166,2,60,2|0|0,0:0|0:0|0:0,0:0:0:0:
300,250,22068,6,0,B|206:354|72:302|72:302,1,240,4|8,0:1|0:0,0:0:0:0:
72,175,22586,1,0,0:0:0:0:
76,185,22672,1,0,0:0:0:0:
80,196,22758,1,0,0:0:0:0:
79,304,22931,2,0,B|46:295|21:256|21:256,1,60,4|0,0:3|0:0,0:0:0:0:
171,205,23103,2,0,B|204:133|151:59|151:59,1,120,8|0,0:0|0:0,0:0:0:0:
101,41,23362,1,0,0:0:0:0:
90,34,23448,5,4,0:3:0:0:
182,88,23620,1,4,0:3:0:0:
325,22,23793,2,0,P|350:62|341:181,1,120,8|0,0:0|0:0,0:0:0:0:
335,223,24051,1,0,0:0:0:0:
323,226,24137,2,0,B|286:233|239:216|239:216,1,60,0|0,0:0|0:0,0:0:0:0:
198,90,24310,1,4,0:3:0:0:
45,234,24482,6,0,B|98:129|293:237|293:237,1,240,8|4,0:0|0:3,0:0:0:0:
262,222,25000,1,0,0:0:0:0:
95,381,25172,2,0,B|74:309|132:268|132:268,1,120,8|0,0:0|0:0,0:0:0:0:
139,274,25431,1,0,0:0:0:0:
150,276,25517,1,0,0:0:0:0:
260,351,25689,2,0,B|226:355|195:350|195:350,1,60,4|0,0:3|0:0,0:0:0:0:
262,222,25862,2,0,B|341:263|348:338|348:338,1,120,8|0,0:0|0:0,0:0:0:0:
260,351,26120,1,0,0:0:0:0:
253,340,26206,5,4,0:3:0:0:
380,215,26379,1,4,0:3:0:0:
181,91,26551,2,0,B|217:106|319:81|319:81,1,120,8|0,0:0|0:0,0:0:0:0:
373,33,26810,1,0,0:0:0:0:
384,30,26896,1,0,0:0:0:0:
395,29,26982,1,0,0:0:0:0:
406,31,27068,1,4,0:3:0:0:
396,68,27241,2,0,B|376:122|376:122|392:276,1,180,8|0,0:0|0:0,0:0:0:0:
363,348,27586,6,0,B|258:368|208:286|120:321|120:321,1,240,4|8,0:3|0:0,0:0:0:0:
6,218,28103,1,0,0:0:0:0:
3,206,28189,1,0,0:0:0:0:
0,194,28275,1,0,0:0:0:0:
96,187,28448,2,0,B|96:236|76:264|76:264,1,60,4|0,0:3|0:0,0:0:0:0:
46,104,28620,2,0,B|132:85|185:143|185:143,1,120,8|0,0:0|0:0,0:0:0:0:
206,204,28879,1,0,0:0:0:0:
207,217,28965,5,4,0:3:0:0:
265,100,29137,1,4,0:3:0:0:
430,174,29310,2,0,B|344:155|290:213|290:213,1,120,8|0,0:0|0:0,0:0:0:0:
306,277,29568,1,0,0:0:0:0:
306,289,29655,2,0,B|312:324|334:360|334:360,1,60,0|0,0:0|0:0,0:0:0:0:
332,206,29827,1,4,0:3:0:0:
228,304,30000,6,0,B|15:284|62:138|62:138,1,240,8|4,0:0|0:3,0:0:0:0:
57,170,30517,1,0,0:0:0:0:
174,56,30689,2,0,B|197:122|155:186|155:186,1,120,8|0,0:0|0:0,0:0:0:0:
157,183,30948,1,0,0:0:0:0:
149,191,31034,1,0,0:0:0:0:
64,51,31206,2,0,B|91:78|106:117|106:117,1,60,4|0,0:3|0:0,0:0:0:0:
99,246,31379,2,0,B|192:203|260:237|260:237,1,120,8|0,0:0|0:0,0:0:0:0:
287,263,31637,1,0,0:0:0:0:
293,273,31724,5,4,0:3:0:0:
357,187,31896,1,4,0:3:0:0:
440,299,32068,2,0,B|487:259|459:152|459:152,1,120,8|0,0:0|0:0,0:0:0:0:
418,98,32327,1,0,0:0:0:0:
418,87,32413,1,0,0:0:0:0:
420,75,32500,1,0,0:0:0:0:
424,64,32586,1,4,0:3:0:0:
455,88,32758,2,0,B|375:91|375:91|362:99|362:99|219:103,1,180,8|0,0:0|0:0,0:0:0:0:
114,0,33103,6,0,B|185:96|103:251|103:251,1,240,4|8,0:3|0:0,0:0:0:0:
21,358,33620,1,0,0:0:0:0:
20,346,33706,1,0,0:0:0:0:
19,333,33793,1,0,0:0:0:0:
112,229,33965,2,0,B|68:223|39:184|39:184,1,60,4|0,0:3|0:0,0:0:0:0:
201,217,34137,2,0,B|281:190|367:212|367:212,1,120,8|0,0:0|0:0,0:0:0:0:
372,269,34396,1,0,0:0:0:0:
374,280,34482,5,4,0:3:0:0:
320,205,34655,1,4,0:3:0:0:
449,219,34827,2,0,B|489:287|442:365|442:365,1,120,8|0,0:0|0:0,0:0:0:0:
380,377,35086,1,0,0:0:0:0:
372,367,35172,2,0,B|358:344|357:295|357:295,1,60,0|0,0:0|0:0,0:0:0:0:
449,219,35344,1,4,0:3:0:0:
268,297,35517,6,0,B|193:318|29:224|29:224,1,240,8|4,0:0|0:3,0:0:0:0:
41,230,36034,1,0,0:0:0:0:
181,188,36206,2,0,B|201:144|173:44|173:44,1,120,8|0,0:0|0:0,0:0:0:0:
174,58,36465,1,0,0:0:0:0:
167,48,36551,1,0,0:0:0:0:
50,125,36724,2,0,B|81:131|119:126|119:126,1,60,4|0,0:3|0:0,0:0:0:0:
272,91,36896,2,0,B|316:71|416:99|416:99,1,120,8|0,0:0|0:0,0:0:0:0:
454,153,37155,1,0,0:0:0:0:
456,164,37241,5,4,0:3:0:0:
435,263,37413,1,4,0:3:0:0:
293,219,37586,2,0,B|238:171|159:191|159:191,1,120,8|0,0:0|0:0,0:0:0:0:
147,306,37844,1,0,0:0:0:0:
155,314,37931,1,0,0:0:0:0:
166,317,38017,1,0,0:0:0:0:
177,317,38103,1,4,0:3:0:0:
173,282,38275,2,0,B|193:231|193:231|147:80,1,180,8|0,0:0|0:0,0:0:0:0:
11,23,38620,6,0,B|64:4|146:70|269:17|269:17,1,240,4|8,0:3|0:0,0:0:0:0:
442,2,39137,1,0,0:0:0:0:
441,14,39224,1,0,0:0:0:0:
440,25,39310,1,0,0:0:0:0:
423,103,39482,2,0,B|417:141|404:160|404:160,1,60,4|0,0:3|0:0,0:0:0:0:
349,254,39655,2,0,B|402:237|495:261|495:261,1,120,8|0,0:0|0:0,0:0:0:0:
504,334,39913,1,0,0:0:0:0:
492,338,40000,5,4,0:3:0:0:
362,272,40172,1,4,0:3:0:0:
215,363,40344,2,0,B|138:370|62:288|62:288,1,120,8|0,0:0|0:0,0:0:0:0:
152,187,40603,1,0,0:0:0:0:
154,198,40689,2,0,B|159:229|134:269|134:269,1,60,0|0,0:0|0:0,0:0:0:0:
39,276,40862,1,4,0:3:0:0:
55,102,41034,6,0,B|124:82|202:165|309:84|309:84,1,240,8|4,0:0|0:3,0:0:0:0:
290,95,41551,1,0,0:0:0:0:
411,67,41724,2,0,B|416:127|399:206|399:206,1,120,8|0,0:0|0:0,0:0:0:0:
400,198,41982,1,0,0:0:0:0:
395,209,42068,1,0,0:0:0:0:
260,243,42241,2,0,B|291:236|331:244|331:244,1,60,4|0,0:3|0:0,0:0:0:0:
479,327,42413,2,0,B|412:312|358:324|358:324,1,120,8|0,0:0|0:0,0:0:0:0:
256,192,42758,12,0,43965,0:0:0:0:
159,76,44137,6,0,P|188:102|207:137,1,45.0000017166138,6|0,0:1|0:0,0:0:0:0:
270,78,44310,2,0,P|272:116|260:155,1,45.0000017166138,2|0,0:0|0:0,0:0:0:0:
346,159,44482,2,0,P|319:187|285:207,1,45.0000017166138,10|0,0:0|0:0,0:0:0:0:
238,228,44655,1,0,0:0:0:0:
280,219,44741,1,0,0:0:0:0:
315,191,44827,6,0,P|332:176|361:132,1,60,2|0,0:0|0:0,0:0:0:0:
271,122,45000,2,0,P|272:99|261:47,1,60,6|0,0:3|0:0,0:0:0:0:
191,106,45172,2,0,P|176:89|131:60,1,60,10|0,0:0|0:0,0:0:0:0:
219,194,45344,1,0,0:0:0:0:
216,205,45431,1,0,0:0:0:0:
213,216,45517,6,0,P|160:243|78:231,1,120,4|4,0:3|0:3,0:0:0:0:
301,336,45862,2,0,L|316:189,1,120,8|0,0:0|0:0,0:0:0:0:
386,140,46120,1,0,0:0:0:0:
397,135,46206,1,0,0:0:0:0:
409,133,46293,1,0,0:0:0:0:
420,134,46379,1,4,0:3:0:0:
403,167,46551,2,0,P|322:121|266:38,1,180,8|0,0:0|0:0,0:0:0:0:
146,17,46896,6,0,L|160:84,1,45.0000017166139,6|0,0:3|0:0,0:0:0:0:
198,74,47069,2,0,L|132:52,1,45.0000017166139,2|0,0:0|0:0,0:0:0:0:
122,91,47241,2,0,L|173:44,1,45.0000017166139,10|0,0:0|0:0,0:0:0:0:
180,34,47414,5,0,0:0:0:0:
165,96,47500,1,0,0:0:0:0:
122,53,47586,1,0,0:0:0:0:
281,116,47758,1,4,0:3:0:0:
258,310,47931,2,0,P|239:254|247:195,1,120,8|0,0:0|0:0,0:0:0:0:
380,114,48189,1,0,0:0:0:0:
384,124,48276,6,0,P|300:124|283:113,1,60,6|0,0:3|0:0,0:0:0:0:
452,68,48448,2,0,P|494:-4|512:-13,1,60,6|0,0:3|0:0,0:0:0:0:
476,157,48620,2,0,P|518:229|516:249,1,60,10|0,0:0|0:0,0:0:0:0:
394,258,48793,1,0,0:0:0:0:
389,246,48879,1,0,0:0:0:0:
390,234,48965,6,0,P|397:312|395:319,1,60,2|0,0:0|0:0,0:0:0:0:
457,312,49138,2,0,P|385:279|380:273,1,60,6|0,0:3|0:0,0:0:0:0:
356,333,49310,2,0,P|420:287|427:286,1,60,10|0,0:0|0:0,0:0:0:0:
228,221,49483,1,0,0:0:0:0:
226,208,49569,1,0,0:0:0:0:
223,197,49655,6,0,L|237:264,1,45.0000017166139,6|0,0:1|0:0,0:0:0:0:
275,254,49828,2,0,L|209:232,1,45.0000017166139,2|0,0:0|0:0,0:0:0:0:
199,271,50000,2,0,L|250:224,1,45.0000017166139,10|0,0:0|0:0,0:0:0:0:
267,206,50173,1,0,0:0:0:0:
242,279,50259,1,0,0:0:0:0:
189,222,50345,6,0,L|130:205,1,60,2|0,0:0|0:0,0:0:0:0:
267,206,50517,2,0,L|308:163,1,60,6|0,0:3|0:0,0:0:0:0:
242,279,50689,2,0,L|257:336,1,60,10|0,0:0|0:0,0:0:0:0:
131,73,50862,1,0,0:0:0:0:
135,83,50948,1,0,0:0:0:0:
143,91,51034,6,0,P|216:98|285:64,1,120,4|4,0:3|0:3,0:0:0:0:
39,139,51379,2,0,L|58:306,1,120,8|0,0:0|0:0,0:0:0:0:
95,335,51638,1,0,0:0:0:0:
91,346,51724,1,0,0:0:0:0:
84,355,51810,1,0,0:0:0:0:
73,360,51896,1,4,0:3:0:0:
68,328,52069,2,0,B|123:308|153:330|153:333|153:337|183:361|275:327,1,180,8|0,0:0|0:0,0:0:0:0:
319,190,52414,6,0,P|322:221|320:254,1,45.0000017166138,6|0,0:3|0:0,0:0:0:0:
361,254,52586,2,0,P|332:241|305:222,1,45.0000017166138,2|0,0:0|0:0,0:0:0:0:
284,259,52758,2,0,P|309:240|338:226,1,45.0000017166138,10|0,0:0|0:0,0:0:0:0:
355,210,52931,5,0,0:0:0:0:
322,272,53017,1,0,0:0:0:0:
289,208,53103,1,0,0:0:0:0:
423,313,53276,1,4,0:3:0:0:
208,188,53448,2,0,P|265:173|321:190,1,120,8|0,0:0|0:0,0:0:0:0:
127,141,53707,1,0,0:0:0:0:
133,153,53793,6,0,P|110:171|83:184,1,60,6|0,0:3|0:0,0:0:0:0:
0,147,53965,2,0,P|-3:117|0:88,1,60,6|0,0:3|0:0,0:0:0:0:
84,27,54138,2,0,P|112:38|136:57,1,60,10|0,0:0|0:0,0:0:0:0:
146,252,54310,1,0,0:0:0:0:
134,269,54396,1,0,0:0:0:0:
122,281,54483,6,0,P|187:272|200:268,1,60,2|0,0:0|0:0,0:0:0:0:
217,321,54655,2,0,P|176:269|166:259,1,60,6|0,0:3|0:0,0:0:0:0:
203,218,54827,2,0,P|178:278|175:292,1,60,10|0,0:0|0:0,0:0:0:0:
334,211,55000,1,0,0:0:0:0:
328,190,55086,1,0,0:0:0:0:
321,169,55172,6,0,L|346:247,1,45.0000017166138,6|0,0:1|0:0,0:0:0:0:
378,221,55344,2,0,L|297:203,1,45.0000017166138,2|0,0:0|0:0,0:0:0:0:
303,244,55517,2,0,L|358:183,1,45.0000017166138,10|0,0:0|0:0,0:0:0:0:
367,178,55689,1,0,0:0:0:0:
351,253,55775,1,0,0:0:0:0:
293,200,55862,6,0,L|224:183,1,60,2|0,0:0|0:0,0:0:0:0:
367,178,56034,2,0,L|414:125,1,60,6|0,0:3|0:0,0:0:0:0:
351,253,56206,2,0,L|371:318,1,60,10|0,0:0|0:0,0:0:0:0:
279,346,56379,1,0,0:0:0:0:
272,358,56465,1,0,0:0:0:0:
265,370,56551,6,0,P|182:360|114:363,1,120,4|4,0:3|0:3,0:0:0:0:
0,317,56896,2,0,P|16:259|54:213,1,120,8|0,0:0|0:0,0:0:0:0:
137,120,57155,1,0,0:0:0:0:
130,109,57241,1,0,0:0:0:0:
120,101,57327,1,0,0:0:0:0:
109,96,57413,1,4,0:3:0:0:
101,135,57586,2,0,L|300:120,1,180,8|0,0:0|0:0,0:0:0:0:
376,123,57931,6,0,P|377:186|371:202,1,45.0000017166138,6|0,0:3|0:0,0:0:0:0:
421,185,58103,2,0,P|365:154|355:141,1,45.0000017166138,2|0,0:0|0:0,0:0:0:0:
344,192,58275,2,0,P|398:159|414:156,1,45.0000017166138,10|0,0:0|0:0,0:0:0:0:
405,143,58448,5,0,0:0:0:0:
384,204,58534,1,0,0:0:0:0:
350,149,58620,1,0,0:0:0:0:
491,104,58793,1,4,0:3:0:0:
384,217,58965,2,0,P|384:283|367:377,1,120,8|0,0:0|0:0,0:0:0:0:
123,240,59224,1,0,0:0:0:0:
128,230,59310,6,0,P|137:196|138:148,1,60,6|0,0:3|0:0,0:0:0:0:
170,304,59482,2,0,P|194:328|236:353,1,60,6|0,0:3|0:0,0:0:0:0:
86,307,59655,2,0,P|52:316|9:339,1,60,10|0,0:0|0:0,0:0:0:0:
225,183,59827,1,0,0:0:0:0:
223,171,59913,1,0,0:0:0:0:
217,159,60000,6,0,P|247:167|276:168,1,60,2|0,0:0|0:0,0:0:0:0:
299,223,60172,2,0,P|290:194|276:167,1,60,6|0,0:3|0:0,0:0:0:0:
313,120,60344,2,0,P|292:141|276:166,1,60,10|0,0:0|0:0,0:0:0:0:
376,182,60517,1,0,0:0:0:0:
186,52,60689,6,0,P|230:50|260:38,1,45.0000017166138,6|0,0:1|0:0,0:0:0:0:
113,94,60862,2,0,P|145:123|175:136,1,45.0000017166138,2|0,0:0|0:0,0:0:0:0:
51,36,61034,1,10,0:0:0:0:
271,83,61206,1,0,0:0:0:0:
254,89,61293,1,0,0:0:0:0:
232,88,61379,6,0,P|206:73|186:51,1,60,2|0,0:0|0:0,0:0:0:0:
119,152,61551,2,0,P|112:123|113:94,1,60,6|0,0:3|0:0,0:0:0:0:
13,82,61724,2,0,P|29:56|51:36,1,60,10|0,0:0|0:0,0:0:0:0:
48,187,61896,1,0,0:0:0:0:
52,197,61982,1,0,0:0:0:0:
55,208,62068,6,0,P|58:284|48:335,1,120,4|4,0:3|0:3,0:0:0:0:
281,304,62413,2,0,L|113:290,1,120,8|0,0:0|0:0,0:0:0:0:
153,191,62672,1,0,0:0:0:0:
159,181,62758,1,0,0:0:0:0:
170,177,62844,1,0,0:0:0:0:
182,176,62931,1,4,0:3:0:0:
176,216,63103,2,0,P|163:130|215:15,1,180,8|0,0:0|0:0,0:0:0:0:
317,110,63448,6,0,L|331:177,1,45.0000017166139,6|0,0:3|0:0,0:0:0:0:
369,167,63621,2,0,L|303:145,1,45.0000017166139,2|0,0:0|0:0,0:0:0:0:
293,184,63793,2,0,L|344:137,1,45.0000017166139,10|0,0:0|0:0,0:0:0:0:
351,127,63966,5,0,0:0:0:0:
336,189,64052,1,0,0:0:0:0:
293,146,64138,1,0,0:0:0:0:
474,131,64310,1,4,0:3:0:0:
368,298,64482,2,0,P|271:279|226:292,1,120,8|0,0:0|0:0,0:0:0:0:
149,355,64741,1,0,0:0:0:0:
146,343,64827,6,0,L|133:269,1,60,6|0,0:3|0:0,0:0:0:0:
224,161,65000,2,0,L|178:199,1,60,6|0,0:3|0:0,0:0:0:0:
20,188,65172,2,0,L|76:207,1,60,10|0,0:0|0:0,0:0:0:0:
195,73,65344,1,0,0:0:0:0:
196,34,65431,1,0,0:0:0:0:
184,30,65517,6,0,P|108:32|73:40,1,60,2|0,0:0|0:0,0:0:0:0:
316,109,65689,2,0,P|260:56|230:37,1,60,6|0,0:3|0:0,0:0:0:0:
338,251,65862,2,0,P|336:175|328:140,1,60,10|0,0:0|0:0,0:0:0:0:
251,372,66034,2,0,P|303:316|322:286,1,60
15,269,66206,6,0,B|127:322|271:238|271:238,1,240,4|8,0:1|0:0,0:0:0:0:
151,147,66724,1,0,0:0:0:0:
143,137,66810,1,0,0:0:0:0:
145,125,66896,1,0,0:0:0:0:
249,103,67068,2,0,B|260:130|234:182|234:182,1,60,4|0,0:3|0:0,0:0:0:0:
180,49,67241,2,0,B|238:55|306:42|306:42,1,120,8|0,0:0|0:0,0:0:0:0:
385,21,67500,1,0,0:0:0:0:
393,29,67586,5,4,0:3:0:0:
359,110,67758,1,4,0:3:0:0:
438,304,67931,2,0,B|451:243|430:147|430:147,1,120,8|0,0:0|0:0,0:0:0:0:
352,223,68189,1,0,0:0:0:0:
345,232,68275,2,0,B|312:239|275:238|275:238,1,60,0|0,0:0|0:0,0:0:0:0:
436,184,68448,1,4,0:3:0:0:
352,338,68620,6,0,B|266:356|96:253,1,240,8|4,0:0|0:3,0:0:0:0:
126,270,69137,1,0,0:0:0:0:
83,45,69310,2,0,B|69:103|77:175,1,120,8|0,0:0|0:0,0:0:0:0:
78,176,69568,1,0,0:0:0:0:
81,187,69655,1,0,0:0:0:0:
41,290,69827,2,0,B|89:307|136:292|136:292,1,60,4|0,0:3|0:0,0:0:0:0:
185,268,70000,2,0,B|237:238|322:241|322:241,1,120,8|0,0:0|0:0,0:0:0:0:
383,255,70258,1,0,0:0:0:0:
395,265,70344,5,4,0:3:0:0:
331,328,70517,1,4,0:3:0:0:
346,172,70689,2,0,B|317:102|348:52|348:52,1,120,8|0,0:0|0:0,0:0:0:0:
430,25,70948,1,0,0:0:0:0:
441,28,71034,1,0,0:0:0:0:
450,34,71120,1,0,0:0:0:0:
458,42,71206,1,4,0:3:0:0:
438,53,71379,2,0,B|371:48|371:48|326:60|326:60|223:48,1,180,8|0,0:0|0:0,0:0:0:0:
131,62,71724,6,0,B|194:266|154:307|154:307,1,240,4|8,0:1|0:0,0:0:0:0:
22,292,72241,1,0,0:0:0:0:
27,281,72327,1,0,0:0:0:0:
35,273,72413,1,0,0:0:0:0:
52,373,72586,2,0,B|89:386|124:367|124:367,1,60,4|0,0:3|0:0,0:0:0:0:
160,297,72758,2,0,B|213:276|328:301|328:301,1,120,8|0,0:0|0:0,0:0:0:0:
338,350,73017,1,0,0:0:0:0:
347,358,73103,5,4,0:3:0:0:
362,252,73275,1,4,0:3:0:0:
475,137,73448,2,0,B|478:234|446:290|446:290,1,120,8|0,0:0|0:0,0:0:0:0:
357,237,73706,1,0,0:0:0:0:
355,225,73793,2,0,B|350:192|351:147|351:147,1,60
475,137,73965,1,4,0:3:0:0:
189,119,74137,6,0,B|294:172|410:75,1,240,8|4,0:0|0:3,0:0:0:0:
409,75,74655,1,0,0:0:0:0:
200,0,74827,2,0,B|209:69|182:138|182:138,1,120,8|0,0:0|0:0,0:0:0:0:
187,130,75086,1,0,0:0:0:0:
184,141,75172,1,0,0:0:0:0:
38,47,75344,2,0,B|32:88|47:123|47:123,1,60,4|0,0:3|0:0,0:0:0:0:
8,217,75517,2,0,B|60:196|150:235|150:235,1,120,8|0,0:0|0:0,0:0:0:0:
186,287,75775,1,0,0:0:0:0:
187,299,75862,5,4,0:3:0:0:
134,369,76034,1,4,0:3:0:0:
272,288,76206,2,0,B|320:273|402:280|402:280,1,120,8|0,0:0|0:0,0:0:0:0:
466,352,76465,1,0,0:0:0:0:
463,340,76551,1,0,0:0:0:0:
463,328,76637,1,0,0:0:0:0:
466,316,76724,1,4,0:3:0:0:
505,337,76896,2,0,B|473:273|473:273|488:117,1,180,8|0,0:0|0:0,0:0:0:0:
336,156,77241,6,0,B|238:271|73:135|73:135,1,240,4|8,0:1|0:0,0:0:0:0:
63,9,77758,1,0,0:0:0:0:
67,19,77844,1,0,0:0:0:0:
71,30,77931,1,0,0:0:0:0:
27,170,78103,2,0,B|26:145|41:108|41:108,1,60,4|0,0:3|0:0,0:0:0:0:
51,263,78275,2,0,B|142:208|196:239|196:239,1,120,8|0,0:0|0:0,0:0:0:0:
217,294,78534,1,0,0:0:0:0:
221,305,78620,5,4,0:3:0:0:
180,211,78793,1,4,0:3:0:0:
318,250,78965,2,0,B|428:274|456:241|456:241,1,120,8|0,0:0|0:0,0:0:0:0:
478,176,79224,1,0,0:0:0:0:
485,166,79310,2,0,B|501:147|482:83|482:83,1,60
464,17,79482,1,4,0:3:0:0:
319,49,79655,6,0,B|176:156|332:260|332:260,1,240,8|4,0:0|0:3,0:0:0:0:
317,249,80172,1,0,0:0:0:0:
217,379,80344,2,0,B|207:316|215:259|215:259,1,120,8|0,0:0|0:0,0:0:0:0:
216,247,80603,1,0,0:0:0:0:
217,235,80689,1,0,0:0:0:0:
80,290,80862,2,0,B|107:313|160:290|160:290,1,60,4|0,0:3|0:0,0:0:0:0:
331,274,81034,2,0,B|295:240|199:263|199:263,1,120,8|0,0:0|0:0,0:0:0:0:
159,200,81293,1,0,0:0:0:0:
153,188,81379,5,4,0:3:0:0:
241,150,81551,1,4,0:3:0:0:
331,274,81724,2,0,B|368:234|337:143|337:143,1,120,8|0,0:0|0:0,0:0:0:0:
373,58,81982,1,0,0:0:0:0:
361,53,82068,1,0,0:0:0:0:
348,51,82155,1,0,0:0:0:0:
336,53,82241,1,4,0:3:0:0:
353,83,82413,2,0,B|287:75|287:75|248:89|248:89|125:71,1,180,8|0,0:0|0:0,0:0:0:0:
82,38,82758,6,0,B|7:196|95:295|95:295,1,240,4|8,0:1|0:0,0:0:0:0:
236,262,83275,1,0,0:0:0:0:
225,256,83362,1,0,0:0:0:0:
214,250,83448,1,0,0:0:0:0:
164,318,83620,2,0,B|161:363|177:382|177:382,1,60,4|0,0:3|0:0,0:0:0:0:
236,262,83793,2,0,B|291:289|366:264|366:264,1,120,8|0,0:0|0:0,0:0:0:0:
425,229,84051,1,0,0:0:0:0:
429,217,84137,5,4,0:3:0:0:
453,306,84310,1,4,0:3:0:0:
436,203,84482,2,0,B|419:144|426:62|426:62,1,120,8|0,0:0|0:0,0:0:0:0:
368,6,84741,1,0,0:0:0:0:
361,16,84827,2,0,B|345:53|352:100|352:100,1,60
438,74,85000,1,4,0:3:0:0:
393,278,85172,6,0,B|302:253|231:345|131:271|131:271,1,240,8|4,0:0|0:3,0:0:0:0:
156,284,85689,1,0,0:0:0:0:
84,92,85862,2,0,B|58:137|87:256|87:256,1,120,8|0,0:0|0:0,0:0:0:0:
81,222,86120,1,0,0:0:0:0:
83,233,86206,1,0,0:0:0:0:
156,284,86379,2,0,B|181:307|214:314|214:314,1,60,4|0,0:3|0:0,0:0:0:0:
65,328,86551,2,0,B|48:273|97:161|97:161,1,120,8|0,0:0|0:0,0:0:0:0:
111,122,86810,1,0,0:0:0:0:
103,112,86896,6,0,P|180:148|216:106,1,120,4|4,0:3|0:3,0:0:0:0:
179,21,87241,2,0,P|207:100|300:72,1,180,8|4,0:0|0:3,0:0:0:0:
308,13,87586,2,0,P|272:90|313:126,1,120,0|4,0:0|0:3,0:0:0:0:
310,137,87931,1,8,0:0:0:0:
339,142,88103,1,0,0:0:0:0:
148,266,88275,6,0,B|237:249|237:249|309:274|309:274|409:250,1,270.000010299683,4|0,0:1|0:0,0:0:0:0:
422,345,88620,2,0,P|338:358|404:287,1,180.000006866455,8|0,0:0|0:0,0:0:0:0:
418,258,88879,1,0,0:0:0:0:
418,258,88965,1,0,0:0:0:0:
260,283,89137,2,0,L|152:280,1,90.0000034332277,4|0,0:3|0:0,0:0:0:0:
31,301,89310,2,0,P|172:301|293:368,1,270.000010299683,8|0,0:0|0:0,0:0:0:0:
170,280,89655,6,0,L|164:162,1,90.0000034332277,4|0,0:3|0:0,0:0:0:0:
283,359,89827,2,0,L|289:241,1,90.0000034332277,4|0,0:3|0:0,0:0:0:0:
509,273,90000,2,0,P|393:349|340:315,1,180.000006866455,8|0,0:0|0:0,0:0:0:0:
418,258,90258,1,0,0:0:0:0:
425,241,90344,2,0,P|430:297|416:353,1,90.0000034332277
345,294,90517,2,0,P|308:337|259:366,1,90.0000034332277,4|0,0:3|0:0,0:0:0:0:
90,289,90689,2,0,B|159:249|213:289|213:293|213:298|257:340|345:295,1,270.000010299683,8|0,0:0|0:0,0:0:0:0:
195,333,91034,6,0,P|237:350|281:357,1,90.0000034332277,4|0,0:3|0:0,0:0:0:0:
279,233,91206,1,0,0:0:0:0:
106,362,91379,2,0,P|70:266|67:183,1,180.000006866455,8|0,0:0|0:0,0:0:0:0:
169,177,91637,1,0,0:0:0:0:
169,177,91724,2,0,P|163:237|148:277,1,90.0000034332277
55,355,91896,2,0,P|61:295|76:255,1,90.0000034332277,4|0,0:3|0:0,0:0:0:0:
209,337,92068,2,0,L|430:325,1,180.000006866455,8|0,0:0|0:0,0:0:0:0:
512,283,92327,1,0,0:0:0:0:
504,299,92413,6,0,L|356:286,1,90.0000034332277,4|0,0:3|0:0,0:0:0:0:
328,280,92586,2,0,L|180:267,1,90.0000034332277,4|0,0:3|0:0,0:0:0:0:
48,228,92758,2,0,P|168:255|272:201,1,180.000006866455,8|0,0:0|0:0,0:0:0:0:
399,239,93017,1,0,0:0:0:0:
411,252,93103,2,0,P|314:278|295:273,1,90.0000034332277,0|0,0:0|0:0,0:0:0:0:
332,368,93275,2,0,P|288:355|253:328,1,90.0000034332277,4|0,0:3|0:0,0:0:0:0:
110,276,93448,2,0,B|216:284|216:284|273:267|273:267|377:278,1,270.000010299683,8|0,0:0|0:0,0:0:0:0:
455,317,93793,6,0,P|411:304|376:277,1,90.0000034332277,4|0,0:3|0:0,0:0:0:0:
299,269,93965,2,0,P|277:228|271:184,1,90.0000034332277,0|0,0:0|0:0,0:0:0:0:
460,199,94137,2,0,P|460:288|443:377,1,180.000006866455,8|0,0:0|0:0,0:0:0:0:
324,356,94396,1,0,0:0:0:0:
316,343,94482,2,0,P|343:304|398:265,1,90.0000034332277
280,250,94655,2,0,P|253:211|198:172,1,90.0000034332277,4|0,0:3|0:0,0:0:0:0:
143,241,94827,2,0,P|85:282|158:333,1,180.000006866455,8|0,0:0|0:0,0:0:0:0:
223,384,95086,1,0,0:0:0:0:
240,378,95172,6,0,P|284:355|322:304,1,90.0000034332277,4|0,0:3|0:0,0:0:0:0:
241,217,95344,2,0,P|288:231|351:222,1,90.0000034332277,4|0,0:3|0:0,0:0:0:0:
501,252,95517,2,0,P|422:308|487:366,1,180.000006866455,8|0,0:0|0:0,0:0:0:0:
428,230,95775,1,0,0:0:0:0:
415,217,95862,2,0,P|370:215|327:229,1,90.0000034332277,0|0,0:0|0:0,0:0:0:0:
241,217,96034,2,0,P|208:247|188:287,1,90.0000034332277,4|0,0:3|0:0,0:0:0:0:
345,376,96206,2,0,B|265:368|265:368|251:374|251:374|167:364,1,180.000006866455,8|0,0:0|0:0,0:0:0:0:
86,304,96465,1,0,0:0:0:0:
82,286,96551,6,0,P|99:188|113:166,1,90.0000034332277,4|0,0:3|0:0,0:0:0:0:
258,233,96724,1,0,0:0:0:0:
438,249,96896,2,0,L|199:228,1,180.000006866455,8|0,0:0|0:0,0:0:0:0:
188,287,97155,1,0,0:0:0:0:
205,289,97241,2,0,P|236:320|258:359,1,90.0000034332277
345,241,97413,2,0,P|345:285|332:329,1,90.0000034332277,4|0,0:3|0:0,0:0:0:0:
183,274,97586,2,0,P|266:212|349:235,1,180.000006866455,8|0,0:0|0:0,0:0:0:0:
216,206,97844,1,0,0:0:0:0:
199,198,97931,6,0,L|37:199,1,90.0000034332277,4|0,0:3|0:0,0:0:0:0:
89,232,98103,2,0,L|-73:233,1,90.0000034332277,4|0,0:3|0:0,0:0:0:0:
182,329,98275,2,0,B|248:361|317:315|317:315|276:290,1,180.000006866455,8|0,0:0|0:0,0:0:0:0:
238,32,98534,1,0,0:0:0:0:
238,32,98620,6,0,P|254:67|251:104,1,60,4|0,0:3|0:0,0:0:0:0:
271,32,98965,2,0,P|255:67|258:104,1,60,4|0,0:3|0:0,0:0:0:0:
442,312,99310,6,0,B|335:363|254:305|238:222|347:218|345:306,1,270.000010299683,4|0,0:1|0:0,0:0:0:0:
298,342,99655,2,0,B|203:359|199:300|95:328,1,180.000006866455,8|0,0:0|0:0,0:0:0:0:
49,344,99913,1,0,0:0:0:0:
38,329,100000,2,0,P|30:214|34:203,1,90.0000034332277,0|0,0:0|0:0,0:0:0:0:
124,294,100172,2,0,P|199:207|210:202,1,90.0000034332277,4|0,0:3|0:0,0:0:0:0:
221,321,100344,2,0,B|360:339|477:317,1,180.000006866455,8|0,0:0|0:0,0:0:0:0:
437,198,100603,1,0,0:0:0:0:
433,223,100689,6,0,P|412:263|384:298,1,90.0000034332277,4|0,0:3|0:0,0:0:0:0:
449,361,100862,2,0,P|406:374|361:378,1,90.0000034332277,4|0,0:3|0:0,0:0:0:0:
124,294,101034,2,0,P|245:310|340:247,1,180.000006866455,8|0,0:0|0:0,0:0:0:0:
322,189,101293,1,0,0:0:0:0:
309,200,101379,2,0,P|300:310|308:331,1,90.0000034332277
206,300,101551,2,0,P|277:384|297:393,1,90.0000034332277,4|0,0:3|0:0,0:0:0:0:
393,317,101724,2,0,B|295:287|295:287|73:316,1,270.000010299683,8|0,0:0|0:0,0:0:0:0:
0,223,102068,6,0,P|90:248|129:233,1,90.0000034332277,4|0,0:3|0:0,0:0:0:0:
191,212,102241,1,0,0:0:0:0:
115,361,102413,2,0,L|84:150,1,180.000006866455,8|0,0:0|0:0,0:0:0:0:
180,226,102672,1,0,0:0:0:0:
191,212,102758,2,0,P|272:257|289:296,1,90.0000034332277
331,189,102931,2,0,P|356:278|340:317,1,90.0000034332277,4|0,0:3|0:0,0:0:0:0:
252,280,103103,2,0,L|476:254,1,180.000006866455,8|0,0:0|0:0,0:0:0:0:
404,365,103362,1,0,0:0:0:0:
388,356,103448,6,0,P|357:261|358:238,1,90.0000034332277,4|0,0:3|0:0,0:0:0:0:
439,257,103620,2,0,P|484:167|501:152,1,90.0000034332277,4|0,0:3|0:0,0:0:0:0:
296,358,103793,2,0,P|178:370|104:333,1,180.000006866455,8|0,0:0|0:0,0:0:0:0:
86,275,104051,1,0,0:0:0:0:
97,261,104137,2,0,L|129:366,1,90.0000034332277,0|0,0:0|0:0,0:0:0:0:
27,203,104310,2,0,L|0:289,1,90.0000034332277,4|0,0:3|0:0,0:0:0:0:
294,206,104482,2,0,B|186:198|186:198|127:212|127:212|-26:197,1,270.000010299683,8|0,0:0|0:0,0:0:0:0:
214,262,104827,6,0,P|120:223|152:352,1,270.000010299683,4|0,0:3|0:0,0:0:0:0:
218,347,105172,2,0,B|281:329|334:392|421:319,1,180.000006866455,8|0,0:0|0:0,0:0:0:0:
412,246,105431,1,0,0:0:0:0:
423,259,105517,2,0,P|427:208|406:155,1,90.0000034332277,0|0,0:0|0:0,0:0:0:0:
328,288,105689,2,0,P|316:331|320:375,1,90.0000034332277,4|0,0:3|0:0,0:0:0:0:
254,230,105862,2,0,P|344:204|432:293,1,180.000006866455,8|0,0:0|0:0,0:0:0:0:
474,344,106120,1,0,0:0:0:0:
482,355,106206,6,0,L|357:331,1,90.0000034332277,4|0,0:3|0:0,0:0:0:0:
294,365,106379,2,0,L|169:341,1,90.0000034332277,4|0,0:3|0:0,0:0:0:0:
143,278,106551,2,0,B|11:247|11:247|99:324,1,180.000006866455,8|0,0:0|0:0,0:0:0:0:
76,354,106810,1,0,0:0:0:0:
93,351,106896,2,0,P|146:265|148:223,1,90.0000034332277,0|0,0:0|0:0,0:0:0:0:
245,317,107068,2,0,P|221:218|193:187,1,90.0000034332277,4|0,0:3|0:0,0:0:0:0:
93,351,107241,2,0,P|214:300|261:334,1,180.000006866455,8|0,0:0|0:0,0:0:0:0:
319,372,107500,1,0,0:0:0:0:
333,362,107586,6,0,L|354:239,1,90.0000034332277,4|0,0:3|0:0,0:0:0:0:
445,308,107758,1,0,0:0:0:0:
245,317,107931,2,0,L|459:308,1,180.000006866455,8|0,0:0|0:0,0:0:0:0:
412,229,108189,1,0,0:0:0:0:
401,213,108275,2,0,P|312:196|297:202,1,90.0000034332277,0|0,0:0|0:0,0:0:0:0:
239,233,108448,2,0,P|196:247|166:280,1,90.0000034332277,4|0,0:3|0:0,0:0:0:0:
174,376,108620,2,0,P|161:307|248:331,1,180.000006866455,8|0,0:0|0:0,0:0:0:0:
166,280,108879,1,0,0:0:0:0:
153,266,108965,6,0,P|103:176|98:160,1,90.0000034332277,4|0,0:3|0:0,0:0:0:0:
43,384,109137,2,0,P|71:285|79:270,1,90.0000034332277,4|0,0:3|0:0,0:0:0:0:
244,316,109310,2,0,B|315:342|375:307|375:307|304:272,1,180.000006866455,8|0,0:0|0:0,0:0:0:0:
225,14,109568,1,4,0:3:0:0:
225,14,109655,6,0,P|248:57|256:110,1,90,4|0,0:3|0:0,0:0:0:0:
286,14,110000,2,0,P|263:57|255:110,1,90,4|0,0:3|0:0,0:0:0:0:
226,276,110344,6,0,B|295:308|464:257|464:257,1,240,4|8,0:1|0:0,0:0:0:0:
456,86,110862,1,0,0:0:0:0:
455,96,110948,1,0,0:0:0:0:
454,107,111034,2,0,B|458:153|475:170|475:170,1,60
367,47,111206,1,4,0:3:0:0:
371,174,111379,2,0,B|336:145|255:121|255:121,1,120,8|0,0:0|0:0,0:0:0:0:
184,158,111637,1,0,0:0:0:0:
173,164,111724,5,4,0:3:0:0:
193,71,111896,1,4,0:3:0:0:
230,230,112068,2,0,B|228:297|207:373|207:373,1,120,8|0,0:0|0:0,0:0:0:0:
135,357,112327,1,0,0:0:0:0:
127,347,112413,2,0,B|116:318|111:266|111:266,1,60,0|0,0:0|0:0,0:0:0:0:
230,230,112586,1,4,0:3:0:0:
49,185,112758,6,0,B|151:159|195:286|295:187|295:187,1,240,8|4,0:0|0:3,0:0:0:0:
279,198,113275,1,0,0:0:0:0:
97,92,113448,2,0,B|172:119|224:121|224:121,1,120,8|0,0:0|0:0,0:0:0:0:
225,123,113706,1,0,0:0:0:0:
237,123,113793,2,0,B|249:90|240:57|240:57,1,60,0|0,0:0|0:0,0:0:0:0:
358,42,113965,1,4,0:3:0:0:
443,160,114137,2,0,B|455:264|429:325|429:325,1,120,8|0,0:0|0:0,0:0:0:0:
398,350,114396,1,0,0:0:0:0:
388,357,114482,5,4,0:3:0:0:
314,302,114655,1,4,0:3:0:0:
159,358,114827,2,0,B|87:354|40:296|40:296,1,120,8|0,0:0|0:0,0:0:0:0:
57,219,115086,1,0,0:0:0:0:
67,214,115172,1,0,0:0:0:0:
78,211,115258,1,0,0:0:0:0:
89,213,115344,1,4,0:3:0:0:
77,236,115517,2,0,B|55:131|55:131|105:35,1,180,8|0,0:0|0:0,0:0:0:0:
207,131,115862,6,0,B|268:120|345:253|461:123|461:123,1,240,4|8,0:1|0:0,0:0:0:0:
457,36,116379,1,0,0:0:0:0:
449,26,116465,1,0,0:0:0:0:
437,22,116551,2,0,B|395:39|373:67|373:67,1,60
354,171,116724,1,4,0:3:0:0:
240,46,116896,2,0,B|193:28|100:27|100:27,1,120,8|0,0:0|0:0,0:0:0:0:
59,75,117155,1,0,0:0:0:0:
55,86,117241,5,4,0:3:0:0:
123,151,117413,1,4,0:3:0:0:
68,326,117586,2,0,B|48:269|53:186|53:186,1,120,8|0,0:0|0:0,0:0:0:0:
134,148,117844,1,0,0:0:0:0:
145,145,117931,2,0,B|177:148|204:160|204:160,1,60
265,263,118103,1,4,0:3:0:0:
439,179,118275,6,0,B|378:143|189:160|189:160,1,240,8|4,0:0|0:3,0:0:0:0:
202,158,118793,1,0,0:0:0:0:
372,315,118965,2,0,B|329:278|229:252|229:252,1,120,8|0,0:0|0:0,0:0:0:0:
252,263,119224,1,0,0:0:0:0:
240,262,119310,2,0,B|227:303|233:339|233:339,1,60,0|0,0:0|0:0,0:0:0:0:
355,211,119482,1,4,0:3:0:0:
94,210,119655,2,0,B|137:173|237:147|237:147,1,120,8|0,0:0|0:0,0:0:0:0:
282,150,119913,1,0,0:0:0:0:
294,148,120000,5,4,0:3:0:0:
236,70,120172,1,4,0:3:0:0:
94,210,120344,2,0,B|79:261|102:343|102:343,1,120,8|0,0:0|0:0,0:0:0:0:
193,352,120603,1,0,0:0:0:0:
202,344,120689,1,0,0:0:0:0:
210,335,120775,1,0,0:0:0:0:
214,323,120862,1,4,0:3:0:0:
170,320,121034,2,0,B|249:338|249:338|381:305,1,180,8|0,0:0|0:0,0:0:0:0:
499,178,121379,6,0,B|527:392|351:390|351:390,1,240,4|8,0:1|0:0,0:0:0:0:
264,211,121896,1,0,0:0:0:0:
266,199,121982,1,0,0:0:0:0:
269,188,122068,2,0,B|304:192|345:213|345:213,1,60
406,249,122241,1,4,0:3:0:0:
273,54,122413,2,0,B|322:21|391:58|391:58,1,120,8|0,0:0|0:0,0:0:0:0:
433,123,122672,1,0,0:0:0:0:
433,134,122758,5,4,0:3:0:0:
401,43,122931,1,4,0:3:0:0:
212,150,123103,2,0,B|179:219|194:297|194:297,1,120,8|0,0:0|0:0,0:0:0:0:
249,339,123362,1,0,0:0:0:0:
257,347,123448,2,0,B|288:358|320:344|320:344,1,60,0|0,0:0|0:0,0:0:0:0:
389,291,123620,1,4,0:3:0:0:
191,266,123793,6,0,B|306:239|397:115|397:115,1,240,8|4,0:0|0:3,0:0:0:0:
384,130,124310,1,0,0:0:0:0:
261,7,124482,2,0,B|226:49|255:134|255:134,1,120,8|0,0:0|0:0,0:0:0:0:
256,132,124741,1,0,0:0:0:0:
261,142,124827,2,0,B|276:176|280:207|280:207,1,60
256,326,125000,1,4,0:3:0:0:
70,257,125172,2,0,B|120:228|191:251|191:251,1,120,8|0,0:0|0:0,0:0:0:0:
251,310,125431,1,0,0:0:0:0:
256,326,125517,5,4,0:3:0:0:
349,286,125689,1,4,0:3:0:0:
186,250,125862,2,0,B|150:177|191:87|191:87,1,120,8|0,0:0|0:0,0:0:0:0:
217,45,126120,1,0,0:0:0:0:
205,48,126206,1,0,0:0:0:0:
192,48,126293,1,0,0:0:0:0:
180,46,126379,1,4,0:3:0:0:
199,26,126551,2,0,B|267:24|267:24|301:40|301:40|416:36,1,180,8|0,0:0|0:0,0:0:0:0:
489,111,126896,6,0,B|529:193|443:254|495:377|495:377,1,240,4|8,0:1|0:0,0:0:0:0:
301,320,127413,1,0,0:0:0:0:
314,318,127500,1,0,0:0:0:0:
326,316,127586,2,0,B|340:289|336:243|336:243,1,60,0|0,0:0|0:0,0:0:0:0:
404,159,127758,1,4,0:3:0:0:
337,258,127931,2,0,B|287:222|209:240|209:240,1,120,8|0,0:0|0:0,0:0:0:0:
135,279,128189,1,0,0:0:0:0:
128,289,128275,5,4,0:3:0:0:
225,332,128448,1,4,0:3:0:0:
139,194,128620,2,0,B|78:200|32:256|32:256,1,120,8|0,0:0|0:0,0:0:0:0:
107,354,128879,1,0,0:0:0:0:
116,347,128965,2,0,B|128:319|127:283|127:283,1,60,0|0,0:0|0:0,0:0:0:0:
79,127,129137,1,4,0:3:0:0:
238,236,129310,2,0,B|335:265|324:149|461:195|461:195,1,180,8|0,0:0|0:0,0:0:0:0:
474,266,129655,5,4,0:3:0:0:
469,270,129741,1,0,0:0:0:0:
464,273,129827,1,0,0:0:0:0:
458,275,129913,1,0,0:0:0:0:
452,276,130000,1,8,0:0:0:0:
446,277,130086,1,0,0:0:0:0:
440,277,130172,1,0,0:0:0:0:
434,276,130258,1,0,0:0:0:0:
428,274,130344,6,0,P|404:243|390:206,1,60,0|0,0:0|0:0,0:0:0:0:
315,239,130517,2,0,P|319:200|336:164,1,60,4|0,0:3|0:0,0:0:0:0:
368,77,130689,1,8,0:0:0:0:
376,92,130775,1,0,0:0:0:0:
379,109,130862,1,0,0:0:0:0:
377,126,130948,1,0,0:0:0:0:
370,142,131034,6,0,P|350:168|310:183,1,60,4|0,0:3|0:0,0:0:0:0:
307,252,131206,2,0,P|274:256|235:238,1,60
172,273,131379,2,0,P|146:252|131:212,1,60,8|0,0:0|0:0,0:0:0:0:
68,153,131551,1,0,0:0:0:0:
80,140,131637,2,0,L|86:80,2,60,4|0|0,0:3|0:0|0:0,0:0:0:0:
14,206,131896,5,4,0:3:0:0:
20,235,131982,1,0,0:0:0:0:
26,264,132068,1,8,0:0:0:0:
32,293,132155,1,0,0:0:0:0:
39,322,132241,1,4,0:3:0:0:
46,351,132327,1,0,0:0:0:0:
52,380,132413,6,0,L|132:364,3,60,2|0|0|0,0:0|0:0|0:0|0:0,0:0:0:0:
176,309,132758,2,0,L|234:320,3,45.0000017166138,2|0|0|0,0:0|0:0|0:0|0:0,0:0:0:0:
299,342,133103,2,0,L|343:333,3,30,2|0|0|0,0:0|0:0|0:0|0:0,0:0:0:0:
388,271,133448,2,0,L|417:276,3,30,2|0|0|0,0:0|0:0|0:0|0:0,0:0:0:0:
321,208,133793,6,0,P|318:182|323:155,3,30,2|0|0|0,0:0|0:0|0:0|0:0,0:0:0:0:
219,193,134137,2,0,P|235:172|257:156,3,30,2|0|0|0,0:0|0:0|0:0|0:0,0:0:0:0:
193,101,134827,1,2,0:0:0:0:
256,192,134913,12,0,137931,0:0:0:0:
