osu file format v14

[General]
AudioFilename: audio.mp3
AudioLeadIn: 0
PreviewTime: 1721
Countdown: 1
SampleSet: None
StackLeniency: 0.7
Mode: 0
LetterboxInBreaks: 0
WidescreenStoryboard: 0

[Editor]
DistanceSpacing: 1.5
BeatDivisor: 8
GridSize: 4
TimelineZoom: 2.3

[Metadata]
Title:Suicide is Flawless
TitleUnicode:Suicide is Flawless
Artist:Dunno
ArtistUnicode:Dunno
Creator:DaxMasterix
Version:nuke
Source:
Tags:undertale death by glamour mettaton pleasedon'tnukethis
BeatmapID:1662296
BeatmapSetID:792500

[Difficulty]
HPDrainRate:6
CircleSize:4
OverallDifficulty:8
ApproachRate:9
SliderMultiplier:2.4
SliderTickRate:1

[Events]
//Background and Video events
Video,0,"Suicide-is-Flawless.avi"
0,0,"1.jpg",0,0
//Break Periods
//Storyboard Layer 0 (Background)
//Storyboard Layer 1 (Fail)
//Storyboard Layer 2 (Pass)
//Storyboard Layer 3 (Foreground)
//Storyboard Sound Samples

[TimingPoints]
100.245033112583,405.405405405405,4,3,0,40,1,0
27667,-100,4,2,0,5,0,0

[Colours]
Combo1 : 255,255,128
Combo2 : 128,255,128
Combo3 : 128,255,255
Combo4 : 255,128,128

[HitObjects]
256,192,100,12,2,1316,0:0:0:0:
324,280,1519,5,0,0:0:0:0:
324,280,1620,1,0,0:0:0:0:
324,280,1721,6,0,B|376:252|376:252|440:248|484:172,1,180
436,184,2127,2,0,L|492:296,1,120,2|0,0:0|0:0,0:0:0:0:
324,280,2431,2,0,L|344:40,1,240
60,48,2938,6,0,P|44:104|48:168,1,120,2|0,0:0|0:0,0:0:0:0:
336,156,3343,1,0,0:0:0:0:
92,264,3546,1,0,0:0:0:0:
324,280,3748,1,2,0:0:0:0:
47,165,3951,1,0,0:0:0:0:
47,165,4052,2,0,B|40:192|40:192|96:136|180:148,1,180
212,152,4458,1,0,0:0:0:0:
240,168,4559,1,2,0:0:0:0:
324,280,4762,1,0,0:0:0:0:
416,64,4965,6,0,P|360:36|304:32,1,120
428,156,5269,2,0,P|480:121|511:75,1,120
342,120,5573,1,0,0:0:0:0:
370,233,5775,2,0,B|377:259|377:259|321:203|237:215,1,180
416,332,6181,1,2,0:0:0:0:
96,332,6384,1,0,0:0:0:0:
96,64,6586,6,0,P|152:36|208:32,1,120
84,156,6890,2,0,P|31:121|0:75,1,120
170,120,7194,1,0,0:0:0:0:
142,233,7396,2,0,B|134:259|134:259|190:203|274:215,1,180
96,332,7802,1,2,0:0:0:0:
96,332,7904,1,0,0:0:0:0:
96,332,8005,1,0,0:0:0:0:
416,332,8208,5,0,0:0:0:0:
416,332,8411,1,0,0:0:0:0:
416,332,8613,2,0,P|440:268|436:216,1,120,2|0,0:0|0:0,0:0:0:0:
416,240,8917,2,0,P|476:216|448:72,1,240
395,217,9424,2,0,P|393:276|416:332,1,120,2|0,0:0|0:0,0:0:0:0:
448,72,9829,5,0,0:0:0:0:
220,100,10032,1,0,0:0:0:0:
152,320,10235,1,2,0:0:0:0:
380,292,10438,1,0,0:0:0:0:
380,292,10539,2,0,B|372:318|372:318|352:242|273:210,1,180
242,197,10945,1,0,0:0:0:0:
210,196,11046,1,2,0:0:0:0:
152,320,11248,1,0,0:0:0:0:
32,68,11451,6,0,P|80:36|144:36,1,120
296,68,11755,2,0,P|240:96|184:100,1,120
376,56,12059,1,0,0:0:0:0:
108,104,12262,2,0,L|88:284,1,180
184,100,12667,1,2,0:0:0:0:
12,286,12870,1,0,0:0:0:0:
332,336,13073,6,0,P|392:320|432:280,1,120
283,44,13377,2,0,P|223:60|183:100,1,120
432,108,13681,1,0,0:0:0:0:
183,272,13884,1,0,0:0:0:0:
256,192,13985,12,0,14593,0:0:0:0:
208,40,14694,6,0,L|88:72,1,120,6|0,0:0|0:0,0:0:0:0:
256,96,14998,1,0,0:0:0:0:
256,96,15100,1,2,0:0:0:0:
456,40,15302,1,0,0:0:0:0:
456,40,15404,1,0,0:0:0:0:
456,40,15505,6,0,L|504:76,1,60,4|0,0:0|0:0,0:0:0:0:
456,132,15708,2,0,L|504:168,1,60
456,224,15911,2,0,B|504:260|504:260|456:296,1,120,2|0,0:0|0:0,0:0:0:0:
80,336,16316,5,4,0:0:0:0:
44,264,16417,2,0,L|36:204,1,60
80,336,16620,5,0,0:0:0:0:
112,262,16721,2,0,L|152:217,1,60,2|0,0:0|0:0,0:0:0:0:
80,336,16924,5,0,0:0:0:0:
157,312,17025,2,0,L|217:314,2,60,0|4|0,0:0|0:0|0:0,0:0:0:0:
288,344,17329,5,0,0:0:0:0:
324,332,17430,1,0,0:0:0:0:
365,320,17532,2,0,L|488:324,1,120,2|0,0:0|0:0,0:0:0:0:
147,64,17938,5,4,0:0:0:0:
117,64,18039,1,0,0:0:0:0:
87,65,18140,1,0,0:0:0:0:
57,66,18242,1,0,0:0:0:0:
27,67,18343,6,0,L|20:128,1,60,2|0,0:0|0:0,0:0:0:0:
140,156,18546,2,0,L|132:216,1,60
252,244,18748,6,0,L|372:260,1,120,4|0,0:0|0:0,0:0:0:0:
264,244,19052,1,0,0:0:0:0:
260,244,19154,2,0,L|140:260,1,120,2|0,0:0|0:0,0:0:0:0:
312,124,19559,6,8,L|340:90,1,40,12|8,0:0|0:0,0:0:0:0:
278,106,19694,2,8,L|290:64,1,40
233,106,19829,2,8,L|221:64,1,40
199,124,19965,6,0,L|144:104,1,60,2|0,0:0|0:0,0:0:0:0:
64,120,20167,1,0,0:0:0:0:
176,204,20269,6,0,L|120:183,1,60,0|4,0:0|0:0,0:0:0:0:
40,199,20471,1,0,0:0:0:0:
153,284,20573,6,0,L|97:263,1,60
17,279,20775,1,2,0:0:0:0:
130,364,20877,6,0,L|74:343,2,60
404,104,21181,6,0,B|452:112|420:160|364:164|340:112|336:65|320:60,1,180,4|0,0:0|0:0,0:0:0:0:
124,40,21586,2,0,L|64:48,1,60,2|0,0:0|0:0,0:0:0:0:
124,188,21789,2,0,L|64:196,1,60
124,336,21992,5,4,0:0:0:0:
183,328,22093,1,0,0:0:0:0:
228,372,22194,5,0,0:0:0:0:
287,379,22295,1,0,0:0:0:0:
328,328,22397,5,2,0:0:0:0:
335,268,22498,1,0,0:0:0:0:
342,208,22599,1,0,0:0:0:0:
348,149,22701,1,0,0:0:0:0:
355,89,22802,6,0,L|396:80,2,40,4|0|0,0:0|0:0|0:0,0:0:0:0:
224,60,23005,2,0,L|264:50,2,40
148,172,23208,6,0,L|188:162,2,40,2|0|0,0:0|0:0|0:0,0:0:0:0:
16,142,23411,2,0,L|56:132,2,40
52,292,23613,5,4,0:0:0:0:
81,299,23714,1,0,0:0:0:0:
110,306,23815,1,0,0:0:0:0:
139,313,23917,1,0,0:0:0:0:
168,320,24019,6,0,L|228:308,1,60,2|0,0:0|0:0,0:0:0:0:
284,76,24221,2,0,L|343:63,1,60
458,307,24424,6,0,L|436:188,1,120,4|0,0:0|0:0,0:0:0:0:
75,188,24829,2,0,L|54:307,1,120,2|0,0:0|0:0,0:0:0:0:
340,184,25235,6,0,L|329:124,1,60,4|0,0:0|0:0,0:0:0:0:
182,124,25438,2,0,L|171:183,1,60
256,320,25640,2,0,L|256:200,1,120,2|0,0:0|0:0,0:0:0:0:
403,49,26046,6,0,L|444:44,5,40,4|0|0|0|0|0,0:0|0:0|0:0|0:0|0:0|0:0,0:0:0:0:
300,28,26451,1,2,0:0:0:0:
300,28,26654,1,0,0:0:0:0:
256,200,26857,6,0,L|288:196,7,30,4|0|0|0|0|0|0|0,0:0|0:0|0:0|0:0|0:0|0:0|0:0|0:0,0:0:0:0:
153,179,27262,1,2,0:0:0:0:
153,179,27363,1,0,0:0:0:0:
153,179,27465,1,0,0:0:0:0:
153,179,27566,1,0,0:0:0:0:
256,192,27667,12,0,29188,0:0:0:0:
