osu file format v14

[General]
AudioFilename: audio.mp3
AudioLeadIn: 0
PreviewTime:127871
Countdown: 0
SampleSet: Soft
StackLeniency: 0.7
Mode: 0
LetterboxInBreaks: 0
WidescreenStoryboard: 1

[Editor]
Bookmarks: 13,18299,36585,54870,73156,91442,109728,128013,146299
DistanceSpacing: 0.4
BeatDivisor: 4
GridSize: 32
TimelineZoom: 1

[Metadata]
Title:Stivert
TitleUnicode:Stivert
Artist:Dunlur
ArtistUnicode:Dunlur
Creator:hehe
Version:Easy
Source:
Tags:instrumental english funk lofi lo-fi hiphop hip hop hip-hop
BeatmapID:4098083
BeatmapSetID:1974678

[Difficulty]
HPDrainRate:2
CircleSize:3
OverallDifficulty:2
ApproachRate:3
SliderMultiplier:1
SliderTickRate:1

[Events]
//Background and Video events
0,0,"bg.jpg",0,0
//Break Periods
2,73356,80859
//Storyboard Layer 0 (Background)
//Storyboard Layer 1 (Fail)
//Storyboard Layer 2 (Pass)
//Storyboard Layer 3 (Foreground)
//Storyboard Layer 4 (Overlay)
//Storyboard Sound Samples

[TimingPoints]
14,571.428571428571,4,2,1,40,1,0
18299,-100,4,2,1,50,0,0
36585,-100,4,2,1,60,0,0
54871,-100,4,2,1,70,0,0
73156,-100,4,2,1,50,0,0
91442,-100,4,2,1,60,0,0
109156,-100,4,2,1,70,0,0
128013,-100,4,2,1,80,0,1
145728,-100,4,2,1,80,0,0

[Colours]
Combo1 : 192,192,192
Combo2 : 255,255,0
Combo3 : 255,255,128
Combo4 : 128,128,128

[HitObjects]
54,45,14,38,0,P|65:119|80:212,1,150,2|0,3:2|3:2,0:2:0:0:
325,216,2299,2,0,P|336:290|351:383,1,150,2|0,3:2|3:2,0:2:0:0:
473,208,4299,1,0,3:2:0:0:
502,167,4585,2,0,P|441:165|341:153,1,150,2|0,3:2|3:2,0:2:0:0:
206,357,6871,2,0,P|145:355|45:343,1,150,2|0,3:2|3:2,0:2:0:0:
4,151,8871,1,0,3:2:0:0:
35,112,9156,6,0,P|96:109|164:178,1,150,2|0,3:2|3:2,0:2:0:0:
373,35,11442,2,0,P|434:32|502:101,1,150,2|0,3:2|3:2,0:2:0:0:
437,279,13442,1,0,3:2:0:0:
474,312,13728,2,0,P|392:329|319:358,1,150,2|0,3:2|3:2,0:2:0:0:
205,135,16013,2,0,P|123:152|50:181,1,150,2|0,3:2|3:2,0:2:0:0:
22,371,18013,1,0,3:2:0:0:
71,379,18299,38,0,P|109:342|220:324,1,150,0|2,3:2|3:2,0:2:0:0:
346,355,20013,2,0,L|352:283,1,50,8|0,0:1|0:2,0:0:0:0:
393,280,20585,2,0,P|380:211|366:126,1,150,2|2,3:2|3:2,0:2:0:0:
254,33,22299,2,0,L|200:45,1,50,8|0,0:1|0:0,0:2:0:0:
157,28,22871,6,0,P|120:69|130:162,1,150,2|2,3:2|3:2,0:2:0:0:
51,287,24585,2,0,L|113:296,1,50,8|0,0:1|0:2,0:0:0:0:
132,332,25156,2,0,P|185:308|278:299,1,150,2|2,3:2|3:2,0:2:0:0:
410,364,26871,2,0,L|471:351,1,50,8|0,0:1|0:0,0:2:0:0:
504,333,27442,38,0,P|519:275|484:170,1,150,2|2,3:2|3:2,0:2:0:0:
347,193,29156,2,0,L|334:126,1,50,8|0,0:1|0:2,0:0:0:0:
362,100,29728,2,0,L|196:79,1,150,2|2,3:2|3:2,0:2:0:0:
79,12,31442,2,0,L|15:25,1,50,8|0,0:1|0:0,0:2:0:0:
7,66,32013,6,0,P|12:112|99:175,1,150,2|2,3:2|3:2,0:2:0:0:
212,258,33728,2,0,L|275:242,1,50,8|0,0:1|0:2,0:0:0:0:
309,256,34299,2,0,L|317:98,1,150,2|2,3:2|3:2,0:2:0:0:
453,45,36013,2,0,L|463:109,1,50,8|0,0:1|0:0,0:2:0:0:
498,127,36585,38,0,P|483:171|417:189,1,100,0|8,3:2|0:1,0:2:0:0:
402,228,37442,2,0,P|369:200|251:186,1,150,2|8,3:2|0:1,0:2:0:0:
191,115,38871,2,0,P|167:160|179:225,1,100,2|8,3:2|0:1,0:2:0:0:
138,245,39728,2,0,L|306:271,1,150,2|8,3:2|0:1,0:2:0:0:
351,343,41156,6,0,L|248:361,1,100,2|8,3:2|0:1,0:2:0:0:
213,328,42013,2,0,P|154:358|74:307,1,150,2|8,3:2|0:1,0:2:0:0:
9,256,43442,2,0,L|19:137,1,100,0|8,3:2|0:1,0:2:0:0:
64,138,44299,2,0,P|56:88|147:29,1,150,2|8,3:2|0:1,0:2:0:0:
220,55,45728,38,0,L|234:176,1,100,2|8,3:2|0:1,0:2:0:0:
200,193,46585,2,0,B|292:202|261:219|361:232,1,150,2|8,3:2|0:1,0:2:0:0:
430,280,48013,2,0,P|485:263|506:218,1,100,2|8,3:2|0:1,0:2:0:0:
484,182,48871,2,0,P|476:142|461:24,1,150,2|8,3:2|0:1,0:2:0:0:
365,7,50299,6,0,P|355:52|351:111,1,100,0|8,3:2|0:1,0:2:0:0:
304,123,51156,2,0,P|288:178|185:194,1,150,2|8,3:2|0:1,0:2:0:0:
136,276,52585,2,0,L|27:261,1,100,2|8,3:2|0:1,0:2:0:0:
8,221,53442,2,0,P|1:169|81:108,1,150,2|8,3:2|0:1,0:2:0:0:
119,22,54871,38,0,P|178:34|239:38,1,100,2|8,3:2|0:1,0:2:0:0:
250,75,55728,2,0,L|356:60,1,100,2|0,3:2|0:2,0:2:0:0:
397,48,56585,1,8,0:1:0:0:
479,104,57156,2,0,P|503:152|492:212,1,100,2|8,3:2|0:1,0:2:0:0:
491,246,58013,2,0,P|441:231|387:234,1,100,2|0,3:2|0:2,0:2:0:0:
359,269,58871,1,8,0:1:0:0:
285,336,59442,6,0,L|176:322,1,100,2|8,3:2|0:1,0:2:0:0:
165,369,60299,2,0,P|105:354|74:310,1,100,2|0,3:2|0:2,0:2:0:0:
33,309,61156,1,8,0:1:0:0:
1,214,61728,2,0,L|30:106,1,100,2|8,3:2|0:1,0:2:0:0:
23,67,62585,2,0,P|64:55|103:5,1,100,2|0,3:2|0:2,0:2:0:0:
149,3,63442,1,8,0:1:0:0:
167,101,64013,38,0,L|183:210,1,100,0|8,3:2|0:1,0:2:0:0:
227,221,64871,2,0,L|210:330,1,100,2|0,3:2|0:2,0:2:0:0:
197,367,65728,1,8,0:1:0:0:
296,376,66299,2,0,P|343:359|365:312,1,100,2|8,3:2|0:1,0:2:0:0:
397,278,67156,2,0,P|374:227|377:177,1,100,2|0,3:2|0:2,0:2:0:0:
416,155,68013,1,8,0:1:0:0:
467,69,68585,6,0,L|360:54,1,100,2|8,3:2|0:1,0:2:0:0:
345,10,69442,2,0,L|236:28,1,100,2|0,3:2|0:2,0:2:0:0:
199,44,70299,1,8,0:1:0:0:
108,2,70871,2,0,P|62:31|51:74,1,100,2|8,3:2|0:1,0:2:0:0:
13,105,71728,2,0,L|40:204,1,100,2|0,3:2|0:2,0:2:0:0:
71,239,72585,1,8,0:1:0:0:
109,331,73156,37,4,3:2:0:0:
256,192,82299,12,2,89156,0:2:0:0:
499,194,91442,5,2,0:2:0:0:
424,127,92013,2,0,B|292:134|369:172|222:189,1,200,8|8,0:1|0:1,0:0:0:0:
185,101,93728,1,2,0:2:0:0:
94,57,94299,2,0,P|49:104|85:229,1,200,8|8,0:1|0:1,0:0:0:0:
46,319,96013,37,2,0:2:0:0:
129,374,96585,2,0,P|176:333|314:303,1,200,8|8,0:1|0:1,0:0:0:0:
395,349,98299,1,2,0:2:0:0:
477,292,98871,2,0,L|430:91,1,200,8|8,0:1|0:1,0:0:0:0:
357,29,100585,5,2,0:2:0:0:
259,50,101156,2,0,P|231:104|267:239,1,200,8|8,0:1|0:1,0:0:0:0:
353,273,102871,1,2,0:2:0:0:
298,356,103442,2,0,B|167:353|241:328|93:315,1,200,8|8,0:1|0:1,0:0:0:0:
18,367,105156,37,2,0:2:0:0:
2,268,105728,2,0,P|16:225|156:181,1,200,8|8,0:1|0:1,0:0:0:0:
235,127,107442,2,0,L|257:230,1,100,2|8,0:2|0:1,0:2:0:0:
446,286,109156,1,12,0:1:0:0:
470,188,109728,6,0,P|436:150|373:139,1,100,0|8,3:2|0:2,0:2:0:0:
346,162,110585,1,2,3:2:0:0:
237,58,111442,2,0,L|167:73,1,50,8|2,0:2|3:2,0:2:0:0:
149,36,112013,2,0,L|120:148,1,100,2|8,3:2|0:2,0:2:0:0:
98,176,112871,1,2,3:2:0:0:
1,290,113728,2,0,L|10:355,1,50,8|2,0:2|3:2,0:0:0:0:
49,367,114299,38,0,P|95:338|146:338,1,100,2|8,3:2|0:2,0:2:0:0:
184,358,115156,1,2,3:2:0:0:
324,304,116013,2,0,L|341:358,2,50,8|2|2,0:2|3:2|3:2,0:2:0:0:
252,233,117156,2,0,P|271:177|259:116,1,100,8|2,0:2|0:2,0:0:0:0:
234,99,118013,1,0,3:2:0:0:
189,75,118299,2,0,L|120:69,1,50,8|2,0:2|3:2,0:2:0:0:
101,37,118871,6,0,L|72:142,1,100,2|8,3:2|0:2,0:2:0:0:
29,155,119728,1,2,3:2:0:0:
63,301,120585,2,0,L|128:315,1,50,8|2,0:2|3:2,0:2:0:0:
142,271,121156,2,0,L|251:256,1,100,2|8,3:2|0:2,0:2:0:0:
288,240,122013,1,2,3:2:0:0:
381,357,122871,2,0,L|442:365,1,50,8|2,0:2|0:2,0:2:0:0:
480,368,123442,38,0,P|498:317|482:254,1,100,2|8,3:2|0:2,0:2:0:0:
469,227,124299,1,2,3:2:0:0:
343,145,125156,2,0,L|274:156,1,50,8|2,0:2|3:2,0:2:0:0:
263,193,125728,2,0,L|156:181,1,100,2|8,3:2|0:2,0:2:0:0:
114,171,126585,1,2,3:2:0:0:
25,216,127156,2,0,L|11:152,2,50,4|4|4,0:1|0:1|0:1,0:2:0:0:
14,265,128013,22,0,P|26:325|78:346,1,100,6|8,3:2|0:2,0:2:0:0:
98,316,128871,1,2,3:2:0:0:
146,327,129156,2,0,L|263:354,2,100,6|12|6,0:2|0:2|3:2,0:2:0:0:
124,229,130871,1,8,0:2:0:0:
204,169,131442,2,0,P|247:175|297:232,1,100,6|12,0:2|0:2,0:2:0:0:
276,260,132299,1,4,0:2:0:0:
318,286,132585,6,0,L|425:264,1,100,6|8,3:2|0:2,0:2:0:0:
464,279,133442,2,0,P|487:235|486:168,1,100,2|4,3:2|0:2,0:0:0:0:
467,140,134299,1,8,0:2:0:0:
501,46,134871,1,6,3:2:0:0:
410,4,135442,2,0,L|304:27,1,100,8|2,0:2|0:2,0:0:0:0:
296,72,136299,1,0,3:2:0:0:
274,117,136585,2,0,L|208:105,1,50,8|4,0:2|0:2,0:0:0:0:
175,99,137156,37,6,3:2:0:0:
151,196,137728,1,12,0:2:0:0:
53,172,138299,1,6,0:2:0:0:
77,75,138871,1,12,0:2:0:0:
175,99,139442,1,6,3:2:0:0:
238,22,140013,2,0,L|345:47,1,100,8|6,0:2|0:2,0:0:0:0:
382,28,140871,1,4,3:2:0:0:
427,8,141156,2,0,L|446:61,1,50,8|4,0:2|0:2,0:0:0:0:
488,77,141728,6,0,P|516:117|503:181,1,100,6|8,3:2|0:2,0:2:0:0:
462,172,142585,2,0,L|341:157,1,100,2|4,3:2|0:2,0:0:0:0:
313,151,143442,1,8,0:2:0:0:
261,236,144013,2,0,P|198:253|166:285,1,100,6|8,3:2|0:2,0:2:0:0:
142,315,144871,1,2,3:2:0:0:
51,358,145442,2,0,L|-3:349,1,50,0|8,3:2|0:2,0:0:0:0:
