osu file format v14

[General]
AudioFilename: we are number 1.mp3
AudioLeadIn: 0
PreviewTime: 49950
Countdown: 0
SampleSet: Normal
StackLeniency: 0.7
Mode: 1
LetterboxInBreaks: 0
WidescreenStoryboard: 1

[Editor]
DistanceSpacing: 2.8
BeatDivisor: 4
GridSize: 32
TimelineZoom: 1.64

[Metadata]
Title:We Are Number One (Remix)
TitleUnicode:We Are Number One (Remix)
Artist:Dunderpatrullen
ArtistUnicode:Dunderpatrullen
Creator:Midnaait
Version:Number Oni
Source:LazyTown
Tags:Mani Svavarsson Robbie Rotten Stefan Karl Stefansson Dream Team Lno Kantan
BeatmapID:1159350
BeatmapSetID:547301

[Difficulty]
HPDrainRate:5.5
CircleSize:2
OverallDifficulty:7
ApproachRate:5
SliderMultiplier:1.4
SliderTickRate:1

[Events]
//Background and Video events
0,0,"we are number one but it's the bg.jpg",0,-60
//Break Periods
//Storyboard Layer 0 (Background)
//Storyboard Layer 1 (Fail)
//Storyboard Layer 2 (Pass)
//Storyboard Layer 3 (Foreground)
//Storyboard Sound Samples

[TimingPoints]
40,357.142857142857,4,1,0,75,1,0
5309,-100,4,1,0,90,0,8
17361,-100,4,1,0,90,0,0
19950,-100,4,1,0,90,0,0
30932,-101.010101010101,4,1,0,90,0,0
31022,-102.040816326531,4,1,0,90,0,0
31111,-103.092783505155,4,1,0,90,0,0
31289,-104.166666666667,4,1,0,90,0,0
31379,-105.263157894737,4,1,0,75,0,0
37539,-103.092783505155,4,1,0,75,0,0
37897,-102.040816326531,4,1,0,75,0,0
38254,-101.010101010101,4,1,0,75,0,0
38432,-100,4,1,0,90,0,0
50129,-99.009900990099,4,1,0,90,0,0
50218,-98.0392156862745,4,1,0,90,0,0
50307,-97.0873786407767,4,1,0,90,0,0
50397,-96.1538461538461,4,1,0,90,0,0
50486,-95.2380952380952,4,1,0,90,0,8
50575,-94.3396226415094,4,1,0,90,0,0
50664,-93.4579439252336,4,1,0,90,0,0
50754,-92.5925925925926,4,1,0,90,0,0
50932,-91.743119266055,4,1,0,90,0,0
51111,-90.9090909090909,4,1,0,90,0,0
51468,-90.9090909090909,4,1,0,90,0,1
62093,-91.743119266055,4,1,0,90,0,1
62182,-92.5925925925926,4,1,0,90,0,1
62272,-93.4579439252336,4,1,0,90,0,1
62361,-94.3396226415094,4,1,0,90,0,1
62450,-95.2380952380952,4,1,0,90,0,1
62539,-96.1538461538461,4,1,0,90,0,1
62718,-98.0392156862745,4,1,0,90,0,1
62897,-100,4,1,0,90,0,0
73611,-80,4,1,0,90,0,0
73789,-78.125,4,1,0,90,0,0
73968,-76.3358778625954,4,1,0,90,0,0
74147,-74.6268656716418,4,1,0,90,0,0
74682,-100,4,1,0,90,0,0
85932,-100,4,1,0,75,0,0
88522,-100,4,1,0,90,0,0
99504,-101.010101010101,4,1,0,90,0,0
99593,-102.040816326531,4,1,0,90,0,0
99682,-103.092783505155,4,1,0,90,0,0
99861,-104.166666666667,4,1,0,90,0,0
99950,-105.263157894737,4,1,0,75,0,0
106111,-103.092783505155,4,1,0,75,0,0
106468,-102.040816326531,4,1,0,75,0,0
106825,-101.010101010101,4,1,0,75,0,0
107004,-100,4,1,0,90,0,0
118700,-99.009900990099,4,1,0,90,0,0
118789,-98.0392156862745,4,1,0,90,0,0
118879,-97.0873786407767,4,1,0,90,0,0
118968,-96.1538461538461,4,1,0,90,0,0
119057,-95.2380952380952,4,1,0,90,0,8
119147,-94.3396226415094,4,1,0,90,0,0
119236,-93.4579439252336,4,1,0,90,0,0
119325,-92.5925925925926,4,1,0,90,0,0
119414,-91.743119266055,4,1,0,90,0,0
119504,-90.9090909090909,4,1,0,90,0,0
119682,-89.2857142857143,4,1,0,90,0,0
120039,-86.9565217391304,4,1,0,90,0,1
130664,-87.719298245614,4,1,0,90,0,1
130754,-88.4955752212389,4,1,0,90,0,1
130843,-89.2857142857143,4,1,0,90,0,1
130932,-90.0900900900901,4,1,0,90,0,1
131022,-90.9090909090909,4,1,0,90,0,1
131111,-91.743119266055,4,1,0,90,0,1
131289,-93.4579439252336,4,1,0,90,0,1
131468,-95.2380952380952,4,1,0,90,0,0
131825,-100,4,1,0,75,0,0
137361,-100,4,1,0,80,0,0
139950,-100,4,1,0,85,0,0
141379,-100,4,1,0,90,0,0
142897,-95.2380952380952,4,1,0,90,0,0
152897,-117.64705882353,4,1,0,90,0,0
153789,-66.6666666666667,4,1,0,90,0,0
154325,-95.2380952380952,4,1,0,90,0,0
165307,-93.4579439252336,4,1,0,90,0,0
165397,-92.5925925925926,4,1,0,90,0,0
165575,-91.743119266055,4,1,0,90,0,0
165664,-91.743119266055,4,1,0,100,0,0
165754,-90.9090909090909,4,1,0,100,0,1
188611,-86.9565217391304,4,1,0,100,0,1
190039,-83.3333333333333,4,1,0,100,0,1
191468,-80,4,1,0,100,0,0

[HitObjects]
160,128,5039,5,0,0:0:0:0:
160,128,5218,1,0,0:0:0:0:
160,128,5397,1,12,0:0:0:0:
224,128,5754,1,4,0:0:0:0:
224,128,6289,1,8,0:0:0:0:
224,128,6468,1,0,0:0:0:0:
224,128,6557,1,8,0:0:0:0:
224,128,6647,1,0,0:0:0:0:
224,128,6736,1,8,0:0:0:0:
224,128,6825,1,0,0:0:0:0:
224,128,7004,1,8,0:0:0:0:
224,128,7182,1,0,0:0:0:0:
224,128,7539,1,8,0:0:0:0:
224,128,7897,1,0,0:0:0:0:
224,128,8075,1,0,0:0:0:0:
224,128,8254,1,8,0:0:0:0:
224,128,8432,1,0,0:0:0:0:
224,128,8611,1,8,0:0:0:0:
224,128,8968,1,0,0:0:0:0:
224,128,9325,1,8,0:0:0:0:
224,128,9504,1,0,0:0:0:0:
224,128,9682,1,8,0:0:0:0:
224,128,10039,1,8,0:0:0:0:
224,128,10218,1,0,0:0:0:0:
224,128,10307,1,0,0:0:0:0:
224,128,10397,1,8,0:0:0:0:
224,128,10575,1,8,0:0:0:0:
224,128,10754,1,0,0:0:0:0:
224,128,11111,1,12,0:0:0:0:
224,128,11468,1,0,0:0:0:0:
224,128,12004,1,8,0:0:0:0:
224,128,12182,1,0,0:0:0:0:
224,128,12272,1,8,0:0:0:0:
224,128,12361,1,0,0:0:0:0:
224,128,12450,1,8,0:0:0:0:
224,128,12539,1,0,0:0:0:0:
224,128,12718,1,8,0:0:0:0:
224,128,12897,1,8,0:0:0:0:
192,128,13075,1,0,0:0:0:0:
224,128,13254,1,8,0:0:0:0:
224,128,13611,1,8,0:0:0:0:
224,128,13789,1,0,0:0:0:0:
224,128,13968,1,8,0:0:0:0:
224,128,14147,1,8,0:0:0:0:
224,128,14325,1,8,0:0:0:0:
224,128,14682,1,0,0:0:0:0:
224,128,15039,1,8,0:0:0:0:
224,128,15218,1,8,0:0:0:0:
224,128,15397,1,0,0:0:0:0:
224,128,15754,1,8,0:0:0:0:
224,128,15932,1,0,0:0:0:0:
224,128,16022,1,0,0:0:0:0:
224,128,16111,1,8,0:0:0:0:
224,128,16289,1,8,0:0:0:0:
224,128,16468,1,0,0:0:0:0:
224,128,16825,1,8,0:0:0:0:
224,128,17004,1,0,0:0:0:0:
224,128,17182,1,0,0:0:0:0:
224,128,17539,1,8,0:0:0:0:
224,128,17897,1,0,0:0:0:0:
224,128,18254,1,8,0:0:0:0:
224,128,18611,1,0,0:0:0:0:
224,128,18968,1,8,0:0:0:0:
224,128,19147,1,8,0:0:0:0:
224,128,19236,1,8,0:0:0:0:
224,128,19325,1,8,0:0:0:0:
224,128,19504,1,0,0:0:0:0:
224,128,19682,1,0,0:0:0:0:
224,128,19861,1,0,0:0:0:0:
224,128,20039,1,8,0:0:0:0:
224,128,20159,1,8,0:0:0:0:
224,128,20278,1,0,0:0:0:0:
224,128,20397,1,8,0:0:0:0:
224,128,20516,1,0,0:0:0:0:
224,128,20754,1,8,0:0:0:0:
224,128,21022,1,8,0:0:0:0:
224,128,21111,1,0,0:0:0:0:
224,128,21289,1,0,0:0:0:0:
224,128,21468,1,8,0:0:0:0:
224,128,21825,1,8,0:0:0:0:
224,128,22004,1,0,0:0:0:0:
224,128,22361,1,8,0:0:0:0:
224,128,22539,1,0,0:0:0:0:
224,128,22629,1,0,0:0:0:0:
224,128,22718,1,0,0:0:0:0:
224,128,22807,1,0,0:0:0:0:
224,128,22897,1,8,0:0:0:0:
224,128,23075,1,8,0:0:0:0:
224,128,23164,1,8,0:0:0:0:
224,128,23254,1,0,0:0:0:0:
224,128,23432,1,0,0:0:0:0:
224,128,23611,1,8,0:0:0:0:
224,128,23879,1,0,0:0:0:0:
224,128,23968,1,8,0:0:0:0:
224,128,24147,1,0,0:0:0:0:
224,128,24325,1,8,0:0:0:0:
224,128,24504,1,0,0:0:0:0:
224,128,24593,1,8,0:0:0:0:
224,128,24682,1,0,0:0:0:0:
224,128,24861,1,8,0:0:0:0:
224,128,25218,1,8,0:0:0:0:
224,128,25307,1,8,0:0:0:0:
224,128,25397,1,8,0:0:0:0:
224,128,25575,1,8,0:0:0:0:
224,128,25754,1,0,0:0:0:0:
224,160,25932,1,0,0:0:0:0:
224,128,26022,1,0,0:0:0:0:
224,160,26111,1,8,0:0:0:0:
224,160,26289,1,0,0:0:0:0:
224,160,26468,1,8,0:0:0:0:
224,128,26557,1,8,0:0:0:0:
224,160,26647,1,0,0:0:0:0:
224,160,26736,1,0,0:0:0:0:
224,160,26825,1,8,0:0:0:0:
224,160,27004,1,0,0:0:0:0:
224,160,27182,1,8,0:0:0:0:
224,160,27361,1,0,0:0:0:0:
224,128,27450,1,8,0:0:0:0:
224,160,27539,1,0,0:0:0:0:
224,160,27718,1,8,0:0:0:0:
224,160,28075,1,0,0:0:0:0:
224,160,28254,1,8,0:0:0:0:
224,160,28343,1,0,0:0:0:0:
224,160,28432,1,8,0:0:0:0:
224,160,28522,1,8,0:0:0:0:
224,160,28611,1,0,0:0:0:0:
224,160,28789,1,0,0:0:0:0:
224,160,28879,1,0,0:0:0:0:
224,160,28968,1,8,0:0:0:0:
224,160,29147,1,8,0:0:0:0:
224,160,29325,1,0,0:0:0:0:
224,160,29414,1,0,0:0:0:0:
224,160,29504,1,8,0:0:0:0:
224,160,29593,1,0,0:0:0:0:
224,160,29682,1,8,0:0:0:0:
224,160,29772,1,8,0:0:0:0:
224,160,29861,1,0,0:0:0:0:
224,160,30039,1,8,0:0:0:0:
224,160,30129,1,0,0:0:0:0:
224,160,30218,1,0,0:0:0:0:
224,160,30307,1,8,0:0:0:0:
224,160,30397,1,0,0:0:0:0:
192,160,30486,1,0,0:0:0:0:
224,160,30575,1,8,0:0:0:0:
224,160,30754,1,0,0:0:0:0:
224,160,30932,1,8,0:0:0:0:
224,160,31022,1,8,0:0:0:0:
224,160,31111,1,8,0:0:0:0:
224,160,31289,1,8,0:0:0:0:
224,160,31468,1,0,0:0:0:0:
224,160,31647,1,0,0:0:0:0:
224,160,31825,1,8,0:0:0:0:
224,160,32004,1,8,0:0:0:0:
192,160,32182,1,0,0:0:0:0:
192,160,32539,1,8,0:0:0:0:
224,160,32718,1,0,0:0:0:0:
224,160,32897,1,8,0:0:0:0:
224,160,33254,1,8,0:0:0:0:
224,160,33432,1,8,0:0:0:0:
224,160,33611,1,0,0:0:0:0:
224,160,33968,1,8,0:0:0:0:
224,160,34147,1,0,0:0:0:0:
224,160,34325,1,8,0:0:0:0:
224,160,34504,1,0,0:0:0:0:
224,160,34682,1,8,0:0:0:0:
224,160,34861,1,8,0:0:0:0:
224,160,35039,1,0,0:0:0:0:
224,160,35397,1,0,0:0:0:0:
224,160,35575,1,0,0:0:0:0:
224,160,35754,1,8,0:0:0:0:
224,160,37539,1,0,0:0:0:0:
224,160,37897,1,0,0:0:0:0:
224,160,38254,1,0,0:0:0:0:
224,128,38611,1,4,0:0:0:0:
224,128,38789,1,8,0:0:0:0:
224,128,38879,1,8,0:0:0:0:
192,128,38968,1,0,0:0:0:0:
224,128,39147,1,8,0:0:0:0:
224,128,39325,1,0,0:0:0:0:
224,128,39414,1,8,0:0:0:0:
224,128,39504,1,0,0:0:0:0:
224,128,39593,1,8,0:0:0:0:
224,128,39682,1,0,0:0:0:0:
224,128,39861,1,8,0:0:0:0:
224,128,40039,1,0,0:0:0:0:
224,128,40218,1,8,0:0:0:0:
224,128,40307,1,8,0:0:0:0:
224,128,40397,1,0,0:0:0:0:
256,128,40575,1,8,0:0:0:0:
224,128,40754,1,0,0:0:0:0:
224,128,40932,1,8,0:0:0:0:
224,128,41022,1,8,0:0:0:0:
224,128,41111,1,0,0:0:0:0:
224,128,41289,1,8,0:0:0:0:
224,128,41468,1,8,0:0:0:0:
192,128,41647,1,8,0:0:0:0:
192,128,41736,1,8,0:0:0:0:
224,128,41825,1,0,0:0:0:0:
192,128,42004,1,0,0:0:0:0:
192,128,42093,1,0,0:0:0:0:
224,128,42182,1,8,0:0:0:0:
224,128,42361,1,0,0:0:0:0:
224,128,42539,1,8,0:0:0:0:
224,128,42897,1,0,0:0:0:0:
224,128,42986,1,8,0:0:0:0:
224,128,43075,1,0,0:0:0:0:
224,128,43164,1,0,0:0:0:0:
224,128,43254,1,8,0:0:0:0:
224,128,43432,1,8,0:0:0:0:
224,128,43611,1,0,0:0:0:0:
224,128,43789,1,0,0:0:0:0:
224,128,43968,1,12,0:0:0:0:
224,128,44325,1,4,0:0:0:0:
224,128,44504,1,8,0:0:0:0:
192,128,44593,1,8,0:0:0:0:
192,128,44682,1,0,0:0:0:0:
224,128,44861,1,8,0:0:0:0:
224,128,45039,1,0,0:0:0:0:
224,128,45129,1,8,0:0:0:0:
224,128,45218,1,0,0:0:0:0:
224,128,45307,1,8,0:0:0:0:
224,128,45397,1,0,0:0:0:0:
224,128,45575,1,8,0:0:0:0:
224,128,45754,1,0,0:0:0:0:
224,128,45932,1,8,0:0:0:0:
256,128,46022,1,8,0:0:0:0:
224,128,46111,1,0,0:0:0:0:
256,128,46289,1,8,0:0:0:0:
224,128,46468,1,0,0:0:0:0:
224,128,46647,1,8,0:0:0:0:
224,128,46736,1,8,0:0:0:0:
224,128,46825,1,0,0:0:0:0:
224,128,47004,1,8,0:0:0:0:
224,128,47182,1,8,0:0:0:0:
192,128,47361,1,8,0:0:0:0:
192,128,47450,1,8,0:0:0:0:
224,128,47539,1,0,0:0:0:0:
192,128,47718,1,0,0:0:0:0:
192,128,47807,1,0,0:0:0:0:
224,128,47897,1,8,0:0:0:0:
224,128,48075,1,8,0:0:0:0:
224,128,48254,1,0,0:0:0:0:
224,128,48611,1,0,0:0:0:0:
224,128,48700,1,8,0:0:0:0:
224,128,48789,1,0,0:0:0:0:
224,128,48879,1,0,0:0:0:0:
224,128,48968,1,8,0:0:0:0:
224,128,49147,1,8,0:0:0:0:
224,128,49325,1,0,0:0:0:0:
224,128,49504,1,0,0:0:0:0:
224,128,49682,1,8,0:0:0:0:
224,128,50039,1,0,0:0:0:0:
224,128,50129,1,8,0:0:0:0:
224,128,50218,1,0,0:0:0:0:
224,128,50307,1,0,0:0:0:0:
224,128,50397,1,8,0:0:0:0:
224,128,50486,1,0,0:0:0:0:
224,128,50575,1,8,0:0:0:0:
224,128,50664,1,8,0:0:0:0:
224,128,50754,1,0,0:0:0:0:
224,128,50932,1,0,0:0:0:0:
224,128,51111,1,12,0:0:0:0:
224,128,51468,1,4,0:0:0:0:
224,128,51647,1,0,0:0:0:0:
224,128,51736,1,0,0:0:0:0:
224,128,51825,1,8,0:0:0:0:
224,128,52004,1,0,0:0:0:0:
224,128,52093,1,0,0:0:0:0:
224,128,52182,1,8,0:0:0:0:
224,128,52272,1,8,0:0:0:0:
224,128,52361,1,0,0:0:0:0:
224,128,52539,1,8,0:0:0:0:
224,128,52718,1,8,0:0:0:0:
192,128,52807,1,8,0:0:0:0:
224,128,52897,1,0,0:0:0:0:
224,128,52986,1,8,0:0:0:0:
224,128,53075,1,0,0:0:0:0:
224,128,53254,1,8,0:0:0:0:
224,128,53432,1,0,0:0:0:0:
224,128,53522,1,0,0:0:0:0:
224,128,53611,1,8,0:0:0:0:
224,128,53789,1,8,0:0:0:0:
224,128,53879,1,0,0:0:0:0:
224,128,53968,1,8,0:0:0:0:
224,128,54057,1,8,0:0:0:0:
224,128,54147,1,0,0:0:0:0:
224,128,54325,1,8,0:0:0:0:
224,128,54370,1,8,0:0:0:0:
224,128,54504,1,8,0:0:0:0:
224,160,54548,1,8,0:0:0:0:
224,128,54682,1,0,0:0:0:0:
224,160,54772,1,8,0:0:0:0:
224,160,54861,1,0,0:0:0:0:
224,160,55039,1,8,0:0:0:0:
224,160,55218,1,0,0:0:0:0:
224,160,55307,1,0,0:0:0:0:
224,160,55397,1,8,0:0:0:0:
224,160,55575,1,8,0:0:0:0:
224,128,55664,1,0,0:0:0:0:
224,160,55754,1,8,0:0:0:0:
192,160,55843,1,8,0:0:0:0:
224,160,55932,1,0,0:0:0:0:
224,160,56111,1,8,0:0:0:0:
224,160,56289,1,0,0:0:0:0:
224,160,56379,1,0,0:0:0:0:
224,160,56468,1,8,0:0:0:0:
224,160,56647,1,8,0:0:0:0:
224,160,56736,1,0,0:0:0:0:
224,160,56825,1,8,0:0:0:0:
224,160,56914,1,8,0:0:0:0:
224,160,57004,1,0,0:0:0:0:
224,128,57093,1,0,0:0:0:0:
224,128,57182,1,8,0:0:0:0:
224,128,57361,1,0,0:0:0:0:
224,128,57450,1,0,0:0:0:0:
224,128,57539,1,8,0:0:0:0:
224,160,57629,1,8,0:0:0:0:
224,128,57718,1,0,0:0:0:0:
224,128,57897,1,8,0:0:0:0:
224,128,57986,1,0,0:0:0:0:
224,128,58075,1,8,0:0:0:0:
224,128,58164,1,8,0:0:0:0:
224,128,58254,1,0,0:0:0:0:
192,128,58343,1,0,0:0:0:0:
224,128,58432,1,8,0:0:0:0:
224,128,58611,1,0,0:0:0:0:
224,128,58789,1,0,0:0:0:0:
192,128,58879,1,0,0:0:0:0:
224,128,58968,1,8,0:0:0:0:
224,128,59147,1,0,0:0:0:0:
224,128,59236,1,0,0:0:0:0:
224,128,59325,1,8,0:0:0:0:
224,128,59504,1,8,0:0:0:0:
224,128,59593,1,0,0:0:0:0:
224,128,59682,1,8,0:0:0:0:
224,128,59772,1,8,0:0:0:0:
224,128,59861,1,0,0:0:0:0:
224,128,60039,1,8,0:0:0:0:
224,128,60084,1,8,0:0:0:0:
224,160,60218,1,8,0:0:0:0:
224,128,60263,1,8,0:0:0:0:
224,128,60397,1,0,0:0:0:0:
224,160,60486,1,8,0:0:0:0:
224,160,60575,1,0,0:0:0:0:
224,160,60754,1,8,0:0:0:0:
224,160,60932,1,0,0:0:0:0:
224,160,61022,1,0,0:0:0:0:
224,160,61111,1,8,0:0:0:0:
224,160,61289,1,8,0:0:0:0:
224,160,61379,1,8,0:0:0:0:
224,160,61468,1,0,0:0:0:0:
192,160,61557,1,8,0:0:0:0:
224,160,61647,1,8,0:0:0:0:
224,160,61825,1,8,0:0:0:0:
224,160,62004,1,8,0:0:0:0:
224,160,62093,1,8,0:0:0:0:
224,160,62182,1,0,0:0:0:0:
224,192,62272,1,0,0:0:0:0:
224,160,62361,1,8,0:0:0:0:
224,160,62450,1,0,0:0:0:0:
224,160,62539,1,8,0:0:0:0:
224,160,62718,1,0,0:0:0:0:
224,160,62897,1,12,0:0:0:0:
256,160,63432,1,8,0:0:0:0:
256,160,63611,1,0,0:0:0:0:
256,160,63700,1,0,0:0:0:0:
256,160,63789,1,0,0:0:0:0:
256,160,63879,1,0,0:0:0:0:
256,160,63968,1,0,0:0:0:0:
256,160,64147,1,8,0:0:0:0:
256,160,64325,1,0,0:0:0:0:
256,160,64682,1,0,0:0:0:0:
256,160,65039,1,0,0:0:0:0:
256,160,65218,1,8,0:0:0:0:
256,160,65397,1,0,0:0:0:0:
256,160,65575,1,0,0:0:0:0:
256,160,65754,1,8,0:0:0:0:
256,160,66111,1,0,0:0:0:0:
256,160,66468,1,8,0:0:0:0:
256,160,66825,1,8,0:0:0:0:
256,160,67182,1,0,0:0:0:0:
256,160,67361,1,8,0:0:0:0:
256,160,67539,1,0,0:0:0:0:
256,160,67718,1,8,0:0:0:0:
256,160,67897,1,0,0:0:0:0:
256,160,68254,1,12,0:0:0:0:
256,160,68611,1,0,0:0:0:0:
256,160,68789,1,8,0:0:0:0:
256,160,68968,1,0,0:0:0:0:
256,160,69147,1,8,0:0:0:0:
256,160,69325,1,0,0:0:0:0:
256,160,69414,1,8,0:0:0:0:
256,160,69504,1,0,0:0:0:0:
256,160,69593,1,8,0:0:0:0:
256,160,69682,1,0,0:0:0:0:
256,160,69861,1,8,0:0:0:0:
256,160,70039,1,0,0:0:0:0:
256,160,70218,1,8,0:0:0:0:
256,160,70307,1,8,0:0:0:0:
256,160,70397,1,0,0:0:0:0:
256,160,70575,1,8,0:0:0:0:
256,160,70754,1,0,0:0:0:0:
256,160,70932,1,0,0:0:0:0:
256,160,71022,1,0,0:0:0:0:
256,160,71111,1,8,0:0:0:0:
256,160,71289,1,8,0:0:0:0:
256,160,71468,1,8,0:0:0:0:
256,160,71557,1,8,0:0:0:0:
256,160,71647,1,0,0:0:0:0:
256,160,71736,1,0,0:0:0:0:
256,160,71825,1,8,0:0:0:0:
256,160,71914,1,0,0:0:0:0:
256,160,72004,1,0,0:0:0:0:
256,160,72093,1,0,0:0:0:0:
256,160,72182,1,8,0:0:0:0:
256,160,72272,1,8,0:0:0:0:
256,160,72361,1,8,0:0:0:0:
256,160,72450,1,0,0:0:0:0:
256,160,72539,1,8,0:0:0:0:
256,160,72629,1,8,0:0:0:0:
256,160,72718,1,0,0:0:0:0:
256,160,72897,1,0,0:0:0:0:
256,160,73611,1,0,0:0:0:0:
256,160,73789,1,0,0:0:0:0:
256,160,73968,1,12,0:0:0:0:
224,128,74325,1,4,0:0:0:0:
224,128,74861,1,8,0:0:0:0:
224,128,75039,1,0,0:0:0:0:
224,128,75129,1,8,0:0:0:0:
224,128,75218,1,0,0:0:0:0:
224,128,75307,1,8,0:0:0:0:
224,128,75397,1,0,0:0:0:0:
224,128,75575,1,8,0:0:0:0:
224,128,75754,1,0,0:0:0:0:
224,128,75932,1,8,0:0:0:0:
224,128,76022,1,8,0:0:0:0:
224,128,76111,1,0,0:0:0:0:
256,128,76289,1,8,0:0:0:0:
224,128,76468,1,0,0:0:0:0:
224,128,76647,1,0,0:0:0:0:
192,128,76736,1,0,0:0:0:0:
224,128,76825,1,8,0:0:0:0:
224,128,77004,1,0,0:0:0:0:
224,128,77182,1,8,0:0:0:0:
192,128,77361,1,8,0:0:0:0:
192,128,77450,1,8,0:0:0:0:
224,128,77539,1,0,0:0:0:0:
192,128,77718,1,0,0:0:0:0:
192,128,77807,1,0,0:0:0:0:
224,128,77897,1,8,0:0:0:0:
192,128,77986,1,8,0:0:0:0:
224,128,78075,1,0,0:0:0:0:
224,128,78254,1,8,0:0:0:0:
224,128,78611,1,0,0:0:0:0:
224,128,78700,1,8,0:0:0:0:
224,128,78789,1,0,0:0:0:0:
224,128,78879,1,0,0:0:0:0:
224,128,78968,1,8,0:0:0:0:
224,128,79147,1,8,0:0:0:0:
192,128,79236,1,8,0:0:0:0:
224,128,79325,1,0,0:0:0:0:
192,128,79504,1,0,0:0:0:0:
224,128,79682,1,12,0:0:0:0:
224,128,80039,1,0,0:0:0:0:
192,128,80218,1,8,0:0:0:0:
192,128,80307,1,8,0:0:0:0:
192,128,80397,1,0,0:0:0:0:
224,128,80575,1,8,0:0:0:0:
224,128,80754,1,0,0:0:0:0:
224,128,80843,1,8,0:0:0:0:
224,128,80932,1,0,0:0:0:0:
224,128,81022,1,8,0:0:0:0:
224,128,81111,1,0,0:0:0:0:
224,128,81289,1,8,0:0:0:0:
224,128,81468,1,8,0:0:0:0:
192,128,81647,1,0,0:0:0:0:
192,128,81736,1,0,0:0:0:0:
224,128,81825,1,8,0:0:0:0:
192,128,82004,1,0,0:0:0:0:
224,128,82182,1,8,0:0:0:0:
224,128,82361,1,8,0:0:0:0:
192,128,82450,1,0,0:0:0:0:
224,128,82539,1,8,0:0:0:0:
192,128,82629,1,8,0:0:0:0:
224,128,82718,1,0,0:0:0:0:
224,128,82897,1,8,0:0:0:0:
192,128,83075,1,8,0:0:0:0:
192,128,83164,1,8,0:0:0:0:
224,128,83254,1,0,0:0:0:0:
192,128,83432,1,0,0:0:0:0:
192,128,83522,1,0,0:0:0:0:
224,128,83611,1,8,0:0:0:0:
224,128,83700,1,8,0:0:0:0:
224,128,83789,1,0,0:0:0:0:
224,128,83968,1,8,0:0:0:0:
224,128,84325,1,0,0:0:0:0:
224,128,84414,1,8,0:0:0:0:
224,128,84504,1,0,0:0:0:0:
224,128,84593,1,0,0:0:0:0:
224,128,84682,1,8,0:0:0:0:
224,128,84861,1,8,0:0:0:0:
192,96,84950,1,8,0:0:0:0:
192,128,85039,1,0,0:0:0:0:
192,128,85218,1,0,0:0:0:0:
224,128,85397,1,12,0:0:0:0:
224,128,85754,1,4,0:0:0:0:
96,128,86111,1,8,0:0:0:0:
96,128,86468,1,0,0:0:0:0:
96,128,86825,1,8,0:0:0:0:
96,128,87182,1,0,0:0:0:0:
96,128,87539,1,8,0:0:0:0:
96,128,87718,1,8,0:0:0:0:
96,128,87807,1,8,0:0:0:0:
96,128,87897,1,8,0:0:0:0:
96,128,88075,1,0,0:0:0:0:
96,128,88254,1,8,0:0:0:0:
96,128,88432,1,0,0:0:0:0:
224,128,88611,1,12,0:0:0:0:
224,128,88968,1,8,0:0:0:0:
224,128,89147,1,0,0:0:0:0:
224,128,89325,1,8,0:0:0:0:
224,128,89593,1,0,0:0:0:0:
224,128,89682,1,8,0:0:0:0:
224,128,89861,1,0,0:0:0:0:
224,128,90039,1,8,0:0:0:0:
224,160,90129,1,0,0:0:0:0:
224,128,90218,1,8,0:0:0:0:
224,128,90307,1,8,0:0:0:0:
224,128,90397,1,0,0:0:0:0:
224,128,90575,1,8,0:0:0:0:
224,128,90932,1,8,0:0:0:0:
224,128,91111,1,0,0:0:0:0:
224,128,91200,1,8,0:0:0:0:
224,128,91289,1,8,0:0:0:0:
224,128,91379,1,0,0:0:0:0:
224,128,91468,1,8,0:0:0:0:
224,128,91647,1,8,0:0:0:0:
224,128,91736,1,8,0:0:0:0:
224,128,91825,1,0,0:0:0:0:
224,128,92004,1,8,0:0:0:0:
224,128,92361,1,0,0:0:0:0:
224,128,92450,1,0,0:0:0:0:
224,128,92539,1,8,0:0:0:0:
224,128,92718,1,0,0:0:0:0:
224,128,92897,1,8,0:0:0:0:
224,128,93075,1,8,0:0:0:0:
224,128,93164,1,8,0:0:0:0:
224,128,93254,1,0,0:0:0:0:
224,128,93432,1,8,0:0:0:0:
224,128,93789,1,8,0:0:0:0:
224,128,93879,1,8,0:0:0:0:
224,128,93968,1,8,0:0:0:0:
224,128,94147,1,8,0:0:0:0:
224,128,94325,1,0,0:0:0:0:
224,128,94414,1,8,0:0:0:0:
224,160,94504,1,0,0:0:0:0:
224,128,94593,1,0,0:0:0:0:
224,160,94682,1,8,0:0:0:0:
224,160,94861,1,8,0:0:0:0:
224,160,95039,1,0,0:0:0:0:
224,160,95218,1,8,0:0:0:0:
224,160,95307,1,0,0:0:0:0:
224,160,95397,1,8,0:0:0:0:
224,128,95486,1,8,0:0:0:0:
224,160,95575,1,0,0:0:0:0:
224,160,95754,1,0,0:0:0:0:
224,128,96022,1,8,0:0:0:0:
224,160,96111,1,0,0:0:0:0:
224,160,96289,1,0,0:0:0:0:
192,160,96468,1,8,0:0:0:0:
224,160,96647,1,0,0:0:0:0:
224,160,96825,1,8,0:0:0:0:
224,160,96914,1,0,0:0:0:0:
224,160,97004,1,8,0:0:0:0:
224,160,97093,1,8,0:0:0:0:
224,160,97182,1,0,0:0:0:0:
224,160,97361,1,0,0:0:0:0:
224,160,97450,1,0,0:0:0:0:
224,160,97539,1,8,0:0:0:0:
224,160,97718,1,8,0:0:0:0:
224,160,97897,1,0,0:0:0:0:
224,160,97986,1,8,0:0:0:0:
224,160,98075,1,8,0:0:0:0:
224,160,98164,1,0,0:0:0:0:
224,160,98254,1,8,0:0:0:0:
224,160,98343,1,8,0:0:0:0:
224,160,98432,1,0,0:0:0:0:
224,160,98611,1,8,0:0:0:0:
224,160,98700,1,0,0:0:0:0:
224,160,98789,1,0,0:0:0:0:
224,160,98879,1,8,0:0:0:0:
224,160,98968,1,0,0:0:0:0:
192,160,99057,1,0,0:0:0:0:
224,160,99147,1,8,0:0:0:0:
224,160,99325,1,0,0:0:0:0:
224,160,99504,1,8,0:0:0:0:
224,160,99593,1,8,0:0:0:0:
224,160,99682,1,8,0:0:0:0:
224,160,99861,1,8,0:0:0:0:
224,160,100039,1,0,0:0:0:0:
256,160,100397,1,8,0:0:0:0:
256,160,100575,1,8,0:0:0:0:
256,160,100932,1,0,0:0:0:0:
256,160,101111,1,8,0:0:0:0:
256,160,101289,1,0,0:0:0:0:
256,160,101468,1,8,0:0:0:0:
256,160,101647,1,8,0:0:0:0:
256,160,101825,1,0,0:0:0:0:
256,160,102004,1,0,0:0:0:0:
256,160,102182,1,8,0:0:0:0:
256,160,102539,1,0,0:0:0:0:
256,160,102718,1,8,0:0:0:0:
256,160,102897,1,0,0:0:0:0:
256,160,103254,1,8,0:0:0:0:
256,160,103432,1,8,0:0:0:0:
256,160,103611,1,0,0:0:0:0:
224,160,103879,1,8,0:0:0:0:
224,160,103968,1,0,0:0:0:0:
224,160,104147,1,0,0:0:0:0:
224,160,104325,1,8,0:0:0:0:
256,160,106111,1,0,0:0:0:0:
256,160,106468,1,0,0:0:0:0:
256,160,106825,1,0,0:0:0:0:
224,128,107182,1,4,0:0:0:0:
192,128,107361,1,8,0:0:0:0:
224,128,107450,1,8,0:0:0:0:
192,128,107539,1,0,0:0:0:0:
224,128,107718,1,8,0:0:0:0:
224,128,107897,1,0,0:0:0:0:
224,128,107986,1,8,0:0:0:0:
224,128,108075,1,0,0:0:0:0:
224,128,108164,1,8,0:0:0:0:
224,128,108254,1,0,0:0:0:0:
224,128,108432,1,8,0:0:0:0:
224,128,108611,1,0,0:0:0:0:
224,128,108789,1,8,0:0:0:0:
224,128,108879,1,8,0:0:0:0:
224,128,108968,1,0,0:0:0:0:
224,128,109147,1,8,0:0:0:0:
224,128,109325,1,0,0:0:0:0:
224,128,109504,1,0,0:0:0:0:
224,128,109593,1,0,0:0:0:0:
224,128,109682,1,8,0:0:0:0:
224,128,109861,1,0,0:0:0:0:
224,128,110039,1,8,0:0:0:0:
192,128,110218,1,8,0:0:0:0:
192,128,110307,1,8,0:0:0:0:
224,128,110397,1,0,0:0:0:0:
192,128,110575,1,0,0:0:0:0:
192,128,110664,1,0,0:0:0:0:
224,128,110754,1,8,0:0:0:0:
192,128,110843,1,8,0:0:0:0:
224,128,110932,1,0,0:0:0:0:
224,128,111111,1,8,0:0:0:0:
224,128,111468,1,0,0:0:0:0:
224,128,111557,1,8,0:0:0:0:
224,128,111647,1,0,0:0:0:0:
224,128,111736,1,0,0:0:0:0:
224,128,111825,1,8,0:0:0:0:
224,128,112004,1,8,0:0:0:0:
224,128,112093,1,8,0:0:0:0:
224,128,112182,1,0,0:0:0:0:
224,128,112361,1,0,0:0:0:0:
224,128,112539,1,12,0:0:0:0:
224,128,112897,1,4,0:0:0:0:
224,128,113075,1,8,0:0:0:0:
224,128,113164,1,8,0:0:0:0:
192,128,113254,1,0,0:0:0:0:
224,128,113432,1,8,0:0:0:0:
224,128,113611,1,0,0:0:0:0:
224,128,113700,1,8,0:0:0:0:
224,128,113789,1,0,0:0:0:0:
224,128,113879,1,8,0:0:0:0:
224,128,113968,1,0,0:0:0:0:
224,128,114147,1,8,0:0:0:0:
224,128,114325,1,0,0:0:0:0:
224,128,114504,1,8,0:0:0:0:
224,128,114593,1,8,0:0:0:0:
224,128,114682,1,0,0:0:0:0:
224,128,114861,1,8,0:0:0:0:
224,128,115039,1,0,0:0:0:0:
224,128,115218,1,0,0:0:0:0:
224,128,115307,1,0,0:0:0:0:
224,128,115397,1,8,0:0:0:0:
224,128,115575,1,0,0:0:0:0:
224,128,115754,1,8,0:0:0:0:
192,128,115932,1,8,0:0:0:0:
192,128,116022,1,8,0:0:0:0:
224,128,116111,1,0,0:0:0:0:
192,128,116289,1,0,0:0:0:0:
192,128,116379,1,0,0:0:0:0:
224,128,116468,1,8,0:0:0:0:
224,128,116557,1,8,0:0:0:0:
224,128,116647,1,0,0:0:0:0:
224,128,116825,1,8,0:0:0:0:
192,128,117004,1,0,0:0:0:0:
224,128,117182,1,8,0:0:0:0:
224,128,117272,1,8,0:0:0:0:
224,128,117361,1,0,0:0:0:0:
224,128,117450,1,0,0:0:0:0:
224,128,117539,1,8,0:0:0:0:
224,128,117629,1,0,0:0:0:0:
224,128,117718,1,8,0:0:0:0:
224,128,117807,1,8,0:0:0:0:
224,128,117897,1,0,0:0:0:0:
224,128,118075,1,0,0:0:0:0:
224,128,118164,1,0,0:0:0:0:
224,128,118254,1,8,0:0:0:0:
224,128,118432,1,0,0:0:0:0:
224,128,118611,1,8,0:0:0:0:
224,128,118700,1,8,0:0:0:0:
224,128,118789,1,0,0:0:0:0:
224,128,118879,1,0,0:0:0:0:
224,128,118968,1,8,0:0:0:0:
224,128,119057,1,0,0:0:0:0:
224,128,119147,1,8,0:0:0:0:
224,128,119236,1,8,0:0:0:0:
224,128,119325,1,0,0:0:0:0:
224,128,119414,1,8,0:0:0:0:
224,128,119504,1,0,0:0:0:0:
224,128,119682,1,12,0:0:0:0:
224,128,120039,1,4,0:0:0:0:
224,128,120218,1,0,0:0:0:0:
224,128,120307,1,0,0:0:0:0:
224,128,120397,1,8,0:0:0:0:
224,128,120575,1,0,0:0:0:0:
224,128,120664,1,0,0:0:0:0:
224,128,120754,1,8,0:0:0:0:
224,128,120843,1,8,0:0:0:0:
224,128,120932,1,0,0:0:0:0:
224,128,121111,1,8,0:0:0:0:
224,128,121289,1,8,0:0:0:0:
192,128,121379,1,8,0:0:0:0:
224,128,121468,1,8,0:0:0:0:
256,128,121557,1,0,0:0:0:0:
224,128,121647,1,8,0:0:0:0:
224,128,121825,1,0,0:0:0:0:
224,128,122004,1,8,0:0:0:0:
224,128,122093,1,8,0:0:0:0:
224,128,122182,1,0,0:0:0:0:
224,128,122361,1,8,0:0:0:0:
224,128,122450,1,0,0:0:0:0:
224,128,122539,1,8,0:0:0:0:
224,128,122629,1,0,0:0:0:0:
224,128,122718,1,8,0:0:0:0:
224,128,122897,1,8,0:0:0:0:
192,160,122941,1,8,0:0:0:0:
224,128,123075,1,0,0:0:0:0:
224,128,123254,1,8,0:0:0:0:
224,160,123298,1,8,0:0:0:0:
224,128,123432,1,0,0:0:0:0:
224,160,123611,1,8,0:0:0:0:
224,160,123789,1,0,0:0:0:0:
224,160,123879,1,8,0:0:0:0:
224,160,123968,1,0,0:0:0:0:
192,160,124057,1,0,0:0:0:0:
224,160,124147,1,8,0:0:0:0:
224,160,124325,1,0,0:0:0:0:
192,160,124414,1,0,0:0:0:0:
224,160,124504,1,8,0:0:0:0:
224,160,124593,1,0,0:0:0:0:
224,160,124682,1,8,0:0:0:0:
224,160,124861,1,0,0:0:0:0:
224,160,124950,1,8,0:0:0:0:
224,160,125039,1,0,0:0:0:0:
224,160,125218,1,0,0:0:0:0:
224,160,125307,1,8,0:0:0:0:
224,160,125397,1,8,0:0:0:0:
224,160,125486,1,0,0:0:0:0:
224,160,125575,1,8,0:0:0:0:
224,128,125754,1,8,0:0:0:0:
224,128,125932,1,8,0:0:0:0:
224,128,126022,1,0,0:0:0:0:
224,128,126111,1,8,0:0:0:0:
192,128,126200,1,8,0:0:0:0:
224,128,126289,1,0,0:0:0:0:
192,128,126379,1,8,0:0:0:0:
224,128,126468,1,0,0:0:0:0:
224,128,126647,1,8,0:0:0:0:
224,128,126736,1,8,0:0:0:0:
224,128,126825,1,0,0:0:0:0:
224,128,126914,1,0,0:0:0:0:
224,128,127004,1,8,0:0:0:0:
192,128,127093,1,8,0:0:0:0:
224,128,127182,1,0,0:0:0:0:
224,128,127361,1,8,0:0:0:0:
224,128,127450,1,8,0:0:0:0:
224,128,127539,1,0,0:0:0:0:
224,128,127718,1,0,0:0:0:0:
224,128,127807,1,0,0:0:0:0:
224,128,127897,1,8,0:0:0:0:
224,128,128075,1,8,0:0:0:0:
224,128,128164,1,0,0:0:0:0:
224,128,128254,1,8,0:0:0:0:
224,128,128343,1,8,0:0:0:0:
224,128,128432,1,0,0:0:0:0:
224,128,128611,1,8,0:0:0:0:
192,128,128656,1,8,0:0:0:0:
224,128,128789,1,0,0:0:0:0:
224,128,128968,1,8,0:0:0:0:
224,160,129013,1,8,0:0:0:0:
224,160,129147,1,0,0:0:0:0:
224,160,129325,1,8,0:0:0:0:
224,160,129504,1,0,0:0:0:0:
224,160,129593,1,0,0:0:0:0:
224,160,129682,1,8,0:0:0:0:
224,128,129772,1,8,0:0:0:0:
224,160,129861,1,0,0:0:0:0:
224,160,130039,1,0,0:0:0:0:
192,160,130129,1,8,0:0:0:0:
224,160,130218,1,8,0:0:0:0:
224,160,130307,1,0,0:0:0:0:
224,160,130397,1,8,0:0:0:0:
224,160,130575,1,8,0:0:0:0:
224,160,130664,1,8,0:0:0:0:
224,160,130754,1,0,0:0:0:0:
224,160,130843,1,8,0:0:0:0:
224,160,130932,1,8,0:0:0:0:
224,160,131022,1,0,0:0:0:0:
224,160,131111,1,8,0:0:0:0:
224,160,131289,1,8,0:0:0:0:
224,160,131468,1,4,0:0:0:0:
256,160,132004,1,8,0:0:0:0:
256,160,132182,1,0,0:0:0:0:
256,160,132272,1,0,0:0:0:0:
256,160,132361,1,8,0:0:0:0:
256,160,132450,1,8,0:0:0:0:
256,160,132539,1,0,0:0:0:0:
256,160,132718,1,8,0:0:0:0:
256,160,132897,1,0,0:0:0:0:
256,160,133254,1,8,0:0:0:0:
256,160,133611,1,0,0:0:0:0:
256,160,133968,1,8,0:0:0:0:
256,160,134147,1,8,0:0:0:0:
256,160,134236,1,8,0:0:0:0:
256,160,134325,1,0,0:0:0:0:
256,160,134682,1,8,0:0:0:0:
256,160,135039,1,0,0:0:0:0:
256,160,135397,1,8,0:0:0:0:
256,160,135754,1,0,0:0:0:0:
256,160,135932,1,8,0:0:0:0:
256,160,136111,1,0,0:0:0:0:
256,160,136289,1,0,0:0:0:0:
256,160,136468,1,8,0:0:0:0:
256,160,136825,1,8,0:0:0:0:
192,224,137004,1,8,0:0:0:0:
256,160,137182,1,0,0:0:0:0:
192,320,137539,1,0,0:0:0:0:
256,160,137718,1,8,0:0:0:0:
256,160,137897,1,0,0:0:0:0:
256,160,137986,1,0,0:0:0:0:
256,160,138075,1,8,0:0:0:0:
256,160,138164,1,8,0:0:0:0:
256,160,138254,1,0,0:0:0:0:
256,160,138432,1,8,0:0:0:0:
256,160,138611,1,0,0:0:0:0:
256,160,138789,1,8,0:0:0:0:
256,160,138879,1,8,0:0:0:0:
256,160,138968,1,0,0:0:0:0:
256,160,139147,1,8,0:0:0:0:
256,160,139325,1,0,0:0:0:0:
256,160,139504,1,0,0:0:0:0:
256,160,139593,1,0,0:0:0:0:
256,160,139682,1,8,0:0:0:0:
256,160,139861,1,8,0:0:0:0:
256,160,140039,1,8,0:0:0:0:
256,160,140129,1,8,0:0:0:0:
256,160,140218,1,0,0:0:0:0:
256,160,140307,1,0,0:0:0:0:
256,160,140397,1,8,0:0:0:0:
256,160,140486,1,0,0:0:0:0:
256,160,140575,1,0,0:0:0:0:
256,160,140664,1,0,0:0:0:0:
256,160,140754,1,8,0:0:0:0:
256,160,140843,1,8,0:0:0:0:
256,160,140932,1,8,0:0:0:0:
256,160,141022,1,0,0:0:0:0:
256,160,141111,1,8,0:0:0:0:
224,160,141200,1,8,0:0:0:0:
224,160,141289,1,0,0:0:0:0:
224,160,141468,1,0,0:0:0:0:
224,160,141557,1,0,0:0:0:0:
224,160,141647,1,8,0:0:0:0:
224,160,141736,1,8,0:0:0:0:
224,160,141825,1,0,0:0:0:0:
224,160,141914,1,0,0:0:0:0:
224,160,142004,1,8,0:0:0:0:
224,160,142093,1,8,0:0:0:0:
224,160,142182,1,0,0:0:0:0:
224,128,142897,1,4,0:0:0:0:
224,128,143075,1,8,0:0:0:0:
224,128,143164,1,8,0:0:0:0:
224,128,143254,1,0,0:0:0:0:
224,128,143432,1,8,0:0:0:0:
224,128,143611,1,0,0:0:0:0:
224,128,143700,1,0,0:0:0:0:
224,128,143789,1,8,0:0:0:0:
224,128,143879,1,8,0:0:0:0:
224,128,143968,1,0,0:0:0:0:
224,128,144147,1,8,0:0:0:0:
224,128,144325,1,0,0:0:0:0:
224,128,144504,1,8,0:0:0:0:
224,128,144593,1,8,0:0:0:0:
224,128,144682,1,0,0:0:0:0:
224,128,144861,1,8,0:0:0:0:
224,128,145039,1,0,0:0:0:0:
224,128,145129,1,8,0:0:0:0:
224,128,145218,1,0,0:0:0:0:
224,128,145397,1,8,0:0:0:0:
224,128,145575,1,8,0:0:0:0:
224,128,145754,1,0,0:0:0:0:
192,128,146022,1,0,0:0:0:0:
224,128,146111,1,8,0:0:0:0:
192,128,146289,1,8,0:0:0:0:
224,128,146468,1,8,0:0:0:0:
192,128,146557,1,8,0:0:0:0:
224,128,146647,1,0,0:0:0:0:
192,128,146736,1,0,0:0:0:0:
224,128,146825,1,8,0:0:0:0:
224,128,147004,1,0,0:0:0:0:
224,128,147182,1,8,0:0:0:0:
224,128,147272,1,8,0:0:0:0:
224,128,147361,1,0,0:0:0:0:
224,128,147450,1,0,0:0:0:0:
224,128,147539,1,8,0:0:0:0:
224,128,147718,1,0,0:0:0:0:
224,128,147897,1,8,0:0:0:0:
224,128,148075,1,0,0:0:0:0:
192,128,148164,1,0,0:0:0:0:
224,128,148254,1,8,0:0:0:0:
224,128,148432,1,8,0:0:0:0:
224,128,148611,1,0,0:0:0:0:
224,128,148879,1,0,0:0:0:0:
224,128,148968,1,8,0:0:0:0:
224,128,149147,1,8,0:0:0:0:
224,128,149325,1,0,0:0:0:0:
224,128,149414,1,0,0:0:0:0:
224,128,149504,1,8,0:0:0:0:
224,128,149593,1,8,0:0:0:0:
224,128,149682,1,0,0:0:0:0:
224,128,149861,1,8,0:0:0:0:
224,128,150039,1,0,0:0:0:0:
224,128,150218,1,8,0:0:0:0:
224,128,150307,1,8,0:0:0:0:
224,128,150397,1,0,0:0:0:0:
224,128,150575,1,8,0:0:0:0:
224,128,150754,1,0,0:0:0:0:
224,128,150843,1,8,0:0:0:0:
224,128,150932,1,0,0:0:0:0:
224,128,151111,1,8,0:0:0:0:
224,128,151289,1,0,0:0:0:0:
224,128,151468,1,8,0:0:0:0:
192,128,151647,1,8,0:0:0:0:
192,128,151736,1,8,0:0:0:0:
224,128,151825,1,0,0:0:0:0:
192,128,152004,1,0,0:0:0:0:
192,128,152093,1,0,0:0:0:0:
224,128,152182,1,8,0:0:0:0:
192,128,152272,1,8,0:0:0:0:
224,128,152361,1,0,0:0:0:0:
224,128,152539,1,8,0:0:0:0:
192,128,152897,1,0,0:0:0:0:
224,128,153789,1,0,0:0:0:0:
224,128,153879,1,0,0:0:0:0:
224,128,153968,1,12,0:0:0:0:
224,128,154325,1,4,0:0:0:0:
224,128,154504,1,8,0:0:0:0:
224,128,154593,1,8,0:0:0:0:
224,128,154682,1,0,0:0:0:0:
224,128,154861,1,8,0:0:0:0:
224,128,155039,1,0,0:0:0:0:
224,128,155129,1,0,0:0:0:0:
224,128,155218,1,8,0:0:0:0:
224,128,155307,1,8,0:0:0:0:
224,128,155397,1,0,0:0:0:0:
224,128,155575,1,8,0:0:0:0:
224,128,155754,1,0,0:0:0:0:
224,128,155932,1,8,0:0:0:0:
224,128,156022,1,8,0:0:0:0:
224,128,156111,1,0,0:0:0:0:
224,128,156289,1,8,0:0:0:0:
224,128,156379,1,0,0:0:0:0:
224,128,156468,1,8,0:0:0:0:
224,128,156647,1,0,0:0:0:0:
224,128,156825,1,8,0:0:0:0:
224,128,157004,1,0,0:0:0:0:
224,128,157182,1,8,0:0:0:0:
224,128,157450,1,0,0:0:0:0:
224,128,157539,1,8,0:0:0:0:
224,128,157718,1,8,0:0:0:0:
224,128,157897,1,0,0:0:0:0:
224,128,158164,1,0,0:0:0:0:
224,128,158254,1,8,0:0:0:0:
224,128,158432,1,8,0:0:0:0:
224,128,158611,1,0,0:0:0:0:
224,128,158789,1,8,0:0:0:0:
224,128,158879,1,8,0:0:0:0:
224,128,158968,1,0,0:0:0:0:
224,128,159147,1,8,0:0:0:0:
224,128,159325,1,0,0:0:0:0:
224,128,159504,1,0,0:0:0:0:
224,128,159593,1,0,0:0:0:0:
224,128,159682,1,8,0:0:0:0:
224,128,159861,1,8,0:0:0:0:
224,128,160039,1,8,0:0:0:0:
224,128,160218,1,8,0:0:0:0:
224,128,160307,1,0,0:0:0:0:
224,128,160397,1,8,0:0:0:0:
224,128,160575,1,0,0:0:0:0:
224,128,160664,1,0,0:0:0:0:
224,128,160754,1,8,0:0:0:0:
224,128,160932,1,8,0:0:0:0:
224,128,161022,1,0,0:0:0:0:
224,128,161111,1,8,0:0:0:0:
224,128,161200,1,8,0:0:0:0:
224,128,161289,1,0,0:0:0:0:
224,128,161379,1,0,0:0:0:0:
224,128,161468,1,8,0:0:0:0:
224,128,161647,1,8,0:0:0:0:
224,128,161736,1,0,0:0:0:0:
224,128,161825,1,8,0:0:0:0:
224,128,162004,1,0,0:0:0:0:
224,128,162093,1,0,0:0:0:0:
224,128,162182,1,8,0:0:0:0:
224,128,162361,1,0,0:0:0:0:
224,128,162450,1,8,0:0:0:0:
224,128,162539,1,0,0:0:0:0:
224,128,162718,1,0,0:0:0:0:
224,128,162897,1,12,0:0:0:0:
224,160,163254,1,4,0:0:0:0:
224,160,163611,1,12,0:0:0:0:
224,160,163968,1,12,0:0:0:0:
192,128,164325,1,8,0:0:0:0:
192,128,164414,1,8,0:0:0:0:
192,128,164504,1,8,0:0:0:0:
192,128,164593,1,8,0:0:0:0:
192,128,164682,1,0,0:0:0:0:
192,128,164772,1,0,0:0:0:0:
192,128,164861,1,0,0:0:0:0:
192,128,164950,1,0,0:0:0:0:
192,128,165039,1,8,0:0:0:0:
192,128,165307,1,0,0:0:0:0:
192,128,165397,1,8,0:0:0:0:
192,128,165575,1,8,0:0:0:0:
192,128,165754,1,4,0:0:0:0:
192,128,165932,1,8,0:0:0:0:
224,128,166022,1,8,0:0:0:0:
192,128,166111,1,0,0:0:0:0:
224,128,166289,1,8,0:0:0:0:
224,128,166468,1,0,0:0:0:0:
224,128,166557,1,8,0:0:0:0:
224,128,166647,1,8,0:0:0:0:
224,128,166736,1,8,0:0:0:0:
224,128,166825,1,0,0:0:0:0:
224,128,167004,1,0,0:0:0:0:
224,128,167182,1,8,0:0:0:0:
224,128,167361,1,8,0:0:0:0:
224,128,167450,1,8,0:0:0:0:
224,128,167539,1,0,0:0:0:0:
224,128,167718,1,8,0:0:0:0:
224,128,167897,1,0,0:0:0:0:
256,128,167986,1,0,0:0:0:0:
224,128,168075,1,0,0:0:0:0:
224,128,168164,1,0,0:0:0:0:
224,128,168254,1,8,0:0:0:0:
224,128,168432,1,0,0:0:0:0:
224,128,168611,1,8,0:0:0:0:
224,128,168700,1,0,0:0:0:0:
192,128,168789,1,8,0:0:0:0:
192,128,168879,1,8,0:0:0:0:
224,128,168968,1,0,0:0:0:0:
192,128,169147,1,0,0:0:0:0:
192,128,169236,1,0,0:0:0:0:
224,128,169325,1,8,0:0:0:0:
192,128,169414,1,8,0:0:0:0:
224,128,169504,1,0,0:0:0:0:
192,128,169593,1,0,0:0:0:0:
224,128,169682,1,8,0:0:0:0:
192,128,169861,1,0,0:0:0:0:
224,128,170039,1,8,0:0:0:0:
224,128,170129,1,8,0:0:0:0:
224,128,170218,1,0,0:0:0:0:
224,128,170307,1,0,0:0:0:0:
224,128,170397,1,8,0:0:0:0:
224,128,170575,1,8,0:0:0:0:
224,128,170664,1,8,0:0:0:0:
224,128,170754,1,0,0:0:0:0:
224,128,170932,1,0,0:0:0:0:
224,128,171111,1,12,0:0:0:0:
224,128,171468,1,0,0:0:0:0:
224,128,171647,1,8,0:0:0:0:
224,128,171736,1,8,0:0:0:0:
192,128,171825,1,0,0:0:0:0:
224,128,172004,1,8,0:0:0:0:
224,128,172182,1,0,0:0:0:0:
224,128,172272,1,8,0:0:0:0:
224,128,172361,1,8,0:0:0:0:
224,128,172450,1,8,0:0:0:0:
224,128,172539,1,0,0:0:0:0:
224,128,172718,1,0,0:0:0:0:
224,128,172897,1,8,0:0:0:0:
224,128,173075,1,8,0:0:0:0:
224,128,173164,1,8,0:0:0:0:
224,128,173254,1,0,0:0:0:0:
224,128,173432,1,0,0:0:0:0:
224,128,173611,1,8,0:0:0:0:
192,128,173700,1,0,0:0:0:0:
224,128,173789,1,0,0:0:0:0:
224,128,173879,1,0,0:0:0:0:
224,128,173968,1,8,0:0:0:0:
224,128,174147,1,0,0:0:0:0:
224,128,174325,1,8,0:0:0:0:
224,128,174414,1,0,0:0:0:0:
192,128,174504,1,8,0:0:0:0:
192,128,174593,1,8,0:0:0:0:
224,128,174682,1,0,0:0:0:0:
192,128,174861,1,8,0:0:0:0:
192,128,174950,1,0,0:0:0:0:
224,128,175039,1,8,0:0:0:0:
224,128,175129,1,8,0:0:0:0:
224,128,175218,1,0,0:0:0:0:
224,128,175307,1,0,0:0:0:0:
224,128,175397,1,8,0:0:0:0:
224,128,175575,1,0,0:0:0:0:
224,128,175754,1,8,0:0:0:0:
224,128,175843,1,8,0:0:0:0:
224,128,175932,1,0,0:0:0:0:
224,128,176022,1,0,0:0:0:0:
224,128,176111,1,8,0:0:0:0:
224,128,176200,1,0,0:0:0:0:
224,128,176289,1,8,0:0:0:0:
224,128,176379,1,8,0:0:0:0:
224,128,176468,1,0,0:0:0:0:
224,128,176647,1,0,0:0:0:0:
224,128,176825,1,12,0:0:0:0:
224,128,177182,1,4,0:0:0:0:
192,128,177361,1,8,0:0:0:0:
224,128,177450,1,8,0:0:0:0:
192,128,177539,1,0,0:0:0:0:
224,128,177718,1,8,0:0:0:0:
224,128,177897,1,0,0:0:0:0:
224,128,177986,1,8,0:0:0:0:
224,128,178075,1,8,0:0:0:0:
224,128,178164,1,8,0:0:0:0:
224,128,178254,1,0,0:0:0:0:
224,128,178432,1,0,0:0:0:0:
224,128,178611,1,8,0:0:0:0:
224,128,178789,1,8,0:0:0:0:
224,128,178879,1,8,0:0:0:0:
224,128,178968,1,0,0:0:0:0:
224,128,179147,1,8,0:0:0:0:
224,128,179325,1,8,0:0:0:0:
224,128,179414,1,8,0:0:0:0:
224,128,179504,1,0,0:0:0:0:
224,128,179593,1,8,0:0:0:0:
224,128,179682,1,0,0:0:0:0:
224,128,179861,1,0,0:0:0:0:
224,128,180039,1,8,0:0:0:0:
192,128,180129,1,0,0:0:0:0:
192,128,180218,1,8,0:0:0:0:
192,128,180307,1,8,0:0:0:0:
224,128,180397,1,0,0:0:0:0:
192,128,180575,1,0,0:0:0:0:
192,128,180664,1,0,0:0:0:0:
224,128,180754,1,8,0:0:0:0:
192,128,180843,1,8,0:0:0:0:
224,128,180932,1,0,0:0:0:0:
192,128,181022,1,0,0:0:0:0:
224,128,181111,1,8,0:0:0:0:
192,128,181289,1,0,0:0:0:0:
224,128,181468,1,8,0:0:0:0:
224,128,181557,1,8,0:0:0:0:
224,128,181647,1,0,0:0:0:0:
224,128,181736,1,0,0:0:0:0:
224,128,181825,1,8,0:0:0:0:
224,128,181914,1,0,0:0:0:0:
224,128,182004,1,8,0:0:0:0:
224,128,182093,1,8,0:0:0:0:
224,128,182182,1,0,0:0:0:0:
224,128,182361,1,0,0:0:0:0:
224,128,182539,1,12,0:0:0:0:
224,128,182718,1,0,0:0:0:0:
224,128,182897,1,0,0:0:0:0:
224,128,183075,1,8,0:0:0:0:
224,128,183164,1,8,0:0:0:0:
192,128,183254,1,0,0:0:0:0:
224,128,183432,1,8,0:0:0:0:
224,128,183611,1,0,0:0:0:0:
224,128,183700,1,8,0:0:0:0:
224,128,183789,1,8,0:0:0:0:
224,128,183879,1,8,0:0:0:0:
224,128,183968,1,0,0:0:0:0:
224,128,184147,1,0,0:0:0:0:
224,128,184325,1,8,0:0:0:0:
224,128,184504,1,8,0:0:0:0:
224,128,184593,1,8,0:0:0:0:
224,128,184682,1,0,0:0:0:0:
192,128,184861,1,0,0:0:0:0:
224,128,185039,1,8,0:0:0:0:
224,128,185129,1,8,0:0:0:0:
224,128,185218,1,0,0:0:0:0:
224,128,185307,1,8,0:0:0:0:
224,128,185397,1,0,0:0:0:0:
224,128,185575,1,0,0:0:0:0:
224,128,185754,1,8,0:0:0:0:
224,128,185843,1,0,0:0:0:0:
192,128,185932,1,8,0:0:0:0:
192,128,186022,1,8,0:0:0:0:
224,128,186111,1,0,0:0:0:0:
192,128,186289,1,8,0:0:0:0:
192,128,186379,1,0,0:0:0:0:
224,128,186468,1,8,0:0:0:0:
224,128,186557,1,8,0:0:0:0:
224,128,186647,1,0,0:0:0:0:
224,128,186736,1,0,0:0:0:0:
224,128,186825,1,8,0:0:0:0:
192,128,187004,1,0,0:0:0:0:
224,128,187182,1,8,0:0:0:0:
224,128,187272,1,8,0:0:0:0:
224,128,187361,1,0,0:0:0:0:
224,128,187450,1,0,0:0:0:0:
224,128,187539,1,8,0:0:0:0:
224,128,187629,1,0,0:0:0:0:
224,128,187718,1,8,0:0:0:0:
224,128,187807,1,8,0:0:0:0:
224,128,187897,1,0,0:0:0:0:
224,128,188075,1,0,0:0:0:0:
224,128,188254,1,8,0:0:0:0:
224,128,188611,1,8,0:0:0:0:
224,128,188700,1,8,0:0:0:0:
224,128,188789,1,0,0:0:0:0:
224,128,188879,1,0,0:0:0:0:
224,128,188968,1,8,0:0:0:0:
224,128,189057,1,0,0:0:0:0:
224,128,189147,1,8,0:0:0:0:
224,128,189236,1,8,0:0:0:0:
224,128,189325,1,0,0:0:0:0:
224,128,189414,1,8,0:0:0:0:
224,128,189504,1,0,0:0:0:0:
224,128,189682,1,8,0:0:0:0:
224,128,190039,1,8,0:0:0:0:
224,128,190129,1,8,0:0:0:0:
224,128,190218,1,8,0:0:0:0:
160,0,190307,1,0,0:0:0:0:
224,128,190397,1,8,0:0:0:0:
224,128,190486,1,8,0:0:0:0:
224,128,190575,1,0,0:0:0:0:
224,128,190664,1,0,0:0:0:0:
224,128,190754,1,8,0:0:0:0:
224,128,190843,1,0,0:0:0:0:
224,128,190932,1,8,0:0:0:0:
224,96,191022,1,8,0:0:0:0:
96,160,191111,1,0,0:0:0:0:
224,96,191200,1,8,0:0:0:0:
224,96,191289,1,0,0:0:0:0:
96,160,191468,1,4,0:0:0:0:
