osu file format v14

[General]
AudioFilename: we are number 1.mp3
AudioLeadIn: 0
PreviewTime: 49950
Countdown: 0
SampleSet: Normal
StackLeniency: 0.7
Mode: 1
LetterboxInBreaks: 0
WidescreenStoryboard: 0

[Editor]
DistanceSpacing: 2.8
BeatDivisor: 4
GridSize: 32
TimelineZoom: 1.1

[Metadata]
Title:We Are Number One (Remix)
TitleUnicode:We Are Number One (Remix)
Artist:Dunderpatrullen
ArtistUnicode:Dunderpatrullen
Creator:Midnaait
Version:Futsuu
Source:LazyTown
Tags:Mani Svavarsson Robbie Rotten Stefan Karl Stefansson Dream Team Lno Kantan
BeatmapID:1161585
BeatmapSetID:547301

[Difficulty]
HPDrainRate:7
CircleSize:5
OverallDifficulty:4
ApproachRate:5
SliderMultiplier:1.4
SliderTickRate:1

[Events]
//Background and Video events
0,0,"we are number one but it's the bg.jpg",0,-60
//Break Periods
//Storyboard Layer 0 (Background)
//Storyboard Layer 1 (Fail)
//Storyboard Layer 2 (Pass)
//Storyboard Layer 3 (Foreground)
//Storyboard Sound Samples

[TimingPoints]
40,357.142857142857,4,1,0,75,1,0
5309,-100,4,1,0,90,0,8
31379,-100,4,1,0,75,0,0
38432,-100,4,1,0,90,0,0
51468,-100,4,1,0,90,0,1
62897,-100,4,1,0,90,0,0
99950,-100,4,1,0,75,0,0
107004,-100,4,1,0,90,0,0
120039,-100,4,1,0,90,0,1
131468,-100,4,1,0,90,0,0
131825,-100,4,1,0,75,0,0
137361,-100,4,1,0,80,0,0
139950,-100,4,1,0,85,0,0
142897,-100,4,1,0,90,0,0
165754,-100,4,1,0,90,0,1
191468,-100,4,1,0,90,0,0

[HitObjects]
160,128,5397,5,12,0:0:0:0:
224,128,5754,1,4,0:0:0:0:
224,128,6468,1,8,0:0:0:0:
192,128,6647,1,8,0:0:0:0:
224,128,6825,1,0,0:0:0:0:
224,128,7182,1,8,0:0:0:0:
224,128,7539,1,0,0:0:0:0:
224,128,8254,1,0,0:0:0:0:
224,128,8432,1,0,0:0:0:0:
224,128,8611,1,8,0:0:0:0:
224,128,8968,1,0,0:0:0:0:
224,128,9325,1,8,0:0:0:0:
224,128,9682,1,8,0:0:0:0:
224,128,10039,1,0,0:0:0:0:
224,128,10397,1,8,0:0:0:0:
224,128,10754,1,0,0:0:0:0:
224,128,11468,1,0,0:0:0:0:
224,128,12182,1,8,0:0:0:0:
224,128,12361,1,8,0:0:0:0:
224,128,12539,1,0,0:0:0:0:
224,128,12897,1,8,0:0:0:0:
224,128,13254,1,0,0:0:0:0:
224,128,13968,1,0,0:0:0:0:
224,128,14147,1,0,0:0:0:0:
224,128,14325,1,8,0:0:0:0:
224,128,14682,1,0,0:0:0:0:
224,128,15039,1,8,0:0:0:0:
224,128,15397,1,8,0:0:0:0:
224,128,15754,1,0,0:0:0:0:
224,128,16111,1,8,0:0:0:0:
224,128,16468,1,0,0:0:0:0:
224,128,17182,1,0,0:0:0:0:
224,128,20039,1,12,0:0:0:0:
192,128,20397,1,0,0:0:0:0:
224,128,20575,1,0,0:0:0:0:
224,128,20754,1,8,0:0:0:0:
224,128,21111,1,8,0:0:0:0:
224,128,21468,1,0,0:0:0:0:
224,128,21825,1,8,0:0:0:0:
224,128,22004,1,0,0:0:0:0:
224,128,22897,1,8,0:0:0:0:
224,128,23075,1,8,0:0:0:0:
224,128,23254,1,0,0:0:0:0:
224,128,23611,1,8,0:0:0:0:
224,128,23968,1,0,0:0:0:0:
224,128,24325,1,8,0:0:0:0:
224,128,24682,1,8,0:0:0:0:
224,128,24861,1,0,0:0:0:0:
224,128,25575,1,0,0:0:0:0:
224,128,25932,1,0,0:0:0:0:
224,160,26111,1,8,0:0:0:0:
224,160,26468,1,0,0:0:0:0:
224,160,26647,1,0,0:0:0:0:
224,160,26825,1,8,0:0:0:0:
224,160,27182,1,0,0:0:0:0:
224,160,27539,1,8,0:0:0:0:
224,160,27718,1,0,0:0:0:0:
224,160,28432,1,0,0:0:0:0:
224,160,28611,1,8,0:0:0:0:
224,160,28968,1,8,0:0:0:0:
224,160,29325,1,0,0:0:0:0:
224,160,29504,1,0,0:0:0:0:
224,160,29682,1,8,0:0:0:0:
224,160,30039,1,8,0:0:0:0:
256,160,30397,1,0,0:0:0:0:
224,160,30575,1,8,0:0:0:0:
224,160,31468,1,0,0:0:0:0:
224,160,32004,1,8,0:0:0:0:
224,160,32897,1,8,0:0:0:0:
224,160,33432,1,0,0:0:0:0:
224,160,34325,1,8,0:0:0:0:
224,160,35039,1,0,0:0:0:0:
224,160,35397,1,0,0:0:0:0:
224,160,35754,1,8,0:0:0:0:
224,128,38611,1,4,0:0:0:0:
224,128,39325,1,8,0:0:0:0:
192,128,39504,1,8,0:0:0:0:
224,128,39682,1,0,0:0:0:0:
224,128,40039,1,8,0:0:0:0:
224,128,40397,1,0,0:0:0:0:
224,128,41111,1,0,0:0:0:0:
224,128,41289,1,0,0:0:0:0:
224,128,41468,1,8,0:0:0:0:
224,128,41825,1,0,0:0:0:0:
224,128,42182,1,8,0:0:0:0:
224,128,42539,1,8,0:0:0:0:
224,128,42897,1,0,0:0:0:0:
192,128,43968,1,12,0:0:0:0:
224,128,44325,1,4,0:0:0:0:
224,128,45039,1,8,0:0:0:0:
224,128,45218,1,8,0:0:0:0:
224,128,45397,1,0,0:0:0:0:
224,128,45754,1,8,0:0:0:0:
224,128,46111,1,0,0:0:0:0:
224,128,46825,1,0,0:0:0:0:
224,128,47004,1,0,0:0:0:0:
224,128,47182,1,8,0:0:0:0:
224,128,47539,1,0,0:0:0:0:
224,128,47897,1,8,0:0:0:0:
224,128,48254,1,8,0:0:0:0:
224,128,48611,1,0,0:0:0:0:
224,128,48968,1,8,0:0:0:0:
224,128,49325,1,0,0:0:0:0:
160,128,50039,2,0,L|192:192,4,70
224,128,51468,1,4,0:0:0:0:
224,128,52182,1,8,0:0:0:0:
224,128,52539,1,8,0:0:0:0:
224,128,52718,1,8,0:0:0:0:
224,128,52897,1,0,0:0:0:0:
224,128,53254,1,0,0:0:0:0:
224,128,53611,1,8,0:0:0:0:
224,128,54325,1,8,0:0:0:0:
192,128,54504,1,8,0:0:0:0:
224,128,54682,1,0,0:0:0:0:
224,160,55039,1,8,0:0:0:0:
224,160,55397,1,0,0:0:0:0:
224,160,55575,1,8,0:0:0:0:
224,128,55754,1,8,0:0:0:0:
224,160,56111,1,8,0:0:0:0:
224,160,56468,1,0,0:0:0:0:
224,128,57182,1,0,0:0:0:0:
224,160,57539,1,0,0:0:0:0:
224,128,57897,1,8,0:0:0:0:
224,128,58075,1,8,0:0:0:0:
224,128,58254,1,8,0:0:0:0:
224,128,58611,1,0,0:0:0:0:
224,128,58968,1,0,0:0:0:0:
224,128,59325,1,8,0:0:0:0:
224,128,60039,1,8,0:0:0:0:
224,128,60397,1,0,0:0:0:0:
224,160,60754,1,8,0:0:0:0:
224,160,61111,1,0,0:0:0:0:
224,128,61468,1,8,0:0:0:0:
224,160,61647,1,8,0:0:0:0:
224,160,61825,1,8,0:0:0:0:
224,160,62182,1,0,0:0:0:0:
224,160,62897,1,12,0:0:0:0:
256,160,63611,1,0,0:0:0:0:
256,160,64325,1,0,0:0:0:0:
256,160,64682,1,0,0:0:0:0:
256,160,65754,1,0,0:0:0:0:
256,160,66111,1,0,0:0:0:0:
256,160,66468,1,8,0:0:0:0:
256,160,66825,1,8,0:0:0:0:
256,160,67182,1,0,0:0:0:0:
256,160,67897,1,0,0:0:0:0:
256,160,68611,1,0,0:0:0:0:
256,160,69325,1,8,0:0:0:0:
256,160,69504,1,8,0:0:0:0:
256,160,69682,1,0,0:0:0:0:
256,160,70039,1,8,0:0:0:0:
256,160,70397,1,0,0:0:0:0:
256,160,71111,1,0,0:0:0:0:
256,160,71289,1,0,0:0:0:0:
256,160,71468,1,8,0:0:0:0:
256,160,71825,1,0,0:0:0:0:
256,160,72182,1,8,0:0:0:0:
256,160,72539,1,8,0:0:0:0:
160,128,72897,1,0,0:0:0:0:
256,160,73968,1,12,0:0:0:0:
224,128,74325,1,4,0:0:0:0:
224,128,75039,1,8,0:0:0:0:
224,128,75218,1,8,0:0:0:0:
224,128,75397,1,0,0:0:0:0:
224,128,75754,1,8,0:0:0:0:
224,128,76111,1,0,0:0:0:0:
224,128,76825,1,0,0:0:0:0:
224,128,77004,1,8,0:0:0:0:
224,128,77182,1,8,0:0:0:0:
224,128,77539,1,0,0:0:0:0:
224,128,77897,1,8,0:0:0:0:
224,128,78254,1,8,0:0:0:0:
224,128,78611,1,0,0:0:0:0:
224,128,78968,1,8,0:0:0:0:
224,128,79325,1,0,0:0:0:0:
224,128,80039,1,0,0:0:0:0:
224,128,80754,1,8,0:0:0:0:
224,128,80932,1,8,0:0:0:0:
224,128,81111,1,0,0:0:0:0:
224,128,81468,1,8,0:0:0:0:
224,128,81825,1,0,0:0:0:0:
224,128,82539,1,0,0:0:0:0:
224,128,82718,1,8,0:0:0:0:
224,128,82897,1,8,0:0:0:0:
224,128,83254,1,0,0:0:0:0:
224,128,83611,1,8,0:0:0:0:
224,128,83968,1,8,0:0:0:0:
224,128,84325,1,0,0:0:0:0:
224,128,84682,1,8,0:0:0:0:
224,128,85039,1,0,0:0:0:0:
224,128,85754,1,4,0:0:0:0:
224,128,88254,1,0,0:0:0:0:
224,128,88611,1,12,0:0:0:0:
224,128,89147,1,0,0:0:0:0:
224,128,89325,1,8,0:0:0:0:
224,128,90039,1,8,0:0:0:0:
224,128,90397,1,0,0:0:0:0:
224,128,90575,1,8,0:0:0:0:
224,128,91111,1,0,0:0:0:0:
224,128,91468,1,8,0:0:0:0:
224,128,91647,1,8,0:0:0:0:
224,128,92004,1,0,0:0:0:0:
224,128,92361,1,0,0:0:0:0:
224,128,92539,1,0,0:0:0:0:
224,128,92897,1,8,0:0:0:0:
224,128,93075,1,8,0:0:0:0:
224,128,93432,1,8,0:0:0:0:
224,128,94325,1,0,0:0:0:0:
224,160,94504,1,0,0:0:0:0:
224,160,94682,1,8,0:0:0:0:
224,160,95039,1,0,0:0:0:0:
224,160,95397,1,8,0:0:0:0:
224,160,95754,1,0,0:0:0:0:
224,128,96111,1,8,0:0:0:0:
224,128,96289,1,8,0:0:0:0:
192,160,96468,1,0,0:0:0:0:
224,160,97182,1,8,0:0:0:0:
224,160,97539,1,0,0:0:0:0:
224,160,97718,1,0,0:0:0:0:
224,160,97897,1,8,0:0:0:0:
224,160,98254,1,8,0:0:0:0:
224,160,98611,1,0,0:0:0:0:
224,160,98789,1,0,0:0:0:0:
224,160,99147,1,8,0:0:0:0:
224,160,100039,1,0,0:0:0:0:
256,160,100575,1,8,0:0:0:0:
256,160,101468,1,8,0:0:0:0:
256,160,102182,1,0,0:0:0:0:
256,160,102897,1,0,0:0:0:0:
256,160,103611,1,8,0:0:0:0:
224,160,103968,1,8,0:0:0:0:
224,160,104325,1,0,0:0:0:0:
224,128,107182,1,4,0:0:0:0:
224,128,107897,1,8,0:0:0:0:
224,128,108075,1,8,0:0:0:0:
224,128,108254,1,0,0:0:0:0:
224,128,108611,1,8,0:0:0:0:
224,128,108968,1,0,0:0:0:0:
224,128,109682,1,0,0:0:0:0:
224,128,109861,1,8,0:0:0:0:
224,128,110039,1,8,0:0:0:0:
224,128,110397,1,0,0:0:0:0:
224,128,110754,1,8,0:0:0:0:
224,128,111111,1,8,0:0:0:0:
224,128,111468,1,0,0:0:0:0:
224,128,112539,1,12,0:0:0:0:
224,128,112897,1,4,0:0:0:0:
224,128,113611,1,8,0:0:0:0:
224,128,113789,1,8,0:0:0:0:
224,128,113968,1,0,0:0:0:0:
224,128,114325,1,8,0:0:0:0:
224,128,114682,1,0,0:0:0:0:
224,128,115397,1,0,0:0:0:0:
224,128,115575,1,8,0:0:0:0:
224,128,115754,1,8,0:0:0:0:
224,128,116111,1,0,0:0:0:0:
224,128,116468,1,8,0:0:0:0:
224,128,116825,1,8,0:0:0:0:
224,128,117182,1,0,0:0:0:0:
224,128,117539,1,8,0:0:0:0:
224,128,117897,1,0,0:0:0:0:
128,128,118611,2,0,L|160:192,4,70
224,128,120039,1,4,0:0:0:0:
224,128,120397,1,0,0:0:0:0:
192,128,120575,1,0,0:0:0:0:
224,128,120754,1,8,0:0:0:0:
224,128,121111,1,0,0:0:0:0:
224,128,121468,1,8,0:0:0:0:
224,128,121647,1,8,0:0:0:0:
224,128,121825,1,0,0:0:0:0:
224,128,122182,1,8,0:0:0:0:
224,128,122897,1,8,0:0:0:0:
224,128,123254,1,0,0:0:0:0:
224,160,123611,1,8,0:0:0:0:
224,160,123789,1,8,0:0:0:0:
224,160,124147,1,0,0:0:0:0:
224,160,124504,1,8,0:0:0:0:
224,160,124682,1,8,0:0:0:0:
224,160,125039,1,0,0:0:0:0:
224,128,125754,1,8,0:0:0:0:
224,128,126111,1,0,0:0:0:0:
224,128,126289,1,0,0:0:0:0:
224,128,126468,1,8,0:0:0:0:
224,128,126825,1,0,0:0:0:0:
224,128,127004,1,0,0:0:0:0:
224,128,127182,1,8,0:0:0:0:
224,128,127539,1,0,0:0:0:0:
224,128,127897,1,8,0:0:0:0:
224,128,128611,1,8,0:0:0:0:
224,128,128968,1,0,0:0:0:0:
224,160,129147,1,0,0:0:0:0:
224,160,129325,1,8,0:0:0:0:
224,160,129682,1,8,0:0:0:0:
224,160,130039,1,8,0:0:0:0:
224,160,130218,1,8,0:0:0:0:
224,160,130397,1,0,0:0:0:0:
224,160,130754,1,0,0:0:0:0:
224,160,131111,1,8,0:0:0:0:
224,160,131468,1,4,0:0:0:0:
256,160,132182,1,8,0:0:0:0:
256,160,132897,1,8,0:0:0:0:
256,160,133254,1,0,0:0:0:0:
256,160,133611,1,8,0:0:0:0:
256,160,133968,1,0,0:0:0:0:
256,160,134325,1,8,0:0:0:0:
256,160,135039,1,0,0:0:0:0:
256,160,135754,1,8,0:0:0:0:
256,160,136111,1,8,0:0:0:0:
256,160,136468,1,8,0:0:0:0:
256,160,137182,1,0,0:0:0:0:
256,160,137897,1,8,0:0:0:0:
256,160,138254,1,0,0:0:0:0:
256,160,138432,1,0,0:0:0:0:
256,160,138611,1,8,0:0:0:0:
256,160,138968,1,0,0:0:0:0:
256,160,139325,1,8,0:0:0:0:
256,160,140039,1,8,0:0:0:0:
256,160,140397,1,0,0:0:0:0:
256,160,140575,1,0,0:0:0:0:
256,160,140754,1,8,0:0:0:0:
256,160,141111,1,0,0:0:0:0:
192,128,141468,2,0,L|192:192,8,35
224,128,142897,5,4,0:0:0:0:
224,128,143611,1,8,0:0:0:0:
192,128,143789,1,8,0:0:0:0:
224,128,143968,1,0,0:0:0:0:
224,128,144325,1,8,0:0:0:0:
224,128,144682,1,0,0:0:0:0:
224,128,145039,1,8,0:0:0:0:
224,128,145397,1,8,0:0:0:0:
224,128,145754,1,0,0:0:0:0:
224,128,146468,1,8,0:0:0:0:
224,128,146647,1,8,0:0:0:0:
224,128,146825,1,0,0:0:0:0:
224,128,147182,1,8,0:0:0:0:
224,128,147361,1,8,0:0:0:0:
224,128,147539,1,0,0:0:0:0:
224,128,147897,1,8,0:0:0:0:
224,128,148254,1,8,0:0:0:0:
224,128,148611,1,0,0:0:0:0:
224,128,149325,1,8,0:0:0:0:
224,128,149504,1,8,0:0:0:0:
224,128,149682,1,0,0:0:0:0:
224,128,150039,1,8,0:0:0:0:
224,128,150397,1,0,0:0:0:0:
224,128,150754,1,8,0:0:0:0:
224,128,151468,1,8,0:0:0:0:
224,128,151825,1,0,0:0:0:0:
224,128,152182,1,8,0:0:0:0:
224,128,152539,1,8,0:0:0:0:
224,128,152897,1,0,0:0:0:0:
224,128,153968,1,12,0:0:0:0:
224,128,154325,1,4,0:0:0:0:
224,128,155039,1,8,0:0:0:0:
192,128,155218,1,8,0:0:0:0:
224,128,155397,1,0,0:0:0:0:
224,128,155754,1,8,0:0:0:0:
224,128,156111,1,0,0:0:0:0:
224,128,156468,1,8,0:0:0:0:
224,128,156825,1,8,0:0:0:0:
224,128,157182,1,0,0:0:0:0:
224,128,157718,1,0,0:0:0:0:
224,128,157897,1,8,0:0:0:0:
224,128,158254,1,0,0:0:0:0:
224,128,158611,1,8,0:0:0:0:
224,128,158968,1,8,0:0:0:0:
224,128,159682,1,0,0:0:0:0:
224,128,159861,1,0,0:0:0:0:
224,128,160039,1,8,0:0:0:0:
224,128,160397,1,8,0:0:0:0:
224,128,160754,1,8,0:0:0:0:
224,128,161111,1,0,0:0:0:0:
224,128,161289,1,0,0:0:0:0:
224,128,161468,1,8,0:0:0:0:
224,128,161825,1,8,0:0:0:0:
224,128,162182,1,8,0:0:0:0:
224,128,162897,1,12,0:0:0:0:
224,128,163254,1,4,0:0:0:0:
224,128,163611,1,12,0:0:0:0:
224,128,163968,1,12,0:0:0:0:
224,128,164325,1,4,0:0:0:0:
224,128,165039,1,0,0:0:0:0:
224,128,165754,1,4,0:0:0:0:
224,128,166468,1,8,0:0:0:0:
224,128,166647,1,0,0:0:0:0:
224,128,166825,1,8,0:0:0:0:
224,128,167182,1,8,0:0:0:0:
224,128,167539,1,0,0:0:0:0:
224,128,168254,1,0,0:0:0:0:
224,128,168432,1,8,0:0:0:0:
224,128,168611,1,8,0:0:0:0:
224,128,168968,1,0,0:0:0:0:
224,128,169325,1,8,0:0:0:0:
224,128,170039,1,0,0:0:0:0:
224,128,170218,1,0,0:0:0:0:
224,128,170397,1,8,0:0:0:0:
224,128,170754,1,0,0:0:0:0:
224,128,171111,1,12,0:0:0:0:
224,128,171468,1,0,0:0:0:0:
224,128,172182,1,8,0:0:0:0:
224,128,172361,1,0,0:0:0:0:
224,128,172539,1,8,0:0:0:0:
224,128,172897,1,8,0:0:0:0:
224,128,173254,1,0,0:0:0:0:
224,128,173968,1,0,0:0:0:0:
224,128,174147,1,8,0:0:0:0:
224,128,174325,1,8,0:0:0:0:
224,128,174682,1,0,0:0:0:0:
224,128,175039,1,8,0:0:0:0:
224,128,175754,1,0,0:0:0:0:
224,128,175932,1,0,0:0:0:0:
224,128,176111,1,8,0:0:0:0:
224,128,176468,1,0,0:0:0:0:
224,128,176825,1,12,0:0:0:0:
224,128,177182,1,4,0:0:0:0:
224,128,177897,1,8,0:0:0:0:
224,128,178075,1,0,0:0:0:0:
224,128,178254,1,8,0:0:0:0:
224,128,178611,1,8,0:0:0:0:
224,128,178968,1,0,0:0:0:0:
224,128,179682,1,0,0:0:0:0:
224,128,179861,1,8,0:0:0:0:
224,128,180039,1,8,0:0:0:0:
224,128,180397,1,0,0:0:0:0:
224,128,180754,1,8,0:0:0:0:
224,128,181468,1,0,0:0:0:0:
224,128,181825,1,8,0:0:0:0:
224,128,182004,1,8,0:0:0:0:
224,128,182182,1,0,0:0:0:0:
224,128,182539,1,12,0:0:0:0:
224,128,182897,1,0,0:0:0:0:
224,128,183611,1,8,0:0:0:0:
224,128,183789,1,0,0:0:0:0:
224,128,183968,1,8,0:0:0:0:
224,128,184325,1,8,0:0:0:0:
224,128,184682,1,0,0:0:0:0:
224,128,185397,1,0,0:0:0:0:
224,128,185575,1,8,0:0:0:0:
224,128,185754,1,8,0:0:0:0:
224,128,186111,1,0,0:0:0:0:
224,128,186468,1,8,0:0:0:0:
224,128,186825,1,8,0:0:0:0:
224,128,187182,1,0,0:0:0:0:
224,128,187539,1,8,0:0:0:0:
224,128,187718,1,8,0:0:0:0:
224,128,187897,1,0,0:0:0:0:
224,128,188611,1,0,0:0:0:0:
224,128,188968,1,8,0:0:0:0:
224,128,189147,1,8,0:0:0:0:
224,128,189325,1,0,0:0:0:0:
224,128,190039,1,0,0:0:0:0:
224,128,190218,1,0,0:0:0:0:
224,128,190397,1,8,0:0:0:0:
224,128,190575,1,8,0:0:0:0:
224,128,190754,1,0,0:0:0:0:
224,128,191111,1,12,0:0:0:0:
224,128,191468,1,4,0:0:0:0:
