osu file format v14

[General]
AudioFilename: audio.mp3
AudioLeadIn: 0
PreviewTime: 6456
Countdown: 0
SampleSet: Soft
StackLeniency: 1
Mode: 0
LetterboxInBreaks: 0
WidescreenStoryboard: 0

[Editor]
DistanceSpacing: 1.2
BeatDivisor: 4
GridSize: 4
TimelineZoom: 1

[Metadata]
Title:Interlude (Fantasy Friendship Forever)
TitleUnicode:Interlude (Fantasy Friendship Forever)
Artist:Dunderpatrullen
ArtistUnicode:Dunderpatrullen
Creator:MrDorian
Version:Hard
Source:
Tags:Keygeneration 8bit chiptune electronica
BeatmapID:1359984
BeatmapSetID:641345

[Difficulty]
HPDrainRate:4
CircleSize:4
OverallDifficulty:4
ApproachRate:4
SliderMultiplier:1.4
SliderTickRate:1

[Events]
//Background and Video events
0,0,"bg.jpg",0,0
//Break Periods
//Storyboard Layer 0 (Background)
//Storyboard Layer 1 (Fail)
//Storyboard Layer 2 (Pass)
//Storyboard Layer 3 (Foreground)
//Storyboard Sound Samples

[TimingPoints]
6766,618.556701030928,3,2,1,40,1,0
7075,-100,3,2,1,38,0,0
7384,-100,3,2,1,36,0,0
7693,-100,3,2,1,40,0,0
8312,-100,3,2,1,30,0,0
8621,-100,3,2,1,40,0,0
8930,-100,3,2,1,26,0,0
9240,-100,3,2,1,24,0,0
9549,-100,3,2,1,40,0,0
10168,-100,3,2,1,18,0,0
10477,-100,3,2,1,40,0,0
10786,-100,3,2,1,38,0,0
11095,-100,3,2,1,40,0,0
11405,-100,3,2,1,34,0,0
11714,-100,3,2,1,40,0,0
12642,-100,3,2,1,28,0,0
12951,-100,3,2,1,26,0,0
13260,-100,3,2,1,24,0,0
13570,-100,3,2,1,22,0,0
13879,-100,3,2,1,20,0,0
14188,-100,3,2,1,40,0,0
14497,-100,3,2,1,38,0,0
14807,-100,3,2,1,40,0,0
15116,-100,3,2,1,34,0,0
15425,-100,3,2,1,40,0,0
15735,-100,3,2,1,30,0,0
16044,-100,3,2,1,40,0,0
16353,-100,3,2,1,26,0,0
16662,-100,3,2,1,24,0,0
16972,-100,3,2,1,22,0,0
17281,-100,3,2,1,40,0,0
18209,-100,3,2,1,38,0,0
18518,-100,3,2,1,36,0,0
18827,-100,3,2,1,34,0,0
19137,-100,3,2,1,40,0,0
20064,-100,3,2,1,38,0,0
20374,-100,3,2,1,36,0,0
20683,-100,3,2,1,34,0,0
20992,-100,3,2,1,40,0,0
21302,-100,3,2,1,30,0,0
21611,-100,3,2,1,40,0,0
21920,-100,3,2,1,38,0,0
22229,-100,3,2,1,36,0,0
22539,-100,3,2,1,40,0,0
23157,-100,3,2,1,30,0,0
23467,-100,3,2,1,40,0,0
23776,-100,3,2,1,26,0,0
24085,-100,3,2,1,24,0,0
24394,-100,3,2,1,40,0,0
27487,-100,3,2,1,26,0,0
27796,-100,3,2,1,24,0,0
28106,-100,3,2,1,22,0,0
28415,-100,3,2,1,20,0,0
28724,-100,3,2,1,18,0,0
29034,-100,3,2,1,40,0,0
29343,-100,3,2,1,38,0,0
29652,-100,3,2,1,40,0,0
29961,-100,3,2,1,34,0,0
30271,-100,3,2,1,40,0,0
30580,-100,3,2,1,30,0,0
30889,-100,3,2,1,40,0,0
31198,-100,3,2,1,26,0,0
31508,-100,3,2,1,24,0,0
31817,-100,3,2,1,40,0,0
33054,-100,3,2,1,38,0,0
33363,-100,3,2,1,36,0,0
33673,-100,3,2,1,34,0,0
33982,-100,3,2,1,40,0,0
34910,-100,3,2,1,38,0,0
35219,-100,3,2,1,36,0,0
35528,-100,3,2,1,34,0,0
35838,-100,3,2,1,40,0,0
36147,-100,3,2,1,30,0,0
36456,-100,3,2,1,40,0,0
36766,-100,3,2,1,38,0,0
37075,-100,3,2,1,36,0,0
37384,-100,3,2,1,40,0,0
38621,-100,3,2,1,28,0,0
38930,-100,3,2,1,26,0,0
39240,-100,3,2,1,24,0,0
39549,-100,3,2,1,22,0,0
39858,-100,3,2,1,20,0,0
40168,-100,3,2,1,40,0,0
43260,-100,3,2,1,32,0,0
43570,-100,3,2,1,40,0,0
44188,-100,3,2,1,38,0,0
44497,-100,3,2,1,36,0,0
44807,-100,3,2,1,34,0,0
45116,-100,3,2,1,32,0,0
45425,-100,3,2,1,30,0,0
45735,-100,3,2,1,40,0,0
47900,-100,3,2,1,38,0,0
48209,-100,3,2,1,36,0,0
48518,-100,3,2,1,34,0,0
48827,-100,3,2,1,32,0,0
49137,-100,3,2,1,30,0,0
49446,-100,3,2,1,40,0,0
49755,-100,3,2,1,38,0,0
50064,-100,3,2,1,36,0,0
50374,-100,3,2,1,34,0,0
50683,-100,3,2,1,32,0,0
50992,-100,3,2,1,30,0,0
51302,-100,3,2,1,40,0,0
51611,-100,3,2,1,38,0,0
51920,-100,3,2,1,36,0,0
52229,-100,3,2,1,34,0,0
52539,-100,3,2,1,32,0,0
52848,-100,3,2,1,30,0,0
53467,-100,3,2,1,28,0,0
53776,-100,3,2,1,26,0,0
54085,-100,3,2,1,24,0,0
54394,-100,3,2,1,22,0,0
54704,-100,3,2,1,20,0,0
55013,-100,3,2,1,40,0,0
55322,-100,3,2,1,38,0,0
55631,-100,3,2,1,40,0,0
55941,-100,3,2,1,34,0,0
56250,-100,3,2,1,40,0,0
56559,-100,3,2,1,30,0,0
56869,-100,3,2,1,40,0,0
57178,-100,3,2,1,28,0,0
57487,-100,3,2,1,26,0,0
57796,-100,3,2,1,24,0,0
58106,-100,3,2,1,40,0,0
59034,-100,3,2,1,38,0,0
59343,-100,3,2,1,36,0,0
59652,-100,3,2,1,34,0,0
59961,-100,3,2,1,40,0,0
60889,-100,3,2,1,38,0,0
61198,-100,3,2,1,36,0,0
61508,-100,3,2,1,34,0,0
61817,-100,3,2,1,40,0,0
62126,-100,3,2,1,30,0,0
62436,-100,3,2,1,40,0,0
62745,-100,3,2,1,38,0,0
63054,-100,3,2,1,36,0,0
63363,-100,3,2,1,34,0,0
63673,-100,3,2,1,32,0,0
63982,-100,3,2,1,30,0,0
64291,-100,3,2,1,28,0,0
64601,-100,3,2,1,26,0,0
64910,-100,3,2,1,24,0,0
65219,-100,3,2,1,22,0,0
65528,-100,3,2,1,20,0,0
65838,-100,3,2,1,18,0,0
66147,-100,3,2,1,16,0,0

[Colours]
Combo1 : 242,57,113
Combo2 : 117,117,117

[HitObjects]
172,184,6766,6,0,L|84:176,2,70,6|0|0,0:0|0:0|0:0,0:0:0:0:
256,192,7693,1,2,0:0:0:0:
340,200,8003,2,0,L|428:208,1,70,2|0,0:0|0:0,0:0:0:0:
432,288,8621,2,0,L|344:280,2,70,2|0|0,0:0|0:0|0:0,0:0:0:0:
500,340,9549,1,2,0:0:0:0:
420,368,9858,2,0,L|350:361,1,70,2|0,0:0|0:0,0:0:0:0:
284,312,10477,6,0,P|280:260|292:224,1,70,6|0,0:0|0:0,0:0:0:0:
320,168,11095,2,0,P|285:162|251:168,1,70,2|0,0:0|0:0,0:0:0:0:
176,204,11714,1,2,0:0:0:0:
100,168,12023,1,2,0:0:0:0:
28,212,12333,2,0,L|20:300,5,70,2|0|0|0|0|0,0:0|0:0|0:0|0:0|0:0|0:0,0:0:0:0:
60,356,14188,6,0,P|96:318|104:284,1,70,6|0,0:0|0:0,0:0:0:0:
168,252,14807,2,0,L|161:182,1,70,2|0,0:0|0:0,0:0:0:0:
244,204,15425,2,0,L|237:134,1,70,2|0,0:0|0:0,0:0:0:0:
320,160,16044,2,0,L|313:90,3,70,2|0|0|0,0:0|0:0|0:0|0:0,0:0:0:0:
300,8,17281,1,2,0:0:0:0:
384,32,17590,1,2,0:0:0:0:
384,32,17900,6,0,P|419:26|453:32,3,70,6|0|0|0,0:0|0:0|0:0|0:0,0:0:0:0:
500,104,19137,1,2,0:0:0:0:
460,176,19446,1,2,0:0:0:0:
416,248,19755,6,0,L|346:255,3,70,6|0|0|0,0:0|0:0|0:0|0:0,0:0:0:0:
280,308,20992,2,0,L|210:301,1,70,2|0,0:0|0:0,0:0:0:0:
128,276,21611,6,0,P|124:224|136:188,2,70,6|0|0,0:0|0:0|0:0,0:0:0:0:
148,356,22539,1,2,0:0:0:0:
210,301,22848,2,0,L|280:308,1,70,2|0,0:0|0:0,0:0:0:0:
268,224,23467,2,0,L|338:231,2,70,2|0|0,0:0|0:0|0:0,0:0:0:0:
192,188,24394,1,2,0:0:0:0:
168,108,24704,1,2,0:0:0:0:
248,128,25013,1,2,0:0:0:0:
224,48,25322,5,6,0:0:0:0:
224,48,25786,1,2,0:0:0:0:
172,164,26250,1,2,0:0:0:0:
272,236,26714,1,2,0:0:0:0:
324,120,27178,2,0,P|358:114|392:120,5,70,2|0|0|0|0|0,0:0|0:0|0:0|0:0|0:0|0:0,0:0:0:0:
456,172,29034,6,0,L|449:242,1,70,6|0,0:0|0:0,0:0:0:0:
412,316,29652,2,0,P|376:278|368:244,1,70,2|0,0:0|0:0,0:0:0:0:
296,224,30271,2,0,P|260:186|252:152,1,70,2|0,0:0|0:0,0:0:0:0:
180,132,30889,2,0,P|144:94|136:60,2,70,2|0|0,0:0|0:0|0:0,0:0:0:0:
220,60,31817,1,2,0:0:0:0:
300,36,32126,1,2,0:0:0:0:
380,60,32436,1,2,0:0:0:0:
380,60,32745,6,0,P|414:54|448:60,3,70,6|0|0|0,0:0|0:0|0:0|0:0,0:0:0:0:
504,124,33982,1,2,0:0:0:0:
456,192,34291,1,2,0:0:0:0:
408,260,34601,6,0,L|415:330,3,70,6|0|0|0,0:0|0:0|0:0|0:0,0:0:0:0:
344,376,35838,2,0,L|274:369,1,70,2|0,0:0|0:0,0:0:0:0:
216,308,36456,6,0,P|210:274|216:240,2,70,6|0|0,0:0|0:0|0:0,0:0:0:0:
152,364,37384,1,2,0:0:0:0:
128,284,37693,1,2,0:0:0:0:
140,200,38003,1,2,0:0:0:0:
188,132,38312,2,0,P|222:125|256:131,5,70,6|0|0|0|0|0,0:0|0:0|0:0|0:0|0:0|0:0,0:0:0:0:
332,172,40168,5,6,0:0:0:0:
324,48,40631,1,2,0:0:0:0:
440,4,41095,1,2,0:0:0:0:
448,128,41558,1,2,0:0:0:0:
332,172,42023,5,6,0:0:0:0:
208,180,42487,1,2,0:0:0:0:
276,284,42951,2,0,L|346:291,1,70,2|0,0:0|0:0,0:0:0:0:
416,340,43570,1,2,0:0:0:0:
492,300,43879,6,0,P|498:266|492:232,5,70,6|0|0|0|0|0,0:0|0:0|0:0|0:0|0:0|0:0,0:0:0:0:
432,172,45735,1,6,0:0:0:0:
416,48,46198,1,2,0:0:0:0:
296,8,46663,1,2,0:0:0:0:
280,132,47126,1,2,0:0:0:0:
280,132,47590,6,0,L|273:202,5,70,6|0|0|0|0|0,0:0|0:0|0:0|0:0|0:0|0:0,0:0:0:0:
192,232,49446,6,0,L|199:162,5,70,6|0|0|0|0|0,0:0|0:0|0:0|0:0|0:0|0:0,0:0:0:0:
120,196,51302,6,0,L|113:266,5,70,6|0|0|0|0|0,0:0|0:0|0:0|0:0|0:0|0:0,0:0:0:0:
28,264,53157,2,0,L|21:194,5,70
76,128,55013,6,0,P|110:122|144:128,1,70,6|0,0:0|0:0,0:0:0:0:
208,180,55631,2,0,L|278:173,1,70,2|0,0:0|0:0,0:0:0:0:
236,100,56250,2,0,L|306:93,1,70,2|0,0:0|0:0,0:0:0:0:
264,20,56869,2,0,L|334:13,3,70,6|0|0|0,0:0|0:0|0:0|0:0,0:0:0:0:
388,76,58106,1,2,0:0:0:0:
364,156,58415,1,2,0:0:0:0:
364,156,58724,6,0,L|294:163,3,70,6|0|0|0,0:0|0:0|0:0|0:0,0:0:0:0:
216,132,59961,1,2,0:0:0:0:
228,216,60271,1,2,0:0:0:0:
188,288,60580,6,0,P|153:294|119:288,3,70,6|0|0|0,0:0|0:0|0:0|0:0,0:0:0:0:
84,212,61817,2,0,P|118:205|152:211,1,70,2|0,0:0|0:0,0:0:0:0:
208,148,62436,5,6,0:0:0:0:
256,192,62590,12,0,66147,0:0:0:0:
