osu file format v14

[General]
AudioFilename: audio.mp3
AudioLeadIn: 0
PreviewTime: 6456
Countdown: 0
SampleSet: Soft
StackLeniency: 1
Mode: 0
LetterboxInBreaks: 0
WidescreenStoryboard: 0

[Editor]
DistanceSpacing: 1
BeatDivisor: 4
GridSize: 4
TimelineZoom: 1

[Metadata]
Title:Interlude (Fantasy Friendship Forever)
TitleUnicode:Interlude (Fantasy Friendship Forever)
Artist:Dunderpatrullen
ArtistUnicode:Dunderpatrullen
Creator:MrDorian
Version:Normal
Source:
Tags:Keygeneration 8bit chiptune electronica
BeatmapID:1359985
BeatmapSetID:641345

[Difficulty]
HPDrainRate:3
CircleSize:3
OverallDifficulty:3
ApproachRate:2
SliderMultiplier:1.2
SliderTickRate:1

[Events]
//Background and Video events
0,0,"bg.jpg",0,0
//Break Periods
//Storyboard Layer 0 (Background)
//Storyboard Layer 1 (Fail)
//Storyboard Layer 2 (Pass)
//Storyboard Layer 3 (Foreground)
//Storyboard Sound Samples

[TimingPoints]
6766,618.556701030928,3,2,1,40,1,0
7384,-100,3,2,1,20,0,0
7693,-100,3,2,1,40,0,0
13570,-100,3,2,1,20,0,0
14188,-100,3,2,1,40,0,0
16662,-100,3,2,1,20,0,0
17281,-100,3,2,1,40,0,0
18518,-100,3,2,1,20,0,0
19137,-100,3,2,1,40,0,0
20374,-100,3,2,1,20,0,0
20992,-100,3,2,1,40,0,0
22229,-100,3,2,1,20,0,0
22539,-100,3,2,1,40,0,0
28415,-100,3,2,1,20,0,0
29034,-100,3,2,1,40,0,0
31508,-100,3,2,1,20,0,0
31817,-100,3,2,1,40,0,0
33363,-100,3,2,1,20,0,0
33982,-100,3,2,1,40,0,0
35219,-100,3,2,1,20,0,0
35838,-100,3,2,1,40,0,0
37075,-100,3,2,1,20,0,0
37384,-100,3,2,1,40,0,0
39549,-100,3,2,1,20,0,0
40168,-100,3,2,1,40,0,0
45116,-100,3,2,1,20,0,0
45735,-100,3,2,1,40,0,0
48827,-100,3,2,1,20,0,0
49446,-100,3,2,1,40,0,0
50683,-100,3,2,1,20,0,0
51302,-100,3,2,1,40,0,0
53157,-100,3,2,1,20,0,0
55013,-100,3,2,1,40,0,0
57487,-100,3,2,1,20,0,0
58106,-100,3,2,1,40,0,0
59343,-100,3,2,1,20,0,0
59961,-100,3,2,1,40,0,0
61198,-100,3,2,1,20,0,0
61817,-100,3,2,1,40,0,0
62745,-100,3,2,1,38,0,0
63054,-100,3,2,1,36,0,0
63363,-100,3,2,1,34,0,0
63673,-100,3,2,1,32,0,0
63982,-100,3,2,1,30,0,0
64291,-100,3,2,1,28,0,0
64601,-100,3,2,1,26,0,0
64910,-100,3,2,1,24,0,0
65219,-100,3,2,1,22,0,0
65528,-100,3,2,1,20,0,0
65838,-100,3,2,1,18,0,0
66147,-100,3,2,1,16,0,0

[Colours]
Combo1 : 242,57,113
Combo2 : 117,117,117

[HitObjects]
76,104,6766,6,0,P|140:92|200:104,1,120,6|0,0:0|0:0,0:0:0:0:
244,132,7693,2,0,L|232:220,1,60,2|0,0:0|0:0,0:0:0:0:
216,312,8621,1,2,0:0:0:0:
344,192,9549,2,0,L|332:280,1,60,2|0,0:0|0:0,0:0:0:0:
428,328,10477,6,0,P|439:269|430:210,1,120,6|0,0:0|0:0,0:0:0:0:
384,100,11714,2,0,L|324:108,1,60,2|0,0:0|0:0,0:0:0:0:
268,128,12333,2,0,P|244:248|273:385,1,240,2|0,0:0|0:0,0:0:0:0:
144,356,14188,5,6,0:0:0:0:
160,236,14807,1,2,0:0:0:0:
136,120,15425,1,2,0:0:0:0:
24,164,16044,2,0,L|11:293,1,120,2|0,0:0|0:0,0:0:0:0:
112,352,17281,2,0,P|153:360|194:353,1,60,2|0,0:0|0:0,0:0:0:0:
228,344,17900,6,0,L|347:355,1,120,6|0,0:0|0:0,0:0:0:0:
432,268,19137,2,0,L|348:276,1,60,2|0,0:0|0:0,0:0:0:0:
316,252,19755,6,0,P|257:240|198:249,1,120,6|0,0:0|0:0,0:0:0:0:
88,296,20992,1,2,0:0:0:0:
100,183,21611,6,0,L|111:63,1,120,6|0,0:0|0:0,0:0:0:0:
164,36,22539,2,0,P|202:28|240:34,1,60,2|0,0:0|0:0,0:0:0:0:
336,72,23467,1,2,0:0:0:0:
211,201,24394,2,0,P|211:171|204:142,2,60,2|0|0,0:0|0:0|0:0,0:0:0:0:
167,242,25322,6,0,L|155:357,1,90,6|0,0:0|0:0,0:0:0:0:
68,344,26250,2,0,L|57:228,1,90,2|0,0:0|0:0,0:0:0:0:
64,164,27178,2,0,P|181:144|308:168,1,240,2|0,0:0|0:0,0:0:0:0:
400,228,29034,5,6,0:0:0:0:
280,216,29652,1,2,0:0:0:0:
164,240,30271,1,2,0:0:0:0:
243,329,30889,2,0,P|302:341|361:332,1,120,2|0,0:0|0:0,0:0:0:0:
416,308,31817,2,0,L|476:302,2,60,2|0|0,0:0|0:0|0:0,0:0:0:0:
368,272,32745,6,0,P|356:213|365:154,1,120,6|0,0:0|0:0,0:0:0:0:
412,44,33982,2,0,P|374:36|336:42,1,60,2|0,0:0|0:0,0:0:0:0:
304,72,34601,6,0,L|185:83,1,120,6|0,0:0|0:0,0:0:0:0:
72,128,35838,1,2,0:0:0:0:
132,232,36456,6,0,L|251:221,1,120,6|0,0:0|0:0,0:0:0:0:
308,244,37384,2,0,P|346:252|384:246,2,60,2|0|0,0:0|0:0|0:0,0:0:0:0:
296,184,38312,2,0,P|276:72|160:68,1,240,6|0,0:0|0:0,0:0:0:0:
80,148,40168,6,0,P|70:197|78:247,1,90,6|0,0:0|0:0,0:0:0:0:
136,300,41095,2,0,P|181:295|225:306,1,90,2|0,0:0|0:0,0:0:0:0:
308,336,42023,6,0,L|318:246,1,90,6|0,0:0|0:0,0:0:0:0:
388,192,42951,2,0,L|376:72,1,120,2|0,0:0|0:0,0:0:0:0:
328,36,43879,6,0,P|217:46|199:156,1,240,6|0,0:0|0:0,0:0:0:0:
264,256,45735,2,0,L|354:266,1,90,6|0,0:0|0:0,0:0:0:0:
392,184,46662,2,0,L|302:174,1,90,2|0,0:0|0:0,0:0:0:0:
212,180,47590,6,0,P|102:197|92:308,1,240,6|0,0:0|0:0,0:0:0:0:
212,308,49446,2,0,P|323:290|333:179,1,240,6|0,0:0|0:0,0:0:0:0:
252,91,51302,2,0,B|203:131|211:197|211:197|156:204|104:235|90:308|111:362|151:387,1,360,6|0,0:0|0:0,0:0:0:0:
364,328,55013,5,6,0:0:0:0:
396,212,55631,1,2,0:0:0:0:
312,124,56250,1,2,0:0:0:0:
278,240,56869,2,0,P|220:253|161:246,1,120,6|0,0:0|0:0,0:0:0:0:
84,152,58106,2,0,P|114:152|143:145,1,60,2|0,0:0|0:0,0:0:0:0:
192,108,58724,6,0,L|321:121,1,120,6|0,0:0|0:0,0:0:0:0:
404,196,59961,2,0,L|340:202,1,60,2|0,0:0|0:0,0:0:0:0:
292,232,60580,6,0,P|279:290|286:349,1,120,6|0,0:0|0:0,0:0:0:0:
404,364,61817,1,2,0:0:0:0:
484,276,62436,5,6,0:0:0:0:
256,192,62745,12,0,66147,0:0:0:0:
