osu file format v14

[General]
AudioFilename: audio.mp3
AudioLeadIn: 0
PreviewTime: 36464
Countdown: 0
SampleSet: Normal
StackLeniency: 0.7
Mode: 3
LetterboxInBreaks: 0
SpecialStyle: 0
WidescreenStoryboard: 1

[Editor]
DistanceSpacing: 0.8
BeatDivisor: 4
GridSize: 16
TimelineZoom: 1

[Metadata]
Title:Interlude (Fantasy Friendship Forever)
TitleUnicode:Interlude (Fantasy Friendship Forever)
Artist:Dunderpatrullen
ArtistUnicode:Dunderpatrullen
Creator:Benzopirene
Version:4K Normal
Source:
Tags:Keygeneration 8bit chiptune dance techno
BeatmapID:1242394
BeatmapSetID:586696

[Difficulty]
HPDrainRate:7
CircleSize:4
OverallDifficulty:7
ApproachRate:5
SliderMultiplier:1.4
SliderTickRate:1

[Events]
//Background and Video events
0,0,"bg.jpg",0,0
//Break Periods
//Storyboard Layer 0 (Background)
//Storyboard Layer 1 (Fail)
//Storyboard Layer 2 (Pass)
//Storyboard Layer 3 (Foreground)
//Storyboard Sound Samples

[TimingPoints]
6774,618.556701030928,3,1,0,30,1,0
6775,-66.6666666666667,3,1,0,30,0,0
6928,-200,3,1,0,30,0,0
7083.25,-68.5714285714286,3,1,0,30,0,0
7237,-184.615384615385,3,1,0,30,0,0
7392.5,-70.5882352941176,3,1,0,30,0,0
7547,-171.428571428571,3,1,0,30,0,0
7701.75,-72.7272727272727,3,1,0,30,0,0
7856,-160,3,1,0,30,0,0
8011,-75,3,1,0,30,0,0
8165,-150,3,1,0,30,0,0
8320.25,-77.4193548387097,3,1,0,30,0,0
8475,-141.176470588235,3,1,0,30,0,0
8629.5,-80,3,1,0,30,0,0
8784,-133.333333333333,3,1,0,30,0,0
8938.75,-82.7586206896552,3,1,0,30,0,0
9093,-126.315789473684,3,1,0,30,0,0
9248,-85.7142857142857,3,1,0,30,0,0
9402,-120,3,1,0,30,0,0
9557.25,-88.8888888888889,3,1,0,30,0,0
9712,-114.285714285714,3,1,0,30,0,0
9866.5,-92.3076923076923,3,1,0,30,0,0
10021,-109.090909090909,3,1,0,30,0,0
10175.75,-96,3,1,0,30,0,0
10330,-104.347826086957,3,1,0,30,0,0
10485,-71.4285714285714,3,1,0,30,0,0
10639,-166.666666666667,3,1,0,30,0,0
10794.25,-73.1707317073171,3,1,0,30,0,0
10949,-157.894736842105,3,1,0,30,0,0
11103.5,-75,3,1,0,30,0,0
11258,-150,3,1,0,30,0,0
11413,-76.9230769230769,3,1,0,30,0,0
11567,-142.857142857143,3,1,0,30,0,0
11722,-78.9473684210526,3,1,0,30,0,0
11877,-136.363636363636,3,1,0,30,0,0
12031.25,-81.0810810810811,3,1,0,30,0,0
12186,-130.434782608696,3,1,0,30,0,0
12340.5,-83.3333333333333,3,1,0,30,0,0
12495,-125,3,1,0,30,0,0
12649.75,-85.7142857142857,3,1,0,30,0,0
12804,-120,3,1,0,30,0,0
12959,-88.2352941176471,3,1,0,30,0,0
13114,-115.384615384615,3,1,0,30,0,0
13268.25,-90.9090909090909,3,1,0,30,0,0
13423,-111.111111111111,3,1,0,30,0,0
13577.5,-93.75,3,1,0,30,0,0
13732,-107.142857142857,3,1,0,30,0,0
13886.75,-96.7741935483871,3,1,0,30,0,0
14042,-103.448275862069,3,1,0,30,0,0
14196,-83.3333333333333,3,1,0,30,0,0
14351,-125,3,1,0,30,0,0
14505.3333333333,-84.5070422535211,3,1,0,30,0,0
14660,-122.448979591837,3,1,0,30,0,0
14814.6666666667,-85.7142857142857,3,1,0,30,0,0
14969,-120,3,1,0,30,0,0
15124,-86.9565217391304,3,1,0,30,0,0
15279,-117.647058823529,3,1,0,30,0,0
15433.3333333333,-88.2352941176471,3,1,0,30,0,0
15588,-115.384615384615,3,1,0,30,0,0
15742.6666666667,-89.5522388059701,3,1,0,30,0,0
15897,-113.207547169811,3,1,0,30,0,0
16052,-90.9090909090909,3,1,0,30,0,0
16206,-111.111111111111,3,1,0,30,0,0
16361.3333333333,-92.3076923076923,3,1,0,30,0,0
16516,-109.090909090909,3,1,0,30,0,0
16670.6666666667,-93.75,3,1,0,30,0,0
16825,-107.142857142857,3,1,0,30,0,0
16980,-95.2380952380952,3,1,0,30,0,0
17134,-105.263157894737,3,1,0,30,0,0
17289.3333333333,-96.7741935483871,3,1,0,30,0,0
17444,-103.448275862069,3,1,0,30,0,0
17598.6666666667,-98.3606557377049,3,1,0,30,0,0
17753,-101.694915254237,3,1,0,30,0,0
17908,-76.9230769230769,3,1,0,30,0,0
18062,-142.857142857143,3,1,0,30,0,0
18217.1666666667,-80,3,1,0,30,0,0
18371,-133.333333333333,3,1,0,30,0,0
18526.3333333333,-83.3333333333333,3,1,0,30,0,0
18681,-125,3,1,0,30,0,0
18835.5,-86.9565217391304,3,1,0,30,0,0
18990,-117.647058823529,3,1,0,30,0,0
19144.6666666667,-90.9090909090909,3,1,0,30,0,0
19299,-111.111111111111,3,1,0,30,0,0
19453.8333333333,-95.2380952380952,3,1,0,30,0,0
19609,-105.263157894737,3,1,0,30,0,0
19763,-83.3333333333333,3,1,0,30,0,0
19918,-125,3,1,0,30,0,0
20072.3333333333,-85.7142857142857,3,1,0,30,0,0
20227,-120,3,1,0,30,0,0
20381.6666666667,-88.2352941176471,3,1,0,30,0,0
20536,-115.384615384615,3,1,0,30,0,0
20691,-90.9090909090909,3,1,0,30,0,0
20846,-111.111111111111,3,1,0,30,0,0
21000.3333333333,-93.75,3,1,0,30,0,0
21155,-107.142857142857,3,1,0,30,0,0
21309.6666666667,-96.7741935483871,3,1,0,30,0,0
21464,-103.448275862069,3,1,0,30,0,0
21619,-66.6666666666667,3,1,0,30,0,0
21774,-200,3,1,0,30,0,0
21928.25,-68.5714285714286,3,1,0,30,0,0
22083,-184.615384615385,3,1,0,30,0,0
22237.5,-70.5882352941176,3,1,0,30,0,0
22392,-171.428571428571,3,1,0,30,0,0
22546.75,-72.7272727272727,3,1,0,30,0,0
22701,-160,3,1,0,30,0,0
22856,-75,3,1,0,30,0,0
23011,-150,3,1,0,30,0,0
23165.25,-77.4193548387097,3,1,0,30,0,0
23320,-141.176470588235,3,1,0,30,0,0
23474.5,-80,3,1,0,30,0,0
23629,-133.333333333333,3,1,0,30,0,0
23783.75,-82.7586206896552,3,1,0,30,0,0
23938,-126.315789473684,3,1,0,30,0,0
24093,-85.7142857142857,3,1,0,30,0,0
24248,-120,3,1,0,30,0,0
24402.25,-88.8888888888889,3,1,0,30,0,0
24557,-114.285714285714,3,1,0,30,0,0
24711.5,-92.3076923076923,3,1,0,30,0,0
24866,-109.090909090909,3,1,0,30,0,0
25020.75,-96,3,1,0,30,0,0
25176,-104.347826086957,3,1,0,30,0,0
25330,-71.4285714285714,3,1,0,30,0,0
25485,-166.666666666667,3,1,0,30,0,0
25639.3333333333,-73.1707317073171,3,1,0,30,0,0
25794,-157.894736842105,3,1,0,30,0,0
25948.6666666667,-75,3,1,0,30,0,0
26103,-150,3,1,0,30,0,0
26258,-76.9230769230769,3,1,0,30,0,0
26413,-142.857142857143,3,1,0,30,0,0
26567.3333333333,-78.9473684210526,3,1,0,30,0,0
26722,-136.363636363636,3,1,0,30,0,0
26876.6666666667,-81.0810810810811,3,1,0,30,0,0
27031,-130.434782608696,3,1,0,30,0,0
27186,-83.3333333333333,3,1,0,30,0,0
27341,-125,3,1,0,30,0,0
27495.3333333333,-85.7142857142857,3,1,0,30,0,0
27650,-120,3,1,0,30,0,0
27804.6666666667,-88.2352941176471,3,1,0,30,0,0
27959,-115.384615384615,3,1,0,30,0,0
28114,-90.9090909090909,3,1,0,30,0,0
28268,-111.111111111111,3,1,0,30,0,0
28423.3333333333,-93.75,3,1,0,30,0,0
28578,-107.142857142857,3,1,0,30,0,0
28732.6666666667,-96.7741935483871,3,1,0,30,0,0
28887,-103.448275862069,3,1,0,30,0,0
29042,-83.3333333333333,3,1,0,30,0,0
29196,-125,3,1,0,30,0,0
29351.25,-84.5070422535211,3,1,0,30,0,0
29505,-122.448979591837,3,1,0,30,0,0
29660.5,-85.7142857142857,3,1,0,30,0,0
29815,-120,3,1,0,30,0,0
29969.75,-86.9565217391304,3,1,0,30,0,0
30124,-117.647058823529,3,1,0,30,0,0
30279,-88.2352941176471,3,1,0,30,0,0
30433,-115.384615384615,3,1,0,30,0,0
30588.25,-89.5522388059701,3,1,0,30,0,0
30743,-113.207547169811,3,1,0,30,0,0
30897.5,-90.9090909090909,3,1,0,30,0,0
31052,-111.111111111111,3,1,0,30,0,0
31206.75,-92.3076923076923,3,1,0,30,0,0
31361,-109.090909090909,3,1,0,30,0,0
31516,-93.75,3,1,0,30,0,0
31670,-107.142857142857,3,1,0,30,0,0
31825.25,-95.2380952380952,3,1,0,30,0,0
31980,-105.263157894737,3,1,0,30,0,0
32134.5,-96.7741935483871,3,1,0,30,0,0
32289,-103.448275862069,3,1,0,30,0,0
32443.75,-98.3606557377049,3,1,0,30,0,0
32598,-101.694915254237,3,1,0,30,0,0
32753,-71.4285714285714,3,1,0,30,0,0
32908,-166.666666666667,3,1,0,30,0,0
33062.3333333333,-75,3,1,0,30,0,0
33217,-150,3,1,0,30,0,0
33371.6666666667,-78.9473684210526,3,1,0,30,0,0
33526,-136.363636363636,3,1,0,30,0,0
33681,-83.3333333333333,3,1,0,30,0,0
33835,-125,3,1,0,30,0,0
33990.3333333333,-88.2352941176471,3,1,0,30,0,0
34145,-115.384615384615,3,1,0,30,0,0
34299.6666666667,-93.75,3,1,0,30,0,0
34454,-107.142857142857,3,1,0,30,0,0
34609,-76.9230769230769,3,1,0,30,0,0
34763,-142.857142857143,3,1,0,30,0,0
34918.1666666667,-80,3,1,0,30,0,0
35072,-133.333333333333,3,1,0,30,0,0
35227.3333333333,-83.3333333333333,3,1,0,30,0,0
35382,-125,3,1,0,30,0,0
35536.5,-86.9565217391304,3,1,0,30,0,0
35691,-117.647058823529,3,1,0,30,0,0
35845.6666666667,-90.9090909090909,3,1,0,30,0,0
36000,-111.111111111111,3,1,0,30,0,0
36154.8333333333,-95.2380952380952,3,1,0,30,0,0
36310,-105.263157894737,3,1,0,30,0,0
36464,-83.3333333333333,3,1,0,30,0,0
36619,-125,3,1,0,30,0,0
36773.3333333333,-84.5070422535211,3,1,0,30,0,0
36928,-122.448979591837,3,1,0,30,0,0
37082.6666666667,-85.7142857142857,3,1,0,30,0,0
37237,-120,3,1,0,30,0,0
37392,-86.9565217391304,3,1,0,30,0,0
37547,-117.647058823529,3,1,0,30,0,0
37701.3333333333,-88.2352941176471,3,1,0,30,0,0
37856,-115.384615384615,3,1,0,30,0,0
38010.6666666667,-89.5522388059701,3,1,0,30,0,0
38165,-113.207547169811,3,1,0,30,0,0
38320,-90.9090909090909,3,1,0,30,0,0
38475,-111.111111111111,3,1,0,30,0,0
38629.3333333333,-92.3076923076923,3,1,0,30,0,0
38784,-109.090909090909,3,1,0,30,0,0
38938.6666666667,-93.75,3,1,0,30,0,0
39093,-107.142857142857,3,1,0,30,0,0
39248,-95.2380952380952,3,1,0,30,0,0
39402,-105.263157894737,3,1,0,30,0,0
39557.3333333333,-96.7741935483871,3,1,0,30,0,0
39712,-103.448275862069,3,1,0,30,0,0
39866.6666666667,-98.3606557377049,3,1,0,30,0,0
40021,-101.694915254237,3,1,0,30,0,0
40176,-83.3333333333333,3,1,0,30,0,0
40330,-125,3,1,0,30,0,0
40485.1666666667,-85.7142857142857,3,1,0,30,0,0
40639,-120,3,1,0,30,0,0
40794.3333333333,-88.2352941176471,3,1,0,30,0,0
40949,-115.384615384615,3,1,0,30,0,0
41103.5,-90.9090909090909,3,1,0,30,0,0
41258,-111.111111111111,3,1,0,30,0,0
41412.6666666667,-93.75,3,1,0,30,0,0
41567,-107.142857142857,3,1,0,30,0,0
41721.8333333333,-96.7741935483871,3,1,0,30,0,0
41877,-103.448275862069,3,1,0,30,0,0
42031,-76.9230769230769,3,1,0,30,0,0
42186,-142.857142857143,3,1,0,30,0,0
42340.3333333333,-80,3,1,0,30,0,0
42495,-133.333333333333,3,1,0,30,0,0
42649.6666666667,-83.3333333333333,3,1,0,30,0,0
42804,-125,3,1,0,30,0,0
42959,-86.9565217391304,3,1,0,30,0,0
43114,-117.647058823529,3,1,0,30,0,0
43268.3333333333,-90.9090909090909,3,1,0,30,0,0
43423,-111.111111111111,3,1,0,30,0,0
43577.6666666667,-95.2380952380952,3,1,0,30,0,0
43732,-105.263157894737,3,1,0,30,0,0
43887,-71.4285714285714,3,1,0,30,0,0
44042,-166.666666666667,3,1,0,30,0,0
44196.25,-73.1707317073171,3,1,0,30,0,0
44351,-157.894736842105,3,1,0,30,0,0
44505.5,-75,3,1,0,30,0,0
44660,-150,3,1,0,30,0,0
44814.75,-76.9230769230769,3,1,0,30,0,0
44969,-142.857142857143,3,1,0,30,0,0
45124,-78.9473684210526,3,1,0,30,0,0
45279,-136.363636363636,3,1,0,30,0,0
45433.25,-81.0810810810811,3,1,0,30,0,0
45588,-130.434782608696,3,1,0,30,0,0
45897,-125,3,1,0,30,0,0
46051.75,-85.7142857142857,3,1,0,30,0,0
46206,-120,3,1,0,30,0,0
46361,-88.2352941176471,3,1,0,30,0,0
46516,-115.384615384615,3,1,0,30,0,0
46670.25,-90.9090909090909,3,1,0,30,0,0
46825,-111.111111111111,3,1,0,30,0,0
46979.5,-93.75,3,1,0,30,0,0
47134,-107.142857142857,3,1,0,30,0,0
47288.75,-96.7741935483871,3,1,0,30,0,0
47444,-103.448275862069,3,1,0,30,0,0
47598,-76.9230769230769,3,1,0,30,0,0
47753,-142.857142857143,3,1,0,30,0,0
47907.3333333333,-80,3,1,0,30,0,0
48062,-133.333333333333,3,1,0,30,0,0
48216.6666666667,-83.3333333333333,3,1,0,30,0,0
48371,-125,3,1,0,30,0,0
48526,-86.9565217391304,3,1,0,30,0,0
48681,-117.647058823529,3,1,0,30,0,0
48835.3333333333,-90.9090909090909,3,1,0,30,0,0
48990,-111.111111111111,3,1,0,30,0,0
49144.6666666667,-95.2380952380952,3,1,0,30,0,0
49299,-105.263157894737,3,1,0,30,0,0
49454,-71.4285714285714,3,1,0,30,0,0
49609,-166.666666666667,3,1,0,30,0,0
49763.3333333333,-75,3,1,0,30,0,0
49918,-150,3,1,0,30,0,0
50072.6666666667,-78.9473684210526,3,1,0,30,0,0
50227,-136.363636363636,3,1,0,30,0,0
50382,-83.3333333333333,3,1,0,30,0,0
50536,-125,3,1,0,30,0,0
50691.3333333333,-88.2352941176471,3,1,0,30,0,0
50846,-115.384615384615,3,1,0,30,0,0
51000.6666666667,-93.75,3,1,0,30,0,0
51155,-107.142857142857,3,1,0,30,0,0
51310,-66.6666666666667,3,1,0,30,0,0
51464,-200,3,1,0,30,0,0
51619.1666666667,-70.5882352941176,3,1,0,30,0,0
51774,-171.428571428571,3,1,0,30,0,0
51928.3333333333,-75,3,1,0,30,0,0
52083,-150,3,1,0,30,0,0
52237.5,-80,3,1,0,30,0,0
52392,-133.333333333333,3,1,0,30,0,0
52546.6666666667,-85.7142857142857,3,1,0,30,0,0
52701,-120,3,1,0,30,0,0
52855.8333333333,-92.3076923076923,3,1,0,30,0,0
53011,-109.090909090909,3,1,0,30,0,0
53165,-66.6666666666667,3,1,0,30,0,0
53320,-200,3,1,0,30,0,0
53474.3333333333,-70.5882352941176,3,1,0,30,0,0
53629,-171.428571428571,3,1,0,30,0,0
53783.6666666667,-75,3,1,0,30,0,0
53938,-150,3,1,0,30,0,0
54093,-80,3,1,0,30,0,0
54248,-133.333333333333,3,1,0,30,0,0
54402.3333333333,-85.7142857142857,3,1,0,30,0,0
54557,-120,3,1,0,30,0,0
54711.6666666667,-92.3076923076923,3,1,0,30,0,0
54866,-109.090909090909,3,1,0,30,0,0
55021,-71.4285714285714,3,1,0,30,0,0
55176,-166.666666666667,3,1,0,30,0,0
55330.25,-73.1707317073171,3,1,0,30,0,0
55485,-157.894736842105,3,1,0,30,0,0
55639.5,-75,3,1,0,30,0,0
55794,-150,3,1,0,30,0,0
55948.75,-76.9230769230769,3,1,0,30,0,0
56103,-142.857142857143,3,1,0,30,0,0
56258,-78.9473684210526,3,1,0,30,0,0
56413,-136.363636363636,3,1,0,30,0,0
56567.25,-81.0810810810811,3,1,0,30,0,0
56722,-130.434782608696,3,1,0,30,0,0
56876.5,-83.3333333333333,3,1,0,30,0,0
57031,-125,3,1,0,30,0,0
57185.75,-85.7142857142857,3,1,0,30,0,0
57341,-120,3,1,0,30,0,0
57495,-88.2352941176471,3,1,0,30,0,0
57650,-115.384615384615,3,1,0,30,0,0
57804.25,-90.9090909090909,3,1,0,30,0,0
57959,-111.111111111111,3,1,0,30,0,0
58113.5,-93.75,3,1,0,30,0,0
58268,-107.142857142857,3,1,0,30,0,0
58422.75,-96.7741935483871,3,1,0,30,0,0
58578,-103.448275862069,3,1,0,30,0,0
58732,-66.6666666666667,3,1,0,30,0,0
58887,-200,3,1,0,30,0,0
59041.3333333333,-70.5882352941176,3,1,0,30,0,0
59196,-171.428571428571,3,1,0,30,0,0
59350.6666666667,-75,3,1,0,30,0,0
59505,-150,3,1,0,30,0,0
59660,-80,3,1,0,30,0,0
59815,-133.333333333333,3,1,0,30,0,0
59969.3333333333,-85.7142857142857,3,1,0,30,0,0
60124,-120,3,1,0,30,0,0
60278.6666666667,-92.3076923076923,3,1,0,30,0,0
60433,-109.090909090909,3,1,0,30,0,0
60588,-71.4285714285714,3,1,0,30,0,0
60743,-166.666666666667,3,1,0,30,0,0
60897.3333333333,-75,3,1,0,30,0,0
61052,-150,3,1,0,30,0,0
61206.6666666667,-78.9473684210526,3,1,0,30,0,0
61361,-136.363636363636,3,1,0,30,0,0
61516,-83.3333333333333,3,1,0,30,0,0
61670,-125,3,1,0,30,0,0
61825.3333333333,-88.2352941176471,3,1,0,30,0,0
61980,-115.384615384615,3,1,0,30,0,0
62134.6666666667,-93.75,3,1,0,30,0,0
62289,-107.142857142857,3,1,0,30,0,0
62444,-100,3,1,0,30,0,0

[HitObjects]
192,192,6774,5,0,1:0:0:13:G#6.wav
64,192,6774,1,0,1:0:0:13:G#6.wav
448,192,6774,1,0,0:0:0:13:G#6.wav
192,192,7701,1,0,1:0:0:20:C6.wav
448,192,7701,1,0,0:0:0:20:C6.wav
64,192,8011,1,0,1:0:0:20:G#6.wav
320,192,8011,1,0,0:0:0:20:G#6.wav
64,192,8629,1,0,1:0:0:20:G#6.wav
320,192,8629,1,0,0:0:0:20:G#6.wav
192,192,9557,1,0,1:0:0:20:C6.wav
448,192,9557,1,0,0:0:0:20:C6.wav
64,192,9866,1,0,1:0:0:20:G#6.wav
320,192,9866,1,0,0:0:0:20:G#6.wav
448,192,10485,1,0,1:0:0:13:D#6.wav
64,192,10485,1,0,1:0:0:13:D#6.wav
192,192,10485,1,0,0:0:0:13:D#6.wav
320,192,11103,1,0,1:0:0:20:C#6.wav
448,192,11103,1,0,0:0:0:20:C#6.wav
64,192,11722,1,0,1:0:0:20:C6.wav
448,192,11722,1,0,0:0:0:20:C6.wav
192,192,12031,1,0,1:0:0:20:C#6.wav
320,192,12031,1,0,0:0:0:20:C#6.wav
64,192,12341,1,0,1:0:0:20:C6.wav
448,192,12341,1,0,0:0:0:20:C6.wav
448,192,14196,1,0,1:0:0:13:D#6.wav
320,192,14196,1,0,1:0:0:13:D#6.wav
64,192,14196,1,0,0:0:0:13:D#6.wav
192,192,14815,1,0,1:0:0:20:G#6.wav
320,192,14815,1,0,0:0:0:20:G#6.wav
192,192,15433,1,0,1:0:0:20:G#6.wav
320,192,15433,1,0,0:0:0:20:G#6.wav
192,192,16052,1,0,1:0:0:20:G#6.wav
320,192,16052,1,0,0:0:0:20:G#6.wav
64,192,17289,1,0,1:0:0:20:A#6.wav
320,192,17289,1,0,0:0:0:20:A#6.wav
448,192,17598,1,0,1:0:0:40:C6.wav
192,192,17908,1,0,1:0:0:20:C6.wav
448,192,17908,1,0,1:0:0:20:C6.wav
448,192,19145,1,0,1:0:0:20:C#6.wav
320,192,19145,1,0,0:0:0:20:C#6.wav
192,192,19454,1,0,1:0:0:40:C6.wav
448,192,19763,1,0,1:0:0:20:A#6.wav
64,192,19763,1,0,1:0:0:20:A#6.wav
64,192,21000,1,0,1:0:0:20:G6.wav
320,192,21000,1,0,0:0:0:20:G6.wav
448,192,21619,1,0,1:0:0:20:G#6.wav
192,192,21619,1,0,1:0:0:20:G#6.wav
448,192,22547,1,0,1:0:0:20:C6.wav
320,192,22547,1,0,0:0:0:20:C6.wav
64,192,22856,1,0,1:0:0:20:G#6.wav
192,192,22856,1,0,0:0:0:20:G#6.wav
64,192,23475,1,0,1:0:0:20:G#6.wav
192,192,23475,1,0,0:0:0:20:G#6.wav
64,192,24402,1,0,1:0:0:20:C6.wav
320,192,24402,1,0,0:0:0:20:C6.wav
192,192,24712,1,0,1:0:0:20:D#6.wav
448,192,24712,1,0,0:0:0:20:D#6.wav
320,192,25021,1,0,1:0:0:20:F6.wav
64,192,25021,1,0,0:0:0:20:F6.wav
448,192,25330,1,0,1:0:0:13:F#6.wav
64,192,25330,1,0,1:0:0:13:F#6.wav
192,192,25330,1,0,0:0:0:13:F#6.wav
448,192,25794,1,0,1:0:0:20:F#6.wav
192,192,25794,1,0,0:0:0:20:F#6.wav
320,192,26258,1,0,1:0:0:20:F6.wav
192,192,26258,1,0,0:0:0:20:F6.wav
64,192,26722,1,0,1:0:0:20:C#6.wav
320,192,26722,1,0,0:0:0:20:C#6.wav
448,192,27186,1,0,1:0:0:20:D#6.wav
320,192,27186,1,0,0:0:0:20:D#6.wav
448,192,29042,1,0,1:0:0:13:D#6.wav
192,192,29042,1,0,1:0:0:13:D#6.wav
64,192,29042,1,0,0:0:0:13:D#6.wav
320,192,29660,1,0,1:0:0:20:G#6.wav
64,192,29660,1,0,0:0:0:20:G#6.wav
320,192,30279,1,0,1:0:0:20:G#6.wav
64,192,30279,1,0,0:0:0:20:G#6.wav
320,192,30897,1,0,1:0:0:20:G#6.wav
64,192,30897,1,0,0:0:0:20:G#6.wav
64,192,31825,1,0,1:0:0:20:F6.wav
448,192,31825,1,0,0:0:0:20:F6.wav
192,192,32134,1,0,1:0:0:20:A#6.wav
320,192,32134,1,0,0:0:0:20:A#6.wav
64,192,32444,1,0,1:0:0:20:C6.wav
448,192,32444,1,0,0:0:0:20:C6.wav
448,192,32753,1,0,1:0:0:13:C6.wav
64,192,32753,1,0,1:0:0:13:C6.wav
320,192,32753,1,0,0:0:0:13:C6.wav
192,192,33990,1,0,1:0:0:40:C6.wav
320,192,34029,1,0,1:0:0:40:C#6.wav
64,192,34299,1,0,1:0:0:40:C6.wav
320,192,34609,1,0,1:0:0:13:A#6.wav
448,192,34609,1,0,1:0:0:13:A#6.wav
192,192,34609,1,0,0:0:0:13:A#6.wav
192,192,35846,1,0,1:0:0:20:G6.wav
64,192,35846,1,0,0:0:0:20:G6.wav
64,192,36464,1,0,1:0:0:13:F6.wav
320,192,36464,1,0,1:0:0:13:F5.wav
448,192,36464,1,0,0:0:0:13:F5.wav
320,192,37392,1,0,1:0:0:20:G#5.wav
192,192,37392,1,0,0:0:0:20:G#6.wav
192,192,37701,1,0,1:0:0:20:C#5.wav
64,192,37701,1,0,0:0:0:20:C#6.wav
448,192,38011,1,0,1:0:0:20:D#5.wav
320,192,38011,1,0,0:0:0:20:D#6.wav
192,192,38320,1,0,1:0:0:20:C5.wav
64,192,38320,1,0,0:0:0:20:C6.wav
448,192,40176,1,0,1:0:0:13:C5.wav
64,192,40176,1,0,1:0:0:13:C6.wav
320,192,40176,1,0,0:0:0:13:C5.wav
320,192,40639,1,0,1:0:0:20:G5.wav
192,192,40639,1,0,0:0:0:20:G6.wav
192,192,41103,1,0,1:0:0:20:G#5.wav
64,192,41103,1,0,0:0:0:20:G#6.wav
320,192,41567,1,0,1:0:0:20:A#5.wav
192,192,41567,1,0,0:0:0:20:A#6.wav
448,192,42031,1,0,1:0:0:20:C5.wav
320,192,42031,1,0,0:0:0:20:C6.wav
192,192,42495,1,0,1:0:0:20:G#5.wav
64,192,42495,1,0,0:0:0:20:G#6.wav
192,192,42959,1,0,1:0:0:20:A#5.wav
320,192,42959,1,0,0:0:0:20:A#6.wav
448,192,43578,1,0,1:0:0:20:D#5.wav
320,192,43578,1,0,0:0:0:20:D#6.wav
192,192,43887,1,0,1:0:0:13:C5.wav
64,192,43887,1,0,1:0:0:13:C6.wav
448,192,43887,1,0,0:0:0:13:C5.wav
64,192,45743,1,0,1:0:0:40:A#5.wav
192,192,45781,1,0,1:0:0:40:C5.wav
320,192,46206,1,0,1:0:0:20:A#5.wav
64,192,46206,1,0,0:0:0:20:A#6.wav
448,192,46670,1,0,1:0:0:20:A5.wav
192,192,46670,1,0,0:0:0:20:A6.wav
64,192,47134,1,0,0:0:0:20:F6.wav
320,192,47134,1,0,1:0:0:20:F5.wav
320,192,47598,1,0,1:0:0:13:F5.wav
64,192,47598,1,0,1:0:0:13:F6.wav
192,192,47598,1,0,0:0:0:13:F5.wav
192,192,49454,1,0,1:0:0:13:G6.wav
448,192,49454,1,0,1:0:0:13:G5.wav
320,192,49454,1,0,0:0:0:13:G5.wav
64,192,51310,1,0,1:0:0:13:F6.wav
320,192,51310,1,0,1:0:0:13:F5.wav
192,192,51310,1,0,0:0:0:13:F5.wav
448,192,55021,1,0,1:0:0:13:D#5.wav
192,192,55021,1,0,1:0:0:13:D#5.wav
64,192,55021,1,0,0:0:0:13:D#6.wav
320,192,55639,1,0,1:0:0:20:G#5.wav
192,192,55639,1,0,0:0:0:20:G#5.wav
320,192,56258,1,0,1:0:0:20:G#5.wav
192,192,56258,1,0,0:0:0:20:G#5.wav
320,192,56877,1,0,1:0:0:20:G#5.wav
192,192,56877,1,0,0:0:0:20:G#5.wav
320,192,58114,1,0,1:0:0:20:A#5.wav
64,192,58114,1,0,0:0:0:20:A#6.wav
448,192,58423,1,0,1:0:0:20:C5.wav
192,192,58423,1,0,0:0:0:20:C6.wav
320,192,58732,1,0,1:0:0:13:C5.wav
192,192,58732,1,0,1:0:0:13:C6.wav
448,192,58732,1,0,0:0:0:13:C5.wav
320,192,59969,1,0,1:0:0:40:C5.wav
448,192,60008,1,0,1:0:0:40:C#5.wav
192,192,60279,1,0,1:0:0:40:C5.wav
64,192,60588,1,0,1:0:0:13:A#6.wav
448,192,60588,1,0,1:0:0:13:A#5.wav
320,192,60588,1,0,0:0:0:13:A#5.wav
320,192,61825,1,0,1:0:0:20:G5.wav
192,192,61825,1,0,0:0:0:20:G6.wav
192,192,62444,1,0,1:0:0:13:G#5.wav
64,192,62444,1,0,0:0:0:13:G#6.wav
448,192,62444,1,0,0:0:0:13:G#5.wav
