osu file format v14

[General]
AudioFilename: audio.mp3
AudioLeadIn: 0
PreviewTime: 36464
Countdown: 0
SampleSet: Normal
StackLeniency: 0.7
Mode: 3
LetterboxInBreaks: 0
SpecialStyle: 0
WidescreenStoryboard: 0

[Editor]
DistanceSpacing: 0.8
BeatDivisor: 4
GridSize: 16
TimelineZoom: 1.1

[Metadata]
Title:Interlude (Fantasy Friendship Forever)
TitleUnicode:Interlude (Fantasy Friendship Forever)
Artist:Dunderpatrullen
ArtistUnicode:Dunderpatrullen
Creator:Benzopirene
Version:7K Easy
Source:
Tags:Keygeneration 8bit chiptune dance techno
BeatmapID:1242397
BeatmapSetID:586696

[Difficulty]
HPDrainRate:6.5
CircleSize:7
OverallDifficulty:6.5
ApproachRate:5
SliderMultiplier:1.4
SliderTickRate:1

[Events]
//Background and Video events
0,0,"bg.jpg",0,0
//Break Periods
//Storyboard Layer 0 (Background)
//Storyboard Layer 1 (Fail)
//Storyboard Layer 2 (Pass)
//Storyboard Layer 3 (Foreground)
//Storyboard Sound Samples
Sample,34029,0,"C#6.wav",40
Sample,45781,0,"C5.wav",40
Sample,60008,0,"C#5.wav",40

[TimingPoints]
6774,618.556701030928,3,1,0,30,1,0

[HitObjects]
256,192,6774,5,0,1:0:0:20:G#6.wav
128,192,6774,1,0,1:0:0:20:G#6.wav
329,192,7701,1,0,1:0:0:40:C6.wav
182,192,8011,1,0,1:0:0:40:G#6.wav
182,192,8629,1,0,1:0:0:40:G#6.wav
329,192,9557,1,0,1:0:0:40:C6.wav
182,192,9866,1,0,1:0:0:40:G#6.wav
402,192,10485,1,0,1:0:0:20:D#6.wav
109,192,10485,1,0,1:0:0:20:D#6.wav
329,192,11103,1,0,1:0:0:40:C#6.wav
182,192,11722,1,0,1:0:0:40:C6.wav
256,192,12031,1,0,1:0:0:40:C#6.wav
182,192,12341,1,0,1:0:0:40:C6.wav
329,192,14196,1,0,1:0:0:20:D#6.wav
182,192,14196,1,0,1:0:0:20:D#6.wav
36,192,14815,1,0,1:0:0:40:G#6.wav
36,192,15433,1,0,1:0:0:40:G#6.wav
36,192,16052,1,0,1:0:0:40:G#6.wav
109,192,17289,1,0,1:0:0:40:A#6.wav
213,192,17598,1,0,1:0:0:40:C6.wav
329,192,17908,1,0,1:0:0:20:C6.wav
469,192,17908,1,0,1:0:0:20:C6.wav
402,192,19145,1,0,1:0:0:40:C#6.wav
298,192,19454,1,0,1:0:0:40:C6.wav
182,192,19763,1,0,1:0:0:20:A#6.wav
64,192,19763,1,0,1:0:0:20:A#6.wav
213,192,21000,1,0,1:0:0:40:G6.wav
329,192,21619,1,0,1:0:0:20:G#6.wav
64,192,21619,1,0,1:0:0:20:G#6.wav
469,192,22547,1,0,1:0:0:40:C6.wav
256,192,22856,1,0,1:0:0:40:G#6.wav
256,192,23475,1,0,1:0:0:40:G#6.wav
256,192,24402,1,0,1:0:0:40:C6.wav
329,192,24712,1,0,1:0:0:40:D#6.wav
402,192,25021,1,0,1:0:0:40:F6.wav
475,192,25330,1,0,1:0:0:20:F#6.wav
36,192,25330,1,0,1:0:0:20:F#6.wav
475,192,25794,1,0,1:0:0:40:F#6.wav
298,192,26258,1,0,1:0:0:40:F6.wav
109,192,26722,1,0,1:0:0:40:C#6.wav
153,192,27186,1,0,1:0:0:40:D#6.wav
475,192,29042,1,0,1:0:0:20:D#6.wav
329,192,29042,1,0,1:0:0:20:D#6.wav
182,192,29660,1,0,1:0:0:40:G#6.wav
182,192,30279,1,0,1:0:0:40:G#6.wav
182,192,30897,1,0,1:0:0:40:G#6.wav
153,192,31825,1,0,1:0:0:40:F6.wav
256,192,32134,1,0,1:0:0:40:A#6.wav
320,192,32444,1,0,1:0:0:40:C6.wav
402,192,32753,1,0,1:0:0:20:C6.wav
64,192,32753,1,0,1:0:0:20:C6.wav
329,192,33990,1,0,1:0:0:40:C6.wav
182,192,34299,1,0,1:0:0:40:C6.wav
384,192,34609,1,0,1:0:0:20:A#6.wav
42,192,34609,1,0,1:0:0:20:A#6.wav
128,192,35846,1,0,1:0:0:40:G6.wav
64,192,36464,1,0,1:0:0:20:F6.wav
256,192,36464,1,0,1:0:0:20:F5.wav
182,192,37392,1,0,1:0:0:40:G#5.wav
329,192,37701,1,0,1:0:0:40:C#5.wav
460,192,38011,1,0,1:0:0:40:D#5.wav
128,192,38320,1,0,1:0:0:40:C5.wav
329,192,40176,1,0,1:0:0:20:C5.wav
448,192,40176,1,0,1:0:0:20:C6.wav
36,192,40639,1,0,1:0:0:40:G5.wav
109,192,41103,1,0,1:0:0:40:G#5.wav
182,192,41567,1,0,1:0:0:40:A#5.wav
460,192,42031,1,0,1:0:0:20:C5.wav
256,192,42031,1,0,1:0:0:20:C6.wav
109,192,42495,1,0,1:0:0:40:G#5.wav
182,192,42959,1,0,1:0:0:40:A#5.wav
448,192,43578,1,0,1:0:0:40:D#5.wav
402,192,43887,1,0,1:0:0:20:C5.wav
109,192,43887,1,0,1:0:0:20:C6.wav
475,192,45743,1,0,1:0:0:40:A#5.wav
329,192,46206,1,0,1:0:0:40:A#5.wav
182,192,46670,1,0,1:0:0:40:A5.wav
36,192,47134,1,0,1:0:0:40:F5.wav
36,192,47598,1,0,1:0:0:20:F5.wav
182,192,47598,1,0,1:0:0:20:F6.wav
128,192,49454,1,0,1:0:0:20:G6.wav
358,192,49454,1,0,1:0:0:20:G5.wav
51,192,51310,1,0,1:0:0:20:F6.wav
213,192,51310,1,0,1:0:0:20:F5.wav
448,192,55021,1,0,1:0:0:20:D#5.wav
329,192,55021,1,0,1:0:0:20:D#6.wav
213,192,55639,1,0,1:0:0:40:G#5.wav
213,192,56258,1,0,1:0:0:40:G#5.wav
213,192,56877,1,0,1:0:0:40:G#5.wav
329,192,58114,1,0,1:0:0:40:A#5.wav
384,192,58423,1,0,1:0:0:40:C5.wav
448,192,58732,1,0,1:0:0:20:C5.wav
109,192,58732,1,0,1:0:0:20:C6.wav
256,192,59969,1,0,1:0:0:40:C5.wav
182,192,60279,1,0,1:0:0:40:C5.wav
64,192,60588,1,0,1:0:0:20:A#6.wav
402,192,60588,1,0,1:0:0:20:A#5.wav
109,192,61825,1,0,1:0:0:40:G5.wav
329,192,62444,1,0,1:0:0:20:G#5.wav
182,192,62444,1,0,0:0:0:20:G#6.wav
