osu file format v14

[General]
AudioFilename: audio.mp3
AudioLeadIn: 0
PreviewTime: 36448
Countdown: 0
SampleSet: Soft
StackLeniency: 0.7
Mode: 3
LetterboxInBreaks: 0
SpecialStyle: 0
WidescreenStoryboard: 0

[Editor]
DistanceSpacing: 0.8
BeatDivisor: 2
GridSize: 16
TimelineZoom: 1

[Metadata]
Title:Interlude (Fantasy Friendship Forever)
TitleUnicode:Interlude (Fantasy Friendship Forever)
Artist:Dunderpatrullen
ArtistUnicode:Dunderpatrullen
Creator:[LS]Gavin
Version:Easy
Source:
Tags:keygeneration 8bit chiptune dance techno instrumental electronic electronica retro sweden Hugged DealerOfMelons
BeatmapID:3870320
BeatmapSetID:1879989

[Difficulty]
HPDrainRate:6
CircleSize:10
OverallDifficulty:6
ApproachRate:5
SliderMultiplier:1.4
SliderTickRate:1

[Events]
//Background and Video events
0,0,"gavinbg.jpg",0,0
//Break Periods
//Storyboard Layer 0 (Background)
//Storyboard Layer 1 (Fail)
//Storyboard Layer 2 (Pass)
//Storyboard Layer 3 (Foreground)
//Storyboard Layer 4 (Overlay)
//Storyboard Sound Samples

[TimingPoints]
6758,618.556701030928,3,2,1,15,1,0

[HitObjects]
230,192,6758,5,0,0:0:0:0:
384,192,7685,1,0,0:0:0:0:
332,192,7995,1,0,0:0:0:0:
332,192,8613,1,0,0:0:0:0:
384,192,9541,1,0,0:0:0:0:
332,192,9850,1,0,0:0:0:0:
486,192,10469,1,0,0:0:0:0:
281,192,11087,1,0,0:0:0:0:
128,192,11706,1,0,0:0:0:0:
384,192,12015,1,0,0:0:0:0:
128,192,12325,128,0,14180:0:0:0:0:
332,192,14180,1,0,0:0:0:0:
179,192,14799,1,0,0:0:0:0:
179,192,15417,1,0,0:0:0:0:
179,192,16036,128,0,17273:0:0:0:0:
128,192,17273,1,0,0:0:0:0:
332,192,17582,1,0,0:0:0:0:
332,192,17892,128,0,19129:0:0:0:0:
486,192,19129,1,0,0:0:0:0:
281,192,19438,1,0,0:0:0:0:
179,192,19747,128,0,20984:0:0:0:0:
25,192,20984,1,0,0:0:0:0:
332,192,21603,1,0,0:0:0:0:
486,192,22531,1,0,0:0:0:0:
230,192,22840,1,0,0:0:0:0:
230,192,23459,1,0,0:0:0:0:
128,192,24386,1,0,0:0:0:0:
230,192,24696,1,0,0:0:0:0:
332,192,25005,1,0,0:0:0:0:
486,192,25314,1,0,0:0:0:0:
486,192,25778,1,0,0:0:0:0:
281,192,26242,1,0,0:0:0:0:
76,192,26706,1,0,0:0:0:0:
230,192,27170,128,0,29026:0:0:0:0:
332,192,29026,1,0,0:0:0:0:
179,192,29644,1,0,0:0:0:0:
179,192,30263,1,0,0:0:0:0:
179,192,30881,128,0,31809:0:0:0:0:
25,192,31809,1,0,0:0:0:0:
281,192,32118,1,0,0:0:0:0:
384,192,32428,1,0,0:0:0:0:
384,192,32737,128,0,33974:0:0:0:0:
435,192,33974,1,0,0:0:0:0:
332,192,34283,1,0,0:0:0:0:
179,192,34593,128,0,35830:0:0:0:0:
76,192,35830,1,0,0:0:0:0:
25,192,36448,1,0,0:0:0:0:
128,192,37376,1,0,0:0:0:0:
281,192,37685,1,0,0:0:0:0:
435,192,37995,1,0,0:0:0:0:
230,192,38304,128,0,40160:0:0:0:0:
179,192,40160,1,0,0:0:0:0:
76,192,40623,1,0,0:0:0:0:
128,192,41087,1,0,0:0:0:0:
230,192,41551,1,0,0:0:0:0:
384,192,42015,1,0,0:0:0:0:
230,192,42479,1,0,0:0:0:0:
332,192,42943,1,0,0:0:0:0:
486,192,43562,1,0,0:0:0:0:
281,192,43871,1,0,0:0:0:0:
230,192,45727,1,0,0:0:0:0:
179,192,46190,1,0,0:0:0:0:
128,192,46654,1,0,0:0:0:0:
76,192,47118,1,0,0:0:0:0:
76,192,47582,128,0,49438:0:0:0:0:
384,192,49438,128,0,51294:0:0:0:0:
281,192,51294,128,0,55005:0:0:0:0:
435,192,55005,1,0,0:0:0:0:
230,192,55623,1,0,0:0:0:0:
230,192,56242,1,0,0:0:0:0:
230,192,56861,128,0,58098:0:0:0:0:
281,192,58098,1,0,0:0:0:0:
332,192,58407,1,0,0:0:0:0:
332,192,58716,128,0,59953:0:0:0:0:
486,192,59953,1,0,0:0:0:0:
281,192,60263,1,0,0:0:0:0:
128,192,60572,128,0,61809:0:0:0:0:
25,192,61809,1,0,0:0:0:0:
281,192,62428,128,0,64283:0:0:0:0:
