osu file format v14

[General]
AudioFilename: audio.mp3
AudioLeadIn: 0
PreviewTime: -1
Countdown: 0
SampleSet: None
StackLeniency: 0.7
Mode: 3
LetterboxInBreaks: 0
SpecialStyle: 0
WidescreenStoryboard: 1

[Editor]
DistanceSpacing: 0.8
BeatDivisor: 12
GridSize: 32
TimelineZoom: 1.2

[Metadata]
Title:Dejala ft. Niga ;v
TitleUnicode:Dejala ft. Niga ;v
Artist:Dunde
ArtistUnicode:Dunde
Creator:Loloswagger
Version:ta dificil papu :v
Source:
Tags:
BeatmapID:4556017
BeatmapSetID:2160545

[Difficulty]
HPDrainRate:4
CircleSize:4
OverallDifficulty:5
ApproachRate:5
SliderMultiplier:1.5
SliderTickRate:1

[Events]
//Background and Video events
0,0,"eminem (1).jpg",0,0
//Break Periods
//Storyboard Layer 0 (Background)
//Storyboard Layer 1 (Fail)
//Storyboard Layer 2 (Pass)
//Storyboard Layer 3 (Foreground)
//Storyboard Layer 4 (Overlay)
//Storyboard Sound Samples

[TimingPoints]
1262.55421686747,361.44578313253,4,1,0,100,1,0

[HitObjects]
192,192,449,5,0,0:0:0:0:
320,192,449,1,0,0:0:0:0:
64,192,660,1,0,0:0:0:0:
448,192,660,1,0,0:0:0:0:
192,192,750,1,0,0:0:0:0:
320,192,750,1,0,0:0:0:0:
64,192,961,1,0,0:0:0:0:
448,192,961,1,0,0:0:0:0:
64,192,1051,1,0,0:0:0:0:
448,192,1051,1,0,0:0:0:0:
192,192,1202,1,0,0:0:0:0:
320,192,1202,1,0,0:0:0:0:
64,192,1262,128,0,1955:0:0:0:0:
448,192,1262,128,0,1955:0:0:0:0:
320,192,1624,1,0,0:0:0:0:
192,192,1624,1,0,0:0:0:0:
320,192,1925,1,0,0:0:0:0:
192,192,1955,1,0,0:0:0:0:
64,192,2226,1,0,0:0:0:0:
448,192,2226,1,0,0:0:0:0:
320,192,2316,1,0,0:0:0:0:
192,192,2346,1,0,0:0:0:0:
64,192,2557,128,0,3521:0:0:0:0:
448,192,2587,128,0,3521:0:0:0:0:
192,192,2648,1,0,0:0:0:0:
320,192,2648,1,0,0:0:0:0:
192,192,3009,1,0,0:0:0:0:
320,192,3009,1,0,0:0:0:0:
192,192,3431,1,0,0:0:0:0:
320,192,3431,1,0,0:0:0:0:
64,192,4063,1,0,0:0:0:0:
64,192,4184,128,0,6322:0:0:0:0:
192,192,4214,1,0,0:0:0:0:
320,192,4214,1,0,0:0:0:0:
320,192,4304,1,0,0:0:0:0:
320,192,4545,1,0,0:0:0:0:
192,192,4816,1,0,0:0:0:0:
320,192,4907,1,0,0:0:0:0:
448,192,5238,1,0,0:0:0:0:
192,192,5298,1,0,0:0:0:0:
320,192,5298,1,0,0:0:0:0:
448,192,5419,1,0,0:0:0:0:
320,192,5449,1,0,0:0:0:0:
192,192,5870,1,0,0:0:0:0:
320,192,5931,1,0,0:0:0:0:
448,192,6051,1,0,0:0:0:0:
192,192,6202,1,0,0:0:0:0:
320,192,6202,1,0,0:0:0:0:
192,192,6383,1,0,0:0:0:0:
320,192,6383,1,0,0:0:0:0:
448,192,6654,1,0,0:0:0:0:
64,192,6714,1,0,0:0:0:0:
192,192,6774,1,0,0:0:0:0:
320,192,6895,1,0,0:0:0:0:
192,192,6925,1,0,0:0:0:0:
320,192,7075,1,0,0:0:0:0:
448,192,7105,1,0,0:0:0:0:
64,192,7377,128,0,9967:0:0:0:0:
192,192,7377,1,0,0:0:0:0:
320,192,7377,1,0,0:0:0:0:
192,192,8491,1,0,0:0:0:0:
320,192,8491,1,0,0:0:0:0:
192,192,9334,1,0,0:0:0:0:
320,192,9334,1,0,0:0:0:0:
192,192,9967,1,0,0:0:0:0:
320,192,9967,1,0,0:0:0:0:
448,192,10208,1,0,0:0:0:0:
320,192,10268,1,0,0:0:0:0:
448,192,10328,1,0,0:0:0:0:
192,192,10599,1,0,0:0:0:0:
320,192,10690,1,0,0:0:0:0:
192,192,10690,1,0,0:0:0:0:
64,192,10750,1,0,0:0:0:0:
192,192,10840,1,0,0:0:0:0:
64,192,10961,1,0,0:0:0:0:
320,192,11322,1,0,0:0:0:0:
448,192,11383,1,0,0:0:0:0:
192,192,11503,1,0,0:0:0:0:
192,192,11624,1,0,0:0:0:0:
320,192,11834,1,0,0:0:0:0:
64,192,11955,1,0,0:0:0:0:
448,192,11955,1,0,0:0:0:0:
448,192,12075,128,0,12346:0:0:0:0:
320,192,12377,1,0,0:0:0:0:
192,192,12617,1,0,0:0:0:0:
64,192,12798,128,0,13220:0:0:0:0:
192,192,13009,1,0,0:0:0:0:
192,192,13401,1,0,0:0:0:0:
320,192,13461,1,0,0:0:0:0:
64,192,13461,1,0,0:0:0:0:
192,192,13521,1,0,0:0:0:0:
448,192,13521,1,0,0:0:0:0:
320,192,13581,1,0,0:0:0:0:
64,192,13702,1,0,0:0:0:0:
320,192,13762,1,0,0:0:0:0:
192,192,13762,1,0,0:0:0:0:
448,192,13943,1,0,0:0:0:0:
64,192,14063,1,0,0:0:0:0:
320,192,14154,1,0,0:0:0:0:
192,192,14154,1,0,0:0:0:0:
192,192,14304,1,0,0:0:0:0:
64,192,14334,1,0,0:0:0:0:
320,192,14334,1,0,0:0:0:0:
448,192,14425,1,0,0:0:0:0:
192,192,14545,1,0,0:0:0:0:
448,192,14575,1,0,0:0:0:0:
448,192,14816,1,0,0:0:0:0:
320,192,14846,1,0,0:0:0:0:
192,192,14907,1,0,0:0:0:0:
64,192,15117,1,0,0:0:0:0:
64,192,15298,1,0,0:0:0:0:
192,192,15389,1,0,0:0:0:0:
320,192,15449,1,0,0:0:0:0:
448,192,15479,1,0,0:0:0:0:
192,192,15599,1,0,0:0:0:0:
320,192,15660,1,0,0:0:0:0:
64,192,15810,1,0,0:0:0:0:
192,192,15870,1,0,0:0:0:0:
448,192,15931,1,0,0:0:0:0:
64,192,16111,1,0,0:0:0:0:
192,192,16202,1,0,0:0:0:0:
320,192,16262,1,0,0:0:0:0:
192,192,16352,1,0,0:0:0:0:
448,192,16383,1,0,0:0:0:0:
320,192,16473,1,0,0:0:0:0:
448,192,16654,128,0,17798:0:0:0:0:
320,192,16654,1,0,0:0:0:0:
320,192,17798,1,0,0:0:0:0:
448,192,18160,1,0,0:0:0:0:
320,192,18160,1,0,0:0:0:0:
192,192,18220,1,0,0:0:0:0:
320,192,18340,1,0,0:0:0:0:
448,192,18431,1,0,0:0:0:0:
192,192,18461,1,0,0:0:0:0:
320,192,18491,1,0,0:0:0:0:
64,192,18642,1,0,0:0:0:0:
192,192,18732,1,0,0:0:0:0:
448,192,18913,1,0,0:0:0:0:
448,192,19003,1,0,0:0:0:0:
64,192,19154,1,0,0:0:0:0:
192,192,19184,1,0,0:0:0:0:
64,192,19214,1,0,0:0:0:0:
320,192,19214,1,0,0:0:0:0:
192,192,19274,1,0,0:0:0:0:
320,192,19364,1,0,0:0:0:0:
448,192,19485,1,0,0:0:0:0:
192,192,19515,1,0,0:0:0:0:
448,192,19605,1,0,0:0:0:0:
192,192,19666,1,0,0:0:0:0:
64,192,19696,128,0,20690:0:0:0:0:
192,192,20690,1,0,0:0:0:0:
64,192,21051,1,0,0:0:0:0:
64,192,21172,1,0,0:0:0:0:
192,192,21202,1,0,0:0:0:0:
320,192,21262,1,0,0:0:0:0:
192,192,21443,1,0,0:0:0:0:
448,192,21473,1,0,0:0:0:0:
192,192,21533,1,0,0:0:0:0:
320,192,21533,1,0,0:0:0:0:
320,192,21744,1,0,0:0:0:0:
320,192,21834,1,0,0:0:0:0:
320,192,21985,1,0,0:0:0:0:
192,192,22015,1,0,0:0:0:0:
320,192,22105,1,0,0:0:0:0:
192,192,22196,1,0,0:0:0:0:
320,192,22467,1,0,0:0:0:0:
192,192,22527,1,0,0:0:0:0:
320,192,22557,1,0,0:0:0:0:
192,192,22738,1,0,0:0:0:0:
320,192,22858,128,0,24003:0:0:0:0:
448,192,22858,1,0,0:0:0:0:
448,192,24003,1,0,0:0:0:0:
64,192,24455,128,0,24636:0:0:0:0:
192,192,24455,1,0,0:0:0:0:
192,192,24636,1,0,0:0:0:0:
192,192,24816,128,0,24997:0:0:0:0:
320,192,24816,1,0,0:0:0:0:
320,192,24967,1,0,0:0:0:0:
320,192,25148,128,0,25358:0:0:0:0:
448,192,25148,1,0,0:0:0:0:
192,192,25208,1,0,0:0:0:0:
192,192,25298,1,0,0:0:0:0:
448,192,25328,1,0,0:0:0:0:
448,192,25599,128,0,25780:0:0:0:0:
320,192,25599,1,0,0:0:0:0:
192,192,25630,1,0,0:0:0:0:
192,192,25720,1,0,0:0:0:0:
320,192,25780,1,0,0:0:0:0:
448,192,26051,1,0,0:0:0:0:
192,192,26051,1,0,0:0:0:0:
320,192,26081,1,0,0:0:0:0:
320,192,26202,1,0,0:0:0:0:
192,192,26262,1,0,0:0:0:0:
64,192,26262,1,0,0:0:0:0:
448,192,26322,1,0,0:0:0:0:
64,192,26413,1,0,0:0:0:0:
448,192,26503,1,0,0:0:0:0:
320,192,26503,1,0,0:0:0:0:
64,192,26533,1,0,0:0:0:0:
448,192,26624,1,0,0:0:0:0:
192,192,26654,1,0,0:0:0:0:
320,192,26804,1,0,0:0:0:0:
192,192,26834,1,0,0:0:0:0:
64,192,26985,1,0,0:0:0:0:
448,192,27045,1,0,0:0:0:0:
64,192,27136,1,0,0:0:0:0:
448,192,27346,1,0,0:0:0:0:
192,192,27407,1,0,0:0:0:0:
64,192,27467,1,0,0:0:0:0:
448,192,27527,1,0,0:0:0:0:
64,192,27678,1,0,0:0:0:0:
320,192,27708,1,0,0:0:0:0:
448,192,27768,1,0,0:0:0:0:
192,192,27979,1,0,0:0:0:0:
64,192,27979,1,0,0:0:0:0:
448,192,28069,1,0,0:0:0:0:
192,192,28250,1,0,0:0:0:0:
64,192,28310,1,0,0:0:0:0:
448,192,28581,1,0,0:0:0:0:
320,192,28642,1,0,0:0:0:0:
192,192,28852,1,0,0:0:0:0:
192,192,29033,128,0,29907:0:0:0:0:
320,192,29093,1,0,0:0:0:0:
320,192,29907,1,0,0:0:0:0:
320,192,30419,1,0,0:0:0:0:
320,192,30509,1,0,0:0:0:0:
448,192,30509,1,0,0:0:0:0:
448,192,30630,1,0,0:0:0:0:
320,192,30690,1,0,0:0:0:0:
320,192,30810,1,0,0:0:0:0:
192,192,30840,1,0,0:0:0:0:
192,192,30961,1,0,0:0:0:0:
64,192,31051,1,0,0:0:0:0:
64,192,31172,1,0,0:0:0:0:
192,192,31322,1,0,0:0:0:0:
320,192,31383,1,0,0:0:0:0:
192,192,31443,1,0,0:0:0:0:
192,192,31593,1,0,0:0:0:0:
320,192,31654,1,0,0:0:0:0:
192,192,31714,1,0,0:0:0:0:
320,192,31864,1,0,0:0:0:0:
448,192,31895,128,0,32196:0:0:0:0:
320,192,31985,1,0,0:0:0:0:
192,192,32015,1,0,0:0:0:0:
192,192,32136,1,0,0:0:0:0:
64,192,32166,1,0,0:0:0:0:
320,192,32256,128,0,33009:0:0:0:0:
64,192,32286,1,0,0:0:0:0:
192,192,32346,1,0,0:0:0:0:
192,192,32828,1,0,0:0:0:0:
448,192,33009,1,0,0:0:0:0:
320,192,33642,1,0,0:0:0:0:
448,192,33672,1,0,0:0:0:0:
320,192,33762,1,0,0:0:0:0:
192,192,34154,1,0,0:0:0:0:
320,192,34244,1,0,0:0:0:0:
192,192,34304,1,0,0:0:0:0:
64,192,34395,1,0,0:0:0:0:
192,192,34455,1,0,0:0:0:0:
320,192,34636,1,0,0:0:0:0:
192,192,34816,1,0,0:0:0:0:
320,192,34877,1,0,0:0:0:0:
448,192,35208,1,0,0:0:0:0:
192,192,35298,128,0,35599:0:0:0:0:
320,192,35328,1,0,0:0:0:0:
448,192,35358,1,0,0:0:0:0:
320,192,35630,1,0,0:0:0:0:
192,192,35780,1,0,0:0:0:0:
320,192,35810,128,0,36142:0:0:0:0:
448,192,35870,1,0,0:0:0:0:
320,192,36864,128,0,37015:0:0:0:0:
448,192,36895,1,0,0:0:0:0:
320,192,37196,1,0,0:0:0:0:
192,192,37226,128,0,37437:0:0:0:0:
64,192,37648,128,0,37798:0:0:0:0:
192,192,37648,1,0,0:0:0:0:
320,192,38039,128,0,38250:0:0:0:0:
192,192,38069,1,0,0:0:0:0:
448,192,38491,1,0,0:0:0:0:
320,192,38521,1,0,0:0:0:0:
192,192,38611,1,0,0:0:0:0:
320,192,38792,1,0,0:0:0:0:
192,192,38822,1,0,0:0:0:0:
192,192,39063,1,0,0:0:0:0:
320,192,39063,1,0,0:0:0:0:
448,192,39214,1,0,0:0:0:0:
192,192,39244,1,0,0:0:0:0:
192,192,39425,1,0,0:0:0:0:
448,192,39425,1,0,0:0:0:0:
64,192,39636,1,0,0:0:0:0:
192,192,39726,1,0,0:0:0:0:
192,192,39937,1,0,0:0:0:0:
448,192,40087,1,0,0:0:0:0:
192,192,40087,1,0,0:0:0:0:
448,192,40178,1,0,0:0:0:0:
448,192,40569,1,0,0:0:0:0:
448,192,40780,1,0,0:0:0:0:
320,192,40780,1,0,0:0:0:0:
320,192,40901,1,0,0:0:0:0:
448,192,40931,1,0,0:0:0:0:
320,192,41051,1,0,0:0:0:0:
448,192,41081,1,0,0:0:0:0:
192,192,41202,1,0,0:0:0:0:
320,192,41292,1,0,0:0:0:0:
64,192,41352,1,0,0:0:0:0:
192,192,41383,1,0,0:0:0:0:
64,192,41563,1,0,0:0:0:0:
192,192,41563,1,0,0:0:0:0:
320,192,41985,1,0,0:0:0:0:
448,192,41985,1,0,0:0:0:0:
448,192,42346,1,0,0:0:0:0:
320,192,42346,1,0,0:0:0:0:
192,192,42527,1,0,0:0:0:0:
448,192,42557,1,0,0:0:0:0:
192,192,42617,1,0,0:0:0:0:
192,192,42738,1,0,0:0:0:0:
448,192,42768,1,0,0:0:0:0:
448,192,43190,1,0,0:0:0:0:
320,192,43280,1,0,0:0:0:0:
448,192,43401,1,0,0:0:0:0:
64,192,43431,1,0,0:0:0:0:
192,192,43431,1,0,0:0:0:0:
448,192,43491,1,0,0:0:0:0:
320,192,43581,1,0,0:0:0:0:
192,192,44033,1,0,0:0:0:0:
320,192,44154,1,0,0:0:0:0:
192,192,44214,1,0,0:0:0:0:
320,192,44515,1,0,0:0:0:0:
448,192,44605,128,0,45027:0:0:0:0:
192,192,44756,1,0,0:0:0:0:
320,192,45178,1,0,0:0:0:0:
320,192,45238,1,0,0:0:0:0:
192,192,45298,1,0,0:0:0:0:
192,192,45389,1,0,0:0:0:0:
192,192,45479,128,0,45810:0:0:0:0:
64,192,46262,128,0,46744:0:0:0:0:
192,192,46262,1,0,0:0:0:0:
192,192,46804,1,0,0:0:0:0:
320,192,47105,128,0,47557:0:0:0:0:
192,192,47136,1,0,0:0:0:0:
192,192,47648,1,0,0:0:0:0:
320,192,47828,1,0,0:0:0:0:
448,192,47858,128,0,48220:0:0:0:0:
320,192,48401,1,0,0:0:0:0:
320,192,48551,128,0,48822:0:0:0:0:
64,192,48762,1,0,0:0:0:0:
192,192,48943,128,0,49184:0:0:0:0:
64,192,49214,1,0,0:0:0:0:
64,192,49364,128,0,49666:0:0:0:0:
448,192,49636,1,0,0:0:0:0:
320,192,49666,1,0,0:0:0:0:
320,192,50178,128,0,50328:0:0:0:0:
448,192,50238,1,0,0:0:0:0:
448,192,50509,128,0,50599:0:0:0:0:
320,192,50569,1,0,0:0:0:0:
64,192,50780,1,0,0:0:0:0:
192,192,50901,128,0,51051:0:0:0:0:
64,192,51172,128,0,51292:0:0:0:0:
192,192,51172,1,0,0:0:0:0:
64,192,51352,128,0,52256:0:0:0:0:
192,192,52377,1,0,0:0:0:0:
320,192,52738,1,0,0:0:0:0:
192,192,52738,1,0,0:0:0:0:
320,192,52889,128,0,53702:0:0:0:0:
448,192,53099,1,0,0:0:0:0:
448,192,53642,128,0,53883:0:0:0:0:
320,192,53792,1,0,0:0:0:0:
192,192,54063,1,0,0:0:0:0:
320,192,54154,1,0,0:0:0:0:
192,192,54244,1,0,0:0:0:0:
64,192,54455,128,0,55539:0:0:0:0:
192,192,55931,1,0,0:0:0:0:
320,192,55931,1,0,0:0:0:0:
64,192,55991,1,0,0:0:0:0:
192,192,56081,1,0,0:0:0:0:
448,192,56142,1,0,0:0:0:0:
192,192,56172,1,0,0:0:0:0:
320,192,56232,1,0,0:0:0:0:
448,192,56413,1,0,0:0:0:0:
64,192,56443,1,0,0:0:0:0:
448,192,56473,1,0,0:0:0:0:
64,192,56533,1,0,0:0:0:0:
192,192,56684,1,0,0:0:0:0:
192,192,56714,1,0,0:0:0:0:
448,192,56744,1,0,0:0:0:0:
320,192,56834,1,0,0:0:0:0:
448,192,57045,128,0,57316:0:0:0:0:
320,192,57045,1,0,0:0:0:0:
320,192,57316,1,0,0:0:0:0:
320,192,57497,128,0,57798:0:0:0:0:
192,192,57497,1,0,0:0:0:0:
192,192,57828,1,0,0:0:0:0:
192,192,57919,128,0,58130:0:0:0:0:
64,192,57979,1,0,0:0:0:0:
64,192,58069,1,0,0:0:0:0:
320,192,58160,1,0,0:0:0:0:
192,192,58461,1,0,0:0:0:0:
64,192,58581,128,0,58732:0:0:0:0:
320,192,58672,1,0,0:0:0:0:
64,192,58883,128,0,59154:0:0:0:0:
192,192,58883,1,0,0:0:0:0:
448,192,59244,1,0,0:0:0:0:
192,192,59304,128,0,59455:0:0:0:0:
320,192,59364,1,0,0:0:0:0:
448,192,59636,1,0,0:0:0:0:
320,192,59666,128,0,59877:0:0:0:0:
448,192,60087,128,0,61623:0:0:0:0:
320,192,60117,1,0,0:0:0:0:
192,192,61533,128,0,61654:0:0:0:0:
192,192,61774,128,0,62075:0:0:0:0:
320,192,62045,1,0,0:0:0:0:
64,192,63280,128,0,64123:0:0:0:0:
192,192,63340,1,0,0:0:0:0:
192,192,64033,1,0,0:0:0:0:
448,192,64244,128,0,65178:0:0:0:0:
320,192,64274,1,0,0:0:0:0:
192,192,64395,1,0,0:0:0:0:
64,192,64395,1,0,0:0:0:0:
320,192,64425,1,0,0:0:0:0:
192,192,64636,1,0,0:0:0:0:
64,192,64636,1,0,0:0:0:0:
320,192,64696,1,0,0:0:0:0:
320,192,64846,1,0,0:0:0:0:
192,192,64877,1,0,0:0:0:0:
64,192,64937,1,0,0:0:0:0:
320,192,65057,1,0,0:0:0:0:
192,192,65087,1,0,0:0:0:0:
64,192,65117,1,0,0:0:0:0:
320,192,65358,1,0,0:0:0:0:
192,192,65389,1,0,0:0:0:0:
64,192,65389,1,0,0:0:0:0:
448,192,65479,1,0,0:0:0:0:
64,192,65660,1,0,0:0:0:0:
320,192,65690,1,0,0:0:0:0:
320,192,65840,1,0,0:0:0:0:
320,192,66021,1,0,0:0:0:0:
448,192,66051,1,0,0:0:0:0:
448,192,66172,1,0,0:0:0:0:
192,192,66172,1,0,0:0:0:0:
448,192,66322,1,0,0:0:0:0:
320,192,66322,1,0,0:0:0:0:
64,192,66473,1,0,0:0:0:0:
192,192,66593,1,0,0:0:0:0:
320,192,66624,1,0,0:0:0:0:
320,192,66714,128,0,67166:0:0:0:0:
448,192,67166,1,0,0:0:0:0:
192,192,67196,1,0,0:0:0:0:
320,192,67587,1,0,0:0:0:0:
320,192,67678,1,0,0:0:0:0:
448,192,67738,1,0,0:0:0:0:
320,192,67828,1,0,0:0:0:0:
448,192,67889,1,0,0:0:0:0:
320,192,67949,1,0,0:0:0:0:
448,192,68069,1,0,0:0:0:0:
64,192,68160,1,0,0:0:0:0:
320,192,68220,1,0,0:0:0:0:
64,192,68340,1,0,0:0:0:0:
192,192,68551,1,0,0:0:0:0:
64,192,68581,1,0,0:0:0:0:
64,192,68702,1,0,0:0:0:0:
64,192,69124,128,0,69274:0:0:0:0:
192,192,69124,1,0,0:0:0:0:
192,192,69334,1,0,0:0:0:0:
64,192,69485,128,0,69636:0:0:0:0:
192,192,69575,1,0,0:0:0:0:
192,192,69877,128,0,70057:0:0:0:0:
448,192,69907,1,0,0:0:0:0:
448,192,70117,1,0,0:0:0:0:
320,192,70569,128,0,71292:0:0:0:0:
448,192,70569,1,0,0:0:0:0:
448,192,70991,1,0,0:0:0:0:
448,192,71262,1,0,0:0:0:0:
448,192,71443,1,0,0:0:0:0:
320,192,71503,1,0,0:0:0:0:
448,192,71624,1,0,0:0:0:0:
320,192,71654,1,0,0:0:0:0:
320,192,71744,1,0,0:0:0:0:
192,192,71834,1,0,0:0:0:0:
320,192,71895,1,0,0:0:0:0:
192,192,71955,1,0,0:0:0:0:
320,192,72015,1,0,0:0:0:0:
448,192,72015,1,0,0:0:0:0:
192,192,72105,1,0,0:0:0:0:
448,192,72136,1,0,0:0:0:0:
192,192,72286,1,0,0:0:0:0:
320,192,72316,1,0,0:0:0:0:
64,192,72377,1,0,0:0:0:0:
192,192,72467,1,0,0:0:0:0:
320,192,72467,1,0,0:0:0:0:
64,192,72587,1,0,0:0:0:0:
448,192,72678,1,0,0:0:0:0:
64,192,72738,1,0,0:0:0:0:
448,192,72889,1,0,0:0:0:0:
320,192,73009,1,0,0:0:0:0:
64,192,73009,1,0,0:0:0:0:
192,192,73160,1,0,0:0:0:0:
448,192,73160,1,0,0:0:0:0:
192,192,73401,1,0,0:0:0:0:
448,192,73551,1,0,0:0:0:0:
64,192,73642,1,0,0:0:0:0:
192,192,73792,1,0,0:0:0:0:
320,192,73883,1,0,0:0:0:0:
320,192,74093,1,0,0:0:0:0:
64,192,74124,128,0,74636:0:0:0:0:
448,192,74274,1,0,0:0:0:0:
320,192,74364,1,0,0:0:0:0:
192,192,74605,1,0,0:0:0:0:
448,192,74756,1,0,0:0:0:0:
192,192,74907,128,0,75539:0:0:0:0:
448,192,74907,1,0,0:0:0:0:
448,192,75117,1,0,0:0:0:0:
448,192,75419,1,0,0:0:0:0:
64,192,75630,1,0,0:0:0:0:
192,192,75810,1,0,0:0:0:0:
320,192,75840,1,0,0:0:0:0:
192,192,76111,1,0,0:0:0:0:
64,192,76142,1,0,0:0:0:0:
320,192,76142,1,0,0:0:0:0:
64,192,76443,1,0,0:0:0:0:
320,192,76443,1,0,0:0:0:0:
448,192,76503,1,0,0:0:0:0:
448,192,76624,1,0,0:0:0:0:
192,192,76654,1,0,0:0:0:0:
320,192,76714,1,0,0:0:0:0:
448,192,76895,1,0,0:0:0:0:
320,192,76985,1,0,0:0:0:0:
448,192,77015,1,0,0:0:0:0:
192,192,77015,1,0,0:0:0:0:
192,192,77226,1,0,0:0:0:0:
64,192,77256,1,0,0:0:0:0:
192,192,77407,1,0,0:0:0:0:
320,192,77557,1,0,0:0:0:0:
64,192,77617,1,0,0:0:0:0:
192,192,77678,1,0,0:0:0:0:
320,192,77768,1,0,0:0:0:0:
64,192,77919,1,0,0:0:0:0:
320,192,77919,1,0,0:0:0:0:
192,192,78160,1,0,0:0:0:0:
448,192,78190,1,0,0:0:0:0:
320,192,78220,1,0,0:0:0:0:
320,192,78431,1,0,0:0:0:0:
448,192,78431,1,0,0:0:0:0:
192,192,78521,1,0,0:0:0:0:
64,192,78581,1,0,0:0:0:0:
448,192,78581,1,0,0:0:0:0:
192,192,78672,1,0,0:0:0:0:
320,192,78702,1,0,0:0:0:0:
448,192,78762,128,0,79997:0:0:0:0:
320,192,78822,1,0,0:0:0:0:
320,192,79184,1,0,0:0:0:0:
320,192,79907,1,0,0:0:0:0:
448,192,80178,1,0,0:0:0:0:
320,192,80208,1,0,0:0:0:0:
192,192,80389,1,0,0:0:0:0:
192,192,80419,1,0,0:0:0:0:
64,192,80599,1,0,0:0:0:0:
192,192,80780,1,0,0:0:0:0:
448,192,80780,1,0,0:0:0:0:
448,192,80991,1,0,0:0:0:0:
192,192,81081,1,0,0:0:0:0:
448,192,81383,1,0,0:0:0:0:
320,192,81443,1,0,0:0:0:0:
64,192,81533,128,0,81895:0:0:0:0:
192,192,81533,1,0,0:0:0:0:
320,192,81804,1,0,0:0:0:0:
192,192,81925,128,0,83009:0:0:0:0:
320,192,82979,1,0,0:0:0:0:
320,192,83130,1,0,0:0:0:0:
448,192,83220,1,0,0:0:0:0:
448,192,83401,1,0,0:0:0:0:
320,192,83431,1,0,0:0:0:0:
448,192,83521,1,0,0:0:0:0:
192,192,83551,1,0,0:0:0:0:
192,192,83852,1,0,0:0:0:0:
320,192,83883,1,0,0:0:0:0:
192,192,84063,1,0,0:0:0:0:
448,192,84154,1,0,0:0:0:0:
320,192,84334,1,0,0:0:0:0:
192,192,84515,1,0,0:0:0:0:
64,192,84515,1,0,0:0:0:0:
320,192,84696,1,0,0:0:0:0:
192,192,84726,1,0,0:0:0:0:
64,192,84786,1,0,0:0:0:0:
320,192,84877,1,0,0:0:0:0:
448,192,84967,128,0,85268:0:0:0:0:
192,192,84967,1,0,0:0:0:0:
64,192,85087,1,0,0:0:0:0:
192,192,85208,1,0,0:0:0:0:
320,192,85238,1,0,0:0:0:0:
64,192,85449,128,0,86021:0:0:0:0:
192,192,85479,1,0,0:0:0:0:
320,192,85599,1,0,0:0:0:0:
192,192,85931,1,0,0:0:0:0:
448,192,86172,1,0,0:0:0:0:
320,192,86473,128,0,86955:0:0:0:0:
192,192,86563,1,0,0:0:0:0:
192,192,86955,1,0,0:0:0:0:
448,192,87286,128,0,87828:0:0:0:0:
320,192,87316,1,0,0:0:0:0:
320,192,87768,1,0,0:0:0:0:
320,192,87798,1,0,0:0:0:0:
320,192,87919,1,0,0:0:0:0:
320,192,88190,1,0,0:0:0:0:
448,192,88250,1,0,0:0:0:0:
192,192,88340,1,0,0:0:0:0:
320,192,88431,1,0,0:0:0:0:
320,192,88611,1,0,0:0:0:0:
192,192,88762,1,0,0:0:0:0:
192,192,88883,1,0,0:0:0:0:
320,192,88913,1,0,0:0:0:0:
320,192,89033,1,0,0:0:0:0:
192,192,89033,1,0,0:0:0:0:
64,192,89063,1,0,0:0:0:0:
192,192,89214,1,0,0:0:0:0:
448,192,89485,1,0,0:0:0:0:
320,192,89485,1,0,0:0:0:0:
320,192,89666,1,0,0:0:0:0:
320,192,89937,1,0,0:0:0:0:
448,192,89997,1,0,0:0:0:0:
192,192,90268,1,0,0:0:0:0:
320,192,90328,1,0,0:0:0:0:
192,192,90449,1,0,0:0:0:0:
320,192,90599,1,0,0:0:0:0:
192,192,90660,1,0,0:0:0:0:
320,192,90810,1,0,0:0:0:0:
448,192,90840,128,0,91202:0:0:0:0:
64,192,91202,1,0,0:0:0:0:
320,192,91262,128,0,92226:0:0:0:0:
192,192,91262,1,0,0:0:0:0:
448,192,92256,1,0,0:0:0:0:
192,192,92316,1,0,0:0:0:0:
448,192,92346,1,0,0:0:0:0:
320,192,92407,1,0,0:0:0:0:
192,192,92497,1,0,0:0:0:0:
64,192,92678,1,0,0:0:0:0:
192,192,92768,1,0,0:0:0:0:
448,192,92858,1,0,0:0:0:0:
320,192,92919,1,0,0:0:0:0:
192,192,93069,1,0,0:0:0:0:
320,192,93190,1,0,0:0:0:0:
64,192,93220,1,0,0:0:0:0:
192,192,93370,1,0,0:0:0:0:
448,192,93370,1,0,0:0:0:0:
320,192,93672,1,0,0:0:0:0:
192,192,93852,128,0,94244:0:0:0:0:
320,192,93852,1,0,0:0:0:0:
320,192,94334,1,0,0:0:0:0:
448,192,94364,128,0,95027:0:0:0:0:
192,192,94364,1,0,0:0:0:0:
320,192,94967,1,0,0:0:0:0:
320,192,95117,1,0,0:0:0:0:
448,192,95539,1,0,0:0:0:0:
448,192,95660,1,0,0:0:0:0:
192,192,95961,1,0,0:0:0:0:
320,192,96051,1,0,0:0:0:0:
192,192,96081,1,0,0:0:0:0:
192,192,96232,1,0,0:0:0:0:
320,192,96352,1,0,0:0:0:0:
192,192,96383,1,0,0:0:0:0:
64,192,96563,1,0,0:0:0:0:
192,192,96593,1,0,0:0:0:0:
320,192,96834,1,0,0:0:0:0:
192,192,96895,1,0,0:0:0:0:
192,192,97136,1,0,0:0:0:0:
448,192,97226,1,0,0:0:0:0:
192,192,97256,1,0,0:0:0:0:
448,192,97377,128,0,97678:0:0:0:0:
320,192,97407,1,0,0:0:0:0:
64,192,97407,1,0,0:0:0:0:
192,192,97708,1,0,0:0:0:0:
320,192,97858,128,0,98401:0:0:0:0:
192,192,98852,1,0,0:0:0:0:
64,192,98883,128,0,99184:0:0:0:0:
320,192,99274,1,0,0:0:0:0:
192,192,99334,128,0,99605:0:0:0:0:
320,192,99756,128,0,100087:0:0:0:0:
448,192,99756,1,0,0:0:0:0:
448,192,100178,128,0,100449:0:0:0:0:
320,192,100178,1,0,0:0:0:0:
64,192,100539,1,0,0:0:0:0:
64,192,100630,128,0,101322:0:0:0:0:
192,192,100720,1,0,0:0:0:0:
192,192,100810,1,0,0:0:0:0:
192,192,101142,1,0,0:0:0:0:
320,192,101172,1,0,0:0:0:0:
448,192,101262,1,0,0:0:0:0:
320,192,101593,1,0,0:0:0:0:
448,192,101654,1,0,0:0:0:0:
320,192,101774,1,0,0:0:0:0:
448,192,101834,1,0,0:0:0:0:
320,192,101985,1,0,0:0:0:0:
192,192,102166,1,0,0:0:0:0:
320,192,102286,1,0,0:0:0:0:
192,192,102316,1,0,0:0:0:0:
64,192,102557,1,0,0:0:0:0:
192,192,102557,1,0,0:0:0:0:
320,192,102738,1,0,0:0:0:0:
448,192,102768,1,0,0:0:0:0:
320,192,102949,1,0,0:0:0:0:
64,192,102949,1,0,0:0:0:0:
320,192,103039,1,0,0:0:0:0:
192,192,103250,1,0,0:0:0:0:
320,192,103280,1,0,0:0:0:0:
192,192,103461,1,0,0:0:0:0:
320,192,103491,1,0,0:0:0:0:
448,192,103581,128,0,104726:0:0:0:0:
320,192,103702,1,0,0:0:0:0:
320,192,104364,1,0,0:0:0:0:
320,192,104786,1,0,0:0:0:0:
320,192,105630,1,0,0:0:0:0:
320,192,105810,1,0,0:0:0:0:
448,192,105901,1,0,0:0:0:0:
64,192,106111,1,0,0:0:0:0:
192,192,106111,1,0,0:0:0:0:
192,192,106352,1,0,0:0:0:0:
320,192,106533,1,0,0:0:0:0:
320,192,106654,1,0,0:0:0:0:
192,192,106684,128,0,107045:0:0:0:0:
320,192,106774,1,0,0:0:0:0:
320,192,107196,128,0,107617:0:0:0:0:
192,192,107256,1,0,0:0:0:0:
192,192,107587,1,0,0:0:0:0:
448,192,107798,1,0,0:0:0:0:
320,192,107828,1,0,0:0:0:0:
448,192,107979,1,0,0:0:0:0:
64,192,108039,1,0,0:0:0:0:
320,192,108250,1,0,0:0:0:0:
192,192,108491,1,0,0:0:0:0:
320,192,108732,1,0,0:0:0:0:
192,192,108792,1,0,0:0:0:0:
448,192,108822,1,0,0:0:0:0:
64,192,108913,1,0,0:0:0:0:
448,192,109033,1,0,0:0:0:0:
320,192,109244,1,0,0:0:0:0:
64,192,109244,1,0,0:0:0:0:
192,192,109515,1,0,0:0:0:0:
448,192,109605,1,0,0:0:0:0:
320,192,109816,1,0,0:0:0:0:
64,192,109846,1,0,0:0:0:0:
64,192,110027,128,0,111142:0:0:0:0:
192,192,110087,1,0,0:0:0:0:
448,192,110449,1,0,0:0:0:0:
320,192,110599,1,0,0:0:0:0:
320,192,110780,1,0,0:0:0:0:
192,192,110780,1,0,0:0:0:0:
192,192,110961,1,0,0:0:0:0:
192,192,111202,1,0,0:0:0:0:
64,192,111292,128,0,112949:0:0:0:0:
192,192,111292,128,0,112949:0:0:0:0:
320,192,111292,128,0,112949:0:0:0:0:
448,192,111292,128,0,112949:0:0:0:0:
64,192,113009,1,0,0:0:0:0:
192,192,113250,1,0,0:0:0:0:
192,192,113370,1,0,0:0:0:0:
320,192,113521,1,0,0:0:0:0:
448,192,113551,1,0,0:0:0:0:
448,192,113672,1,0,0:0:0:0:
448,192,113822,1,0,0:0:0:0:
320,192,113822,1,0,0:0:0:0:
448,192,114003,1,0,0:0:0:0:
320,192,114093,1,0,0:0:0:0:
64,192,114274,1,0,0:0:0:0:
192,192,114395,1,0,0:0:0:0:
320,192,114545,1,0,0:0:0:0:
192,192,114575,1,0,0:0:0:0:
64,192,114907,1,0,0:0:0:0:
192,192,114907,1,0,0:0:0:0:
64,192,114997,1,0,0:0:0:0:
320,192,115178,1,0,0:0:0:0:
64,192,115419,1,0,0:0:0:0:
192,192,115539,1,0,0:0:0:0:
192,192,115630,1,0,0:0:0:0:
64,192,115660,128,0,115961:0:0:0:0:
320,192,115870,1,0,0:0:0:0:
192,192,115961,1,0,0:0:0:0:
320,192,116051,1,0,0:0:0:0:
192,192,116081,128,0,116925:0:0:0:0:
320,192,116623,1,0,0:0:0:0:
320,192,116744,1,0,0:0:0:0:
320,192,116955,1,0,0:0:0:0:
448,192,117377,1,0,0:0:0:0:
320,192,117617,1,0,0:0:0:0:
448,192,117708,1,0,0:0:0:0:
448,192,117889,1,0,0:0:0:0:
320,192,117919,1,0,0:0:0:0:
192,192,118099,1,0,0:0:0:0:
320,192,118220,1,0,0:0:0:0:
192,192,118521,1,0,0:0:0:0:
320,192,118551,1,0,0:0:0:0:
448,192,118762,128,0,119033:0:0:0:0:
192,192,118792,1,0,0:0:0:0:
192,192,118973,1,0,0:0:0:0:
192,192,119214,128,0,120087:0:0:0:0:
320,192,119214,1,0,0:0:0:0:
320,192,120057,1,0,0:0:0:0:
448,192,120298,1,0,0:0:0:0:
448,192,120599,1,0,0:0:0:0:
320,192,120660,1,0,0:0:0:0:
192,192,120780,1,0,0:0:0:0:
320,192,121051,1,0,0:0:0:0:
320,192,121172,1,0,0:0:0:0:
192,192,121232,1,0,0:0:0:0:
64,192,121413,1,0,0:0:0:0:
192,192,121503,1,0,0:0:0:0:
320,192,121774,1,0,0:0:0:0:
192,192,121804,1,0,0:0:0:0:
448,192,122045,1,0,0:0:0:0:
448,192,122075,1,0,0:0:0:0:
192,192,122196,1,0,0:0:0:0:
448,192,122256,128,0,122497:0:0:0:0:
192,192,122346,1,0,0:0:0:0:
320,192,122587,1,0,0:0:0:0:
192,192,122648,128,0,122889:0:0:0:0:
64,192,123009,128,0,123370:0:0:0:0:
192,192,123220,1,0,0:0:0:0:
192,192,123551,1,0,0:0:0:0:
320,192,123792,128,0,124063:0:0:0:0:
448,192,123852,1,0,0:0:0:0:
192,192,124184,128,0,124395:0:0:0:0:
320,192,124274,1,0,0:0:0:0:
448,192,124545,128,0,124846:0:0:0:0:
320,192,124605,1,0,0:0:0:0:
64,192,125027,128,0,125178:0:0:0:0:
192,192,125057,1,0,0:0:0:0:
192,192,125208,1,0,0:0:0:0:
320,192,125419,1,0,0:0:0:0:
448,192,125479,1,0,0:0:0:0:
448,192,125660,1,0,0:0:0:0:
320,192,125690,1,0,0:0:0:0:
320,192,125840,1,0,0:0:0:0:
192,192,125961,1,0,0:0:0:0:
192,192,126111,1,0,0:0:0:0:
320,192,126111,1,0,0:0:0:0:
64,192,126322,1,0,0:0:0:0:
192,192,126413,1,0,0:0:0:0:
320,192,126533,1,0,0:0:0:0:
448,192,126714,1,0,0:0:0:0:
192,192,126714,1,0,0:0:0:0:
320,192,126864,1,0,0:0:0:0:
320,192,127015,1,0,0:0:0:0:
448,192,127075,1,0,0:0:0:0:
64,192,127166,1,0,0:0:0:0:
192,192,127256,1,0,0:0:0:0:
192,192,127407,1,0,0:0:0:0:
64,192,127407,1,0,0:0:0:0:
192,192,127648,1,0,0:0:0:0:
448,192,127768,1,0,0:0:0:0:
64,192,127858,1,0,0:0:0:0:
448,192,127919,1,0,0:0:0:0:
192,192,128099,1,0,0:0:0:0:
64,192,128130,128,0,128431:0:0:0:0:
320,192,128280,1,0,0:0:0:0:
192,192,128340,1,0,0:0:0:0:
320,192,128461,1,0,0:0:0:0:
192,192,128521,128,0,129455:0:0:0:0:
448,192,129545,1,0,0:0:0:0:
320,192,129756,1,0,0:0:0:0:
192,192,129786,1,0,0:0:0:0:
320,192,129877,1,0,0:0:0:0:
192,192,130027,1,0,0:0:0:0:
320,192,130117,1,0,0:0:0:0:
64,192,130148,1,0,0:0:0:0:
192,192,130238,1,0,0:0:0:0:
448,192,130419,1,0,0:0:0:0:
320,192,130449,1,0,0:0:0:0:
448,192,130599,1,0,0:0:0:0:
320,192,130599,1,0,0:0:0:0:
192,192,130720,1,0,0:0:0:0:
320,192,130780,1,0,0:0:0:0:
448,192,130870,128,0,131081:0:0:0:0:
192,192,130901,1,0,0:0:0:0:
320,192,131051,1,0,0:0:0:0:
320,192,131232,128,0,131473:0:0:0:0:
192,192,131352,1,0,0:0:0:0:
192,192,131654,128,0,132708:0:0:0:0:
320,192,131684,1,0,0:0:0:0:
320,192,132678,1,0,0:0:0:0:
192,192,133069,1,0,0:0:0:0:
320,192,133099,1,0,0:0:0:0:
192,192,133220,1,0,0:0:0:0:
320,192,133280,1,0,0:0:0:0:
320,192,133491,1,0,0:0:0:0:
192,192,133611,1,0,0:0:0:0:
448,192,133642,1,0,0:0:0:0:
448,192,133792,1,0,0:0:0:0:
320,192,133883,1,0,0:0:0:0:
192,192,133913,1,0,0:0:0:0:
448,192,134033,1,0,0:0:0:0:
192,192,134124,1,0,0:0:0:0:
320,192,134214,1,0,0:0:0:0:
448,192,134334,1,0,0:0:0:0:
192,192,134395,128,0,134666:0:0:0:0:
320,192,134395,1,0,0:0:0:0:
448,192,134756,1,0,0:0:0:0:
320,192,134786,128,0,135087:0:0:0:0:
448,192,135178,128,0,135630:0:0:0:0:
320,192,135208,1,0,0:0:0:0:
320,192,135630,1,0,0:0:0:0:
320,192,136292,1,0,0:0:0:0:
448,192,136322,128,0,136684:0:0:0:0:
192,192,136744,1,0,0:0:0:0:
320,192,136774,128,0,137045:0:0:0:0:
448,192,137045,1,0,0:0:0:0:
64,192,137075,1,0,0:0:0:0:
192,192,137105,128,0,137346:0:0:0:0:
320,192,137377,1,0,0:0:0:0:
64,192,137407,128,0,137587:0:0:0:0:
192,192,137617,1,0,0:0:0:0:
64,192,137798,1,0,0:0:0:0:
192,192,137889,1,0,0:0:0:0:
64,192,138009,1,0,0:0:0:0:
320,192,138039,1,0,0:0:0:0:
192,192,138190,1,0,0:0:0:0:
448,192,138190,1,0,0:0:0:0:
192,192,138280,1,0,0:0:0:0:
320,192,138280,1,0,0:0:0:0:
64,192,138431,128,0,139304:0:0:0:0:
192,192,138642,1,0,0:0:0:0:
192,192,139093,1,0,0:0:0:0:
320,192,139184,1,0,0:0:0:0:
448,192,139334,1,0,0:0:0:0:
192,192,139395,1,0,0:0:0:0:
192,192,139696,128,0,140328:0:0:0:0:
320,192,139786,128,0,140087:0:0:0:0:
320,192,140117,1,0,0:0:0:0:
320,192,140178,128,0,140328:0:0:0:0:
448,192,140509,128,0,140630:0:0:0:0:
320,192,140660,1,0,0:0:0:0:
192,192,140810,1,0,0:0:0:0:
320,192,140870,128,0,142407:0:0:0:0:
192,192,140931,128,0,142256:0:0:0:0:
192,192,142377,1,0,0:0:0:0:
448,192,142949,1,0,0:0:0:0:
320,192,142949,1,0,0:0:0:0:
192,192,143250,1,0,0:0:0:0:
320,192,143340,1,0,0:0:0:0:
448,192,143642,1,0,0:0:0:0:
320,192,143672,1,0,0:0:0:0:
320,192,143852,1,0,0:0:0:0:
192,192,144003,1,0,0:0:0:0:
448,192,144274,1,0,0:0:0:0:
192,192,144274,1,0,0:0:0:0:
448,192,144425,128,0,144575:0:0:0:0:
320,192,144515,1,0,0:0:0:0:
320,192,144786,128,0,144937:0:0:0:0:
192,192,144786,1,0,0:0:0:0:
192,192,145178,128,0,145328:0:0:0:0:
64,192,145238,1,0,0:0:0:0:
64,192,145630,128,0,145780:0:0:0:0:
192,192,145630,1,0,0:0:0:0:
64,192,146051,128,0,146172:0:0:0:0:
192,192,146081,1,0,0:0:0:0:
192,192,146383,128,0,146503:0:0:0:0:
320,192,146503,1,0,0:0:0:0:
320,192,146714,128,0,146864:0:0:0:0:
448,192,147105,128,0,147226:0:0:0:0:
320,192,147226,1,0,0:0:0:0:
448,192,147256,128,0,148611:0:0:0:0:
320,192,148822,1,0,0:0:0:0:
448,192,148913,1,0,0:0:0:0:
192,192,149093,1,0,0:0:0:0:
320,192,149124,1,0,0:0:0:0:
64,192,149184,1,0,0:0:0:0:
192,192,149274,1,0,0:0:0:0:
64,192,149425,1,0,0:0:0:0:
320,192,149545,1,0,0:0:0:0:
64,192,149575,1,0,0:0:0:0:
64,192,149756,1,0,0:0:0:0:
320,192,149816,1,0,0:0:0:0:
192,192,149937,1,0,0:0:0:0:
448,192,150027,1,0,0:0:0:0:
192,192,150148,1,0,0:0:0:0:
64,192,150208,128,0,151051:0:0:0:0:
448,192,151232,1,0,0:0:0:0:
448,192,151322,128,0,152015:0:0:0:0:
320,192,151352,1,0,0:0:0:0:
320,192,151443,1,0,0:0:0:0:
320,192,151563,1,0,0:0:0:0:
320,192,151864,1,0,0:0:0:0:
320,192,151985,1,0,0:0:0:0:
448,192,152196,1,0,0:0:0:0:
320,192,152196,1,0,0:0:0:0:
320,192,152377,1,0,0:0:0:0:
192,192,152377,1,0,0:0:0:0:
192,192,152557,1,0,0:0:0:0:
192,192,152708,1,0,0:0:0:0:
320,192,152768,1,0,0:0:0:0:
320,192,153009,1,0,0:0:0:0:
192,192,153039,1,0,0:0:0:0:
320,192,153310,1,0,0:0:0:0:
192,192,153340,128,0,154033:0:0:0:0:
448,192,153370,1,0,0:0:0:0:
448,192,153702,1,0,0:0:0:0:
320,192,153973,1,0,0:0:0:0:
64,192,154455,128,0,155539:0:0:0:0:
192,192,154575,1,0,0:0:0:0:
192,192,155238,1,0,0:0:0:0:
320,192,155870,1,0,0:0:0:0:
192,192,155901,1,0,0:0:0:0:
320,192,155961,1,0,0:0:0:0:
320,192,156111,1,0,0:0:0:0:
64,192,156111,1,0,0:0:0:0:
320,192,156262,1,0,0:0:0:0:
192,192,156443,1,0,0:0:0:0:
320,192,156503,128,0,157226:0:0:0:0:
192,192,157045,1,0,0:0:0:0:
448,192,157437,1,0,0:0:0:0:
64,192,157527,1,0,0:0:0:0:
320,192,157617,1,0,0:0:0:0:
192,192,157617,1,0,0:0:0:0:
64,192,157708,128,0,158431:0:0:0:0:
192,192,158280,1,0,0:0:0:0:
448,192,158611,1,0,0:0:0:0:
320,192,158642,1,0,0:0:0:0:
448,192,158852,1,0,0:0:0:0:
448,192,159033,1,0,0:0:0:0:
192,192,159214,1,0,0:0:0:0:
320,192,159304,1,0,0:0:0:0:
320,192,159485,1,0,0:0:0:0:
64,192,159515,1,0,0:0:0:0:
448,192,159575,128,0,159877:0:0:0:0:
64,192,159696,1,0,0:0:0:0:
320,192,159907,128,0,160449:0:0:0:0:
192,192,160539,1,0,0:0:0:0:
192,192,160720,128,0,160991:0:0:0:0:
320,192,160991,1,0,0:0:0:0:
320,192,161111,128,0,161473:0:0:0:0:
448,192,161262,1,0,0:0:0:0:
448,192,161503,128,0,162587:0:0:0:0:
320,192,161593,1,0,0:0:0:0:
320,192,162136,1,0,0:0:0:0:
320,192,162557,1,0,0:0:0:0:
448,192,162889,1,0,0:0:0:0:
320,192,163130,1,0,0:0:0:0:
192,192,163280,1,0,0:0:0:0:
192,192,163431,1,0,0:0:0:0:
64,192,163551,1,0,0:0:0:0:
320,192,163852,1,0,0:0:0:0:
448,192,164214,1,0,0:0:0:0:
192,192,164605,1,0,0:0:0:0:
64,192,164937,1,0,0:0:0:0:
192,192,165328,1,0,0:0:0:0:
320,192,165599,1,0,0:0:0:0:
448,192,165630,1,0,0:0:0:0:
192,192,165720,1,0,0:0:0:0:
64,192,165810,128,0,166834:0:0:0:0:
448,192,165810,1,0,0:0:0:0:
192,192,165870,1,0,0:0:0:0:
320,192,165961,128,0,166864:0:0:0:0:
64,192,167075,1,0,0:0:0:0:
320,192,167105,1,0,0:0:0:0:
64,192,167226,1,0,0:0:0:0:
448,192,167286,1,0,0:0:0:0:
64,192,167497,1,0,0:0:0:0:
320,192,167527,1,0,0:0:0:0:
192,192,167678,1,0,0:0:0:0:
320,192,167768,1,0,0:0:0:0:
448,192,167858,1,0,0:0:0:0:
320,192,167949,1,0,0:0:0:0:
448,192,168039,1,0,0:0:0:0:
192,192,168130,1,0,0:0:0:0:
64,192,168160,1,0,0:0:0:0:
320,192,168250,1,0,0:0:0:0:
64,192,168310,1,0,0:0:0:0:
192,192,168431,1,0,0:0:0:0:
448,192,168521,1,0,0:0:0:0:
320,192,168642,1,0,0:0:0:0:
192,192,168672,1,0,0:0:0:0:
448,192,168762,1,0,0:0:0:0:
448,192,168852,1,0,0:0:0:0:
320,192,168883,1,0,0:0:0:0:
64,192,168943,128,0,169756:0:0:0:0:
192,192,169244,1,0,0:0:0:0:
192,192,169756,1,0,0:0:0:0:
320,192,170148,1,0,0:0:0:0:
64,192,170268,1,0,0:0:0:0:
64,192,170389,1,0,0:0:0:0:
448,192,170630,1,0,0:0:0:0:
448,192,170780,1,0,0:0:0:0:
448,192,170961,1,0,0:0:0:0:
192,192,170991,1,0,0:0:0:0:
192,192,171172,1,0,0:0:0:0:
320,192,171322,1,0,0:0:0:0:
192,192,171443,1,0,0:0:0:0:
448,192,171473,1,0,0:0:0:0:
192,192,171593,1,0,0:0:0:0:
192,192,171684,1,0,0:0:0:0:
448,192,171804,1,0,0:0:0:0:
192,192,171864,1,0,0:0:0:0:
320,192,171925,128,0,172196:0:0:0:0:
448,192,172316,128,0,173160:0:0:0:0:
320,192,172346,1,0,0:0:0:0:
320,192,173160,1,0,0:0:0:0:
448,192,173551,128,0,173852:0:0:0:0:
320,192,173611,1,0,0:0:0:0:
192,192,173943,1,0,0:0:0:0:
320,192,173973,128,0,174214:0:0:0:0:
64,192,174304,1,0,0:0:0:0:
192,192,174364,128,0,174605:0:0:0:0:
64,192,174726,128,0,174997:0:0:0:0:
192,192,174756,1,0,0:0:0:0:
192,192,175057,1,0,0:0:0:0:
192,192,175178,1,0,0:0:0:0:
192,192,175298,1,0,0:0:0:0:
64,192,175298,1,0,0:0:0:0:
320,192,175389,1,0,0:0:0:0:
320,192,175630,1,0,0:0:0:0:
64,192,175690,1,0,0:0:0:0:
448,192,175780,1,0,0:0:0:0:
192,192,175870,1,0,0:0:0:0:
448,192,175991,1,0,0:0:0:0:
192,192,176081,1,0,0:0:0:0:
448,192,176142,1,0,0:0:0:0:
320,192,176202,1,0,0:0:0:0:
448,192,176292,1,0,0:0:0:0:
192,192,176503,1,0,0:0:0:0:
320,192,176563,1,0,0:0:0:0:
64,192,176624,1,0,0:0:0:0:
192,192,176804,1,0,0:0:0:0:
320,192,176895,1,0,0:0:0:0:
64,192,176955,1,0,0:0:0:0:
320,192,177045,1,0,0:0:0:0:
448,192,177075,1,0,0:0:0:0:
448,192,177256,1,0,0:0:0:0:
192,192,177316,1,0,0:0:0:0:
64,192,177497,1,0,0:0:0:0:
192,192,177497,1,0,0:0:0:0:
192,192,177678,1,0,0:0:0:0:
448,192,177768,1,0,0:0:0:0:
320,192,177889,1,0,0:0:0:0:
192,192,177919,1,0,0:0:0:0:
64,192,178009,128,0,179304:0:0:0:0:
448,192,178039,1,0,0:0:0:0:
320,192,178039,1,0,0:0:0:0:
192,192,178130,1,0,0:0:0:0:
192,192,179244,1,0,0:0:0:0:
320,192,179515,1,0,0:0:0:0:
64,192,179636,1,0,0:0:0:0:
320,192,179756,1,0,0:0:0:0:
192,192,179816,1,0,0:0:0:0:
448,192,179967,1,0,0:0:0:0:
192,192,179997,1,0,0:0:0:0:
448,192,180148,1,0,0:0:0:0:
64,192,180208,1,0,0:0:0:0:
448,192,180298,1,0,0:0:0:0:
192,192,180509,1,0,0:0:0:0:
320,192,180569,1,0,0:0:0:0:
320,192,180780,1,0,0:0:0:0:
192,192,180961,128,0,181172:0:0:0:0:
320,192,181111,1,0,0:0:0:0:
320,192,181292,128,0,182557:0:0:0:0:
192,192,182557,1,0,0:0:0:0:
192,192,182828,1,0,0:0:0:0:
64,192,182858,1,0,0:0:0:0:
320,192,183009,1,0,0:0:0:0:
192,192,183039,1,0,0:0:0:0:
448,192,183190,1,0,0:0:0:0:
448,192,183310,1,0,0:0:0:0:
64,192,183340,1,0,0:0:0:0:
448,192,183461,1,0,0:0:0:0:
192,192,183611,1,0,0:0:0:0:
320,192,183642,1,0,0:0:0:0:
192,192,183762,1,0,0:0:0:0:
448,192,183792,1,0,0:0:0:0:
320,192,183852,1,0,0:0:0:0:
192,192,183883,1,0,0:0:0:0:
64,192,184124,1,0,0:0:0:0:
320,192,184154,1,0,0:0:0:0:
192,192,184304,1,0,0:0:0:0:
64,192,184334,128,0,184605:0:0:0:0:
320,192,184364,1,0,0:0:0:0:
320,192,184605,1,0,0:0:0:0:
192,192,184696,128,0,185268:0:0:0:0:
320,192,185298,1,0,0:0:0:0:
448,192,185690,1,0,0:0:0:0:
448,192,185870,128,0,186051:0:0:0:0:
320,192,185901,1,0,0:0:0:0:
320,192,186262,128,0,186503:0:0:0:0:
448,192,186292,1,0,0:0:0:0:
192,192,186322,1,0,0:0:0:0:
192,192,186684,128,0,186895:0:0:0:0:
320,192,186714,1,0,0:0:0:0:
64,192,186744,1,0,0:0:0:0:
64,192,187045,128,0,187286:0:0:0:0:
192,192,187045,1,0,0:0:0:0:
320,192,187407,1,0,0:0:0:0:
448,192,187467,128,0,189093:0:0:0:0:
320,192,188581,1,0,0:0:0:0:
64,192,188581,128,0,188792:0:0:0:0:
320,192,188973,1,0,0:0:0:0:
64,192,189003,128,0,189214:0:0:0:0:
320,192,189455,1,0,0:0:0:0:
192,192,189485,1,0,0:0:0:0:
448,192,189786,1,0,0:0:0:0:
64,192,189786,128,0,189907:0:0:0:0:
192,192,189786,1,0,0:0:0:0:
448,192,189997,1,0,0:0:0:0:
320,192,190117,128,0,190268:0:0:0:0:
192,192,190178,1,0,0:0:0:0:
64,192,190358,1,0,0:0:0:0:
192,192,190449,1,0,0:0:0:0:
320,192,190539,128,0,192105:0:0:0:0:
448,192,190660,1,0,0:0:0:0:
192,192,192166,1,0,0:0:0:0:
448,192,192377,1,0,0:0:0:0:
320,192,192497,128,0,192678:0:0:0:0:
64,192,192497,1,0,0:0:0:0:
192,192,192648,1,0,0:0:0:0:
64,192,192889,128,0,193190:0:0:0:0:
448,192,192919,1,0,0:0:0:0:
192,192,192949,1,0,0:0:0:0:
320,192,193220,1,0,0:0:0:0:
192,192,193431,1,0,0:0:0:0:
64,192,193521,128,0,193852:0:0:0:0:
320,192,193521,1,0,0:0:0:0:
192,192,193973,128,0,194334:0:0:0:0:
320,192,193973,1,0,0:0:0:0:
320,192,194485,128,0,194756:0:0:0:0:
448,192,194515,1,0,0:0:0:0:
192,192,194605,1,0,0:0:0:0:
448,192,194937,128,0,195208:0:0:0:0:
320,192,194937,1,0,0:0:0:0:
192,192,194997,1,0,0:0:0:0:
320,192,195328,128,0,195569:0:0:0:0:
192,192,195419,1,0,0:0:0:0:
448,192,195479,1,0,0:0:0:0:
192,192,195750,128,0,196021:0:0:0:0:
64,192,195840,1,0,0:0:0:0:
448,192,195840,1,0,0:0:0:0:
64,192,196111,128,0,196352:0:0:0:0:
320,192,196232,1,0,0:0:0:0:
192,192,196262,1,0,0:0:0:0:
192,192,196473,128,0,196684:0:0:0:0:
320,192,196533,1,0,0:0:0:0:
320,192,196654,1,0,0:0:0:0:
320,192,196804,128,0,198039:0:0:0:0:
448,192,196804,1,0,0:0:0:0:
448,192,197015,1,0,0:0:0:0:
192,192,198099,1,0,0:0:0:0:
192,192,198521,1,0,0:0:0:0:
320,192,198732,1,0,0:0:0:0:
192,192,198792,1,0,0:0:0:0:
64,192,198852,1,0,0:0:0:0:
448,192,198883,1,0,0:0:0:0:
192,192,198973,1,0,0:0:0:0:
320,192,199124,1,0,0:0:0:0:
320,192,199244,1,0,0:0:0:0:
448,192,199244,1,0,0:0:0:0:
192,192,199334,1,0,0:0:0:0:
320,192,199515,1,0,0:0:0:0:
192,192,199515,1,0,0:0:0:0:
64,192,199575,1,0,0:0:0:0:
448,192,199696,1,0,0:0:0:0:
192,192,199726,1,0,0:0:0:0:
64,192,199816,1,0,0:0:0:0:
448,192,199907,128,0,200720:0:0:0:0:
320,192,199937,1,0,0:0:0:0:
320,192,200178,1,0,0:0:0:0:
320,192,200961,1,0,0:0:0:0:
192,192,200991,128,0,201804:0:0:0:0:
320,192,201473,1,0,0:0:0:0:
320,192,201804,1,0,0:0:0:0:
320,192,203039,128,0,203762:0:0:0:0:
448,192,203069,1,0,0:0:0:0:
192,192,203099,1,0,0:0:0:0:
192,192,203732,1,0,0:0:0:0:
448,192,203732,1,0,0:0:0:0:
192,192,204575,1,0,0:0:0:0:
64,192,204605,128,0,205328:0:0:0:0:
192,192,205328,1,0,0:0:0:0:
320,192,205991,1,0,0:0:0:0:
448,192,206111,128,0,206443:0:0:0:0:
192,192,206202,1,0,0:0:0:0:
448,192,206503,128,0,207196:0:0:0:0:
192,192,206593,1,0,0:0:0:0:
64,192,207166,1,0,0:0:0:0:
320,192,207407,1,0,0:0:0:0:
192,192,207678,128,0,208130:0:0:0:0:
320,192,208069,1,0,0:0:0:0:
448,192,209093,1,0,0:0:0:0:
320,192,209154,128,0,209395:0:0:0:0:
192,192,209364,1,0,0:0:0:0:
320,192,209515,128,0,209907:0:0:0:0:
192,192,209846,1,0,0:0:0:0:
192,192,210298,128,0,210479:0:0:0:0:
320,192,210419,1,0,0:0:0:0:
320,192,210750,128,0,210931:0:0:0:0:
192,192,210810,1,0,0:0:0:0:
192,192,211142,128,0,211262:0:0:0:0:
320,192,211142,1,0,0:0:0:0:
192,192,211292,128,0,211383:0:0:0:0:
320,192,211292,1,0,0:0:0:0:
192,192,211443,128,0,211925:0:0:0:0:
320,192,211533,1,0,0:0:0:0:
320,192,211955,1,0,0:0:0:0:
