osu file format v14

[General]
AudioFilename: audio.mp3
AudioLeadIn: 0
PreviewTime: 72978
Countdown: 0
SampleSet: Soft
StackLeniency: 0.7
Mode: 0
LetterboxInBreaks: 0
WidescreenStoryboard: 0

[Editor]
Bookmarks: 87214,121991,122277,122373,123902
DistanceSpacing: 1
BeatDivisor: 4
GridSize: 4
TimelineZoom: 2.3

[Metadata]
Title:#FVCKLUV
TitleUnicode:#FVCKLUV
Artist:Duki*C.R.O
ArtistUnicode:Duki*C.R.O
Creator:Arua
Version:Club Sport
Source:
Tags:duki c.r.o trap argentino argentina argentine fvck luv fuck love sad boy ya no rock life maestrosplinter
BeatmapID:1853030
BeatmapSetID:886414

[Difficulty]
HPDrainRate:5
CircleSize:4
OverallDifficulty:8
ApproachRate:9
SliderMultiplier:1.9
SliderTickRate:1

[Events]
//Background and Video events
0,0,"fuk1.jpg",0,0
//Break Periods
//Storyboard Layer 0 (Background)
//Storyboard Layer 1 (Fail)
//Storyboard Layer 2 (Pass)
//Storyboard Layer 3 (Foreground)
//Storyboard Sound Samples

[TimingPoints]
24539,382.165605095541,4,2,1,70,1,0
70398,-111.111111111111,4,2,1,70,0,0
73456,-111.111111111111,4,2,1,85,0,1
74220,-100,4,2,1,90,0,1
97914,-100,4,2,1,70,0,0
109666,-100,4,2,1,5,0,0
109761,-100,4,2,1,70,0,0
114634,-100,4,2,1,5,0,0
114730,-100,4,2,1,70,0,0
116163,-100,4,2,1,5,0,0
116258,-100,4,2,1,70,0,0
117691,-100,4,2,1,5,0,0
117787,-100,4,2,1,70,0,0
120749,-100,4,2,1,5,0,0
120844,-100,4,2,1,75,0,0
122277,-100,4,2,1,5,0,0
122373,-100,4,2,1,80,0,0
124254,382.165605095541,4,2,1,70,1,0
124254,-100,4,2,1,90,0,0
125400,-100,4,2,1,90,0,1
128362,-100,4,2,1,5,0,1
128457,-100,4,2,1,90,0,1
129986,-100,4,2,1,90,0,1
134930,-100,4,2,1,5,0,1
134954,-100,4,2,1,90,0,1
135312,-100,4,2,1,5,0,1
135336,-100,4,2,1,90,0,1
139827,-100,4,2,1,5,0,1
139922,-100,4,2,1,90,0,1
140209,-100,4,2,1,5,0,1
140304,-100,4,2,1,90,0,1
140591,-100,4,2,1,5,0,1
140687,-100,4,2,1,90,0,1
146801,-100,4,2,1,80,0,0

[Colours]
Combo1 : 0,64,128
Combo2 : 0,164,164
Combo3 : 72,154,255
Combo4 : 0,98,196

[HitObjects]
434,149,24539,6,0,P|452:183|450:238,1,95
346,94,24921,1,0,0:0:0:0:
426,43,25112,1,0,0:0:0:0:
350,198,25303,2,0,P|290:182|263:149,1,95
205,60,25685,1,0,0:0:0:0:
205,60,25781,1,0,0:0:0:0:
205,60,25876,1,0,0:0:0:0:
165,181,26067,5,0,0:0:0:0:
99,92,26258,1,0,0:0:0:0:
268,159,26449,1,0,0:0:0:0:
61,191,26640,1,0,0:0:0:0:
237,270,26831,2,0,L|332:282,1,95
397,378,27214,1,0,0:0:0:0:
447,260,27405,1,0,0:0:0:0:
308,156,27596,6,0,P|308:197|327:274,1,95
192,105,27978,1,0,0:0:0:0:
201,224,28169,1,0,0:0:0:0:
308,156,28360,1,0,0:0:0:0:
185,9,28551,1,0,0:0:0:0:
201,224,28742,1,0,0:0:0:0:
263,34,28933,1,0,0:0:0:0:
102,122,29124,5,0,0:0:0:0:
287,198,29316,1,0,0:0:0:0:
39,46,29507,5,0,0:0:0:0:
78,257,29698,1,0,0:0:0:0:
176,118,29889,5,0,0:0:0:0:
233,331,30080,1,0,0:0:0:0:
135,192,30271,5,0,0:0:0:0:
104,375,30462,1,0,0:0:0:0:
381,338,30653,6,0,P|441:327|479:293,1,95
377,157,31035,2,0,L|394:252,1,95
484,126,31417,2,0,L|477:230,1,95
290,101,31800,1,0,0:0:0:0:
391,45,31991,1,0,0:0:0:0:
371,185,32182,5,0,0:0:0:0:
312,7,32373,1,0,0:0:0:0:
271,218,32564,1,0,0:0:0:0:
391,45,32755,1,0,0:0:0:0:
344,281,32946,2,0,P|329:321|318:382,1,95
228,182,33328,2,0,P|242:223|253:280,1,95
371,185,33710,5,0,0:0:0:0:
250,264,33902,1,0,0:0:0:0:
353,359,34093,5,0,0:0:0:0:
168,307,34284,1,0,0:0:0:0:
363,272,34475,2,0,P|399:275|460:263,1,95
160,207,34857,2,0,P|124:209|60:195,1,95
296,42,35239,5,0,0:0:0:0:
297,146,35430,1,0,0:0:0:0:
209,93,35621,5,0,0:0:0:0:
381,0,35812,1,0,0:0:0:0:
384,95,36003,1,0,0:0:0:0:
296,42,36195,1,0,0:0:0:0:
467,47,36386,1,0,0:0:0:0:
467,47,36481,1,0,0:0:0:0:
467,47,36577,1,0,0:0:0:0:
419,257,36768,5,0,0:0:0:0:
384,95,36959,1,0,0:0:0:0:
464,360,37150,5,0,0:0:0:0:
499,198,37341,1,0,0:0:0:0:
323,247,37532,5,0,0:0:0:0:
485,282,37723,1,0,0:0:0:0:
309,331,37914,1,0,0:0:0:0:
499,198,38105,1,0,0:0:0:0:
300,108,38296,5,0,0:0:0:0:
404,266,38488,1,0,0:0:0:0:
417,60,38679,5,0,0:0:0:0:
313,218,38871,1,0,0:0:0:0:
209,24,39061,2,0,L|50:46,1,142.5
26,126,39443,1,0,0:0:0:0:
206,167,39634,1,0,0:0:0:0:
62,218,39825,5,0,0:0:0:0:
67,43,40016,1,0,0:0:0:0:
158,247,40207,5,0,0:0:0:0:
208,68,40398,1,0,0:0:0:0:
118,142,40589,5,0,0:0:0:0:
319,197,40781,1,0,0:0:0:0:
54,228,40972,5,0,0:0:0:0:
222,173,41163,1,0,0:0:0:0:
271,373,41354,5,0,0:0:0:0:
222,173,41545,1,0,0:0:0:0:
123,381,41736,1,0,0:0:0:0:
298,286,41927,1,0,0:0:0:0:
57,290,42118,2,0,P|22:271|-8:215,1,95
70,129,42500,1,0,0:0:0:0:
71,146,42595,1,0,0:0:0:0:
72,163,42691,1,0,0:0:0:0:
73,180,42786,1,0,0:0:0:0:
74,197,42882,5,0,0:0:0:0:
144,73,43074,1,0,0:0:0:0:
206,201,43265,1,0,0:0:0:0:
15,77,43456,1,0,0:0:0:0:
136,267,43647,5,0,0:0:0:0:
227,109,43838,1,0,0:0:0:0:
237,382,44029,1,0,0:0:0:0:
206,201,44220,1,0,0:0:0:0:
408,322,44411,5,0,0:0:0:0:
227,291,44602,1,0,0:0:0:0:
475,190,44793,1,0,0:0:0:0:
294,221,44984,1,0,0:0:0:0:
422,0,45175,2,0,P|424:38|412:100,1,95
294,45,45558,1,0,0:0:0:0:
387,211,45749,1,0,0:0:0:0:
414,93,45940,5,0,0:0:0:0:
252,178,46131,1,0,0:0:0:0:
363,340,46322,2,0,P|410:339|470:327,1,95
312,264,46704,2,0,B|213:232|220:312|129:280,1,190
56,216,47277,1,0,0:0:0:0:
40,320,47468,5,0,0:0:0:0:
152,176,47660,1,0,0:0:0:0:
200,328,47851,5,0,0:0:0:0:
56,216,48043,1,0,0:0:0:0:
248,132,48233,2,0,P|256:85|248:28,1,95
136,56,48615,1,0,0:0:0:0:
140,76,48710,1,0,0:0:0:0:
144,96,48806,1,0,0:0:0:0:
204,220,48997,6,0,B|300:260|300:184|388:216,1,190
386,314,49570,1,0,0:0:0:0:
470,165,49761,2,0,P|478:116|475:55,1,95
472,265,50144,1,0,0:0:0:0:
385,120,50335,1,0,0:0:0:0:
264,195,50526,5,0,0:0:0:0:
264,195,50621,1,0,0:0:0:0:
264,195,50717,2,0,L|163:177,1,95
20,154,51099,1,0,0:0:0:0:
110,98,51290,2,0,P|125:55|130:4,1,95
83,245,51672,1,0,0:0:0:0:
29,66,51863,1,0,0:0:0:0:
198,186,52054,6,0,P|189:280|145:364,1,190
83,245,52628,1,0,0:0:0:0:
261,367,52819,2,0,P|303:357|357:355,1,95
492,362,53201,1,0,0:0:0:0:
492,362,53328,2,0,L|501:278,1,63.3333333333333
340,261,53583,5,0,0:0:0:0:
340,261,53679,2,0,L|355:361,1,95
430,230,53965,1,0,0:0:0:0:
498,299,54156,1,0,0:0:0:0:
350,168,54347,2,0,P|306:171|251:212,1,95
209,267,54730,1,0,0:0:0:0:
185,263,54825,1,0,0:0:0:0:
162,259,54921,1,0,0:0:0:0:
138,255,55016,1,0,0:0:0:0:
114,251,55112,6,0,L|127:355,1,95
64,149,55494,1,0,0:0:0:0:
0,240,55685,1,0,0:0:0:0:
176,157,55876,1,0,0:0:0:0:
176,157,55972,1,0,0:0:0:0:
176,157,56067,1,0,0:0:0:0:
114,251,56258,1,0,0:0:0:0:
64,149,56449,1,0,0:0:0:0:
219,261,56640,5,0,0:0:0:0:
296,93,56831,1,0,0:0:0:0:
429,253,57023,5,0,0:0:0:0:
261,176,57214,1,0,0:0:0:0:
418,124,57405,2,0,P|468:116|519:102,1,95
296,93,57787,1,0,0:0:0:0:
275,87,57882,1,0,0:0:0:0:
254,81,57978,1,0,0:0:0:0:
378,22,58169,5,0,0:0:0:0:
332,202,58360,1,0,0:0:0:0:
254,81,58551,1,0,0:0:0:0:
254,81,58742,1,0,0:0:0:0:
418,124,58933,2,0,P|468:116|519:102,1,95
435,248,59316,1,0,0:0:0:0:
334,107,59507,1,0,0:0:0:0:
312,360,59698,6,0,P|262:352|211:338,1,95
70,296,60080,1,0,0:0:0:0:
129,365,60271,1,0,0:0:0:0:
226,154,60462,2,0,P|219:200|216:253,1,95
115,147,60844,1,0,0:0:0:0:
119,184,60939,1,0,0:0:0:0:
122,221,61035,1,0,0:0:0:0:
248,360,61226,6,0,B|322:381|317:333|387:347,1,142.5
472,356,61609,2,0,P|488:304|488:240,1,95
368,144,61991,2,0,P|371:191|386:236,1,95
480,64,62373,1,0,0:0:0:0:
456,176,62564,1,0,0:0:0:0:
328,40,62755,6,0,B|253:18|258:66|188:52,1,142.5
104,44,63138,2,0,P|88:96|88:160,1,95
208,256,63520,2,0,P|204:208|189:163,1,95
96,336,63902,1,0,0:0:0:0:
120,224,64093,1,0,0:0:0:0:
355,342,64284,6,0,P|287:361|216:364,1,142.5
96,336,64666,2,0,P|52:328|-16:328,1,95
156,228,65048,2,0,P|200:220|268:220,1,95
36,112,65430,1,0,0:0:0:0:
36,112,65526,1,0,0:0:0:0:
36,112,65621,1,0,0:0:0:0:
180,56,65812,6,0,P|180:124|168:208,1,142.5
250,218,66195,2,0,P|295:212|382:206,1,95
464,116,66577,2,0,P|418:110|332:104,1,95
276,40,66959,1,0,0:0:0:0:
276,40,67054,1,0,0:0:0:0:
276,40,67150,1,0,0:0:0:0:
448,212,67341,6,0,B|464:284|412:276|424:352,1,142.5
340,360,67723,2,0,P|288:360|228:344,1,95
64,272,68105,2,0,P|116:272|176:256,1,95
256,224,68488,1,0,0:0:0:0:
144,376,68679,1,0,0:0:0:0:
96,180,68870,6,0,P|72:108|76:16,1,142.5
154,1,69252,2,0,P|199:-1|258:11,1,95
340,135,69634,2,0,P|294:144|247:143,1,95
392,6,70016,1,0,0:0:0:0:
458,191,70207,1,0,0:0:0:0:
253,162,70398,6,0,P|195:163|109:197,1,128.249996086121
37,246,70781,2,0,P|31:202|21:157,1,85.4999973907472
159,371,71163,2,0,P|164:327|175:282,1,85.4999973907472
123,197,71545,1,0,0:0:0:0:
275,259,71736,2,0,L|383:249,2,85.4999973907472
397,174,72309,2,0,P|435:214|420:317,1,128.249996086121
368,340,72691,1,0,0:0:0:0:
360,251,72882,1,0,0:0:0:0:
439,284,73074,1,0,0:0:0:0:
449,282,73169,1,0,0:0:0:0:
459,280,73265,1,0,0:0:0:0:
280,380,73456,6,0,B|200:416|200:348|112:380,1,170.999994781494
192,352,74029,1,0,0:0:0:0:
100,288,74220,2,0,P|55:270|9:260,1,95
136,184,74602,1,0,0:0:0:0:
220,248,74793,1,0,0:0:0:0:
232,136,74984,6,0,P|232:112|224:80,2,47.5
220,248,75367,1,0,0:0:0:0:
347,114,75558,1,0,0:0:0:0:
366,263,75749,5,0,0:0:0:0:
232,136,75940,1,0,0:0:0:0:
273,351,76131,1,0,0:0:0:0:
358,187,76322,1,0,0:0:0:0:
148,341,76513,6,0,P|91:333|49:318,1,95
186,243,76895,1,0,0:0:0:0:
26,175,77086,1,0,0:0:0:0:
232,136,77277,2,0,P|283:125|357:122,1,95
422,179,77660,1,0,0:0:0:0:
333,10,77851,1,0,0:0:0:0:
334,231,78042,5,0,0:0:0:0:
421,76,78233,1,0,0:0:0:0:
420,279,78424,1,0,0:0:0:0:
325,121,78615,1,0,0:0:0:0:
337,340,78806,1,0,0:0:0:0:
422,179,78997,1,0,0:0:0:0:
255,286,79188,2,0,P|231:283|207:282,2,47.5
329,369,79570,6,0,P|357:306|314:195,1,190
255,286,80144,1,0,0:0:0:0:
377,113,80335,2,0,P|427:112|496:101,1,95
287,53,80717,1,0,0:0:0:0:
317,197,80908,1,0,0:0:0:0:
232,139,81099,6,0,L|138:149,1,95
12,142,81481,1,0,0:0:0:0:
74,226,81672,1,0,0:0:0:0:
80,68,81863,5,0,0:0:0:0:
173,244,82054,1,0,0:0:0:0:
12,142,82246,1,0,0:0:0:0:
173,53,82437,1,0,0:0:0:0:
106,311,82628,5,0,0:0:0:0:
94,94,82819,1,0,0:0:0:0:
157,384,83010,1,0,0:0:0:0:
173,153,83201,1,0,0:0:0:0:
0,343,83392,5,0,0:0:0:0:
198,294,83583,1,0,0:0:0:0:
32,251,83774,1,0,0:0:0:0:
157,384,83965,1,0,0:0:0:0:
188,192,84156,5,0,0:0:0:0:
86,321,84347,1,0,0:0:0:0:
246,379,84538,1,0,0:0:0:0:
140,258,84730,1,0,0:0:0:0:
300,218,84921,1,0,0:0:0:0:
246,379,85112,1,0,0:0:0:0:
195,139,85303,1,0,0:0:0:0:
195,139,85398,1,0,0:0:0:0:
195,139,85494,1,0,0:0:0:0:
316,314,85685,6,0,L|437:292,1,95
501,234,86067,2,0,P|502:189|509:136,1,95
373,174,86449,2,0,P|372:129|365:76,1,95
472,40,86831,1,0,0:0:0:0:
508,139,87023,1,0,0:0:0:0:
365,79,87214,5,0,0:0:0:0:
365,79,87309,1,0,0:0:0:0:
365,79,87405,1,0,0:0:0:0:
403,193,87596,1,0,0:0:0:0:
472,40,87787,1,0,0:0:0:0:
296,168,87978,1,0,0:0:0:0:
508,139,88169,1,0,0:0:0:0:
255,69,88360,1,0,0:0:0:0:
403,193,88551,1,0,0:0:0:0:
365,79,88742,5,0,0:0:0:0:
330,272,88933,1,0,0:0:0:0:
192,148,89124,1,0,0:0:0:0:
257,351,89316,1,0,0:0:0:0:
403,193,89507,5,0,0:0:0:0:
228,255,89698,1,0,0:0:0:0:
435,297,89889,2,0,P|457:292|493:291,2,47.5
257,351,90271,5,0,0:0:0:0:
297,171,90462,1,0,0:0:0:0:
133,264,90653,2,0,P|184:260|239:252,1,95
393,156,91035,2,0,P|341:152|287:144,1,95
178,42,91417,2,0,P|185:93|188:138,1,95
213,328,91800,1,0,0:0:0:0:
256,192,91895,12,0,93328,0:0:0:0:
500,142,93710,5,0,0:0:0:0:
438,226,93901,1,0,0:0:0:0:
432,68,94092,5,0,0:0:0:0:
339,244,94283,1,0,0:0:0:0:
500,142,94475,1,0,0:0:0:0:
339,53,94666,1,0,0:0:0:0:
406,311,94857,5,0,0:0:0:0:
418,94,95048,1,0,0:0:0:0:
355,384,95239,1,0,0:0:0:0:
339,153,95430,1,0,0:0:0:0:
512,343,95621,5,0,0:0:0:0:
314,294,95812,1,0,0:0:0:0:
480,251,96003,1,0,0:0:0:0:
355,384,96194,1,0,0:0:0:0:
324,192,96385,5,0,0:0:0:0:
426,321,96576,1,0,0:0:0:0:
266,379,96767,1,0,0:0:0:0:
372,258,96959,1,0,0:0:0:0:
212,218,97150,1,0,0:0:0:0:
266,379,97341,1,0,0:0:0:0:
317,139,97532,1,0,0:0:0:0:
317,139,97627,1,0,0:0:0:0:
317,139,97723,1,0,0:0:0:0:
196,314,97914,6,0,P|143:310|75:292,1,95
0,149,98296,2,0,P|56:153|121:171,1,95
213,244,98679,2,0,P|259:173|339:136,1,142.5
345,142,99061,6,0,P|344:196|335:253,1,95
204,338,99443,2,0,P|204:292|214:227,1,95
363,143,99825,2,0,P|357:198|360:256,1,95
184,339,100207,2,0,P|188:281|188:228,1,95
383,143,100589,5,0,0:0:0:0:
309,339,100781,1,0,0:0:0:0:
247,72,100972,5,0,0:0:0:0:
366,260,101163,1,0,0:0:0:0:
176,143,101354,5,0,0:0:0:0:
417,182,101545,1,0,0:0:0:0:
224,309,101736,5,0,0:0:0:0:
260,73,101927,1,0,0:0:0:0:
368,357,102118,5,0,0:0:0:0:
348,138,102309,1,0,0:0:0:0:
228,348,102500,5,0,0:0:0:0:
423,231,102691,1,0,0:0:0:0:
182,165,102882,5,0,0:0:0:0:
321,357,103074,1,0,0:0:0:0:
263,90,103265,5,0,0:0:0:0:
240,322,103456,1,0,0:0:0:0:
161,41,103647,6,0,P|151:104|150:153,1,95
264,274,104029,2,0,P|273:210|275:162,1,95
107,315,104411,1,0,0:0:0:0:
308,368,104602,1,0,0:0:0:0:
209,163,104793,6,0,P|119:159|52:257,1,190
44,325,105367,1,0,0:0:0:0:
244,239,105558,1,0,0:0:0:0:
119,384,105749,1,0,0:0:0:0:
330,277,105940,6,0,P|266:245|225:234,1,95
27,230,106322,2,0,P|91:198|132:187,1,95
358,92,106704,2,0,B|249:57|265:138|140:89,1,190
310,171,107277,5,0,0:0:0:0:
139,187,107468,2,0,P|86:147|79:84,1,95
166,45,107851,2,0,P|219:85|226:148,1,95
250,227,108233,2,0,P|294:241|339:229,1,95
412,47,108615,6,0,L|416:172,1,95
292,47,108997,2,0,L|289:171,1,95
402,268,109379,2,0,B|321:298|325:241|230:276,1,142.5
205,264,109761,6,0,P|204:206|187:159,1,95
62,67,110144,2,0,P|63:125|80:172,1,95
159,7,110526,1,0,0:0:0:0:
133,226,110717,1,0,0:0:0:0:
327,76,111290,6,0,P|326:123|339:168,1,95
469,273,111673,2,0,P|469:225|456:180,1,95
372,333,112055,1,0,0:0:0:0:
398,114,112246,1,0,0:0:0:0:
210,358,112819,6,0,P|203:307|185:253,1,95
153,151,113201,1,0,0:0:0:0:
123,331,113392,1,0,0:0:0:0:
234,227,113583,1,0,0:0:0:0:
67,203,113774,1,0,0:0:0:0:
356,45,114347,6,0,P|365:120|383:193,1,142.5
385,225,114730,2,0,B|308:178|252:85,1,190
156,339,115876,6,0,P|147:264|129:191,1,142.5
127,159,116258,2,0,B|204:206|260:299,1,190
416,50,117405,6,0,P|401:123|392:197,1,142.5
391,228,117787,2,0,B|372:345|266:343|190:286|237:178|237:178|152:227,1,380
96,284,118933,6,0,P|89:202|81:152,1,95
13,359,119316,1,0,0:0:0:0:
220,336,119507,1,0,0:0:0:0:
32,192,119698,1,0,0:0:0:0:
118,349,119889,1,0,0:0:0:0:
157,111,120462,6,0,P|173:174|185:258,1,142.5
197,289,120844,2,0,P|282:167|454:278,1,380
366,358,121991,6,0,P|304:335|213:323,1,142.5
196,307,122373,2,0,B|274:186|326:37|326:37|359:176|355:246|355:246|206:171|77:163,1,760
288,290,124254,1,0,0:0:0:0:
131,238,124445,1,0,0:0:0:0:
199,358,124636,1,0,0:0:0:0:
254,193,124827,1,0,0:0:0:0:
364,342,125018,1,0,0:0:0:0:
414,172,125209,1,0,0:0:0:0:
297,335,125400,5,0,0:0:0:0:
262,82,125591,1,0,0:0:0:0:
163,353,125782,5,0,0:0:0:0:
174,109,125973,1,0,0:0:0:0:
287,327,126165,5,0,0:0:0:0:
61,240,126356,1,0,0:0:0:0:
324,188,126547,1,0,0:0:0:0:
78,112,126738,5,0,0:0:0:0:
215,286,126929,1,0,0:0:0:0:
263,55,127120,1,0,0:0:0:0:
105,262,127311,5,0,0:0:0:0:
153,31,127502,1,0,0:0:0:0:
300,209,127693,1,0,0:0:0:0:
56,123,127884,5,0,0:0:0:0:
334,83,128075,2,0,P|267:111|213:158,1,142.5
197,187,128458,2,0,B|318:188|384:220|384:220|322:249|171:262,2,380
51,186,130368,6,0,P|93:145|155:96,1,95
217,49,130751,1,0,0:0:0:0:
134,272,130942,1,0,0:0:0:0:
301,122,131133,5,0,0:0:0:0:
51,186,131324,1,0,0:0:0:0:
275,271,131515,5,0,0:0:0:0:
200,19,131706,1,0,0:0:0:0:
85,272,131897,5,0,0:0:0:0:
151,19,132088,1,0,0:0:0:0:
204,275,132279,5,0,0:0:0:0:
49,51,132470,1,0,0:0:0:0:
296,204,132661,5,0,0:0:0:0:
6,163,132852,1,0,0:0:0:0:
327,114,133044,5,0,0:0:0:0:
35,164,133235,1,0,0:0:0:0:
328,271,133426,5,0,0:0:0:0:
160,31,133617,1,0,0:0:0:0:
111,315,133808,1,0,0:0:0:0:
328,100,133999,1,0,0:0:0:0:
52,167,134190,1,0,0:0:0:0:
52,167,134286,1,0,0:0:0:0:
52,167,134381,1,0,0:0:0:0:
344,182,134572,6,0,P|281:261|282:341,1,178.125
288,342,134954,2,0,P|234:373|116:362,1,178.125
121,364,135337,2,0,B|105:288|111:207|111:207|160:269|186:306|186:306|226:295|272:260,1,380
362,183,136483,5,0,0:0:0:0:
205,200,136674,1,0,0:0:0:0:
318,268,136865,5,0,0:0:0:0:
302,119,137056,1,0,0:0:0:0:
210,265,137247,1,0,0:0:0:0:
194,116,137438,1,0,0:0:0:0:
137,269,137630,5,0,0:0:0:0:
271,114,137821,1,0,0:0:0:0:
86,200,138012,5,0,0:0:0:0:
312,188,138203,1,0,0:0:0:0:
100,109,138394,5,0,0:0:0:0:
285,286,138585,1,0,0:0:0:0:
154,41,138776,5,0,0:0:0:0:
159,332,138967,1,0,0:0:0:0:
268,50,139158,1,0,0:0:0:0:
372,337,139349,1,0,0:0:0:0:
267,33,139540,6,0,B|286:110|286:110|301:200,1,142.5
306,201,139923,2,0,P|331:138|360:29,1,142.5
363,30,140305,2,0,P|393:110|414:201,1,142.5
416,199,140687,2,0,P|153:308|300:32,1,760
419,51,142598,5,0,0:0:0:0:
255,196,142789,1,0,0:0:0:0:
448,171,142980,1,0,0:0:0:0:
294,26,143171,1,0,0:0:0:0:
345,213,143362,5,0,0:0:0:0:
402,14,143553,1,0,0:0:0:0:
239,138,143744,5,0,0:0:0:0:
465,88,143935,1,0,0:0:0:0:
268,260,144126,1,0,0:0:0:0:
494,210,144317,1,0,0:0:0:0:
239,138,144508,5,0,0:0:0:0:
443,291,144700,1,0,0:0:0:0:
356,72,144891,5,0,0:0:0:0:
331,350,145082,1,0,0:0:0:0:
202,24,145273,5,0,0:0:0:0:
218,326,145464,1,0,0:0:0:0:
325,38,145655,5,0,0:0:0:0:
100,282,145846,1,0,0:0:0:0:
403,146,146037,5,0,0:0:0:0:
50,164,146228,1,0,0:0:0:0:
389,287,146419,1,0,0:0:0:0:
389,287,146515,1,0,0:0:0:0:
389,287,146610,1,0,0:0:0:0:
273,186,146801,2,0,P|374:147|473:171,1,190
