osu file format v14

[General]
AudioFilename: dudunobre.mp3
AudioLeadIn: 0
PreviewTime: 10852
Countdown: 0
SampleSet: None
StackLeniency: 0.7
Mode: 0
LetterboxInBreaks: 0
WidescreenStoryboard: 1

[Editor]
DistanceSpacing: 1.1
BeatDivisor: 4
GridSize: 32
TimelineZoom: 3.950002

[Metadata]
Title:A Grande Familia (TV Size)
TitleUnicode:A Grande Familia (TV Size)
Artist:Dudu Nobre
ArtistUnicode:Dudu Nobre
Creator:Tarrasky
Version:iMega's Jumpstyle Extra
Source:A Grande Família (2001)
Tags:iMega AlexTroIIPsy Seto_Kousuke Skull_Kid SrSkyPlayer -_Best Liena Net0 Idealism JhowM Kuron-kun Kalindraz MkGuh Blue Dragon Ataraxia Marianna jump training brazil brasil
BeatmapID:1354842
BeatmapSetID:528981

[Difficulty]
HPDrainRate:7
CircleSize:3
OverallDifficulty:8
ApproachRate:8
SliderMultiplier:2
SliderTickRate:1

[Events]
//Background and Video events
0,0,"deus perdoe essa nacao.jpg",0,0
//Break Periods
//Storyboard Layer 0 (Background)
//Storyboard Layer 1 (Fail)
//Storyboard Layer 2 (Pass)
//Storyboard Layer 3 (Foreground)
//Storyboard Sound Samples

[TimingPoints]
3011,307.692307692308,4,2,1,80,1,0
4241,300,4,2,1,80,1,0
5441,291.26213592233,4,2,1,80,1,0
5586,280.373831775701,4,2,1,80,1,0
5586,-200,4,2,1,80,0,0
6006,295.566502463054,4,2,1,80,1,0
6006,-100,4,2,1,80,0,0
6301,319.148936170213,4,2,1,80,1,0
6301,-66.6666666666667,4,2,1,80,0,0
6620,315.789473684211,4,2,1,80,1,0
6620,-50,4,2,1,80,0,0
6935,-100,4,2,1,80,0,0
7251,272.727272727273,4,2,1,80,1,0
7660,400,4,2,1,80,1,0
7860,300,4,2,1,80,1,0
8460,294.117647058824,4,2,1,80,1,0
10224,314.13612565445,4,2,1,80,1,0
11480,-200,4,2,1,80,0,0
12737,303.030303030303,4,2,1,80,1,0
18191,294.840294840295,4,2,1,80,1,0
19812,303.030303030303,4,2,1,80,1,0
19812,-50,4,2,1,80,0,0
20115,-200,4,2,1,80,0,0
20569,298.507462686567,4,2,1,80,1,0
20569,-100,4,2,1,80,0,0
21166,298.507462686567,4,2,1,80,1,0
27882,-200,4,2,1,80,0,0
28330,297.029702970297,4,2,1,80,1,1
28330,-100,4,2,1,80,0,1
33082,293.398533007335,4,2,1,80,1,1
37189,-200,4,2,1,80,0,1
37776,315.789473684211,4,2,1,80,1,1
38407,298.507462686567,4,2,1,80,1,1
39004,292.682926829268,4,2,1,80,1,1
40174,295.566502463054,4,2,1,80,1,1
41356,319.148936170213,4,2,1,80,1,0
41994,312.5,4,2,1,80,1,0
42619,319.148936170213,4,2,1,80,1,0
43895,297.029702970297,4,2,1,80,1,0

[Colours]
Combo1 : 255,32,32
Combo2 : 128,128,255
Combo3 : 132,132,0

[HitObjects]
459,185,2087,5,0,0:0:0:0:
129,287,2395,1,0,0:0:0:0:
423,319,2703,1,0,0:0:0:0:
270,133,3010,6,0,B|223:118|178:142|178:142|133:166|61:129,1,200,4|0,0:0|0:0,0:0:0:0:
142,61,3472,1,0,0:0:0:0:
316,218,3626,2,0,P|352:175|359:123,1,100
228,217,3934,1,0,0:0:0:0:
318,56,4087,1,0,0:0:0:0:
268,295,4241,6,0,B|309:331|309:331|402:330|402:330|447:289,1,200
476,209,4691,1,0,0:0:0:0:
265,296,4841,1,0,0:0:0:0:
409,136,4991,1,8,0:3:0:0:
416,86,5066,1,8,0:3:0:0:
424,37,5141,1,8,0:3:0:0:
220,150,5291,1,0,0:0:0:0:
377,255,5441,1,0,0:0:0:0:
146,67,5586,6,2,L|129:171,1,100,2|0,0:0|0:0,0:0:0:0:
102,84,6006,6,2,P|88:136|112:200,1,100,2|0,0:0|0:0,0:0:0:0:
69,111,6301,6,2,P|64:189|138:260,1,150.000005722046,2|0,0:0|0:0,0:0:0:0:
44,148,6620,6,2,P|33:242|146:297,1,200,2|0,0:0|0:0,0:0:0:0:
316,144,6935,5,0,0:0:0:0:
126,205,7093,1,0,0:0:0:0:
301,46,7251,2,0,B|339:46|339:46|403:76,2,100
258,275,7660,1,0,0:0:0:0:
477,47,7860,6,0,P|477:137|382:196,1,200
214,105,8310,1,0,0:0:0:0:
379,282,8460,6,0,P|430:293|489:294,2,100
179,203,8901,1,0,0:0:0:0:
365,99,9048,6,0,P|374:67|371:18,2,66.6666666666667
147,99,9342,2,0,P|138:67|141:18,2,66.6666666666667
92,308,9636,5,0,0:0:0:0:
151,336,9734,1,0,0:0:0:0:
218,337,9832,1,0,0:0:0:0:
286,280,9930,1,0,0:0:0:0:
349,263,10028,1,0,0:0:0:0:
413,278,10126,1,0,0:0:0:0:
495,348,10224,5,4,0:3:0:0:
466,126,11480,6,0,B|396:150|323:112|323:112|299:186|220:219,1,300
192,198,12737,6,0,P|156:192|82:209,1,100,4|0,0:0|0:0,0:0:0:0:
72,298,13040,1,0,0:0:0:0:
206,82,13191,1,0,0:0:0:0:
385,231,13343,2,0,L|369:338,2,100
414,51,13797,1,0,0:0:0:0:
322,95,13949,6,0,P|412:142|507:105,1,200
288,238,14403,1,0,0:0:0:0:
190,62,14555,2,0,P|132:60|88:82,1,100
46,157,14858,1,0,0:0:0:0:
232,156,15009,1,0,0:0:0:0:
106,334,15161,6,0,L|100:224,2,100
385,322,15615,1,0,0:0:0:0:
196,242,15767,1,0,0:0:0:0:
265,336,15918,1,0,0:0:0:0:
418,133,16070,2,0,P|439:179|438:246,1,100
185,84,16373,5,0,0:0:0:0:
385,51,16524,1,0,0:0:0:0:
100,33,16676,5,0,0:0:0:0:
316,119,16827,1,0,0:0:0:0:
100,193,16979,1,0,0:0:0:0:
254,25,17130,1,0,0:0:0:0:
294,306,17282,2,0,L|307:195,1,100
117,323,17585,5,0,0:0:0:0:
392,271,17737,1,0,0:0:0:0:
305,206,17888,1,0,0:0:0:0:
293,306,18040,1,0,0:0:0:0:
176,89,18191,5,0,0:0:0:0:
201,274,18338,1,8,0:3:0:0:
201,274,18412,1,8,0:3:0:0:
201,274,18485,1,8,0:3:0:0:
274,46,18633,1,0,0:0:0:0:
226,359,18780,1,0,0:0:0:0:
114,184,18928,6,0,P|83:182|51:193,1,50
398,184,19222,2,0,P|429:182|461:193,1,50
159,61,19517,2,0,P|136:56|92:66,1,50
353,61,19812,6,0,P|376:56|431:133,1,100
179,299,20115,6,0,L|114:302,1,50
259,188,20418,5,0,0:0:0:0:
425,271,20569,2,0,P|421:309|386:368,1,100
365,182,20867,1,0,0:0:0:0:
325,269,21016,1,0,0:0:0:0:
271,97,21166,6,0,B|174:100|186:187|78:173,1,200
108,79,21613,1,0,0:0:0:0:
48,356,21763,2,0,L|38:247,1,100
259,188,22061,1,0,0:0:0:0:
19,114,22210,1,0,0:0:0:0:
206,283,22360,6,0,P|262:300|305:288,1,100
404,97,22658,1,0,0:0:0:0:
478,229,22807,1,0,0:0:0:0:
307,114,22957,5,0,0:0:0:0:
389,303,23106,1,0,0:0:0:0:
208,113,23255,5,0,0:0:0:0:
283,355,23404,1,0,0:0:0:0:
131,218,23554,6,0,P|106:280|117:324,1,100
353,200,23852,1,0,0:0:0:0:
113,96,24001,1,0,0:0:0:0:
297,272,24151,2,0,L|189:281,1,100
111,310,24449,1,0,0:0:0:0:
260,191,24598,1,0,0:0:0:0:
410,322,24748,6,0,B|472:298|463:233|463:233|438:180|470:138,1,200
327,38,25195,1,0,0:0:0:0:
180,153,25345,2,0,P|176:213|197:249,2,100
295,327,25792,1,0,0:0:0:0:
77,125,25942,6,0,P|110:83|257:85,1,200
308,156,26389,1,0,0:0:0:0:
94,332,26539,1,0,0:0:0:0:
26,237,26688,1,2,0:3:0:0:
26,237,26763,1,2,0:3:0:0:
26,237,26837,1,2,0:3:0:0:
165,205,26986,1,0,0:3:0:0:
26,237,27136,5,2,0:0:0:0:
425,289,27434,1,2,0:0:0:0:
366,69,27882,6,0,P|403:64|440:75,2,50,0|0|0,0:2|0:2|0:2,0:2:0:0:
213,339,28330,5,4,0:3:0:0:
213,339,28478,1,2,0:0:0:0:
298,146,28627,1,0,0:0:0:0:
298,146,28775,1,2,0:0:0:0:
116,252,28924,1,4,0:3:0:0:
116,252,29072,1,0,0:0:0:0:
325,274,29221,1,8,0:3:0:0:
325,274,29369,1,0,0:0:0:0:
169,133,29518,1,8,0:3:0:0:
169,133,29666,1,2,0:0:0:0:
425,64,29815,6,0,L|416:193,2,100,0|2|4,0:0|0:0|0:3,0:0:0:0:
231,42,30260,1,0,0:0:0:0:
434,273,30409,1,8,0:3:0:0:
434,273,30557,1,0,0:0:0:0:
218,224,30706,5,4,0:3:0:0:
218,224,30854,1,2,0:0:0:0:
350,344,31003,2,0,P|302:358|239:349,1,100,0|2,0:0|0:0,0:0:0:0:
331,141,31300,1,8,0:3:0:0:
253,354,31448,1,0,0:0:0:0:
123,147,31597,1,0,0:0:0:0:
351,232,31745,1,0,0:0:0:0:
63,315,31894,5,8,0:3:0:0:
211,44,32042,2,0,L|229:148,1,100,0|0,1:0|0:0,0:0:0:0:
63,315,32339,1,0,1:0:0:0:
256,63,32488,2,0,L|246:168,1,100,2|0,1:3|0:0,0:0:0:0:
223,292,32785,5,0,0:0:0:0:
446,185,32933,1,0,0:0:0:0:
123,222,33082,5,4,0:3:0:0:
123,222,33228,1,2,0:0:0:0:
369,124,33375,1,0,0:0:0:0:
369,124,33522,1,2,0:0:0:0:
23,113,33669,5,4,0:3:0:0:
23,113,33815,1,0,0:0:0:0:
327,31,33961,1,4,0:3:0:0:
327,31,34108,1,0,0:0:0:0:
110,320,34255,6,0,P|110:275|128:209,1,100,8|2,0:3|0:0,0:0:0:0:
197,85,34548,1,0,0:0:0:0:
123,222,34695,1,2,0:0:0:0:
197,85,34842,1,8,0:3:0:0:
123,222,34989,1,0,0:0:0:0:
88,44,35135,5,4,0:3:0:0:
237,270,35282,1,0,0:0:0:0:
88,44,35429,1,4,0:3:0:0:
237,270,35575,1,2,0:0:0:0:
385,116,35722,5,0,0:0:0:0:
43,179,35869,1,2,0:0:0:0:
385,116,36015,1,8,0:3:0:0:
43,179,36162,1,2,0:0:0:0:
454,286,36309,5,0,0:0:0:0:
283,42,36456,1,2,0:0:0:0:
0,265,36602,5,4,0:3:0:0:
511,160,36896,1,4,0:3:0:0:
183,338,37336,6,0,P|154:351|120:349,2,50
400,137,37776,6,0,L|405:347,1,200,4|0,0:3|0:0,0:0:0:0:
326,49,38249,1,2,0:0:0:0:
123,255,38407,6,0,P|62:200|103:66,1,200,4|0,0:3|0:0,0:0:0:0:
437,42,38854,1,2,0:0:0:0:
266,154,39004,2,0,L|145:157,1,100,4|0,0:3|0:3,0:0:0:0:
214,47,39296,5,0,0:0:0:0:
247,261,39443,1,0,0:0:0:0:
214,47,39589,1,4,0:3:0:0:
247,261,39736,1,0,0:0:0:0:
71,37,39882,5,0,0:0:0:0:
51,325,40028,1,0,0:0:0:0:
71,37,40174,1,8,0:3:0:0:
51,325,40320,1,0,0:0:0:0:
390,91,40469,5,0,0:0:0:0:
54,144,40617,1,0,0:0:0:0:
390,91,40765,1,8,0:3:0:0:
54,144,40913,1,0,0:0:0:0:
448,308,41060,5,0,0:0:0:0:
220,51,41208,1,0,0:0:0:0:
448,308,41356,1,8,0:3:0:0:
328,182,41994,6,0,B|254:151|204:205|204:205|104:176|48:281,1,300,2|0,0:0|0:0,0:0:0:0:
367,269,42619,2,0,P|413:226|423:184,1,100,2|0,0:0|0:0,0:0:0:0:
169,46,42938,1,0,0:0:0:0:
161,306,43097,1,0,0:0:0:0:
384,94,43257,6,0,L|499:81,1,100
271,296,43576,1,0,0:0:0:0:
477,344,43736,1,0,0:0:0:0:
343,184,43895,5,2,0:1:0:0:
199,153,44043,1,2,0:1:0:0:
473,171,44340,5,2,0:1:0:0:
95,230,44488,1,2,0:1:0:0:
