osu file format v14

[General]
AudioFilename: dudunobre.mp3
AudioLeadIn: 0
PreviewTime: 10852
Countdown: 0
SampleSet: Normal
StackLeniency: 0.7
Mode: 1
LetterboxInBreaks: 0
WidescreenStoryboard: 1

[Editor]
DistanceSpacing: 0.4
BeatDivisor: 4
GridSize: 32
TimelineZoom: 2

[Metadata]
Title:A Grande Familia (TV Size)
TitleUnicode:A Grande Familia (TV Size)
Artist:Dudu Nobre
ArtistUnicode:Dudu Nobre
Creator:Tarrasky
Version:Skull Kid's United Family
Source:A Grande Família (2001)
Tags:iMega AlexTroIIPsy Seto_Kousuke Skull_Kid SrSkyPlayer -_Best Liena Net0 Idealism JhowM Kuron-kun Kalindraz MkGuh Blue Dragon Ataraxia Marianna jump training brazil brasil
BeatmapID:1354780
BeatmapSetID:528981

[Difficulty]
HPDrainRate:6
CircleSize:4
OverallDifficulty:6
ApproachRate:9
SliderMultiplier:1.4
SliderTickRate:1

[Events]
//Background and Video events
0,0,"10.jpg",0,0
//Break Periods
//Storyboard Layer 0 (Background)
//Storyboard Layer 1 (Fail)
//Storyboard Layer 2 (Pass)
//Storyboard Layer 3 (Foreground)
//Storyboard Sound Samples

[TimingPoints]
3011,307.692307692308,4,1,0,75,1,0
3011,-97.5,4,1,0,75,0,0
4241,300,4,1,0,75,1,0
5441,291.26213592233,4,1,0,75,1,0
5441,-103,4,1,0,75,0,0
5586,280.373831775701,4,1,0,75,1,8
5586,-107,4,1,0,75,0,0
6006,295.566502463054,4,1,0,75,1,8
6006,-101.5,4,1,0,75,0,0
6301,319.148936170213,4,1,0,75,1,8
6301,-94,4,1,0,75,0,0
6620,315.789473684211,4,1,0,75,1,0
6620,-95,4,1,0,75,0,0
7251,272.727272727273,4,1,0,75,1,8
7251,-110,4,1,0,75,0,0
7660,400,4,1,0,75,1,8
7660,-75,4,1,0,75,0,0
7860,300,4,1,0,75,1,0
7860,-100,4,1,0,75,0,0
8460,294.117647058824,4,1,0,75,1,8
8460,-102,4,1,0,75,0,0
9048,294.117647058824,4,1,0,75,1,0
9048,-102.040816326531,4,1,0,75,0,0
10224,314.13612565445,4,1,0,75,1,0
10224,-95.5,4,1,0,75,0,0
12737,303.030303030303,4,1,0,75,1,0
12737,-99.009900990099,4,1,0,75,0,0
18191,294.840294840295,4,1,0,75,1,8
18191,-101.75,4,1,0,75,0,0
18780,294.840294840295,4,1,0,75,1,0
18780,-102.040816326531,4,1,0,75,0,0
19812,303.030303030303,4,1,0,75,1,8
19812,-99.009900990099,4,1,0,75,0,0
19963,303.030303030303,4,1,0,75,1,0
19963,-99.009900990099,4,1,0,75,0,0
20569,298.507462686567,4,1,0,75,1,8
20569,-101.010101010101,4,1,0,75,0,0
21166,298.507462686567,4,1,0,75,1,0
21166,-101.010101010101,4,1,0,75,0,0
28330,297.029702970297,4,1,0,75,1,1
28330,-101.010101010101,4,1,0,75,0,1
33082,293.398533007335,4,1,0,75,1,1
33082,-102.25,4,1,0,75,0,1
36602,-102.25,4,1,0,75,0,0
37776,315.789473684211,4,1,0,75,1,1
37776,-95,4,1,0,75,0,1
38407,298.507462686567,4,1,0,75,1,9
38407,-100,4,1,0,75,0,1
39004,292.682926829268,4,1,0,75,1,1
39004,-102.5,4,1,0,75,0,1
40174,295.566502463054,4,1,0,75,1,1
40174,-101.5,4,1,0,75,0,1
41356,319.148936170213,4,1,0,75,1,0
41356,-94,4,1,0,75,0,0
41994,312.5,4,1,0,75,1,8
41994,-96,4,1,0,75,0,0
42619,319.148936170213,4,1,0,75,1,0
42619,-94,4,1,0,75,0,0
43895,315.789473684211,4,1,0,75,1,0
43895,-95,4,1,0,75,0,0
44052,279.06976744186,4,1,0,75,1,8
44052,-107.5,4,1,0,75,0,0
44324,324.324324324324,4,1,0,75,1,8
44324,-92.5,4,1,0,75,0,0

[HitObjects]
256,192,2087,5,0,0:0:0:0:
256,192,2395,1,0,0:0:0:0:
256,192,2703,1,0,0:0:0:0:
256,192,3010,1,12,0:0:0:0:
256,192,3241,1,0,0:0:0:0:
256,192,3318,1,0,0:0:0:0:
256,192,3472,1,0,0:0:0:0:
256,192,3626,1,8,0:0:0:0:
256,192,3780,1,0,0:0:0:0:
256,192,3857,1,0,0:0:0:0:
256,192,3934,1,0,0:0:0:0:
256,192,4087,1,0,0:0:0:0:
256,192,4241,1,12,0:0:0:0:
256,192,4391,1,0,0:0:0:0:
256,192,4541,1,0,0:0:0:0:
256,192,4691,1,8,0:0:0:0:
256,192,4766,1,0,0:0:0:0:
256,192,4841,1,8,0:0:0:0:
256,192,4991,1,0,0:0:0:0:
256,192,5066,1,0,0:0:0:0:
256,192,5141,1,8,0:0:0:0:
256,192,5291,1,8,0:0:0:0:
256,192,5441,1,0,0:0:0:0:
256,192,5586,1,12,0:0:0:0:
256,192,5866,1,0,0:0:0:0:
256,192,6006,1,12,0:0:0:0:
256,192,6301,1,4,0:0:0:0:
256,192,6620,1,12,0:0:0:0:
256,192,6856,1,0,0:0:0:0:
256,192,6935,1,0,0:0:0:0:
256,192,7093,1,0,0:0:0:0:
256,192,7251,1,8,0:0:0:0:
256,192,7387,1,0,0:0:0:0:
256,192,7523,1,0,0:0:0:0:
256,192,7660,1,8,0:0:0:0:
256,192,8010,1,8,0:0:0:0:
256,192,8160,1,0,0:0:0:0:
256,192,8310,1,0,0:0:0:0:
256,192,8385,1,0,0:0:0:0:
256,192,8460,1,8,0:0:0:0:
256,192,8607,1,0,0:0:0:0:
256,192,8754,1,8,0:0:0:0:
256,192,8827,1,8,0:0:0:0:
256,192,8901,1,0,0:0:0:0:
256,192,8974,1,0,0:0:0:0:
256,192,9048,1,8,0:0:0:0:
256,192,9146,1,8,0:0:0:0:
256,192,9244,1,8,0:0:0:0:
256,192,9342,1,8,0:0:0:0:
256,192,9440,1,8,0:0:0:0:
256,192,9538,1,8,0:0:0:0:
256,192,9636,1,0,0:0:0:0:
256,192,9734,1,0,0:0:0:0:
256,192,9832,1,0,0:0:0:0:
256,192,9930,1,0,0:0:0:0:
256,192,10028,1,0,0:0:0:0:
256,192,10126,1,0,0:0:0:0:
256,192,10224,1,8,0:0:0:0:
256,192,11480,12,0,12422,0:0:0:0:
256,192,12737,5,4,0:0:0:0:
256,192,12964,1,0,0:0:0:0:
256,192,13040,1,0,0:0:0:0:
256,192,13191,1,0,0:0:0:0:
256,192,13343,1,8,0:0:0:0:
256,192,13494,1,0,0:0:0:0:
256,192,13646,1,0,0:0:0:0:
256,192,13797,1,0,0:0:0:0:
256,192,13949,1,8,0:0:0:0:
256,192,14176,1,0,0:0:0:0:
256,192,14252,1,0,0:0:0:0:
256,192,14403,1,0,0:0:0:0:
256,192,14555,1,8,0:0:0:0:
256,192,14706,1,0,0:0:0:0:
256,192,14782,1,0,0:0:0:0:
256,192,14858,1,0,0:0:0:0:
256,192,15009,1,0,0:0:0:0:
256,192,15161,1,8,0:0:0:0:
256,192,15388,1,0,0:0:0:0:
256,192,15464,1,0,0:0:0:0:
256,192,15615,1,0,0:0:0:0:
256,192,15767,1,8,0:0:0:0:
256,192,15918,1,0,0:0:0:0:
256,192,16070,1,0,0:0:0:0:
256,192,16221,1,0,0:0:0:0:
256,192,16373,1,8,0:0:0:0:
256,192,16600,1,0,0:0:0:0:
256,192,16676,1,0,0:0:0:0:
256,192,16827,1,0,0:0:0:0:
256,192,16979,1,8,0:0:0:0:
256,192,17055,1,8,0:0:0:0:
256,192,17130,1,0,0:0:0:0:
256,192,17206,1,0,0:0:0:0:
256,192,17282,1,8,0:0:0:0:
256,192,17433,1,8,0:0:0:0:
256,192,17585,1,0,0:0:0:0:
256,192,17737,1,8,0:0:0:0:
256,192,17812,1,8,0:0:0:0:
256,192,17888,1,0,0:0:0:0:
256,192,18040,1,8,0:0:0:0:
256,192,18191,1,0,0:0:0:0:
256,192,18338,1,8,0:0:0:0:
256,192,18412,1,0,0:0:0:0:
256,192,18485,1,8,0:0:0:0:
256,192,18633,1,8,0:0:0:0:
256,192,18780,1,0,0:0:0:0:
256,192,18927,1,12,0:0:0:0:
256,192,19222,1,12,0:0:0:0:
256,192,19517,1,12,0:0:0:0:
256,192,19812,1,12,0:0:0:0:
256,192,19963,1,0,0:0:0:0:
256,192,20190,1,0,0:0:0:0:
256,192,20266,1,0,0:0:0:0:
256,192,20417,1,0,0:0:0:0:
256,192,20569,1,8,0:0:0:0:
256,192,20718,1,0,0:0:0:0:
256,192,20867,1,0,0:0:0:0:
256,192,21016,1,0,0:0:0:0:
256,192,21166,1,8,0:0:0:0:
256,192,21389,1,0,0:0:0:0:
256,192,21464,1,0,0:0:0:0:
256,192,21613,1,0,0:0:0:0:
256,192,21763,1,8,0:0:0:0:
256,192,21912,1,0,0:0:0:0:
256,192,21986,1,0,0:0:0:0:
256,192,22061,1,0,0:0:0:0:
256,192,22210,1,0,0:0:0:0:
256,192,22360,1,8,0:0:0:0:
256,192,22583,1,0,0:0:0:0:
256,192,22658,1,0,0:0:0:0:
256,192,22807,1,0,0:0:0:0:
256,192,22957,1,8,0:0:0:0:
256,192,23106,1,0,0:0:0:0:
256,192,23255,1,0,0:0:0:0:
256,192,23404,1,0,0:0:0:0:
256,192,23554,1,8,0:0:0:0:
256,192,23777,1,0,0:0:0:0:
256,192,23852,1,0,0:0:0:0:
256,192,24001,1,0,0:0:0:0:
256,192,24151,1,8,0:0:0:0:
256,192,24225,1,8,0:0:0:0:
256,192,24300,1,0,0:0:0:0:
256,192,24374,1,0,0:0:0:0:
256,192,24449,1,8,0:0:0:0:
256,192,24598,1,8,0:0:0:0:
256,192,24748,1,0,0:0:0:0:
256,192,24897,1,8,0:0:0:0:
256,192,24971,1,8,0:0:0:0:
256,192,25046,1,0,0:0:0:0:
256,192,25195,1,8,0:0:0:0:
256,192,25345,1,0,0:0:0:0:
256,192,25419,1,0,0:0:0:0:
256,192,25494,1,8,0:0:0:0:
256,192,25568,1,8,0:0:0:0:
256,192,25643,1,0,0:0:0:0:
256,192,25792,1,8,0:0:0:0:
256,192,25942,1,0,0:0:0:0:
256,192,26091,1,8,0:0:0:0:
256,192,26165,1,8,0:0:0:0:
256,192,26240,1,8,0:0:0:0:
256,192,26389,1,0,0:0:0:0:
256,192,26688,1,0,0:0:0:0:
256,192,26837,1,8,0:0:0:0:
256,192,26986,1,8,0:0:0:0:
256,192,27136,1,4,0:0:0:0:
256,192,27434,1,4,0:0:0:0:
256,192,28330,1,4,0:0:0:0:
256,192,28478,1,8,0:0:0:0:
256,192,28552,1,8,0:0:0:0:
256,192,28627,1,0,0:0:0:0:
256,192,28775,1,8,0:0:0:0:
256,192,28924,1,0,0:0:0:0:
256,192,28998,1,0,0:0:0:0:
256,192,29072,1,8,0:0:0:0:
256,192,29146,1,8,0:0:0:0:
256,192,29221,1,0,0:0:0:0:
256,192,29369,1,8,0:0:0:0:
256,192,29518,1,0,0:0:0:0:
256,192,29666,1,8,0:0:0:0:
256,192,29740,1,8,0:0:0:0:
256,192,29815,1,0,0:0:0:0:
256,192,29963,1,8,0:0:0:0:
256,192,30112,1,0,0:0:0:0:
256,192,30186,1,0,0:0:0:0:
256,192,30260,1,8,0:0:0:0:
256,192,30334,1,0,0:0:0:0:
256,192,30409,1,8,0:0:0:0:
256,192,30483,1,8,0:0:0:0:
256,192,30557,1,8,0:0:0:0:
256,192,30631,1,8,0:0:0:0:
256,192,30706,1,0,0:0:0:0:
256,192,30854,1,0,0:0:0:0:
256,192,31003,1,8,0:0:0:0:
256,192,31151,1,0,0:0:0:0:
256,192,31226,1,0,0:0:0:0:
256,192,31300,1,0,0:0:0:0:
256,192,31448,1,0,0:0:0:0:
256,192,31597,1,8,0:0:0:0:
256,192,31671,1,8,0:0:0:0:
256,192,31745,1,0,0:0:0:0:
256,192,31820,1,0,0:0:0:0:
256,192,31894,1,8,0:0:0:0:
256,192,32042,1,0,0:0:0:0:
256,192,32191,1,0,0:0:0:0:
256,192,32339,1,8,0:0:0:0:
256,192,32414,1,0,0:0:0:0:
256,192,32488,1,8,0:0:0:0:
256,192,32636,1,0,0:0:0:0:
256,192,32711,1,0,0:0:0:0:
256,192,32785,1,8,0:0:0:0:
256,192,32859,1,0,0:0:0:0:
256,192,32933,1,8,0:0:0:0:
256,192,33008,1,8,0:0:0:0:
256,192,33082,1,0,0:0:0:0:
256,192,33228,1,8,0:0:0:0:
256,192,33302,1,8,0:0:0:0:
256,192,33375,1,0,0:0:0:0:
256,192,33522,1,8,0:0:0:0:
256,192,33668,1,0,0:0:0:0:
256,192,33742,1,0,0:0:0:0:
256,192,33815,1,8,0:0:0:0:
256,192,33888,1,8,0:0:0:0:
256,192,33962,1,0,0:0:0:0:
256,192,34108,1,8,0:0:0:0:
256,192,34255,1,0,0:0:0:0:
256,192,34402,1,8,0:0:0:0:
256,192,34475,1,8,0:0:0:0:
256,192,34548,1,0,0:0:0:0:
256,192,34695,1,8,0:0:0:0:
256,192,34769,1,8,0:0:0:0:
256,192,34842,1,0,0:0:0:0:
256,192,34915,1,0,0:0:0:0:
256,192,34989,1,8,0:0:0:0:
256,192,35062,1,0,0:0:0:0:
256,192,35135,1,8,0:0:0:0:
256,192,35209,1,8,0:0:0:0:
256,192,35282,1,8,0:0:0:0:
256,192,35355,1,8,0:0:0:0:
256,192,35429,1,0,0:0:0:0:
256,192,35575,1,0,0:0:0:0:
256,192,35722,1,8,0:0:0:0:
256,192,35869,1,0,0:0:0:0:
256,192,35942,1,0,0:0:0:0:
256,192,36015,1,0,0:0:0:0:
256,192,36162,1,0,0:0:0:0:
256,192,36236,1,0,0:0:0:0:
256,192,36309,1,8,0:0:0:0:
256,192,36382,1,0,0:0:0:0:
256,192,36456,1,8,0:0:0:0:
256,192,36529,1,8,0:0:0:0:
256,192,36602,1,4,0:0:0:0:
256,192,36896,1,4,0:0:0:0:
256,192,37776,1,4,0:0:0:0:
256,192,37933,1,8,0:0:0:0:
256,192,38012,1,0,0:0:0:0:
256,192,38091,1,8,0:0:0:0:
256,192,38249,1,8,0:0:0:0:
256,192,38407,1,4,0:0:0:0:
256,192,38556,1,8,0:0:0:0:
256,192,38630,1,0,0:0:0:0:
256,192,38705,1,8,0:0:0:0:
256,192,38854,1,8,0:0:0:0:
256,192,39004,1,4,0:0:0:0:
256,192,39150,1,8,0:0:0:0:
256,192,39223,1,0,0:0:0:0:
256,192,39296,1,8,0:0:0:0:
256,192,39443,1,0,0:0:0:0:
256,192,39589,1,8,0:0:0:0:
256,192,39662,1,8,0:0:0:0:
256,192,39735,1,0,0:0:0:0:
256,192,39808,1,0,0:0:0:0:
256,192,39882,1,8,0:0:0:0:
256,192,40028,1,0,0:0:0:0:
256,192,40174,1,8,0:0:0:0:
256,192,40321,1,8,0:0:0:0:
256,192,40395,1,8,0:0:0:0:
256,192,40469,1,0,0:0:0:0:
256,192,40617,1,0,0:0:0:0:
256,192,40765,1,8,0:0:0:0:
256,192,40839,1,8,0:0:0:0:
256,192,40912,1,0,0:0:0:0:
256,192,40986,1,0,0:0:0:0:
256,192,41060,1,8,0:0:0:0:
256,192,41208,1,8,0:0:0:0:
256,192,41356,1,4,0:0:0:0:
256,192,41994,1,12,0:0:0:0:
256,192,42619,1,12,0:0:0:0:
256,192,42778,1,0,0:0:0:0:
256,192,42938,1,0,0:0:0:0:
256,192,43097,1,0,0:0:0:0:
256,192,43257,1,12,0:0:0:0:
256,192,43416,1,0,0:0:0:0:
256,192,43576,1,8,0:0:0:0:
256,192,43736,1,8,0:0:0:0:
256,192,43895,1,4,0:0:0:0:
256,192,44052,1,4,0:0:0:0:
256,192,44324,1,4,0:0:0:0:
256,192,44486,1,12,0:0:0:0:
