osu file format v14

[General]
AudioFilename: dudunobre.mp3
AudioLeadIn: 0
PreviewTime: 10852
Countdown: 0
SampleSet: Soft
StackLeniency: 0.7
Mode: 1
LetterboxInBreaks: 0
WidescreenStoryboard: 0

[Editor]
Bookmarks: 39882
DistanceSpacing: 1.6
BeatDivisor: 4
GridSize: 4
TimelineZoom: 2.599999

[Metadata]
Title:A Grande Familia (TV Size)
TitleUnicode:A Grande Familia (TV Size)
Artist:Dudu Nobre
ArtistUnicode:Dudu Nobre
Creator:Tarrasky
Version:Idealism's Hi-Speed Brazilian Oni
Source:A Grande Família (2001)
Tags:iMega AlexTroIIPsy Seto_Kousuke Skull_Kid SrSkyPlayer -_Best Liena Net0 Idealism JhowM Kuron-kun Kalindraz MkGuh Blue Dragon Ataraxia Marianna jump training brazil brasil
BeatmapID:1354226
BeatmapSetID:528981

[Difficulty]
HPDrainRate:6
CircleSize:2
OverallDifficulty:6
ApproachRate:10
SliderMultiplier:1.4
SliderTickRate:1

[Events]
//Background and Video events
0,0,"povo dos triplex.jpg",0,0
//Break Periods
//Storyboard Layer 0 (Background)
//Storyboard Layer 1 (Fail)
//Storyboard Layer 2 (Pass)
//Storyboard Layer 3 (Foreground)
//Storyboard Sound Samples

[TimingPoints]
3011,307.692307692308,4,2,1,60,1,0
3011,-62.5,4,2,1,60,0,0
4241,300,4,2,1,60,1,0
4241,-62.5,4,2,1,60,0,0
5441,291.26213592233,4,2,1,60,1,0
5441,-43.4782608695652,4,2,1,60,0,0
5586,280.373831775701,4,2,1,60,1,0
5586,-43.4782608695652,4,2,1,60,0,0
6006,295.566502463054,4,2,1,60,1,0
6006,-43.4782608695652,4,2,1,60,0,0
6301,319.148936170213,4,2,1,60,1,0
6301,-43.4782608695652,4,2,1,60,0,0
6620,315.789473684211,4,2,1,60,1,0
6620,-43.4782608695652,4,2,1,60,0,0
6777,-62.5,4,2,1,60,0,0
7251,272.727272727273,4,2,1,60,1,0
7251,-62.5,4,2,1,60,0,0
7660,400,4,2,1,60,1,8
7660,-45.4545454545455,4,2,1,60,0,0
7860,300,4,2,1,60,1,8
7860,-62.5,4,2,1,60,0,8
8460,294.117647058824,4,2,1,60,1,0
8460,-62.5,4,2,1,60,0,0
9048,-50,4,2,1,60,0,0
10224,314.13612565445,4,2,1,60,1,0
10224,-43.4782608695652,4,2,1,60,0,0
12737,303.030303030303,4,2,1,60,1,0
12737,-62.5,4,2,1,60,0,0
13949,-50,4,2,1,60,0,0
15312,-62.5,4,2,1,60,0,0
16373,-50,4,2,1,60,0,0
17737,-62.5,4,2,1,60,0,0
18191,294.840294840295,4,2,1,60,1,0
18191,-50,4,2,1,60,0,0
18928,-43.4782608695652,4,2,1,60,0,0
19222,-43.4782608695652,4,2,1,60,0,0
19517,-43.4782608695652,4,2,1,60,0,0
19812,303.030303030303,4,2,1,60,1,0
19812,-62.5,4,2,1,60,0,0
20418,-62.5,4,2,1,60,0,0
20569,298.507462686567,4,2,1,60,1,0
20569,-62.5,4,2,1,60,0,0
21166,298.507462686567,4,2,1,60,1,0
21166,-62.5,4,2,1,60,0,0
27136,-43.4782608695652,4,2,1,60,0,0
27434,-43.4782608695652,4,2,1,60,0,0
28330,297.029702970297,4,2,1,60,1,1
28330,-55.5555555555556,4,2,1,60,0,1
32042,-55.5555555555556,4,2,1,60,0,1
32339,-55.5555555555556,4,2,1,60,0,1
33082,293.398533007335,4,2,1,60,1,1
33082,-55.5555555555556,4,2,1,60,0,1
36602,-43.4782608695652,4,2,1,60,0,1
36896,-43.4782608695652,4,2,1,60,0,1
37336,-55.5555555555556,4,2,1,60,0,1
37776,315.789473684211,4,2,1,60,1,1
37776,-55.5555555555556,4,2,1,60,0,1
38407,298.507462686567,4,2,1,60,1,1
38407,-55.5555555555556,4,2,1,60,0,1
39004,292.682926829268,4,2,1,60,1,1
39004,-55.5555555555556,4,2,1,60,0,1
40174,295.566502463054,4,2,1,60,1,1
40174,-55.5555555555556,4,2,1,60,0,1
41356,319.148936170213,4,2,1,60,1,0
41356,-55.5555555555556,4,2,1,60,0,0
41994,312.5,4,2,1,60,1,0
41994,-62.5,4,2,1,60,0,0
42619,319.148936170213,4,2,1,60,1,0
43895,315.789473684211,4,2,1,60,1,0
43895,-43.4782608695652,4,2,1,60,0,0
44052,279.06976744186,4,2,1,60,1,0
44052,-43.4782608695652,4,2,1,60,0,0
44324,324.324324324324,4,2,1,60,1,0
44324,-43.4782608695652,4,2,1,60,0,0

[Colours]
Combo1 : 172,172,172
Combo2 : 220,57,29

[HitObjects]
256,192,2085,5,0,0:0:0:0:
256,192,2393,1,0,0:0:0:0:
256,192,2701,1,0,0:0:0:0:
256,188,3009,1,8,0:0:0:0:
256,188,3164,1,0,0:0:0:0:
256,188,3241,1,0,0:0:0:0:
256,192,3318,1,0,0:0:0:0:
256,192,3472,1,0,0:0:0:0:
256,192,3626,1,8,0:0:0:0:
248,192,3934,1,0,0:0:0:0:
248,192,4241,1,8,0:0:0:0:
248,192,4391,1,0,0:0:0:0:
248,192,4466,1,0,0:0:0:0:
248,192,4541,1,0,0:0:0:0:
248,192,4691,1,8,0:0:0:0:
248,192,4841,1,8,0:0:0:0:
248,192,4991,1,0,0:0:0:0:
248,192,5066,1,0,0:0:0:0:
248,192,5141,1,0,0:0:0:0:
248,192,5291,1,0,0:0:0:0:
248,192,5441,1,0,0:0:0:0:
248,192,5586,1,8,0:0:0:0:
248,188,6006,1,8,0:0:0:0:
248,188,6301,1,8,0:0:0:0:
248,188,6620,1,8,0:0:0:0:
248,188,6777,1,0,0:0:0:0:
248,188,6856,1,0,0:0:0:0:
248,188,6935,1,0,0:0:0:0:
248,188,7093,1,8,0:0:0:0:
248,188,7251,1,0,0:0:0:0:
248,188,7387,1,8,0:0:0:0:
248,188,7523,1,0,0:0:0:0:
248,188,7660,1,0,0:0:0:0:
248,188,7760,1,0,0:0:0:0:
248,188,7860,1,0,0:0:0:0:
248,188,8010,1,8,0:0:0:0:
248,188,8160,1,0,0:0:0:0:
248,188,8310,1,8,0:0:0:0:
248,188,8460,1,0,0:0:0:0:
248,188,8607,1,0,0:0:0:0:
248,188,8754,1,8,0:0:0:0:
248,188,8901,1,0,0:0:0:0:
248,188,9048,1,0,0:0:0:0:
248,188,9146,1,0,0:0:0:0:
248,188,9244,1,0,0:0:0:0:
248,188,9342,1,0,0:0:0:0:
248,188,9440,1,0,0:0:0:0:
248,188,9538,1,0,0:0:0:0:
248,188,9636,1,0,0:0:0:0:
248,188,9734,1,0,0:0:0:0:
248,188,9832,1,0,0:0:0:0:
248,188,9930,1,0,0:0:0:0:
248,188,10028,1,0,0:0:0:0:
248,188,10126,1,0,0:0:0:0:
248,188,10224,1,12,0:0:0:0:
256,192,11480,12,0,12422,0:0:0:0:
256,192,12737,5,8,0:0:0:0:
256,192,12888,1,0,0:0:0:0:
256,192,13040,1,0,0:0:0:0:
256,192,13191,1,8,0:0:0:0:
256,192,13343,1,8,0:0:0:0:
256,192,13494,1,0,0:0:0:0:
256,192,13646,1,0,0:0:0:0:
256,192,13797,1,8,0:0:0:0:
256,192,13949,1,0,0:0:0:0:
256,192,14050,1,8,0:0:0:0:
256,192,14151,1,8,0:0:0:0:
256,192,14252,1,8,0:0:0:0:
256,192,14353,1,8,0:0:0:0:
256,192,14454,1,8,0:0:0:0:
256,192,14555,1,8,0:0:0:0:
256,192,14656,1,8,0:0:0:0:
256,192,14757,1,8,0:0:0:0:
256,192,14858,1,8,0:0:0:0:
256,192,14959,1,8,0:0:0:0:
256,192,15060,1,8,0:0:0:0:
256,192,15161,1,8,0:0:0:0:
256,192,15312,1,0,0:0:0:0:
256,192,15388,1,0,0:0:0:0:
256,192,15464,1,0,0:0:0:0:
256,192,15615,1,8,0:0:0:0:
256,192,15767,1,0,0:0:0:0:
256,192,15918,1,0,0:0:0:0:
256,192,16070,1,0,0:0:0:0:
256,192,16221,1,8,0:0:0:0:
256,192,16373,1,0,0:0:0:0:
256,192,16474,1,8,0:0:0:0:
256,192,16575,1,8,0:0:0:0:
256,192,16676,1,8,0:0:0:0:
256,192,16777,1,8,0:0:0:0:
256,192,16878,1,8,0:0:0:0:
256,192,16979,1,8,0:0:0:0:
256,192,17080,1,8,0:0:0:0:
256,192,17181,1,8,0:0:0:0:
256,192,17282,1,8,0:0:0:0:
256,192,17383,1,8,0:0:0:0:
256,192,17484,1,8,0:0:0:0:
256,192,17585,1,8,0:0:0:0:
256,192,17737,1,0,0:0:0:0:
256,192,17812,1,0,0:0:0:0:
256,192,17888,1,0,0:0:0:0:
256,192,18040,1,8,0:0:0:0:
256,192,18191,1,0,0:0:0:0:
256,192,18338,1,0,0:0:0:0:
256,192,18412,1,0,0:0:0:0:
256,192,18485,1,0,0:0:0:0:
256,192,18633,1,8,0:0:0:0:
256,192,18780,1,0,0:0:0:0:
256,192,18928,1,8,0:0:0:0:
256,192,19222,1,8,0:0:0:0:
256,192,19517,1,8,0:0:0:0:
256,192,19812,1,8,0:0:0:0:
256,192,19862,1,0,0:0:0:0:
256,192,19913,1,0,0:0:0:0:
256,192,19963,1,0,0:0:0:0:
256,192,20115,1,0,0:0:0:0:
256,192,20190,1,0,0:0:0:0:
256,192,20266,1,0,0:0:0:0:
256,192,20418,1,8,0:0:0:0:
256,192,20569,1,0,0:0:0:0:
256,192,20718,1,0,0:0:0:0:
256,192,20867,1,0,0:0:0:0:
256,192,21016,1,0,0:0:0:0:
256,192,21166,1,8,0:0:0:0:
256,192,21315,1,0,0:0:0:0:
256,192,21389,1,0,0:0:0:0:
256,192,21464,1,0,0:0:0:0:
256,192,21613,1,8,0:0:0:0:
256,192,21763,1,0,0:0:0:0:
256,192,21912,1,0,0:0:0:0:
256,192,22061,1,0,0:0:0:0:
256,192,22210,1,0,0:0:0:0:
256,192,22360,1,8,0:0:0:0:
256,192,22509,1,0,0:0:0:0:
256,192,22583,1,0,0:0:0:0:
256,192,22658,1,0,0:0:0:0:
256,192,22807,1,8,0:0:0:0:
256,192,22957,1,0,0:0:0:0:
256,192,23106,1,0,0:0:0:0:
256,192,23255,1,0,0:0:0:0:
256,196,23404,1,0,0:0:0:0:
256,196,23554,1,8,0:0:0:0:
256,196,23703,1,0,0:0:0:0:
256,196,23777,1,0,0:0:0:0:
256,196,23852,1,0,0:0:0:0:
256,196,24001,1,8,0:0:0:0:
256,196,24151,1,0,0:0:0:0:
256,196,24300,1,0,0:0:0:0:
256,196,24449,1,0,0:0:0:0:
256,196,24598,1,0,0:0:0:0:
256,196,24748,1,8,0:0:0:0:
256,196,24897,1,0,0:0:0:0:
256,196,24971,1,0,0:0:0:0:
256,196,25046,1,0,0:0:0:0:
256,196,25195,1,8,0:0:0:0:
256,196,25345,1,0,0:0:0:0:
256,196,25494,1,0,0:0:0:0:
256,196,25643,1,0,0:0:0:0:
256,196,25792,1,0,0:0:0:0:
256,192,25942,1,8,0:0:0:0:
256,192,26091,1,0,0:0:0:0:
256,192,26165,1,0,0:0:0:0:
256,192,26240,1,0,0:0:0:0:
256,192,26389,1,8,0:0:0:0:
256,192,26539,1,0,0:0:0:0:
256,192,26688,1,0,0:0:0:0:
256,192,26837,1,0,0:0:0:0:
256,192,26986,1,0,0:0:0:0:
256,192,27136,1,12,0:0:0:0:
256,192,27434,1,12,0:0:0:0:
256,196,28330,1,8,0:0:0:0:
256,196,28478,1,0,0:0:0:0:
256,196,28627,1,0,0:0:0:0:
256,196,28775,1,8,0:0:0:0:
256,196,28924,1,0,0:0:0:0:
256,196,29072,1,0,0:0:0:0:
256,196,29221,1,8,0:0:0:0:
256,196,29369,1,0,0:0:0:0:
256,196,29518,1,8,0:0:0:0:
256,196,29666,1,0,0:0:0:0:
256,196,29815,1,0,0:0:0:0:
256,196,29963,1,8,0:0:0:0:
256,196,30112,1,0,0:0:0:0:
256,196,30260,1,0,0:0:0:0:
256,196,30409,1,8,0:0:0:0:
256,196,30557,1,0,0:0:0:0:
256,196,30706,1,8,0:0:0:0:
256,196,30854,1,0,0:0:0:0:
256,196,31003,1,0,0:0:0:0:
256,196,31151,1,8,0:0:0:0:
256,196,31300,1,0,0:0:0:0:
256,196,31448,1,0,0:0:0:0:
256,196,31597,1,8,0:0:0:0:
256,196,31745,1,0,0:0:0:0:
256,196,31894,1,8,0:0:0:0:
256,196,32042,1,8,0:0:0:0:
256,192,32339,1,8,0:0:0:0:
256,192,32488,1,8,0:0:0:0:
256,192,32636,1,0,0:0:0:0:
256,192,32785,1,0,0:0:0:0:
256,192,32933,1,0,0:0:0:0:
256,192,33082,1,8,0:0:0:0:
256,192,33228,1,0,0:0:0:0:
256,192,33375,1,0,0:0:0:0:
256,192,33522,1,8,0:0:0:0:
256,192,33668,1,0,0:0:0:0:
256,192,33815,1,0,0:0:0:0:
256,192,33962,1,8,0:0:0:0:
256,192,34108,1,0,0:0:0:0:
256,192,34255,1,8,0:0:0:0:
256,192,34402,1,0,0:0:0:0:
256,192,34548,1,0,0:0:0:0:
256,192,34695,1,8,0:0:0:0:
256,192,34842,1,0,0:0:0:0:
256,192,34989,1,0,0:0:0:0:
256,192,35135,1,8,0:0:0:0:
256,192,35282,1,0,0:0:0:0:
256,192,35429,1,8,0:0:0:0:
256,192,35575,1,0,0:0:0:0:
256,192,35722,1,0,0:0:0:0:
256,192,35869,1,8,0:0:0:0:
256,192,36015,1,0,0:0:0:0:
256,192,36162,1,0,0:0:0:0:
256,192,36309,1,8,0:0:0:0:
256,192,36456,1,0,0:0:0:0:
256,192,36602,1,12,0:0:0:0:
256,192,36896,1,12,0:0:0:0:
256,192,37336,1,0,0:0:0:0:
256,192,37482,1,0,0:0:0:0:
256,192,37629,1,0,0:0:0:0:
256,192,37776,1,8,0:0:0:0:
252,192,38407,1,8,0:0:0:0:
252,192,39004,1,8,0:0:0:0:
252,192,39150,1,8,0:0:0:0:
256,192,39296,1,0,0:0:0:0:
256,192,39443,1,0,0:0:0:0:
256,192,39589,1,8,0:0:0:0:
256,192,39735,1,0,0:0:0:0:
256,192,39882,1,8,0:0:0:0:
256,192,40028,1,0,0:0:0:0:
256,192,40174,1,8,0:0:0:0:
256,192,40321,1,8,0:0:0:0:
256,192,40469,1,0,0:0:0:0:
256,192,40617,1,0,0:0:0:0:
256,192,40765,1,8,0:0:0:0:
256,192,40912,1,0,0:0:0:0:
256,192,41060,1,8,0:0:0:0:
256,192,41208,1,0,0:0:0:0:
256,192,41356,1,8,0:0:0:0:
256,192,41994,12,0,43736,0:0:0:0:
256,192,43895,5,0,0:0:0:0:
256,192,44052,1,8,0:0:0:0:
256,192,44324,1,0,0:0:0:0:
256,192,44486,1,8,0:0:0:0:
