osu file format v14

[General]
AudioFilename: audio
AudioLeadIn: 0
PreviewTime: 27882
Countdown: 0
SampleSet: Soft
StackLeniency: 1
Mode: 0
LetterboxInBreaks: 0
WidescreenStoryboard: 0

[Editor]
DistanceSpacing: 3.4
BeatDivisor: 4
GridSize: 4
TimelineZoom: 2

[Metadata]
Title:A Grande Familia (TV Size)
TitleUnicode:A Grande Familia (TV Size)
Artist:Dudu Nobre
ArtistUnicode:Dudu Nobre
Creator:-GriM-
Version:Mi Grande Familia
Source:A Grande Familia (2001)
Tags:
BeatmapID:1892304
BeatmapSetID:906810

[Difficulty]
HPDrainRate:4
CircleSize:4
OverallDifficulty:9
ApproachRate:10
SliderMultiplier:1.7
SliderTickRate:1

[Events]
//Background and Video events
0,0,"A_Grande_Família_-_12ª,_13ª_Temporada.png",0,0
//Break Periods
//Storyboard Layer 0 (Background)
//Storyboard Layer 1 (Fail)
//Storyboard Layer 2 (Pass)
//Storyboard Layer 3 (Foreground)
//Storyboard Sound Samples

[TimingPoints]
3011,307.692307692308,4,2,1,60,1,0
4241,300,4,2,1,60,1,0
5441,291.26213592233,4,2,1,60,1,0
5586,280.373831775701,4,2,1,60,1,0
5586,-133.333333333333,4,2,1,60,0,0
6006,295.566502463054,4,2,1,60,1,0
6301,319.148936170213,4,2,1,60,1,0
6620,315.789473684211,4,2,1,60,1,0
6620,-100,4,2,1,60,0,0
7251,272.727272727273,4,2,1,60,1,0
7660,400,4,2,1,60,1,0
7860,300,4,2,1,60,1,0
8460,294.117647058824,4,2,1,60,1,0
10224,314.13612565445,4,2,1,60,1,0
12737,303.030303030303,4,2,1,60,1,0
18191,294.840294840295,4,2,1,60,1,0
19812,303.030303030303,4,2,1,60,1,0
20569,298.507462686567,4,2,1,60,1,0
21166,298.507462686567,4,2,1,60,1,0
28330,297.029702970297,4,2,1,60,1,1
28330,-76.9230769230769,4,2,1,60,0,1
33082,293.398533007335,4,2,1,60,1,1
36602,-100,4,2,1,60,0,0
37776,315.789473684211,4,2,1,60,1,1
38407,298.507462686567,4,2,1,60,1,1
39004,292.682926829268,4,2,1,60,1,1
40174,295.566502463054,4,2,1,60,1,1
41356,319.148936170213,4,2,1,60,1,0
41994,312.5,4,2,1,60,1,0
42619,319.148936170213,4,2,1,60,1,0
43895,315.789473684211,4,2,1,60,1,0
44052,279.06976744186,4,2,1,60,1,0
44324,324.324324324324,4,2,1,60,1,0

[Colours]
Combo1 : 255,255,128
Combo2 : 0,128,0
Combo3 : 0,0,255

[HitObjects]
90,59,2087,6,0,L|109:215,1,127.5
130,71,2395,2,0,L|101:231,1,127.5
168,91,2703,2,0,L|108:222,1,127.5
45,353,3010,6,0,B|95:372|95:372|140:353|140:353|176:363|220:357,1,170
348,194,3472,1,0,0:0:0:0:
156,58,3626,2,0,L|57:64,1,85
216,234,3934,1,0,0:0:0:0:
323,24,4087,1,0,0:0:0:0:
472,271,4241,6,0,L|477:186,1,85
203,95,4541,2,0,P|264:89|309:101,1,85
193,317,4841,1,0,0:0:0:0:
119,47,4991,1,0,0:0:0:0:
117,63,5066,1,0,0:0:0:0:
114,79,5141,1,0,0:0:0:0:
90,353,5291,1,0,0:0:0:0:
13,19,5441,1,0,0:0:0:0:
262,160,5586,6,0,L|440:155,1,159.375006079674
497,125,6006,6,0,L|349:128,1,127.5
262,86,6301,6,0,L|398:83,1,127.5
489,27,6620,6,0,P|505:80|472:226,1,170
354,327,7093,1,0,0:0:0:0:
260,105,7251,1,0,0:0:0:0:
77,224,7387,1,0,0:0:0:0:
78,240,7455,1,0,0:0:0:0:
79,260,7523,2,0,L|87:376,1,85
351,187,7860,5,0,0:0:0:0:
128,77,8010,1,0,0:0:0:0:
170,352,8160,2,0,L|85:345,1,85
351,187,8460,2,0,P|409:186|441:198,1,85
283,382,8754,1,0,0:0:0:0:
230,103,8901,1,0,0:0:0:0:
27,305,9048,5,0,0:0:0:0:
42,299,9121,1,0,0:0:0:0:
58,295,9195,1,0,0:0:0:0:
74,291,9268,1,0,0:0:0:0:
90,287,9342,1,0,0:0:0:0:
106,284,9415,1,0,0:0:0:0:
122,281,9489,1,0,0:0:0:0:
138,278,9562,1,0,0:0:0:0:
154,275,9636,1,0,0:0:0:0:
170,271,9710,1,0,0:0:0:0:
186,269,9783,1,0,0:0:0:0:
203,267,9857,1,0,0:0:0:0:
219,264,9930,2,0,L|281:259,1,42.5
489,328,10077,2,0,L|446:331,1,42.5
90,184,10224,5,0,0:0:0:0:
256,192,10852,12,0,12422,0:0:0:0:
45,82,12737,5,0,0:0:0:0:
127,301,12888,1,0,0:0:0:0:
173,32,13040,1,0,0:0:0:0:
123,316,13191,1,0,0:0:0:0:
43,61,13343,2,0,L|39:171,1,85
275,333,13646,2,0,L|270:227,1,85
491,94,13949,5,0,0:0:0:0:
421,56,14050,1,0,0:0:0:0:
342,43,14151,1,0,0:0:0:0:
266,67,14252,1,0,0:0:0:0:
218,130,14353,1,0,0:0:0:0:
148,168,14454,1,0,0:0:0:0:
68,171,14555,2,0,L|61:92,1,56.6666666666667
197,250,14757,2,0,L|186:318,1,56.6666666666667
311,192,14959,1,0,0:0:0:0:
311,192,15060,1,0,0:0:0:0:
311,192,15161,6,0,P|304:254|374:164,1,340
185,325,15918,1,0,0:0:0:0:
185,325,16070,2,0,L|177:224,1,85
306,9,16373,2,0,L|293:187,1,170
78,215,16827,1,0,0:0:0:0:
78,215,16979,2,0,L|85:300,1,85
133,26,17282,1,0,0:0:0:0:
381,121,17433,6,0,P|279:107|208:226,1,255
317,372,18040,1,0,0:0:0:0:
378,89,18191,1,0,0:0:0:0:
379,105,18264,1,0,0:0:0:0:
381,121,18338,1,0,0:0:0:0:
491,326,18485,1,0,0:0:0:0:
216,263,18633,1,0,0:0:0:0:
460,82,18780,1,0,0:0:0:0:
82,343,18928,2,0,L|73:137,2,170
329,17,19812,6,0,L|320:223,1,170
303,375,20266,1,0,0:0:0:0:
202,182,20418,1,0,0:0:0:0:
382,269,20569,2,0,P|326:266|233:331,1,170
83,377,21016,1,0,0:0:0:0:
13,159,21166,2,0,L|22:243,1,85
125,23,21464,1,0,0:0:0:0:
190,244,21613,1,0,0:0:0:0:
294,86,21763,2,0,L|387:79,1,85
510,283,22061,2,0,L|417:276,1,85
98,250,22360,6,0,L|308:240,1,170
195,51,22807,1,0,0:0:0:0:
51,166,22957,2,0,P|22:225|61:343,1,170
175,64,23404,1,0,0:0:0:0:
220,265,23554,2,0,L|223:322,1,56.6666666666667
371,144,23753,2,0,L|363:263,1,113.333333333333
363,268,24001,1,0,0:0:0:0:
463,89,24151,2,0,P|428:57|269:170,1,255
289,350,24748,6,0,L|480:345,1,170
185,281,25195,1,0,0:0:0:0:
185,281,25345,2,0,L|40:287,2,113.333333333333
274,198,25942,2,0,P|342:174|469:217,1,170
489,305,26389,1,0,0:0:0:0:
251,330,26539,1,0,0:0:0:0:
509,305,26688,1,0,0:0:0:0:
202,196,26837,1,0,0:0:0:0:
383,381,26986,1,0,0:0:0:0:
430,42,27136,5,0,0:0:0:0:
245,370,27434,1,0,0:0:0:0:
448,194,28330,5,8,0:0:0:0:
213,89,28478,1,0,0:0:0:0:
445,60,28627,5,0,0:0:0:0:
189,214,28775,1,0,0:0:0:0:
400,322,28924,5,8,0:0:0:0:
353,36,29072,1,0,0:0:0:0:
244,295,29221,5,0,0:0:0:0:
505,167,29369,1,0,0:0:0:0:
249,146,29518,5,8,0:0:0:0:
505,269,29666,1,0,0:0:0:0:
207,328,29815,5,0,0:0:0:0:
364,81,29963,1,0,0:0:0:0:
375,364,30112,5,8,0:0:0:0:
238,126,30260,1,0,0:0:0:0:
120,364,30409,5,8,0:0:0:0:
361,228,30557,1,0,0:0:0:0:
66,108,30706,5,8,0:0:0:0:
131,372,30854,1,0,0:0:0:0:
192,60,31003,5,0,0:0:0:0:
26,284,31151,1,0,0:0:0:0:
305,177,31300,5,8,0:0:0:0:
26,119,31448,1,0,0:0:0:0:
226,335,31597,5,0,0:0:0:0:
288,35,31745,1,0,0:0:0:0:
373,372,31894,6,8,L|354:222,1,110.499994941712
281,20,32339,1,0,0:0:0:0:
191,322,32488,2,0,L|207:184,1,110.499994941712
419,101,32785,1,0,0:0:0:0:
141,36,32933,1,0,0:0:0:0:
290,335,33082,5,8,0:0:0:0:
337,51,33228,1,0,0:0:0:0:
97,214,33375,5,0,0:0:0:0:
385,186,33522,1,0,0:0:0:0:
141,36,33668,5,0,0:0:0:0:
154,325,33815,1,0,0:0:0:0:
281,64,33962,5,8,0:0:0:0:
16,207,34108,1,0,0:0:0:0:
304,284,34255,5,8,0:0:0:0:
131,14,34402,1,0,0:0:0:0:
147,348,34548,5,0,0:0:0:0:
296,30,34695,1,0,0:0:0:0:
398,355,34842,5,8,0:0:0:0:
100,212,34989,1,0,0:0:0:0:
443,248,35135,1,0,0:0:0:0:
130,367,35282,1,0,0:0:0:0:
143,55,35429,5,0,0:0:0:0:
314,344,35575,1,0,0:0:0:0:
359,27,35722,1,8,0:0:0:0:
181,350,35869,1,0,0:0:0:0:
129,28,36015,1,8,0:0:0:0:
325,370,36162,1,0,0:0:0:0:
365,8,36309,1,0,0:0:0:0:
51,265,36456,1,0,0:0:0:0:
491,185,36602,5,4,0:0:0:0:
20,83,36896,1,4,0:0:0:0:
362,349,37336,1,0,0:0:0:0:
406,232,37482,1,0,0:0:0:0:
239,336,37629,1,0,0:0:0:0:
192,130,37776,6,0,B|121:106|57:191|143:278|206:224|206:224|235:233|235:233|289:215,1,297.5
357,71,38407,6,0,B|337:128|337:128|370:190|370:190|343:266|343:266|354:376,1,297.5
461,176,39004,5,0,0:0:0:0:
205,263,39150,1,0,0:0:0:0:
495,258,39296,1,0,0:0:0:0:
198,169,39443,1,0,0:0:0:0:
351,378,39589,1,0,0:0:0:0:
387,88,39735,1,0,0:0:0:0:
187,371,39882,1,0,0:0:0:0:
132,39,40028,1,0,0:0:0:0:
428,202,40174,6,0,L|525:190,1,85
153,366,40469,2,0,L|56:354,1,85
400,296,40765,1,8,0:0:0:0:
91,174,40912,1,0,0:0:0:0:
436,115,41060,1,8,0:0:0:0:
187,371,41208,1,0,0:0:0:0:
54,31,41356,5,8,0:0:0:0:
435,212,41994,2,0,P|391:244|372:99,1,297.5
372,172,42619,6,0,L|177:164,1,170
8,370,43257,2,0,L|203:362,1,170
442,181,43895,1,8,0:0:0:0:
107,143,44052,1,8,0:0:0:0:
490,79,44324,5,8,0:0:0:0:
99,266,44486,1,8,0:0:0:0:
