osu file format v14

[General]
AudioFilename: marry me.mp3
AudioLeadIn: 1500
PreviewTime: 70509
Countdown: 0
SampleSet: Soft
StackLeniency: 0.7
Mode: 0
LetterboxInBreaks: 0
WidescreenStoryboard: 1

[Editor]
Bookmarks: 4714,6385,18760,31885,44260,56230,62230,71260
DistanceSpacing: 0.8
BeatDivisor: 4
GridSize: 4
TimelineZoom: 1.5

[Metadata]
Title:marry me ?
TitleUnicode:marry me ?
Artist:Duca
ArtistUnicode:Duca
Creator:-Teina-
Version:Insane
Source:ゴールデンマリッジ
Tags:ANZIE ensemble wmtokok ffstar0716 Golden marriage
BeatmapID:416572
BeatmapSetID:172334

[Difficulty]
HPDrainRate:7
CircleSize:4.7
OverallDifficulty:7
ApproachRate:8.5
SliderMultiplier:1.4
SliderTickRate:1

[Events]
//Background and Video events
Video,0,"marry me.avi"
0,0,"marryme.jpg",0,0
//Break Periods
//Storyboard Layer 0 (Background)
//Storyboard Layer 1 (Fail)
//Storyboard Layer 2 (Pass)
//Storyboard Layer 3 (Foreground)
//Storyboard Sound Samples

[TimingPoints]
767,375,4,2,3,40,1,0
767,-200,4,2,3,40,0,0
2267,375,4,2,3,40,1,0
2267,-200,4,2,3,40,0,0
6402,375,4,2,3,40,1,0
6777,-200,4,2,3,40,0,0
18759,375,4,2,2,40,1,0
18759,-133.333333333333,4,2,2,60,0,0
32259,-100,4,2,2,60,0,0
32634,-100,4,2,2,30,0,0
32727,-100,4,2,2,60,0,0
38259,-100,4,2,2,30,0,0
38634,-100,4,2,2,60,0,0
44634,-100,4,2,2,25,0,0
44821,-100,4,2,2,60,0,0
50634,-100,4,2,2,40,0,0
50727,-100,4,2,2,60,0,0
52884,-100,4,2,2,30,0,0
53259,-100,4,2,2,60,0,0
56259,-166.666666666667,4,2,2,40,0,0
57009,-166.666666666667,4,2,2,25,0,0
57384,-166.666666666667,4,2,2,40,0,0
62259,-117.647058823529,4,2,2,60,0,0
65634,-117.647058823529,4,2,2,25,0,0
65821,-117.647058823529,4,2,2,60,0,0
70884,-200,4,2,2,50,0,0
71071,-100,4,2,2,40,0,0
71259,-100,4,2,2,60,0,1
71634,-100,4,2,2,25,0,1
71821,-100,4,2,2,60,0,1
82696,-100,4,2,2,35,0,1
82884,-100,4,2,2,60,0,1
83071,-100,4,2,2,70,0,1
83634,-100,4,2,2,25,0,1
83821,-100,4,2,2,60,0,1
95259,-100,4,2,2,60,0,0
95634,-100,4,2,2,40,0,0
95821,-100,4,2,2,60,0,0
107259,-200,4,2,2,40,0,0
108946,-100,4,2,2,70,0,0
111384,-100,4,2,2,50,0,0
113259,-100,4,2,2,25,0,0

[Colours]
Combo1 : 255,240,51
Combo2 : 132,156,242
Combo3 : 255,60,206
Combo4 : 78,214,233

[HitObjects]
360,144,767,6,0,L|324:72,1,70
248,24,1517,21,2,0:0:0:0:
252,92,1892,1,2,0:0:0:0:
192,128,2267,1,2,0:0:0:0:
208,252,2642,21,2,0:0:0:0:
264,292,3017,1,2,0:0:0:0:
336,284,3392,2,0,P|364:276|408:288,2,70
276,184,4517,5,0,0:0:0:0:
264,120,4892,1,0,0:0:0:0:
208,88,5267,2,0,P|184:56|180:16,2,70
280,144,6402,37,0,0:0:0:0:
224,216,6777,2,2,P|156:188|127:124,1,140
328,216,8277,2,2,P|396:188|425:124,1,140
256,368,9777,5,0,0:0:0:0:
144,280,10527,1,0,0:0:0:0:
264,212,11277,2,2,P|296:196|312:100,1,140
216,8,12777,1,2,0:0:0:0:
256,192,12964,12,0,15777,0:0:0:0:
212,120,16527,5,0,0:0:0:0:
288,72,16902,2,0,L|336:72,1,35
256,192,17277,12,0,18402,0:0:0:0:
264,168,18759,6,2,P|224:136|168:136,1,105.000004005432
108,284,19321,1,0,0:0:0:0:
104,192,19509,1,2,0:0:0:0:
192,284,19696,1,0,0:0:0:0:
192,284,19884,2,2,P|216:304|244:308,1,52.5000020027161
360,220,20259,5,0,0:0:0:0:
360,220,20634,2,2,P|408:236|456:280,2,105.000004005432
260,108,21759,6,2,B|204:108|204:108|176:88|148:84,1,105.000004005432
232,24,22321,1,0,0:0:0:0:
344,112,22509,2,2,B|344:176|344:176|324:216|328:232,1,105.000004005432
268,284,23071,1,0,0:0:0:0:
144,220,23259,6,2,P|112:228|80:228,1,52.5000020027161
188,136,23634,2,2,P|180:104|180:72,1,52.5000020027161
268,184,24009,2,2,P|300:176|332:176,1,52.5000020027161
220,256,24384,2,2,P|228:288|228:320,1,52.5000020027161
120,336,24759,6,2,L|248:336,1,105.000004005432
448,240,25509,1,2,0:0:0:0:
472,308,25696,1,0,0:0:0:0:
328,304,25884,1,2,0:0:0:0:
304,236,26071,1,0,0:0:0:0:
360,184,26259,6,2,B|392:168|392:168|472:168,1,105.000004005432
424,40,26821,1,0,0:0:0:0:
376,100,27009,2,2,B|344:116|344:116|264:116,1,105.000004005432
160,132,27571,1,0,0:0:0:0:
124,200,27759,6,2,P|84:132|116:68,1,157.500006008148
116,67,28415,1,0,0:0:0:0:
116,67,28509,1,0,0:0:0:0:
328,160,28884,1,2,0:0:0:0:
328,244,29071,1,0,0:0:0:0:
248,292,29259,6,2,P|200:304|148:276,1,105.000004005432
328,200,29821,1,0,0:0:0:0:
399,266,30009,2,2,P|444:276|499:250,1,105.000004005432
328,160,30571,1,0,0:0:0:0:
248,232,30759,2,2,P|200:244|148:216,1,105.000004005432
52,112,31321,1,0,0:0:0:0:
88,208,31509,1,0,0:0:0:0:
88,236,31602,1,0,0:0:0:0:
84,264,31696,1,2,0:0:0:0:
76,288,31790,1,2,0:0:0:0:
64,312,31884,6,0,P|36:336|4:340,1,52.5000020027161
152,278,32259,2,4,P|221:282|280:320,1,140
280,320,32727,1,0,0:0:0:0:
280,320,32821,1,0,0:0:0:0:
352,224,33009,2,0,B|308:224|308:224|260:196,1,70
108,124,33384,5,0,0:0:0:0:
108,124,33759,2,2,L|268:124,1,140
320,168,34321,1,0,0:0:0:0:
172,208,34509,2,2,B|84:208|84:208|20:168,1,140
52,60,35071,1,0,0:0:0:0:
108,124,35259,2,2,B|108:172|108:172|88:220|124:268,1,140
216,332,35821,5,2,0:0:0:0:
256,268,36009,1,0,0:0:0:0:
332,256,36196,1,0,0:0:0:0:
192,188,36384,5,2,0:0:0:0:
120,168,36571,1,0,0:0:0:0:
92,96,36759,1,0,0:0:0:0:
236,124,36946,5,2,0:0:0:0:
236,124,37040,1,0,0:0:0:0:
236,124,37134,1,0,0:0:0:0:
336,64,37321,1,0,0:0:0:0:
440,244,37509,5,2,0:0:0:0:
440,244,37884,2,6,B|360:244|360:244|296:212,1,140
124,92,38634,1,2,0:0:0:0:
52,144,38821,1,0,0:0:0:0:
56,232,39009,2,2,P|108:288|176:296,1,140
220,224,39571,1,0,0:0:0:0:
307,196,39759,6,2,P|353:247|352:316,1,140
251,284,40321,1,0,0:0:0:0:
196,176,40509,2,2,P|235:119|298:89,1,140
244,364,41259,1,2,0:0:0:0:
172,288,41446,1,0,0:0:0:0:
228,200,41634,6,2,P|300:200|372:244,2,140
140,128,42571,1,0,0:0:0:0:
68,216,42759,2,2,P|64:272|136:332,1,140
212,340,43321,1,0,0:0:0:0:
252,184,43509,1,2,0:0:0:0:
364,312,43696,1,0,0:0:0:0:
364,312,43790,1,0,0:0:0:0:
364,312,43884,2,2,L|444:312,1,70
424,192,44259,6,4,P|376:152|272:152,1,140
200,180,44821,2,0,P|160:184|120:164,1,70
264,236,45196,1,0,0:0:0:0:
112,272,45384,1,0,0:0:0:0:
216,320,45571,1,2,0:0:0:0:
116,188,45759,2,2,P|108:112|152:56,1,140
244,144,46321,2,0,P|300:156|384:120,1,140
248,16,46884,1,0,0:0:0:0:
304,80,47071,5,0,0:0:0:0:
172,136,47259,2,0,B|104:132|104:132|32:92,1,140
164,216,47821,1,0,0:0:0:0:
164,216,47915,1,2,0:0:0:0:
164,216,48009,1,2,0:0:0:0:
28,260,48196,1,2,0:0:0:0:
168,288,48384,1,0,0:0:0:0:
28,336,48571,1,2,0:0:0:0:
140,364,48759,6,0,B|200:376|236:336|236:336|276:336,1,140
264,252,49321,1,0,0:0:0:0:
360,324,49509,2,0,P|392:284|408:248,1,70
332,130,49884,2,0,P|336:164|352:200,1,70
220,140,50259,2,4,B|184:116|184:116|136:132|89:129,1,140
89,129,50727,1,0,0:0:0:0:
89,129,50821,1,0,0:0:0:0:
192,280,51009,5,2,0:0:0:0:
296,240,51196,2,0,P|328:200|328:168,1,70
164,208,51571,1,0,0:0:0:0:
128,76,51759,5,2,0:0:0:0:
128,76,52134,1,0,0:0:0:0:
228,168,52321,1,0,0:0:0:0:
172,296,52509,2,2,P|139:282|116:257,1,70
259,248,52884,2,4,P|327:244|384:284,1,140
384,284,53352,5,0,0:0:0:0:
384,284,53446,1,0,0:0:0:0:
480,168,53634,1,2,0:0:0:0:
344,184,53821,1,8,0:0:0:0:
344,184,53915,1,0,0:0:0:0:
344,184,54009,1,8,0:0:0:0:
396,64,54196,1,0,0:0:0:0:
396,64,54384,1,0,0:0:0:0:
300,100,54571,6,8,B|264:104|264:104|196:100|196:100|152:104,1,140
64,192,55134,2,2,L|152:192,1,70
290,248,55509,2,2,L|220:248,1,70
220,248,55790,1,0,0:0:0:0:
220,248,55884,1,2,0:0:0:0:
232,98,56259,6,4,B|316:80|316:80|392:112,1,167.999994873047
188,180,57384,1,2,0:0:0:0:
96,160,57759,2,0,B|88:72|88:72|130:1,1,167.999994873047
248,120,58884,1,2,0:0:0:0:
328,160,59259,6,0,B|404:160|404:160|492:112,1,167.999994873047
344,52,60384,1,0,0:0:0:0:
248,156,60760,2,2,B|248:232|248:232|296:320,1,167.999994873047
340,164,61884,1,0,0:0:0:0:
212,224,62259,5,2,0:0:0:0:
212,224,62446,1,0,0:0:0:0:
212,224,62634,2,2,B|156:188|156:188|124:144,1,119.000002269745,0|0,0:0|0:0,0:0:0:0:
244,104,63196,2,0,P|272:112|304:104,1,59.5000011348725
336,220,63571,1,0,0:0:0:0:
336,220,63759,6,2,B|392:184|392:184|424:140,2,119.000002269745
264,312,64696,1,0,0:0:0:0:
184,248,64884,1,2,0:0:0:0:
264,188,65071,1,0,0:0:0:0:
156,320,65259,6,4,P|108:312|64:252,1,119.000002269745
92,172,65821,1,0,0:0:0:0:
24,120,66009,2,2,L|24:56,1,59.5000011348725
156,32,66384,1,0,0:0:0:0:
224,128,66571,1,0,0:0:0:0:
224,128,66665,1,0,0:0:0:0:
224,128,66759,2,2,L|288:88,1,59.5000011348725
352,176,67134,6,0,P|364:220|364:252,1,59.5000011348725
323,318,67509,2,2,P|381:328|432:300,1,119.000002269745
292,220,68071,1,0,0:0:0:0:
188,328,68259,1,4,0:0:0:0:
216,196,68446,2,2,L|212:132,1,59.5000011348725
144,260,68821,6,2,P|84:280|32:264,1,119.000002269745
60,100,69384,1,0,0:0:0:0:
120,180,69571,2,2,P|152:136|152:64,1,119.000002269745
252,40,70134,5,8,0:0:0:0:
252,52,70227,1,8,0:0:0:0:
252,64,70321,1,10,0:0:0:0:
252,76,70415,1,10,0:0:0:0:
252,88,70509,2,8,L|252:156,1,59.5000011348725
388,156,70884,6,2,L|388:121,1,35
384,260,71259,6,4,B|336:268|336:268|232:228,1,140
140,168,71821,1,0,0:0:0:0:
140,360,72009,2,2,P|180:296|172:228,1,140
316,260,72571,1,2,0:0:0:0:
316,260,72665,1,0,0:0:0:0:
316,260,72759,2,2,P|388:260|404:252,1,70,2|2,0:0|0:0,0:0:0:0:
272,140,73134,2,2,P|200:140|184:148,1,70
80,164,73509,2,2,P|72:88|124:28,1,140
292,56,74071,1,0,0:0:0:0:
361,121,74259,6,2,P|337:145|304:156,1,70
308,272,74634,2,2,P|274:261|250:237,1,70
228,128,75009,1,2,0:0:0:0:
228,128,75102,1,0,0:0:0:0:
228,128,75196,1,0,0:0:0:0:
72,80,75383,1,2,0:0:0:0:
128,180,75571,2,2,P|152:228|136:316,1,140
24,376,76134,2,0,P|24:344|40:308,1,70
84,220,76509,5,0,0:0:0:0:
52,144,76696,1,0,0:0:0:0:
108,76,76884,2,2,P|184:80|216:132,1,140
224,232,77446,1,0,0:0:0:0:
132,200,77634,1,2,0:0:0:0:
252,312,77821,1,0,0:0:0:0:
252,312,77915,1,0,0:0:0:0:
252,312,78009,2,2,P|316:312|348:304,1,70
368,224,78384,2,2,P|376:156|424:80,1,140
296,176,78946,5,0,0:0:0:0:
288,180,79040,1,0,0:0:0:0:
280,184,79134,2,0,P|232:192|192:184,1,70
128,136,79509,2,2,P|96:124|56:140,1,70
116,240,79884,2,2,P|92:272|92:300,1,70
219,209,80259,2,2,B|265:224|317:204|333:156|328:152,1,140
328,152,80727,1,0,0:0:0:0:
328,152,80821,1,2,0:0:0:0:
440,216,81009,6,0,B|480:216|480:216|512:200,1,70
336,304,81384,1,2,0:0:0:0:
336,304,81477,1,0,0:0:0:0:
336,304,81571,2,0,B|264:324|264:324|200:292,1,140
156,172,82134,1,2,0:0:0:0:
340,72,82321,1,0,0:0:0:0:
288,196,82509,1,2,0:0:0:0:
468,104,82696,5,0,0:0:0:0:
460,68,82790,1,0,0:0:0:0:
436,44,82884,1,0,0:0:0:0:
400,36,82977,1,0,0:0:0:0:
368,52,83071,1,0,0:0:0:0:
340,72,83165,1,0,0:0:0:0:
336,108,83259,6,4,B|336:140|336:140|376:192|340:244,1,140
240,124,83821,1,0,0:0:0:0:
199,228,84009,2,2,P|145:269|77:265,1,140
164,156,84571,1,0,0:0:0:0:
364,280,84759,5,2,0:0:0:0:
324,184,84946,1,0,0:0:0:0:
244,304,85134,1,2,0:0:0:0:
244,304,85227,1,0,0:0:0:0:
244,304,85321,1,0,0:0:0:0:
360,360,85509,2,2,P|408:344|440:264,1,140
420,144,86071,1,0,0:0:0:0:
316,80,86259,6,2,L|252:24,1,70
167,123,86634,2,2,L|236:136,1,70
156,244,87009,1,0,0:0:0:0:
200,368,87196,1,2,0:0:0:0:
68,288,87384,1,2,0:0:0:0:
64,280,87477,1,0,0:0:0:0:
60,272,87571,2,0,P|48:228|88:132,1,140
276,192,88134,2,0,P|288:232|248:328,1,140
196,188,88696,5,0,0:0:0:0:
204,70,88884,2,0,P|238:63|272:72,1,70
104,140,89259,2,2,P|44:124|16:48,1,140
204,72,89821,1,0,0:0:0:0:
280,128,90009,2,2,P|296:176|240:264,1,140
364,176,90571,5,0,0:0:0:0:
444,172,90759,2,2,L|524:204,1,70
500,312,91134,2,2,L|436:287,1,70
336,288,91509,1,2,0:0:0:0:
212,344,91696,1,0,0:0:0:0:
212,344,91790,1,0,0:0:0:0:
212,344,91884,2,2,P|140:308|120:256,1,140
220,176,92446,5,0,0:0:0:0:
132,100,92634,1,2,0:0:0:0:
132,100,92727,1,0,0:0:0:0:
132,100,92821,1,0,0:0:0:0:
220,176,93009,2,2,L|300:176,1,70
376,132,93384,1,0,0:0:0:0:
484,220,93571,5,0,0:0:0:0:
404,276,93759,2,2,L|316:276,1,70
334,276,94040,1,0,0:0:0:0:
334,276,94134,1,2,0:0:0:0:
212,248,94321,5,2,0:0:0:0:
212,248,94415,1,2,0:0:0:0:
212,248,94509,2,2,P|244:228|264:192,1,70
232,104,94884,1,2,0:0:0:0:
344,44,95071,1,2,0:0:0:0:
344,44,95165,1,2,0:0:0:0:
344,44,95259,6,6,P|372:104|336:172,1,140
244,140,95821,1,0,0:0:0:0:
152,176,96009,2,2,P|96:216|68:280,2,140
244,140,96946,1,0,0:0:0:0:
342,166,97134,2,2,P|398:126|422:62,2,140
252,108,98071,1,2,0:0:0:0:
248,216,98259,6,2,P|205:269|137:272,1,140
268,80,99009,1,2,0:0:0:0:
360,112,99196,1,0,0:0:0:0:
420,188,99384,1,2,0:0:0:0:
424,284,99571,2,0,P|400:316|344:324,1,70
296,256,99946,5,0,0:0:0:0:
184,328,100134,1,2,0:0:0:0:
240,212,100321,1,0,0:0:0:0:
184,328,100509,1,2,0:0:0:0:
152,204,100696,1,0,0:0:0:0:
152,204,100790,1,0,0:0:0:0:
152,204,100884,2,0,P|104:204|80:212,1,70
4,112,101259,6,4,P|68:104|140:64,1,140
236,124,101821,1,2,0:0:0:0:
344,124,102009,2,2,P|405:90|474:81,1,140
308,224,102571,2,2,P|247:189|242:109,1,140
388,204,103134,1,2,0:0:0:0:
360,288,103321,1,0,0:0:0:0:
272,300,103509,2,2,L|200:300,1,70
168,168,103884,6,2,P|136:144|124:104,1,70
40,112,104259,2,2,P|48:72|160:48,1,140
220,96,104821,1,2,0:0:0:0:
300,172,105009,2,2,P|365:156|391:93,1,140
424,228,105571,6,0,P|420:252|424:268,1,35
440,304,105759,2,2,P|384:328|304:320,1,140
176,156,106509,1,2,0:0:0:0:
256,132,106696,1,0,0:0:0:0:
336,108,106884,1,2,0:0:0:0:
416,240,107259,5,2,0:0:0:0:
400,264,107446,1,0,0:0:0:0:
376,276,107634,1,0,0:0:0:0:
352,212,107821,5,2,0:0:0:0:
332,196,108009,1,0,0:0:0:0:
328,168,108196,1,0,0:0:0:0:
336,140,108384,2,0,L|364:108,1,35
148,204,108946,5,4,0:0:0:0:
148,204,109134,1,4,0:0:0:0:
256,192,109227,12,0,113259,0:0:0:0:
