osu file format v14

[General]
AudioFilename: Audio.mp3
AudioLeadIn: 0
PreviewTime: 65555
Countdown: 0
SampleSet: Soft
StackLeniency: 0.5
Mode: 0
LetterboxInBreaks: 0
WidescreenStoryboard: 1

[Editor]
DistanceSpacing: 1.1
BeatDivisor: 4
GridSize: 16
TimelineZoom: 2.2

[Metadata]
Title:eyes to eyes
TitleUnicode:eyes to eyes
Artist:Duca
ArtistUnicode:Duca
Creator:Dored
Version:Hard
Source:想いを捧げる乙女のメロディー
Tags:Omoi wo Sasageru Otome no Melody Galgame Eroge Opening Short Version ensemble [Kamiya] DalouBot Misure chokix
BeatmapID:1708151
BeatmapSetID:805869

[Difficulty]
HPDrainRate:5
CircleSize:3.7
OverallDifficulty:6
ApproachRate:7
SliderMultiplier:1.6
SliderTickRate:1

[Events]
//Background and Video events
0,0,"Misaki.jpg",0,0
Video,0,"Video.mp4"
//Break Periods
//Storyboard Layer 0 (Background)
//Storyboard Layer 1 (Fail)
//Storyboard Layer 2 (Pass)
//Storyboard Layer 3 (Foreground)
//Storyboard Sound Samples

[TimingPoints]
632,458.015267175573,4,2,5,55,1,0
7960,-100,4,2,5,65,0,0
22616,-100,4,2,5,60,0,0
35212,-100,4,2,5,60,0,0
35441,-100,4,2,5,60,0,0
49868,-100,4,2,5,60,0,0
50097,-100,4,2,5,60,0,0
66586,-100,4,2,5,75,0,1
95899,-100,4,2,5,65,0,0
110555,-100,4,2,5,45,0,0
112387,-100,4,2,5,35,0,0
114219,-100,4,2,5,25,0,0
116051,-100,4,2,5,15,0,0
117425,-100,4,2,5,5,0,0

[Colours]
Combo1 : 255,128,192
Combo2 : 188,135,75
Combo3 : 232,0,116
Combo4 : 128,64,64

[HitObjects]
80,272,632,6,0,L|159:278,1,80,2|0,3:2|0:0,0:0:0:0:
184,315,975,2,0,L|263:308,1,80,2|0,3:2|0:0,0:0:0:0:
289,270,1319,2,0,P|365:257|423:308,1,160,2|2,3:2|0:0,0:0:0:0:
341,344,2006,1,2,0:0:0:0:
289,271,2235,6,0,P|283:191|275:111,1,160,2|0,3:2|0:0,0:0:0:0:
313,30,2922,1,2,3:2:0:0:
142,71,3380,2,0,L|63:78,1,80,2|0,3:2|0:0,0:0:0:0:
39,162,3838,2,0,L|118:169,1,80,2|0,3:2|0:0,0:0:0:0:
176,235,4296,6,0,L|183:314,1,80,2|0,3:2|0:0,0:0:0:0:
217,341,4639,2,0,L|296:347,1,80,2|0,3:2|0:0,0:0:0:0:
341,344,4983,2,0,P|392:286|378:209,1,160,2|2,3:2|0:0,0:0:0:0:
307,262,5670,1,2,0:0:0:0:
254,191,5899,6,0,P|259:111|267:31,1,160,2|0,3:2|3:0,0:0:0:0:
354,46,6586,1,2,3:2:0:0:
254,191,7044,2,0,L|175:197,1,80,2|0,0:0|0:0,0:0:0:0:
91,167,7502,2,0,L|90:126,3,40,2|2|2|2,0:0|0:0|0:0|0:0,0:0:0:0:
116,91,7960,6,0,L|195:85,1,80,4|0,0:0|0:0,0:0:0:0:
266,31,8418,1,8,0:3:0:0:
354,46,8647,2,0,L|433:40,1,80,2|8,0:0|0:3,0:0:0:0:
464,122,9105,2,0,L|385:128,1,80,2|8,0:0|0:3,0:0:0:0:
297,113,9563,1,2,0:0:0:0:
328,195,9792,6,0,L|334:274,1,80,8|0,0:3|0:0,0:0:0:0:
313,313,10135,1,2,0:0:0:0:
234,276,10364,1,0,0:0:0:0:
163,327,10593,2,0,L|43:316,1,120,2|0,0:0|0:0,0:0:0:0:
74,233,11166,2,0,L|153:239,1,80,8|2,0:3|0:0,0:0:0:0:
234,276,11624,5,8,0:3:0:0:
224,188,11853,1,2,0:0:0:0:
224,188,12082,2,0,L|218:109,1,80,8|2,0:3|0:0,0:0:0:0:
288,57,12540,1,8,0:3:0:0:
368,93,12769,1,2,0:0:0:0:
368,93,12998,2,0,L|374:172,1,80,8|2,0:3|0:0,0:0:0:0:
304,225,13456,5,8,0:3:0:0:
384,260,13685,2,0,L|423:263,4,40,2|2|8|0|2,0:0|0:0|0:3|0:0|0:0,0:0:0:0:
314,313,14372,2,0,L|274:309,4,40,8|0|2|2|8,0:3|0:0|0:0|0:0|0:3,0:0:0:0:
394,348,15059,1,2,0:0:0:0:
423,263,15288,6,0,L|502:257,1,80,4|0,0:0|0:0,0:0:0:0:
492,168,15746,1,8,0:3:0:0:
486,79,15975,2,0,L|408:87,1,80,2|8,0:0|0:3,0:0:0:0:
327,51,16433,2,0,L|248:43,1,80,2|8,0:0|0:3,0:0:0:0:
176,94,16891,1,2,0:0:0:0:
103,43,17120,6,0,L|25:51,1,80,8|0,0:3|0:0,0:0:0:0:
14,94,17464,1,2,0:0:0:0:
82,149,17693,1,0,0:0:0:0:
25,217,17921,2,0,L|32:295,1,80,2|0,0:0|0:0,0:0:0:0:
40,340,18265,1,0,0:0:0:0:
118,300,18494,1,8,0:3:0:0:
182,359,18723,1,2,0:0:0:0:
259,316,18952,5,8,0:3:0:0:
216,240,19181,1,2,0:0:0:0:
216,240,19410,2,0,L|224:162,1,80,8|2,0:3|0:0,0:0:0:0:
311,160,19868,2,0,L|302:239,1,80,8|2,0:3|0:0,0:0:0:0:
388,238,20326,2,0,L|397:159,1,80,8|8,0:3|0:0,0:0:0:0:
354,83,20784,6,0,L|433:74,1,80,4|8,0:0|0:3,0:0:0:0:
466,103,21128,1,4,0:0:0:0:
397,158,21357,1,8,0:0:0:0:
468,211,21586,1,4,0:0:0:0:
468,211,22616,6,0,L|457:331,1,120,4|0,0:0|0:0,0:0:0:0:
421,357,23074,1,8,0:3:0:0:
350,304,23303,1,0,0:0:0:0:
268,338,23532,2,0,L|189:347,1,80,2|0,3:2|0:0,0:0:0:0:
106,381,23990,2,0,L|27:372,1,80,8|0,0:3|0:0,0:0:0:0:
37,282,24448,6,0,L|116:291,2,80,0|0|8,3:2|0:0|0:3,0:0:0:0:
3,198,25135,1,0,0:0:0:0:
58,126,25364,2,0,L|137:135,1,80,2|0,3:2|0:0,0:0:0:0:
178,216,25822,2,0,L|257:207,1,80,8|0,0:3|0:0,0:0:0:0:
344,221,26280,6,0,L|355:341,1,120,0|0,3:2|0:0,0:0:0:0:
391,367,26738,1,8,0:3:0:0:
477,359,26967,1,0,0:0:0:0:
447,278,27196,2,0,L|456:199,1,80,2|0,3:2|0:0,0:0:0:0:
486,117,27654,2,0,L|477:38,1,80,8|0,0:3|0:0,0:0:0:0:
390,51,28112,6,0,L|399:130,2,80,0|0|8,3:2|0:0|0:3,0:0:0:0:
308,20,28799,1,0,0:0:0:0:
240,75,29028,2,0,L|249:154,1,80,2|0,3:2|0:0,0:0:0:0:
331,185,29486,2,0,L|322:264,1,80,8|0,0:3|0:0,0:0:0:0:
249,313,29944,6,0,P|190:318|142:283,1,120,0|0,3:2|0:0,0:0:0:0:
124,243,30402,1,8,0:3:0:0:
213,234,30632,1,0,0:0:0:0:
160,163,30861,2,0,L|151:84,1,80,2|0,3:2|0:0,0:0:0:0:
111,6,31319,2,0,L|32:15,1,80,8|0,0:3|0:0,0:0:0:0:
0,96,31777,6,0,L|11:216,1,120,0|0,3:2|0:0,0:0:0:0:
34,251,32235,2,0,L|25:330,1,80,8|0,0:3|0:0,0:0:0:0:
114,322,32693,2,0,L|123:243,1,80,2|0,3:2|0:0,0:0:0:0:
213,234,33151,2,0,L|204:313,1,80,8|0,0:3|0:0,0:0:0:0:
275,363,33609,6,0,L|354:372,1,80,0|0,3:2|0:0,0:0:0:0:
433,335,34067,2,0,L|438:256,1,80,8|0,0:3|0:0,0:0:0:0:
370,199,34525,2,0,L|291:190,1,80,2|0,3:2|0:0,0:0:0:0:
213,234,34983,1,8,0:3:0:0:
168,157,35212,6,0,P|155:81|206:23,1,160,4|0,0:0|3:0,0:0:0:0:
238,105,35899,2,0,L|317:96,1,80,8|0,0:0|0:0,0:0:0:0:
348,64,36242,2,0,L|427:73,1,80,8|0,0:3|0:0,0:0:0:0:
465,95,36586,1,8,0:0:0:0:
428,175,36815,2,0,L|437:254,1,80,2|10,0:0|0:0,0:0:0:0:
368,310,37273,6,0,L|289:319,1,80,4|0,0:0|0:0,0:0:0:0:
275,232,37731,2,0,L|354:223,1,80,8|0,0:3|0:0,0:0:0:0:
340,134,38189,2,0,L|220:147,1,120,2|0,3:2|0:0,0:0:0:0:
184,172,38647,1,8,0:3:0:0:
129,103,38876,6,0,P|52:110|9:174,1,160,0|0,0:0|0:0,0:0:0:0:
96,184,39563,1,8,0:3:0:0:
152,350,40021,2,0,L|72:356,1,80,2|0,3:2|0:0,0:0:0:0:
65,271,40479,2,0,L|144:264,1,80,8|0,0:3|0:0,0:0:0:0:
224,300,40937,5,0,3:2:0:0:
296,250,41166,1,0,0:0:0:0:
296,250,41395,2,0,L|376:244,1,80,8|0,0:3|0:0,0:0:0:0:
455,279,41853,1,2,3:2:0:0:
490,199,42082,1,0,0:0:0:0:
490,199,42311,2,0,L|484:119,1,80,8|0,0:3|0:0,0:0:0:0:
434,47,42769,5,0,3:2:0:0:
362,97,42998,1,0,0:0:0:0:
362,97,43227,2,0,L|282:103,1,80,8|0,0:3|0:0,0:0:0:0:
205,146,43685,2,0,L|211:226,1,80,2|0,3:2|0:0,0:0:0:0:
126,233,44143,2,0,L|120:153,1,80,8|2,0:3|0:0,0:0:0:0:
125,65,44601,6,0,L|205:59,1,80,4|0,0:0|0:0,0:0:0:0:
281,15,45059,2,0,L|361:9,1,80,8|0,0:3|0:0,0:0:0:0:
406,84,45517,2,0,P|371:131|376:190,1,120,2|0,3:2|0:0,0:0:0:0:
395,230,45975,1,8,0:3:0:0:
307,230,46204,6,0,P|227:235|147:243,1,160,0|0,0:0|0:0,0:0:0:0:
76,190,46891,1,8,0:3:0:0:
147,350,47349,2,0,L|227:356,1,80,2|0,3:2|0:0,0:0:0:0:
305,316,47807,2,0,L|385:322,1,80,8|0,0:3|0:0,0:0:0:0:
472,331,48265,6,0,L|478:251,1,80,0|0,3:2|0:0,0:0:0:0:
437,173,48723,2,0,L|443:93,1,80,8|0,0:3|0:0,0:0:0:0:
356,86,49181,2,0,L|350:166,1,80,2|0,3:2|0:0,0:0:0:0:
296,235,49639,1,8,0:3:0:0:
226,181,49868,6,0,P|149:168|91:219,1,160,4|8,0:0|0:0,0:0:0:0:
174,253,50555,2,0,L|168:333,1,80,8|2,0:3|0:0,0:0:0:0:
125,343,50899,2,0,L|45:349,1,80,2|0,0:0|0:0,0:0:0:0:
19,313,51242,1,8,0:0:0:0:
11,224,51471,2,0,L|91:218,1,80,8|0,0:3|0:0,0:0:0:0:
174,253,51929,6,0,P|253:260|333:265,1,160,12|8,0:0|0:3,0:0:0:0:
390,333,52616,1,0,0:0:0:0:
457,276,52845,2,0,L|463:196,1,80,8|0,0:3|0:0,0:0:0:0:
407,129,53303,2,0,L|327:135,1,80,8|0,0:3|0:0,0:0:0:0:
250,178,53761,6,0,P|172:170|129:106,1,160,8|8,0:0|0:3,0:0:0:0:
48,142,54448,2,0,P|56:221|61:301,1,160,0|0,0:0|0:0,0:0:0:0:
128,357,55135,1,8,0:3:0:0:
185,290,55364,1,0,0:0:0:0:
253,347,55593,6,0,P|312:352|360:317,1,120,8|0,0:0|0:0,0:0:0:0:
366,274,56051,1,8,0:3:0:0:
298,217,56280,2,0,P|302:137|311:57,1,160,0|0,0:0|0:0,0:0:0:0:
378,0,56967,1,8,0:3:0:0:
461,29,57196,1,0,0:0:0:0:
393,87,57425,6,0,L|404:207,1,120,8|0,0:0|0:0,0:0:0:0:
433,239,57883,2,0,L|513:245,1,80,8|0,0:3|0:0,0:0:0:0:
500,332,58341,2,0,L|420:338,1,80,8|0,0:3|0:0,0:0:0:0:
332,352,58799,2,0,L|252:346,1,80,8|0,0:3|0:0,0:0:0:0:
260,259,59257,6,0,L|266:179,1,80,4|0,0:0|0:0,0:0:0:0:
177,171,59715,2,0,L|171:251,1,80,8|0,0:3|0:0,0:0:0:0:
82,242,60173,2,0,L|88:162,1,80,8|0,0:3|0:0,0:0:0:0:
95,75,60632,2,0,L|175:81,1,80,8|0,0:3|0:0,0:0:0:0:
262,88,61090,6,0,L|342:82,1,80,4|0,0:0|0:0,0:0:0:0:
368,48,61433,2,0,L|448:54,1,80,0|0,0:0|0:0,0:0:0:0:
476,88,61777,1,0,0:0:0:0:
438,167,62006,2,0,L|432:247,1,80,8|8,0:3|0:3,0:0:0:0:
424,333,62464,1,8,0:3:0:0:
352,283,62693,1,8,0:3:0:0:
272,320,62922,6,0,P|213:325|165:290,2,120,4|2|0,0:0|0:0|0:0,0:0:0:0:
237,241,63838,2,0,P|203:192|208:134,2,120,4|2|0,0:0|0:0|0:0,0:0:0:0:
287,171,64754,6,0,L|367:165,1,80,4|0,0:0|0:0,0:0:0:0:
359,79,65212,2,0,L|279:85,1,80,4|0,0:0|0:0,0:0:0:0:
201,48,65670,6,0,L|121:42,1,80,2|0,0:0|0:0,0:0:0:0:
77,40,66013,2,0,L|83:120,1,80,2|0,0:0|0:0,0:0:0:0:
63,159,66357,1,2,0:0:0:0:
81,244,66586,6,0,L|75:324,1,80,4|0,0:0|0:0,0:0:0:0:
167,251,67044,2,0,L|161:331,1,80,8|2,0:0|0:0,0:0:0:0:
247,338,67502,2,0,L|253:258,1,80,8|0,0:3|0:0,0:0:0:0:
332,345,67960,2,0,L|338:265,1,80,8|2,0:0|0:0,0:0:0:0:
368,233,68303,1,0,0:0:0:0:
368,233,68418,6,0,L|448:227,1,80,8|0,0:3|0:0,0:0:0:0:
440,140,68876,2,0,L|360:147,1,80,8|2,0:0|0:0,0:0:0:0:
287,197,69334,1,8,0:3:0:0:
206,161,69563,2,0,L|166:164,2,40,0|0|8,0:0|0:0|0:0,0:0:0:0:
198,75,70021,1,2,0:0:0:0:
198,75,70135,1,2,0:0:0:0:
198,75,70250,6,0,L|118:82,1,80,8|0,0:3|0:0,0:0:0:0:
77,160,70708,2,0,L|84:239,1,80,8|2,0:0|0:0,0:0:0:0:
112,273,71051,1,2,0:0:0:0:
112,273,71166,2,0,L|104:352,1,80,8|0,0:3|0:0,0:0:0:0:
190,360,71624,2,0,L|197:280,1,80,8|2,0:0|0:0,0:0:0:0:
284,286,72082,6,0,L|364:294,1,80,8|0,0:3|0:0,0:0:0:0:
398,320,72425,2,0,L|478:312,1,80,0|0,0:0|0:0,0:0:0:0:
504,276,72769,2,0,P|517:199|466:141,1,160,2|0,0:0|0:0,0:0:0:0:
434,223,73456,1,8,0:0:0:0:
259,202,73914,6,0,L|265:122,1,80,4|0,0:0|0:0,0:0:0:0:
173,195,74372,2,0,L|179:115,1,80,8|2,0:0|0:0,0:0:0:0:
93,108,74830,2,0,L|87:188,1,80,8|0,0:3|0:0,0:0:0:0:
8,101,75288,2,0,L|2:181,1,80,8|2,0:0|0:0,0:0:0:0:
16,222,75632,1,0,0:0:0:0:
16,222,75746,6,0,L|22:302,1,80,8|0,0:3|0:0,0:0:0:0:
98,344,76204,2,0,L|178:338,1,80,8|2,0:0|0:0,0:0:0:0:
202,301,76548,2,0,P|207:242|172:194,1,120,0|0,0:0|0:0,0:0:0:0:
87,187,77120,1,8,0:0:0:0:
65,102,77349,1,2,0:0:0:0:
141,60,77578,6,0,L|221:66,1,80,8|0,0:3|0:0,0:0:0:0:
257,92,77922,1,0,0:0:0:0:
257,92,78036,2,0,L|337:86,1,80,8|2,0:0|0:0,0:0:0:0:
412,131,78494,2,0,L|492:137,1,80,8|0,0:3|0:0,0:0:0:0:
473,222,78952,2,0,L|393:216,1,80,8|2,0:0|0:0,0:0:0:0:
305,211,79410,6,0,L|299:291,1,80,4|0,0:0|0:0,0:0:0:0:
286,333,79754,2,0,L|206:339,1,80,4|0,0:0|0:0,0:0:0:0:
170,314,80097,1,4,0:0:0:0:
5,376,80555,1,8,0:3:0:0:
13,288,80784,2,0,L|19:208,1,80,8|8,0:0|0:0,0:0:0:0:
25,120,81242,6,0,L|105:126,1,80,4|0,0:0|0:0,0:0:0:0:
98,214,81700,2,0,L|18:208,1,80,8|2,0:0|0:0,0:0:0:0:
176,175,82158,2,0,L|256:181,1,80,8|0,0:3|0:0,0:0:0:0:
248,268,82616,2,0,L|168:262,1,80,8|2,0:0|0:0,0:0:0:0:
136,292,82960,1,0,0:0:0:0:
136,292,83074,6,0,L|142:372,1,80,8|0,0:3|0:0,0:0:0:0:
229,366,83532,2,0,L|309:360,1,80,8|2,0:0|0:0,0:0:0:0:
336,276,83990,1,8,0:3:0:0:
423,259,84219,2,0,L|463:262,2,40,0|0|8,0:0|0:0|0:0,0:0:0:0:
364,192,84677,1,2,0:0:0:0:
364,192,84792,1,2,0:0:0:0:
364,192,84906,6,0,L|358:112,1,80,8|0,0:3|0:0,0:0:0:0:
291,56,85364,2,0,L|211:62,1,80,8|2,0:0|0:0,0:0:0:0:
177,90,85708,1,2,0:0:0:0:
177,90,85822,2,0,L|97:84,1,80,8|0,0:3|0:0,0:0:0:0:
90,172,86280,2,0,L|170:178,1,80,8|2,0:0|0:0,0:0:0:0:
246,220,86738,6,0,L|326:214,1,80,8|0,0:3|0:0,0:0:0:0:
364,192,87082,2,0,L|358:112,1,80,0|0,0:0|0:0,0:0:0:0:
352,68,87425,2,0,P|421:34|491:66,1,160,2|0,0:0|0:0,0:0:0:0:
485,154,88112,1,8,0:0:0:0:
362,279,88570,5,4,0:0:0:0:
272,126,89028,2,0,L|192:132,1,80,8|2,0:0|0:0,0:0:0:0:
168,216,89486,2,0,L|248:222,1,80,8|0,0:3|0:0,0:0:0:0:
263,263,89830,2,0,L|257:343,1,80,0|0,0:0|0:0,0:0:0:0:
221,368,90173,1,2,0:0:0:0:
133,360,90402,5,4,0:0:0:0:
45,352,90632,1,0,0:0:0:0:
45,352,90861,2,0,L|51:272,1,80,8|0,0:0|0:0,0:0:0:0:
58,184,91318,1,8,0:3:0:0:
66,96,91548,1,0,0:0:0:0:
66,96,91777,2,0,L|146:102,1,80,8|2,0:0|0:0,0:0:0:0:
224,61,92235,6,0,L|304:55,1,80,4|0,0:0|0:0,0:0:0:0:
347,51,92578,1,4,0:0:0:0:
340,139,92807,1,4,0:0:0:0:
412,189,93036,2,0,P|446:236|441:295,1,120,4|4,0:0|0:0,0:0:0:0:
359,261,93609,2,0,L|319:264,1,40,0|4,0:0|0:0,0:0:0:0:
284,291,93838,1,0,0:0:0:0:
224,356,94067,6,0,L|144:350,1,80,4|0,0:0|0:0,0:0:0:0:
114,317,94410,2,0,L|108:237,1,80,4|0,0:0|0:0,0:0:0:0:
127,197,94754,1,4,0:0:0:0:
201,37,95212,1,2,0:0:0:0:
113,44,95441,2,0,L|73:47,3,40,2|2|2|2,0:0|0:0|0:0|0:0,0:0:0:0:
42,78,95899,6,0,L|48:158,1,80,4|0,0:0|0:0,0:0:0:0:
127,197,96357,1,8,0:3:0:0:
202,148,96586,2,0,L|282:154,1,80,2|8,0:0|0:3,0:0:0:0:
286,242,97044,2,0,L|206:236,1,80,2|8,0:0|0:3,0:0:0:0:
131,285,97502,1,2,0:0:0:0:
210,324,97731,6,0,L|290:330,1,80,8|0,0:3|0:0,0:0:0:0:
332,319,98074,1,2,0:0:0:0:
286,242,98303,1,0,0:0:0:0:
363,196,98532,2,0,L|374:76,1,120,2|0,0:0|0:0,0:0:0:0:
462,83,99105,2,0,L|456:163,1,80,8|2,0:3|0:0,0:0:0:0:
457,250,99563,5,8,0:3:0:0:
411,324,99792,1,2,0:0:0:0:
411,324,100021,2,0,L|331:318,1,80,8|2,0:3|0:0,0:0:0:0:
286,242,100479,1,8,0:3:0:0:
240,316,100708,1,2,0:0:0:0:
240,316,100937,2,0,L|160:310,1,80,8|2,0:3|0:0,0:0:0:0:
115,234,101395,5,8,0:3:0:0:
182,178,101624,2,0,L|221:181,4,40,2|2|8|0|2,0:0|0:0|0:3|0:0|0:0,0:0:0:0:
136,101,102311,2,0,L|96:97,4,40,8|0|2|2|8,0:3|0:0|0:0|0:0|0:3,0:0:0:0:
205,45,102998,1,2,0:0:0:0:
282,89,103227,6,0,L|362:83,1,80,4|0,0:0|0:0,0:0:0:0:
432,29,103685,1,8,0:3:0:0:
489,97,103914,2,0,L|483:177,1,80,2|8,0:0|0:3,0:0:0:0:
415,235,104372,2,0,L|409:315,1,80,2|8,0:0|0:3,0:0:0:0:
341,373,104830,1,2,0:0:0:0:
273,315,105059,6,0,L|267:235,1,80,4|0,0:0|0:0,0:0:0:0:
288,197,105402,2,0,L|294:117,1,80,4|0,0:0|0:0,0:0:0:0:
279,75,105746,1,4,0:0:0:0:
279,75,105861,2,0,L|199:69,1,80,0|8,0:0|0:3,0:0:0:0:
155,66,106204,1,8,0:3:0:0:
88,121,106433,1,4,0:0:0:0:
143,188,106662,1,0,0:0:0:0:
76,243,106891,5,4,0:0:0:0:
131,310,107120,1,2,0:0:0:0:
131,310,107349,2,0,L|211:316,1,80,8|2,0:3|0:0,0:0:0:0:
276,259,107807,2,0,L|356:265,1,80,8|2,0:3|0:0,0:0:0:0:
421,208,108265,2,0,L|501:214,1,80,8|8,0:3|0:0,0:0:0:0:
507,127,108723,6,0,L|427:121,1,80,4|8,0:0|0:3,0:0:0:0:
383,129,109067,1,4,0:0:0:0:
345,50,109296,1,8,0:0:0:0:
266,88,109525,2,0,L|226:88,1,40,4|0,0:0|0:0,0:0:0:0:
147,50,109868,5,4,0:0:0:0:
109,129,110097,2,0,L|115:209,1,80,4|0,0:0|0:0,0:0:0:0:
144,241,110441,1,4,0:0:0:0:
256,192,110555,12,0,117654,0:0:0:0:
