osu file format v14

[General]
AudioFilename: Audio.mp3
AudioLeadIn: 0
PreviewTime: 65555
Countdown: 0
SampleSet: Soft
StackLeniency: 0.5
Mode: 0
LetterboxInBreaks: 0
WidescreenStoryboard: 1

[Editor]
Bookmarks: 22616
DistanceSpacing: 0.7
BeatDivisor: 4
GridSize: 16
TimelineZoom: 1.7

[Metadata]
Title:eyes to eyes
TitleUnicode:eyes to eyes
Artist:Duca
ArtistUnicode:Duca
Creator:Dored
Version:Dalou's Insane
Source:想いを捧げる乙女のメロディー
Tags:Omoi wo Sasageru Otome no Melody Galgame Eroge Opening Short Version ensemble [Kamiya] DalouBot Misure chokix
BeatmapID:1704995
BeatmapSetID:805869

[Difficulty]
HPDrainRate:6.4
CircleSize:3.8
OverallDifficulty:7
ApproachRate:8.2
SliderMultiplier:1.7
SliderTickRate:1

[Events]
//Background and Video events
0,0,"Misaki.jpg",0,0
Video,0,"Video.mp4"
//Break Periods
//Storyboard Layer 0 (Background)
//Storyboard Layer 1 (Fail)
//Storyboard Layer 2 (Pass)
//Storyboard Layer 3 (Foreground)
//Storyboard Sound Samples

[TimingPoints]
632,458.015267175573,4,2,9,55,1,0
7960,-100,4,2,9,65,0,0
20326,-100,4,2,9,50,0,0
20784,-100,4,2,9,55,0,0
21586,-100,4,2,8,55,0,0
22616,-100,4,2,9,55,0,0
36128,-100,4,2,9,50,0,0
37273,-100,4,2,9,55,0,0
38532,-100,4,2,9,60,0,0
39105,-100,4,2,9,55,0,0
43456,-100,4,2,9,50,0,0
44601,-100,4,2,9,55,0,0
45861,-100,4,2,9,60,0,0
46433,-100,4,2,9,55,0,0
50784,-100,4,2,9,50,0,0
51929,-111.111111111111,4,2,9,50,0,0
52158,-111.111111111111,4,2,8,50,0,0
59257,-111.111111111111,4,2,9,50,0,0
59486,-111.111111111111,4,2,8,50,0,0
62922,-83.3333333333333,4,2,9,60,0,0
64754,-100,4,2,9,60,0,0
66586,-83.3333333333333,4,2,9,80,0,1
79410,-76.9230769230769,4,2,9,80,0,1
80326,-83.3333333333333,4,2,9,80,0,1
92235,-76.9230769230769,4,2,9,80,0,1
95212,-83.3333333333333,4,2,9,80,0,1
95899,-100,4,2,9,65,0,0
107349,-100,4,2,9,50,0,0
107578,-100,4,2,9,65,0,0
108265,-100,4,2,9,50,0,0
109525,-100,4,2,8,50,0,0
109868,-100,4,2,9,50,0,0
110555,-100,4,2,9,45,0,0
112387,-100,4,2,9,35,0,0
114219,-100,4,2,9,25,0,0
116051,-100,4,2,9,15,0,0
117654,-100,4,2,9,5,0,0

[Colours]
Combo1 : 255,128,192
Combo2 : 188,135,75
Combo3 : 232,0,116
Combo4 : 128,64,64

[HitObjects]
151,177,632,6,0,L|243:170,1,85,2|0,0:0|0:0,0:0:0:0:
276,250,975,2,0,L|368:243,1,85,2|0,0:0|0:0,0:0:0:0:
450,239,1319,1,2,0:0:0:0:
231,86,1777,1,0,0:0:0:0:
63,113,2006,1,0,0:0:0:0:
148,262,2235,6,0,L|151:178,1,85,2|0,0:0|0:0,0:0:0:0:
303,248,2693,1,0,0:0:0:0:
401,113,2922,2,0,L|396:16,1,85,2|0,0:0|0:0,0:0:0:0:
231,86,3380,2,0,L|236:183,1,85,2|0,0:0|0:0,0:0:0:0:
451,277,3838,2,0,L|446:180,1,85,2|0,0:0|0:0,0:0:0:0:
303,248,4296,6,0,L|210:255,1,85,2|0,0:0|0:0,0:0:0:0:
152,194,4639,2,0,L|59:201,1,85,2|0,0:0|0:0,0:0:0:0:
2,138,4983,1,2,0:0:0:0:
170,322,5441,1,0,0:0:0:0:
235,170,5670,1,0,0:0:0:0:
380,255,5899,6,0,L|384:339,1,85,2|0,0:0|0:0,0:0:0:0:
503,186,6357,1,0,0:0:0:0:
445,36,6586,2,0,L|333:41,1,85,2|0,0:0|0:0,0:0:0:0:
235,170,7044,2,0,L|347:175,1,85,2|0,0:0|0:0,0:0:0:0:
407,279,7502,1,2,0:0:0:0:
402,311,7616,1,0,0:0:0:0:
384,339,7731,1,0,0:0:0:0:
356,358,7845,1,0,0:0:0:0:
322,362,7960,6,0,L|209:352,1,85,6|0,0:0|0:0,0:0:0:0:
235,170,8418,1,8,0:0:0:0:
72,194,8647,1,2,0:0:0:0:
60,225,8761,1,2,0:0:0:0:
57,259,8876,2,0,L|67:353,1,85,0|2,0:0|0:0,0:0:0:0:
211,254,9334,1,8,0:0:0:0:
151,90,9563,1,2,0:0:0:0:
309,24,9792,6,0,P|323:63|320:105,1,85,2|0,0:0|0:0,0:0:0:0:
304,193,10135,1,2,0:0:0:0:
151,90,10364,1,2,0:0:0:0:
57,259,10593,1,2,0:0:0:0:
91,257,10708,2,0,L|196:251,1,85
316,274,11166,2,0,P|318:231|303:192,1,85,8|0,0:0|0:0,0:0:0:0:
225,369,11624,5,2,0:0:0:0:
86,341,11853,2,0,L|91:257,1,85,0|8,0:0|0:0,0:0:0:0:
185,150,12311,1,2,0:0:0:0:
212,169,12425,2,0,L|223:20,1,127.5,2|0,0:0|0:0,0:0:0:0:
418,130,12998,1,8,0:0:0:0:
347,31,13227,1,0,0:0:0:0:
333,215,13456,1,2,0:0:0:0:
123,166,13685,6,0,L|56:182,1,42.5,2|2,0:0|0:0,0:0:0:0:
212,169,13914,2,0,L|230:103,1,42.5,10|2,0:0|0:0,0:0:0:0:
165,245,14143,1,0,0:0:0:0:
402,271,14372,6,0,L|442:326,1,42.5,2|2,0:0|0:0,0:0:0:0:
333,215,14601,2,0,L|360:152,1,42.5,2|2,0:0|0:0,0:0:0:0:
319,302,14830,2,0,L|254:312,1,42.5,8|0,0:0|0:0,0:0:0:0:
189,323,15059,1,0,0:0:0:0:
81,175,15288,6,0,P|138:165|201:181,1,85,6|0,0:0|0:0,0:0:0:0:
333,215,15746,1,8,0:0:0:0:
438,86,15975,1,0,0:0:0:0:
426,53,16090,1,2,0:0:0:0:
409,24,16204,2,0,L|289:33,1,85,0|2,0:0|0:0,0:0:0:0:
245,185,16662,1,8,0:0:0:0:
106,82,16891,1,0,0:0:0:0:
32,266,17120,6,0,L|116:261,1,85,2|0,0:0|0:0,0:0:0:0:
201,258,17464,1,2,0:0:0:0:
284,95,17693,1,2,0:0:0:0:
391,248,17922,1,0,0:0:0:0:
409,276,18036,1,2,0:0:0:0:
201,258,18265,2,0,L|116:261,2,85,0|8|2,0:0|0:0|0:0,0:0:0:0:
343,324,18952,5,2,0:0:0:0:
341,151,19181,2,0,P|299:146|258:153,1,85,0|8,0:0|0:0,0:0:0:0:
114,178,19639,1,2,0:0:0:0:
104,145,19754,1,2,0:0:0:0:
100,111,19868,2,0,L|112:58,3,42.5,0|0|0|0,0:0|0:0|0:0|0:0,0:0:0:0:
139,36,20326,5,8,0:0:0:0:
173,20,20441,1,2,0:0:0:0:
211,21,20555,1,2,0:0:0:0:
247,38,20670,1,2,0:0:0:0:
267,69,20784,6,0,L|258:153,1,85,6|0,0:0|0:0,0:0:0:0:
232,239,21128,1,10,0:0:0:0:
356,339,21357,1,10,0:0:0:0:
444,208,21586,1,10,0:0:0:0:
444,208,22616,6,0,L|436:104,1,85,6|0,0:0|0:0,0:0:0:0:
431,90,22960,1,0,0:0:0:0:
421,59,23074,1,8,0:0:0:0:
267,69,23303,1,2,0:0:0:0:
176,222,23532,2,0,L|273:217,1,85,2|0,0:0|0:0,0:0:0:0:
350,213,23876,1,0,0:0:0:0:
379,231,23990,2,0,L|385:287,1,42.5,8|0,0:0|0:0,0:0:0:0:
390,362,24219,1,2,0:0:0:0:
235,327,24448,5,0,0:0:0:0:
82,358,24677,2,0,L|16:372,2,42.5,2|0|8,0:0|0:0|0:0,0:0:0:0:
156,222,25135,1,0,0:0:0:0:
7,163,25364,2,0,L|3:274,1,85,2|0,0:0|0:0,0:0:0:0:
156,222,25822,2,0,L|159:120,1,85,10|0,0:0|0:0,0:0:0:0:
306,72,26280,6,0,L|418:81,1,85,2|0,0:0|0:0,0:0:0:0:
425,82,26624,1,2,0:0:0:0:
459,85,26738,1,8,0:0:0:0:
505,237,26967,1,2,0:0:0:0:
476,255,27082,1,0,0:0:0:0:
443,263,27196,2,0,P|388:262|339:228,1,85
230,167,27654,2,0,L|227:251,1,85,8|0,0:0|0:0,0:0:0:0:
88,339,28112,6,0,P|75:293|84:243,1,85,2|0,0:0|0:0,0:0:0:0:
123,178,28456,1,0,0:0:0:0:
134,147,28570,2,0,L|130:86,1,42.5,8|0,0:0|0:0,0:0:0:0:
122,16,28799,1,2,0:0:0:0:
284,22,29028,2,0,L|281:106,1,85,2|0,0:0|0:0,0:0:0:0:
277,271,29486,1,8,0:0:0:0:
419,223,29715,1,0,0:0:0:0:
445,72,29944,6,0,L|350:65,1,85,2|0,0:0|0:0,0:0:0:0:
281,106,30288,2,0,L|186:100,1,85,2|0,0:0|0:0,0:0:0:0:
107,95,30632,1,2,0:0:0:0:
33,232,30861,2,0,P|80:238|120:225,1,85,2|0,0:0|0:0,0:0:0:0:
196,100,31319,1,8,0:0:0:0:
322,185,31548,5,0,0:0:0:0:
324,217,31662,1,0,0:0:0:0:
326,249,31777,1,2,0:0:0:0:
476,297,32006,1,2,0:0:0:0:
475,264,32120,2,0,L|469:145,1,85,2|0,0:0|0:0,0:0:0:0:
467,91,32464,1,0,0:0:0:0:
316,100,32693,2,0,L|321:184,1,85,2|0,0:0|0:0,0:0:0:0:
331,333,33151,1,8,0:0:0:0:
170,343,33380,5,0,0:0:0:0:
154,312,33494,1,0,0:0:0:0:
145,278,33609,2,0,P|146:231|167:179,1,85,2|0,0:0|0:0,0:0:0:0:
200,118,33952,1,2,0:0:0:0:
322,185,34181,1,0,0:0:0:0:
434,41,34410,2,0,P|373:23|297:45,1,127.5,2|0,0:0|0:0,0:0:0:0:
200,118,34983,1,8,0:0:0:0:
226,304,35212,6,0,P|299:264|322:185,1,170,6|2,0:0|0:0,0:0:0:0:
200,118,35899,1,8,0:0:0:0:
166,119,36013,1,0,0:0:0:0:
134,132,36128,1,2,0:0:0:0:
105,149,36242,1,2,0:0:0:0:
70,147,36357,2,0,L|14:130,3,42.5,10|2|2|2,0:0|0:0|0:0|0:0,0:0:0:0:
38,236,36815,2,0,L|94:253,3,42.5,10|2|10|2,0:0|0:0|0:0|0:0,0:0:0:0:
188,308,37273,6,0,L|189:221,1,85,4|0,0:0|0:0,0:0:0:0:
324,99,37731,2,0,L|319:205,1,85,10|0,0:0|0:0,0:0:0:0:
461,198,38189,2,0,L|469:301,1,85,2|0,0:0|0:0,0:0:0:0:
473,370,38533,2,0,L|368:363,1,85,2|0,0:0|0:0,0:0:0:0:
301,357,38876,1,2,0:0:0:0:
189,223,39105,6,0,P|181:181|189:139,1,85,2|0,0:0|0:0,0:0:0:0:
300,30,39563,1,8,0:0:0:0:
424,123,39792,1,0,0:0:0:0:
416,155,39906,1,0,0:0:0:0:
405,187,40021,2,0,L|309:183,1,85,2|0,0:0|0:0,0:0:0:0:
189,140,40479,1,8,0:0:0:0:
168,167,40593,2,0,L|166:221,1,42.5,0|0,0:0|0:0,0:0:0:0:
149,294,40822,6,0,L|257:288,1,85,2|0,0:0|0:0,0:0:0:0:
325,284,41166,1,2,0:0:0:0:
476,351,41395,1,10,0:0:0:0:
440,189,41624,5,0,0:0:0:0:
405,187,41738,2,0,L|309:183,1,85,2|0,0:0|0:0,0:0:0:0:
233,179,42082,1,2,0:0:0:0:
86,251,42311,1,10,0:0:0:0:
115,89,42540,5,0,0:0:0:0:
150,87,42654,2,0,L|258:81,1,85,2|0,0:0|0:0,0:0:0:0:
326,77,42998,1,2,0:0:0:0:
440,189,43227,1,8,0:0:0:0:
437,222,43341,1,0,0:0:0:0:
423,253,43456,1,2,0:0:0:0:
399,276,43570,1,2,0:0:0:0:
381,305,43685,2,0,L|388:364,3,42.5,10|2|2|2,0:0|0:0|0:0|0:0,0:0:0:0:
283,308,44143,2,0,L|276:249,3,42.5,10|2|2|2,0:0|0:0|0:0|0:0,0:0:0:0:
152,309,44601,6,0,P|142:264|154:215,1,85,6|0,0:0|0:0,0:0:0:0:
178,90,45059,2,0,P|218:103|251:129,1,85,8|0,0:0|0:0,0:0:0:0:
278,266,45517,2,0,L|362:261,1,85,2|0,0:0|0:0,0:0:0:0:
453,267,45861,2,0,L|456:158,1,85,2|0,0:0|0:0,0:0:0:0:
459,93,46204,1,2,0:0:0:0:
321,28,46433,6,0,L|318:112,1,85,2|2,0:0|0:0,0:0:0:0:
178,90,46891,1,8,0:0:0:0:
171,241,47120,2,0,L|169:307,2,42.5,2|2|2,0:0|0:0|0:0,0:0:0:0:
23,233,47578,1,2,0:0:0:0:
93,88,47807,2,0,L|196:90,1,85,10|0,0:0|0:0,0:0:0:0:
268,87,48151,6,0,L|262:195,1,85,0|0,0:0|0:0,0:0:0:0:
259,263,48495,1,2,0:0:0:0:
142,336,48724,1,8,0:0:0:0:
22,268,48953,5,2,0:0:0:0:
23,233,49067,2,0,L|27:137,1,85,2|0,0:0|0:0,0:0:0:0:
31,61,49411,1,0,0:0:0:0:
157,6,49640,1,8,0:0:0:0:
268,87,49868,6,0,L|263:171,1,85,6|0,0:0|0:0,0:0:0:0:
178,291,50326,1,0,0:0:0:0:
96,170,50555,2,0,P|140:153|195:157,1,85,8|2,0:0|0:0,0:0:0:0:
263,172,50899,1,2,0:0:0:0:
287,198,51013,2,0,L|283:255,3,42.5,10|2|2|2,0:0|0:0|0:0|0:0,0:0:0:0:
272,283,51471,5,10,0:0:0:0:
284,319,51586,1,2,0:0:0:0:
314,341,51700,1,2,0:0:0:0:
351,349,51815,1,2,0:0:0:0:
384,342,51929,6,0,P|434:309|452:268,1,76.4999976654053,4|0,0:0|0:0,0:0:0:0:
466,178,52387,2,0,P|442:148|409:127,1,76.4999976654053,2|0,0:0|0:0,0:0:0:0:
290,121,52845,2,0,L|286:209,1,76.4999976654053,0|0,0:0|3:0,0:0:0:0:
410,128,53303,2,0,L|414:40,1,76.4999976654053,8|0,0:0|3:0,0:0:0:0:
290,121,53761,5,6,0:0:0:0:
225,24,53990,1,2,0:0:0:0:
113,56,54219,1,2,0:0:0:0:
178,153,54448,2,0,P|177:193|165:227,1,76.4999976654053,0|0,3:0|0:0,0:0:0:0:
78,298,54906,1,0,0:0:0:0:
19,188,55135,2,0,P|55:174|92:175,1,76.4999976654053,10|0,0:0|3:0,0:0:0:0:
266,227,55593,6,0,P|293:177|289:120,2,114.749996498108,4|2|0,0:0|0:0|3:0,0:0:0:0:
178,153,56509,2,0,L|174:76,1,76.4999976654053,2|0,0:0|0:0,0:0:0:0:
286,44,56967,2,0,L|290:121,1,76.4999976654053,8|0,0:0|3:0,0:0:0:0:
382,249,57425,6,0,P|442:242|487:200,2,114.749996498108,4|2|0,0:0|0:0|3:0,0:0:0:0:
266,227,58341,2,0,L|171:197,1,76.4999976654053,2|2,0:0|0:0,0:0:0:0:
116,177,58685,2,0,P|115:233|151:275,1,114.749996498108,2|0,0:0|3:0,0:0:0:0:
273,303,59257,6,0,L|265:224,1,76.4999976654053,4|0,0:0|0:0,0:0:0:0:
209,120,59715,2,0,P|245:107|283:106,1,76.4999976654053,2|0,0:0|0:0,0:0:0:0:
404,110,60173,2,0,P|396:148|378:181,1,76.4999976654053,2|0,0:0|0:0,0:0:0:0:
313,283,60632,2,0,P|284:258|265:226,1,76.4999976654053,8|0,0:0|3:0,0:0:0:0:
209,120,61090,6,0,L|124:110,1,76.4999976654053,6|0,0:0|3:0,0:0:0:0:
50,108,61433,2,0,P|34:153|46:207,1,76.4999976654053
119,195,61777,1,2,0:0:0:0:
79,294,62006,5,2,0:0:0:0:
164,372,62235,1,4,0:0:0:0:
288,369,62464,1,8,0:0:0:0:
381,276,62693,1,4,0:0:0:0:
402,135,62922,6,0,P|356:82|365:147,1,152.999995330811,6|0,0:0|0:0,0:0:0:0:
58,186,63838,6,0,P|13:141|83:151,1,152.999995330811,6|2,0:0|0:0,0:0:0:0:
205,263,64754,6,0,L|213:348,1,85,6|0,0:0|0:0,0:0:0:0:
350,143,65212,2,0,L|355:34,1,85,6|0,0:0|0:0,0:0:0:0:
272,203,65670,5,6,0:0:0:0:
182,11,66013,1,2,0:0:0:0:
58,186,66357,1,2,0:0:0:0:
112,353,66586,6,0,L|228:348,1,101.999996887207,6|0,0:0|0:0,0:0:0:0:
268,274,66929,1,0,0:0:0:0:
304,272,67044,2,0,L|420:267,1,101.999996887207,10|0,0:0|0:0,0:0:0:0:
445,66,67502,2,0,L|329:71,1,101.999996887207,2|0,0:0|0:0,0:0:0:0:
186,172,67960,2,0,P|227:197|281:196,1,101.999996887207,10|0,0:0|0:0,0:0:0:0:
255,101,68303,1,0,0:0:0:0:
231,73,68418,6,0,P|179:63|117:87,1,101.999996887207,2|0,0:0|0:0,0:0:0:0:
42,124,68761,1,0,0:0:0:0:
35,160,68876,2,0,L|46:266,1,101.999996887207,8|0,0:0|0:0,0:0:0:0:
143,293,69219,1,2,0:0:0:0:
173,313,69334,2,0,L|236:308,1,50.9999984436036,0|0,0:0|0:0,0:0:0:0:
325,336,69563,5,0,0:0:0:0:
341,304,69677,1,0,0:0:0:0:
347,268,69792,1,8,0:0:0:0:
346,232,69906,1,0,0:0:0:0:
339,196,70021,1,2,0:0:0:0:
322,164,70135,1,0,0:0:0:0:
299,136,70250,6,0,B|252:132|252:132|187:155,1,101.999996887207,2|0,0:0|0:0,0:0:0:0:
119,208,70593,1,0,0:0:0:0:
82,200,70708,2,0,B|47:153|83:83,1,101.999996887207,8|0,0:0|0:0,0:0:0:0:
153,41,71051,1,2,0:0:0:0:
188,46,71166,2,0,L|263:56,1,50.9999984436036,0|0,0:0|0:0,0:0:0:0:
299,136,71395,1,2,0:0:0:0:
450,28,71624,1,10,0:0:0:0:
489,229,71853,1,0,0:0:0:0:
305,354,72082,6,0,P|307:288|345:241,1,101.999996887207,2|2,0:0|0:0,0:0:0:0:
390,187,72425,1,2,0:0:0:0:
399,152,72540,2,0,L|394:99,1,50.9999984436036,8|0,0:0|0:0,0:0:0:0:
383,10,72769,1,2,0:0:0:0:
236,165,72998,1,0,0:0:0:0:
90,23,73227,1,0,0:0:0:0:
27,245,73456,1,8,0:0:0:0:
62,251,73570,2,0,P|123:252|187:237,1,101.999996887207,2|0,0:0|0:0,0:0:0:0:
236,165,73914,6,0,B|225:107|225:107|260:52,1,101.999996887207,6|0,0:0|0:0,0:0:0:0:
338,32,74257,1,0,0:0:0:0:
373,36,74372,2,0,L|490:55,1,101.999996887207,10|0,0:0|0:0,0:0:0:0:
509,236,74830,2,0,P|459:242|411:227,1,101.999996887207,2|0,0:0|0:0,0:0:0:0:
236,164,75288,2,0,P|224:214|232:264,1,101.999996887207,10|0,0:0|0:0,0:0:0:0:
288,361,75632,5,0,0:0:0:0:
253,354,75746,2,0,P|180:357|131:376,1,101.999996887207,2|0,0:0|0:0,0:0:0:0:
58,337,76090,1,0,0:0:0:0:
44,304,76204,2,0,L|41:183,1,101.999996887207,8|0,0:0|0:0,0:0:0:0:
76,111,76548,1,0,0:0:0:0:
111,108,76662,2,0,L|178:103,1,50.9999984436036,2|0,0:0|0:0,0:0:0:0:
255,69,76891,1,0,0:0:0:0:
231,263,77120,1,10,0:0:0:0:
439,269,77349,1,0,0:0:0:0:
437,233,77464,1,0,0:0:0:0:
434,197,77578,5,2,0:0:0:0:
255,69,77807,1,0,0:0:0:0:
257,106,77922,1,0,0:0:0:0:
259,141,78036,2,0,B|141:145,1,101.999996887207,10|0,0:0|0:0,0:0:0:0:
61,165,78380,1,0,0:0:0:0:
51,199,78494,6,0,L|55:256,1,50.9999984436036,2|0,0:0|0:0,0:0:0:0:
61,344,78723,1,0,0:0:0:0:
157,144,78952,1,10,0:0:0:0:
285,325,79181,1,2,0:0:0:0:
378,124,79410,6,0,P|323:97|268:114,1,110.499994941712,6|0,0:0|0:0,0:0:0:0:
398,205,79754,2,0,P|447:170|460:114,1,110.499994941712,12|0,0:0|0:0,0:0:0:0:
317,181,80097,1,4,0:0:0:0:
204,291,80326,5,2,0:0:0:0:
166,307,80441,1,0,0:0:0:0:
125,307,80555,1,0,0:0:0:0:
86,293,80670,1,0,0:0:0:0:
57,263,80784,2,0,L|40:196,1,50.9999984436036,10|0,0:0|0:0,0:0:0:0:
4,119,81013,2,0,L|19:55,1,50.9999984436036,2|0,0:0|0:0,0:0:0:0:
116,43,81242,6,0,L|231:37,1,101.999996887207,6|0,0:0|0:0,0:0:0:0:
278,108,81585,1,0,0:0:0:0:
314,106,81700,2,0,L|429:100,1,101.999996887207,10|0,0:0|0:0,0:0:0:0:
464,297,82158,2,0,L|348:302,1,101.999996887207,2|0,0:0|0:0,0:0:0:0:
186,219,82616,2,0,P|229:194|281:195,1,101.999996887207,10|0,0:0|0:0,0:0:0:0:
255,290,82959,1,0,0:0:0:0:
231,318,83074,6,0,P|179:328|117:304,1,101.999996887207,2|0,0:0|0:0,0:0:0:0:
42,260,83417,1,0,0:0:0:0:
35,224,83532,2,0,L|46:118,1,101.999996887207,8|0,0:0|0:0,0:0:0:0:
128,53,83875,1,2,0:0:0:0:
167,64,83990,2,0,L|233:62,1,50.9999984436036,0|0,0:0|0:0,0:0:0:0:
323,54,84219,5,0,0:0:0:0:
339,86,84333,1,0,0:0:0:0:
346,121,84448,1,8,0:0:0:0:
347,156,84562,1,0,0:0:0:0:
340,191,84677,1,2,0:0:0:0:
324,222,84792,1,0,0:0:0:0:
299,248,84906,6,0,B|252:252|252:252|187:229,1,101.999996887207,2|0,0:0|0:0,0:0:0:0:
119,176,85249,1,0,0:0:0:0:
82,184,85364,2,0,B|47:231|83:301,1,101.999996887207,8|0,0:0|0:0,0:0:0:0:
153,343,85707,1,2,0:0:0:0:
188,338,85822,2,0,L|263:328,1,50.9999984436036,0|0,0:0|0:0,0:0:0:0:
299,248,86051,1,2,0:0:0:0:
466,358,86280,1,8,0:0:0:0:
482,137,86509,1,0,0:0:0:0:
303,20,86738,6,0,P|275:62|270:112,1,101.999996887207,2|2,0:0|0:0,0:0:0:0:
281,217,87081,1,2,0:0:0:0:
299,248,87196,2,0,L|370:239,1,50.9999984436036,8|0,0:0|0:0,0:0:0:0:
450,229,87425,1,2,0:0:0:0:
270,112,87654,1,2,0:0:0:0:
238,331,87883,1,2,0:0:0:0:
75,203,88112,1,10,0:0:0:0:
60,171,88227,1,2,0:0:0:0:
58,136,88341,1,2,0:0:0:0:
67,102,88456,1,2,0:0:0:0:
86,70,88570,6,0,B|131:56|131:56|215:69,1,101.999996887207,6|0,0:0|0:0,0:0:0:0:
270,112,88913,1,0,0:0:0:0:
305,108,89028,2,0,L|422:89,1,101.999996887207,10|0,0:0|0:0,0:0:0:0:
468,268,89486,2,0,P|418:280|368:274,1,101.999996887207,2|0,0:0|0:0,0:0:0:0:
278,212,89830,1,0,0:0:0:0:
243,203,89944,2,0,L|237:277,1,50.9999984436036,8|0,0:0|0:0,0:0:0:0:
232,357,90173,1,2,0:0:0:0:
95,202,90402,5,4,0:0:0:0:
269,111,90632,2,0,P|281:161|277:212,1,101.999996887207,2|8,0:0|0:0,0:0:0:0:
232,357,91090,1,0,0:0:0:0:
433,253,91319,5,2,0:0:0:0:
187,170,91548,1,0,0:0:0:0:
439,67,91777,1,10,0:0:0:0:
447,101,91891,1,0,0:0:0:0:
449,137,92006,1,2,0:0:0:0:
238,40,92235,6,0,P|186:29|120:46,1,110.499994941712,6|0,0:0|0:0,0:0:0:0:
71,112,92578,1,10,0:0:0:0:
205,252,92807,1,12,0:0:0:0:
390,221,93036,2,0,L|381:104,1,110.499994941712,6|0,0:0|0:0,0:0:0:0:
376,26,93380,1,12,0:0:0:0:
238,40,93609,5,2,0:0:0:0:
244,124,93723,2,0,L|249:192,1,55.2499974708558,14|2,0:0|0:0,0:0:0:0:
205,252,93952,1,0,0:0:0:0:
132,292,94067,6,0,P|122:231|154:183,1,110.499994941712,6|0,0:0|0:0,0:0:0:0:
203,336,94411,2,0,P|155:372|97:368,1,110.499994941712,6|0,0:0|0:0,0:0:0:0:
205,252,94754,2,0,P|272:279|294:328,1,110.499994941712,6|0,0:0|0:0,0:0:0:0:
241,83,95212,5,2,0:0:0:0:
63,218,95441,1,0,0:0:0:0:
51,257,95555,1,0,0:0:0:0:
58,298,95670,1,0,0:0:0:0:
85,330,95784,1,0,0:0:0:0:
118,343,95899,6,0,L|231:333,1,85,6|0,0:0|0:0,0:0:0:0:
228,162,96357,1,8,0:0:0:0:
390,190,96586,1,0,0:0:0:0:
402,221,96700,1,2,0:0:0:0:
405,255,96815,2,0,L|395:349,1,85,0|2,0:0|0:0,0:0:0:0:
251,250,97273,1,8,0:0:0:0:
311,86,97502,1,2,0:0:0:0:
153,20,97731,6,0,P|139:59|142:101,1,85,2|0,0:0|0:0,0:0:0:0:
158,189,98074,1,2,0:0:0:0:
311,86,98303,1,2,0:0:0:0:
405,255,98532,1,2,0:0:0:0:
371,253,98647,2,0,L|266:247,1,85,2|0,0:0|0:0,0:0:0:0:
146,270,99105,2,0,P|144:227|159:188,1,85,8|0,0:0|0:0,0:0:0:0:
237,365,99563,5,2,0:0:0:0:
376,337,99792,2,0,L|371:253,1,85,0|8,0:0|0:0,0:0:0:0:
277,146,100250,1,2,0:0:0:0:
250,165,100364,2,0,L|239:16,1,127.5,2|0,0:0|0:0,0:0:0:0:
44,126,100937,1,8,0:0:0:0:
115,27,101166,1,0,0:0:0:0:
129,211,101395,1,2,0:0:0:0:
339,162,101624,6,0,L|406:178,1,42.5,2|2,0:0|0:0,0:0:0:0:
250,165,101853,2,0,L|232:99,1,42.5,10|2,0:0|0:0,0:0:0:0:
297,241,102082,1,0,0:0:0:0:
60,267,102311,6,0,L|20:322,1,42.5,2|2,0:0|0:0,0:0:0:0:
129,211,102540,2,0,L|102:148,1,42.5,2|2,0:0|0:0,0:0:0:0:
143,298,102769,2,0,L|208:308,1,42.5,8|0,0:0|0:0,0:0:0:0:
273,319,102998,1,2,0:0:0:0:
381,171,103227,6,0,P|324:161|261:177,1,85,6|0,0:0|0:0,0:0:0:0:
129,211,103685,1,8,0:0:0:0:
24,82,103914,1,0,0:0:0:0:
36,49,104029,1,2,0:0:0:0:
53,20,104143,2,0,L|173:29,1,85,0|2,0:0|0:0,0:0:0:0:
217,181,104601,1,8,0:0:0:0:
356,78,104830,1,0,0:0:0:0:
443,260,105059,6,0,L|359:255,1,85,6|0,0:0|0:0,0:0:0:0:
274,252,105403,1,6,0:0:0:0:
144,166,105632,6,0,L|140:228,1,42.5,2|0,0:0|0:0,0:0:0:0:
135,297,105861,1,6,0:0:0:0:
274,252,106090,5,2,0:0:0:0:
311,254,106204,2,0,L|396:257,2,85,2|8|0,0:0|0:0|0:0,0:0:0:0:
135,297,106891,5,2,0:0:0:0:
60,169,107120,2,0,P|102:161|149:167,1,85,0|10,0:0|0:0,0:0:0:0:
302,166,107578,1,2,0:0:0:0:
312,133,107693,1,2,0:0:0:0:
316,99,107807,2,0,L|304:46,3,42.5,0|0|0|0,0:0|0:0|0:0|0:0,0:0:0:0:
277,24,108265,5,10,0:0:0:0:
243,8,108380,1,2,0:0:0:0:
205,9,108494,1,2,0:0:0:0:
172,27,108609,1,2,0:0:0:0:
154,61,108723,6,0,L|163:145,1,85,6|0,0:0|0:0,0:0:0:0:
199,226,109067,1,10,0:0:0:0:
76,324,109296,1,10,0:0:0:0:
0,186,109525,1,10,0:0:0:0:
76,324,109868,5,4,0:0:0:0:
199,226,110097,2,0,P|222:260|229:302,1,85,4|0,0:0|0:0,0:0:0:0:
187,379,110441,1,4,0:0:0:0:
256,192,110555,12,0,117654,0:0:0:0:
