osu file format v14

[General]
AudioFilename: audio.mp3
AudioLeadIn: 0
PreviewTime: 50366
Countdown: 0
SampleSet: Normal
StackLeniency: 0.7
Mode: 1
LetterboxInBreaks: 0
WidescreenStoryboard: 0

[Editor]
Bookmarks: 13751,25181,36611,59382,62329,70812
DistanceSpacing: 1.1
BeatDivisor: 4
GridSize: 32
TimelineZoom: 0.9000005

[Metadata]
Title:eternal
TitleUnicode:eternal
Artist:Duca
ArtistUnicode:Duca
Creator:yuzu__rinrin
Version:chaica's Futsuu
Source:恋する気持ちのかさねかた
Tags:Koi Suru Kimochi no Kasanekata Eroge Ending ensemble Visual Novel YOUTA YOUTAEES chaica toara_fict
BeatmapID:1074080
BeatmapSetID:500956

[Difficulty]
HPDrainRate:7
CircleSize:6
OverallDifficulty:4
ApproachRate:9
SliderMultiplier:1.4
SliderTickRate:1

[Events]
//Background and Video events
0,0,"EVA_01a.jpg",0,80
//Break Periods
//Storyboard Layer 0 (Background)
//Storyboard Layer 1 (Fail)
//Storyboard Layer 2 (Pass)
//Storyboard Layer 3 (Foreground)
//Storyboard Sound Samples

[TimingPoints]
902,357.142857142857,4,1,0,80,1,0
13759,-100,4,1,0,70,0,0
36616,-100,4,1,0,65,0,0
46616,-100,4,1,0,75,0,0
49651,-100,4,1,0,80,0,0
50901,-100,4,1,0,90,0,1
79473,-100,4,1,0,80,0,0

[HitObjects]
256,192,2330,5,4,0:0:0:0:
256,192,3044,1,8,0:0:0:0:
256,192,3580,1,0,0:0:0:0:
256,192,3937,1,0,0:0:0:0:
256,192,4116,1,8,0:0:0:0:
256,192,4473,1,8,0:0:0:0:
256,192,4830,1,0,0:0:0:0:
256,192,5187,1,0,0:0:0:0:
256,192,5901,1,8,0:0:0:0:
256,192,6259,1,8,0:0:0:0:
256,192,6437,1,0,0:0:0:0:
256,192,6794,1,0,0:0:0:0:
256,192,7151,1,8,0:0:0:0:
256,192,7687,1,8,0:0:0:0:
256,192,8044,1,0,0:0:0:0:
256,192,8759,1,8,0:0:0:0:
256,192,9294,1,0,0:0:0:0:
256,192,9651,1,0,0:0:0:0:
256,192,9830,1,8,0:0:0:0:
256,192,10187,1,8,0:0:0:0:
256,192,10544,1,0,0:0:0:0:
256,192,10901,1,0,0:0:0:0:
256,192,11616,1,0,0:0:0:0:
256,192,11973,1,0,0:0:0:0:
256,192,12330,1,8,0:0:0:0:
256,192,13044,1,12,0:0:0:0:
256,192,13759,1,0,0:0:0:0:
256,192,14116,1,8,0:0:0:0:
256,192,14473,1,0,0:0:0:0:
256,192,14830,1,8,0:0:0:0:
256,192,15009,1,0,0:0:0:0:
256,192,15366,1,0,0:0:0:0:
256,192,15723,1,0,0:0:0:0:
256,192,15901,1,8,0:0:0:0:
256,192,16616,1,0,0:0:0:0:
256,192,16973,1,8,0:0:0:0:
256,192,17151,1,8,0:0:0:0:
256,192,17509,1,8,0:0:0:0:
256,192,17866,1,0,0:0:0:0:
256,192,18223,1,0,0:0:0:0:
256,192,18580,1,8,0:0:0:0:
256,192,18759,1,0,0:0:0:0:
256,192,19473,1,0,0:0:0:0:
256,192,19830,1,8,0:0:0:0:
256,192,20187,1,0,0:0:0:0:
256,192,20544,1,8,0:0:0:0:
256,192,20901,1,0,0:0:0:0:
256,192,21259,1,0,0:0:0:0:
256,192,21437,1,8,0:0:0:0:
256,192,21973,1,0,0:0:0:0:
256,192,22330,1,8,0:0:0:0:
256,192,22687,1,0,0:0:0:0:
256,192,23044,1,8,0:0:0:0:
256,192,23401,1,8,0:0:0:0:
256,192,23759,1,0,0:0:0:0:
256,192,24116,1,0,0:0:0:0:
256,192,24294,1,0,0:0:0:0:
256,192,25187,1,0,0:0:0:0:
256,192,25544,1,8,0:0:0:0:
256,192,25901,1,0,0:0:0:0:
256,192,26259,1,8,0:0:0:0:
256,192,26437,1,0,0:0:0:0:
256,192,26794,1,0,0:0:0:0:
256,192,27151,1,0,0:0:0:0:
256,192,27330,1,8,0:0:0:0:
256,192,28044,1,0,0:0:0:0:
256,192,28401,1,0,0:0:0:0:
256,192,28580,1,8,0:0:0:0:
256,192,28937,1,8,0:0:0:0:
256,192,29294,1,8,0:0:0:0:
256,192,29651,1,0,0:0:0:0:
256,192,30009,1,8,0:0:0:0:
256,192,30187,1,0,0:0:0:0:
256,192,30901,1,0,0:0:0:0:
256,192,31259,1,8,0:0:0:0:
256,192,31616,1,0,0:0:0:0:
256,192,31973,1,8,0:0:0:0:
256,192,32330,1,8,0:0:0:0:
256,192,32687,1,0,0:0:0:0:
256,192,32866,1,8,0:0:0:0:
256,192,33401,1,8,0:0:0:0:
256,192,33759,1,0,0:0:0:0:
256,192,34116,1,8,0:0:0:0:
256,192,34294,1,0,0:0:0:0:
256,192,34651,1,8,0:0:0:0:
256,192,35009,1,0,0:0:0:0:
256,192,35901,1,0,0:0:0:0:
256,192,36259,1,8,0:0:0:0:
256,192,36616,1,12,0:0:0:0:
256,192,37151,1,0,0:0:0:0:
256,192,37687,1,8,0:0:0:0:
256,192,38044,1,0,0:0:0:0:
256,192,38580,1,8,0:0:0:0:
256,192,39116,1,0,0:0:0:0:
256,192,39473,1,8,0:0:0:0:
256,192,40009,1,0,0:0:0:0:
256,192,40544,1,8,0:0:0:0:
256,192,40901,1,4,0:0:0:0:
256,192,41437,1,8,0:0:0:0:
256,192,42151,1,0,0:0:0:0:
256,192,42509,1,0,0:0:0:0:
256,192,42687,1,8,0:0:0:0:
256,192,43044,1,8,0:0:0:0:
256,192,43759,1,0,0:0:0:0:
256,192,44294,1,8,0:0:0:0:
256,192,44830,1,0,0:0:0:0:
256,192,45009,1,8,0:0:0:0:
256,192,45544,1,8,0:0:0:0:
256,192,45901,1,8,0:0:0:0:
256,192,46437,1,8,0:0:0:0:
256,192,46616,1,12,0:0:0:0:
256,192,46973,1,8,0:0:0:0:
256,192,47330,1,0,0:0:0:0:
256,192,47687,1,0,0:0:0:0:
256,192,48044,1,8,0:0:0:0:
256,192,48759,1,0,0:0:0:0:
256,192,49294,1,8,0:0:0:0:
256,192,49651,1,0,0:0:0:0:
256,192,49830,1,0,0:0:0:0:
256,192,50187,1,8,0:0:0:0:
256,192,50544,1,8,0:0:0:0:
256,192,50901,1,4,0:0:0:0:
256,192,51616,1,8,0:0:0:0:
256,192,51973,1,0,0:0:0:0:
256,192,52151,1,8,0:0:0:0:
256,192,52509,1,0,0:0:0:0:
256,192,52866,1,8,0:0:0:0:
256,192,53044,1,0,0:0:0:0:
256,192,53401,1,8,0:0:0:0:
256,192,53759,1,0,0:0:0:0:
256,192,54473,1,0,0:0:0:0:
256,192,54830,1,8,0:0:0:0:
256,192,55187,1,0,0:0:0:0:
256,192,55544,1,0,0:0:0:0:
256,192,55723,1,8,0:0:0:0:
256,192,55901,1,0,0:0:0:0:
256,192,56616,1,8,0:0:0:0:
256,192,56973,1,8,0:0:0:0:
256,192,57330,1,0,0:0:0:0:
256,192,57687,1,8,0:0:0:0:
256,192,58044,1,0,0:0:0:0:
256,192,58223,1,8,0:0:0:0:
256,192,58580,1,4,0:0:0:0:
256,192,59473,1,0,0:0:0:0:
256,192,59830,1,8,0:0:0:0:
256,192,60187,1,8,0:0:0:0:
256,192,60544,1,0,0:0:0:0:
256,192,60901,1,8,0:0:0:0:
256,192,61259,1,0,0:0:0:0:
256,192,61437,1,8,0:0:0:0:
256,192,61973,1,8,0:0:0:0:
256,192,62330,1,4,0:0:0:0:
256,192,63044,1,8,0:0:0:0:
256,192,63401,1,0,0:0:0:0:
256,192,63580,1,8,0:0:0:0:
256,192,63937,1,8,0:0:0:0:
256,192,64294,1,8,0:0:0:0:
256,192,64473,1,0,0:0:0:0:
256,192,64830,1,8,0:0:0:0:
256,192,65187,1,0,0:0:0:0:
256,192,65901,1,0,0:0:0:0:
256,192,66259,1,8,0:0:0:0:
256,192,66616,1,0,0:0:0:0:
256,192,66973,1,0,0:0:0:0:
256,192,67151,1,8,0:0:0:0:
256,192,67330,1,0,0:0:0:0:
256,192,68044,1,0,0:0:0:0:
256,192,68401,1,8,0:0:0:0:
256,192,68759,1,8,0:0:0:0:
256,192,69116,1,0,0:0:0:0:
256,192,69473,1,8,0:0:0:0:
256,192,69651,1,8,0:0:0:0:
256,192,70009,1,12,0:0:0:0:
256,192,70901,1,0,0:0:0:0:
256,192,71259,1,8,0:0:0:0:
256,192,71616,1,0,0:0:0:0:
256,192,71973,1,8,0:0:0:0:
256,192,72151,1,0,0:0:0:0:
256,192,72509,1,8,0:0:0:0:
256,192,72866,1,0,0:0:0:0:
256,192,73223,1,0,0:0:0:0:
256,192,73401,1,8,0:0:0:0:
256,192,73759,1,0,0:0:0:0:
256,192,74473,1,0,0:0:0:0:
256,192,74830,1,8,0:0:0:0:
256,192,75187,1,0,0:0:0:0:
256,192,75366,1,0,0:0:0:0:
256,192,75723,1,12,0:0:0:0:
256,192,76259,1,8,0:0:0:0:
256,192,76616,1,0,0:0:0:0:
256,192,76973,1,8,0:0:0:0:
256,192,77330,1,0,0:0:0:0:
256,192,77687,1,8,0:0:0:0:
256,192,77866,1,0,0:0:0:0:
256,192,78223,1,0,0:0:0:0:
256,192,78580,1,8,0:0:0:0:
256,192,79116,1,8,0:0:0:0:
256,192,79473,1,4,0:0:0:0:
256,192,80187,1,8,0:0:0:0:
256,192,80723,1,0,0:0:0:0:
256,192,81080,1,0,0:0:0:0:
256,192,81259,1,8,0:0:0:0:
256,192,81616,1,8,0:0:0:0:
256,192,81973,1,0,0:0:0:0:
256,192,82330,1,0,0:0:0:0:
256,192,83044,1,0,0:0:0:0:
256,192,83401,1,8,0:0:0:0:
256,192,83580,1,0,0:0:0:0:
256,192,83937,1,0,0:0:0:0:
256,192,84294,1,8,0:0:0:0:
256,192,84830,1,8,0:0:0:0:
256,192,85187,1,0,0:0:0:0:
256,192,85901,1,8,0:0:0:0:
256,192,86437,1,0,0:0:0:0:
256,192,86794,1,0,0:0:0:0:
256,192,86973,1,8,0:0:0:0:
256,192,87330,1,8,0:0:0:0:
256,192,87687,1,8,0:0:0:0:
256,192,88044,1,0,0:0:0:0:
256,192,88759,1,0,0:0:0:0:
256,192,89116,1,8,0:0:0:0:
256,192,89294,1,0,0:0:0:0:
256,192,89651,1,0,0:0:0:0:
256,192,90009,1,0,0:0:0:0:
256,192,90187,1,8,0:0:0:0:
256,192,90366,1,8,0:0:0:0:
256,192,90723,1,4,0:0:0:0:
