osu file format v14

[General]
AudioFilename: audio.mp3
AudioLeadIn: 0
PreviewTime: 50366
Countdown: 0
SampleSet: Normal
StackLeniency: 0.7
Mode: 1
LetterboxInBreaks: 0
WidescreenStoryboard: 0

[Editor]
Bookmarks: 13751,25181,36611,59382,70812
DistanceSpacing: 1.1
BeatDivisor: 4
GridSize: 4
TimelineZoom: 2.7

[Metadata]
Title:eternal
TitleUnicode:eternal
Artist:Duca
ArtistUnicode:Duca
Creator:yuzu__rinrin
Version:YOUTA's Muzukashii
Source:恋する気持ちのかさねかた
Tags:Koi Suru Kimochi no Kasanekata Eroge Ending ensemble Visual Novel YOUTA YOUTAEES chaica toara_fict
BeatmapID:1069011
BeatmapSetID:500956

[Difficulty]
HPDrainRate:6
CircleSize:5
OverallDifficulty:5
ApproachRate:5
SliderMultiplier:1.4
SliderTickRate:1

[Events]
//Background and Video events
0,0,"EVA_01a.jpg",0,80
//Break Periods
//Storyboard Layer 0 (Background)
//Storyboard Layer 1 (Fail)
//Storyboard Layer 2 (Pass)
//Storyboard Layer 3 (Foreground)
//Storyboard Sound Samples

[TimingPoints]
902,357.142857142857,4,1,0,70,1,0
13759,-100,4,1,0,70,0,0
36616,-100,4,1,0,65,0,0
46616,-100,4,1,0,75,0,0
49651,-100,4,1,0,80,0,0
50901,-100,4,1,0,90,0,1
79473,-100,4,1,0,80,0,0

[HitObjects]
256,192,2330,5,4,0:0:0:0:
256,192,2687,1,8,0:0:0:0:
256,192,2866,1,0,0:0:0:0:
256,192,3044,1,8,0:0:0:0:
256,192,3401,1,0,0:0:0:0:
256,192,3580,1,8,0:0:0:0:
256,192,3937,1,8,0:0:0:0:
256,192,4116,1,0,0:0:0:0:
256,192,4294,1,8,0:0:0:0:
256,192,4473,1,0,0:0:0:0:
256,192,4830,1,8,0:0:0:0:
256,192,5009,1,0,0:0:0:0:
256,192,5187,1,0,0:0:0:0:
224,192,5544,1,8,0:0:0:0:
224,192,5901,1,0,0:0:0:0:
224,160,6259,1,8,0:0:0:0:
224,192,6437,1,8,0:0:0:0:
224,192,6794,1,0,0:0:0:0:
224,192,7151,1,8,0:0:0:0:
224,192,7509,1,0,0:0:0:0:
224,192,7687,1,8,0:0:0:0:
224,192,7866,1,0,0:0:0:0:
224,192,8044,1,8,0:0:0:0:
224,192,8401,1,8,0:0:0:0:
224,192,8580,1,0,0:0:0:0:
224,192,8759,1,8,0:0:0:0:
224,192,9116,1,0,0:0:0:0:
224,192,9294,1,8,0:0:0:0:
224,192,9651,1,8,0:0:0:0:
224,160,9830,1,0,0:0:0:0:
192,160,10009,1,8,0:0:0:0:
192,160,10187,1,0,0:0:0:0:
192,160,10544,1,8,0:0:0:0:
192,160,10723,1,0,0:0:0:0:
192,160,10901,1,0,0:0:0:0:
224,192,11259,1,8,0:0:0:0:
224,192,11616,1,8,0:0:0:0:
224,192,11794,1,0,0:0:0:0:
224,192,11973,1,8,0:0:0:0:
224,192,12330,1,12,0:0:0:0:
224,192,13044,1,12,0:0:0:0:
192,192,13759,1,0,0:0:0:0:
224,224,14116,1,8,0:0:0:0:
256,192,14473,1,0,0:0:0:0:
256,192,14830,1,8,0:0:0:0:
160,224,15009,1,0,0:0:0:0:
160,224,15366,1,0,0:0:0:0:
160,224,15723,1,0,0:0:0:0:
160,224,15901,1,8,0:0:0:0:
160,224,16259,1,8,0:0:0:0:
160,256,16437,1,0,0:0:0:0:
160,256,16616,1,0,0:0:0:0:
160,256,16973,1,8,0:0:0:0:
192,192,17330,1,0,0:0:0:0:
192,192,17687,1,8,0:0:0:0:
192,192,17866,1,0,0:0:0:0:
160,224,18223,1,0,0:0:0:0:
160,224,18580,1,8,0:0:0:0:
160,224,18759,1,0,0:0:0:0:
160,224,18937,1,0,0:0:0:0:
160,224,19116,1,8,0:0:0:0:
160,224,19473,1,0,0:0:0:0:
160,224,19830,1,8,0:0:0:0:
160,224,20187,1,0,0:0:0:0:
160,224,20544,1,8,0:0:0:0:
188,200,20901,1,0,0:0:0:0:
188,200,21080,1,0,0:0:0:0:
188,200,21259,1,0,0:0:0:0:
188,200,21437,1,8,0:0:0:0:
160,192,21973,1,8,0:0:0:0:
160,224,22330,1,0,0:0:0:0:
160,224,22687,1,8,0:0:0:0:
160,224,23044,1,0,0:0:0:0:
160,224,23401,1,8,0:0:0:0:
160,224,23759,1,0,0:0:0:0:
160,224,23937,1,0,0:0:0:0:
160,224,24116,1,8,0:0:0:0:
160,224,24294,1,0,0:0:0:0:
128,224,24651,1,0,0:0:0:0:
128,224,24830,1,8,0:0:0:0:
192,224,25187,1,0,0:0:0:0:
160,224,25544,1,8,0:0:0:0:
160,224,25901,1,0,0:0:0:0:
160,224,26259,1,8,0:0:0:0:
224,256,26437,1,0,0:0:0:0:
224,256,26794,1,0,0:0:0:0:
224,256,27151,1,0,0:0:0:0:
192,256,27330,1,8,0:0:0:0:
192,256,27687,1,8,0:0:0:0:
192,256,27866,1,0,0:0:0:0:
96,192,28044,1,0,0:0:0:0:
128,224,28401,1,8,0:0:0:0:
128,224,28759,1,0,0:0:0:0:
128,224,29116,1,8,0:0:0:0:
128,224,29294,1,0,0:0:0:0:
128,224,29651,1,0,0:0:0:0:
128,224,30009,1,8,0:0:0:0:
128,224,30187,1,8,0:0:0:0:
128,224,30366,1,0,0:0:0:0:
128,224,30544,1,8,0:0:0:0:
224,192,30901,1,0,0:0:0:0:
224,192,31259,1,8,0:0:0:0:
224,192,31616,1,0,0:0:0:0:
224,192,31973,1,8,0:0:0:0:
248,216,32330,1,0,0:0:0:0:
224,192,32509,1,0,0:0:0:0:
232,220,32687,1,0,0:0:0:0:
128,224,32866,1,8,0:0:0:0:
128,224,33223,1,0,0:0:0:0:
128,224,33401,1,8,0:0:0:0:
128,224,33580,1,8,0:0:0:0:
240,228,33937,1,0,0:0:0:0:
128,224,34116,1,8,0:0:0:0:
128,224,34294,1,0,0:0:0:0:
280,200,34651,1,8,0:0:0:0:
128,224,34830,1,8,0:0:0:0:
128,224,35009,1,0,0:0:0:0:
96,224,35366,1,0,0:0:0:0:
192,224,35544,1,8,0:0:0:0:
96,224,35723,1,0,0:0:0:0:
96,224,35812,1,0,0:0:0:0:
96,224,35901,1,0,0:0:0:0:
96,224,36259,1,8,0:0:0:0:
64,224,36616,1,4,0:0:0:0:
192,224,36973,1,0,0:0:0:0:
224,224,37151,1,8,0:0:0:0:
224,224,37687,1,8,0:0:0:0:
224,224,38044,1,0,0:0:0:0:
224,224,38401,1,0,0:0:0:0:
224,224,38580,1,8,0:0:0:0:
224,224,39116,1,0,0:0:0:0:
224,224,39473,1,12,0:0:0:0:
192,224,39830,1,0,0:0:0:0:
192,224,40009,1,8,0:0:0:0:
192,224,40544,1,8,0:0:0:0:
192,224,40901,1,4,0:0:0:0:
192,224,41437,1,4,0:0:0:0:
192,224,41794,1,0,0:0:0:0:
192,224,41973,1,8,0:0:0:0:
192,224,42151,1,4,0:0:0:0:
224,192,42509,1,0,0:0:0:0:
224,192,42687,1,8,0:0:0:0:
224,192,43044,1,8,0:0:0:0:
224,192,43401,1,8,0:0:0:0:
224,192,43580,1,0,0:0:0:0:
224,192,43759,1,0,0:0:0:0:
224,192,44116,1,8,0:0:0:0:
224,192,44294,1,0,0:0:0:0:
240,184,44651,1,8,0:0:0:0:
224,192,44830,1,8,0:0:0:0:
224,192,45009,1,4,0:0:0:0:
224,192,45366,1,0,0:0:0:0:
224,192,45544,1,8,0:0:0:0:
224,192,45901,1,8,0:0:0:0:
160,192,46259,1,0,0:0:0:0:
160,192,46437,1,0,0:0:0:0:
160,192,46616,1,12,0:0:0:0:
160,192,46973,1,8,0:0:0:0:
160,192,47151,1,0,0:0:0:0:
160,192,47330,1,8,0:0:0:0:
160,192,47509,1,0,0:0:0:0:
160,192,47687,1,8,0:0:0:0:
160,192,48044,1,4,0:0:0:0:
160,192,48401,1,8,0:0:0:0:
160,192,48580,1,8,0:0:0:0:
224,160,48669,1,8,0:0:0:0:
160,192,48759,1,8,0:0:0:0:
160,192,48937,1,0,0:0:0:0:
160,192,49116,1,8,0:0:0:0:
160,224,49294,1,12,0:0:0:0:
192,192,49651,1,0,0:0:0:0:
192,192,49830,1,0,0:0:0:0:
192,192,50009,1,0,0:0:0:0:
192,192,50187,1,12,0:0:0:0:
192,192,50901,1,4,0:0:0:0:
192,192,51259,1,8,0:0:0:0:
192,192,51437,1,0,0:0:0:0:
192,192,51616,1,8,0:0:0:0:
192,192,51973,1,0,0:0:0:0:
192,192,52151,1,8,0:0:0:0:
192,192,52509,1,8,0:0:0:0:
192,224,52687,1,0,0:0:0:0:
192,224,52866,1,8,0:0:0:0:
192,224,53044,1,0,0:0:0:0:
320,192,53134,1,0,0:0:0:0:
448,288,53223,1,0,0:0:0:0:
192,224,53401,1,8,0:0:0:0:
192,224,53580,1,0,0:0:0:0:
192,224,53759,1,0,0:0:0:0:
192,224,54116,1,8,0:0:0:0:
192,224,54473,1,0,0:0:0:0:
192,224,54651,1,0,0:0:0:0:
192,224,54830,1,8,0:0:0:0:
192,160,55187,1,0,0:0:0:0:
128,224,55544,1,8,0:0:0:0:
160,224,55723,1,0,0:0:0:0:
160,224,55901,1,8,0:0:0:0:
192,192,55991,1,8,0:0:0:0:
160,224,56080,1,8,0:0:0:0:
160,224,56259,1,0,0:0:0:0:
232,200,56437,1,0,0:0:0:0:
192,224,56616,1,8,0:0:0:0:
192,224,56973,1,8,0:0:0:0:
192,224,57151,1,0,0:0:0:0:
192,224,57330,1,0,0:0:0:0:
192,224,57509,1,0,0:0:0:0:
192,224,57687,1,8,0:0:0:0:
192,224,58044,1,8,0:0:0:0:
192,224,58223,1,0,0:0:0:0:
192,224,58580,1,4,0:0:0:0:
192,224,58937,1,0,0:0:0:0:
224,224,59116,1,8,0:0:0:0:
192,224,59473,1,0,0:0:0:0:
192,256,59830,1,8,0:0:0:0:
192,256,60009,1,0,0:0:0:0:
192,256,60187,1,0,0:0:0:0:
192,256,60544,1,8,0:0:0:0:
192,256,60901,1,0,0:0:0:0:
192,256,61080,1,0,0:0:0:0:
192,256,61437,1,12,0:0:0:0:
320,192,61794,1,0,0:0:0:0:
320,224,61973,1,8,0:0:0:0:
256,224,62151,1,8,0:0:0:0:
256,256,62330,1,4,0:0:0:0:
256,256,62687,1,8,0:0:0:0:
192,224,62866,1,0,0:0:0:0:
192,224,63044,1,8,0:0:0:0:
192,224,63401,1,8,0:0:0:0:
192,224,63580,1,0,0:0:0:0:
192,224,63937,1,8,0:0:0:0:
192,224,64116,1,0,0:0:0:0:
192,224,64294,1,8,0:0:0:0:
192,224,64473,1,0,0:0:0:0:
152,212,64562,1,0,0:0:0:0:
168,220,64651,1,0,0:0:0:0:
192,224,64830,1,8,0:0:0:0:
192,224,65009,1,8,0:0:0:0:
192,224,65187,1,0,0:0:0:0:
192,224,65544,1,8,0:0:0:0:
192,224,65901,1,0,0:0:0:0:
192,224,66080,1,0,0:0:0:0:
224,256,66259,1,8,0:0:0:0:
256,224,66616,1,0,0:0:0:0:
160,224,66973,1,8,0:0:0:0:
160,224,67151,1,0,0:0:0:0:
188,212,67330,1,8,0:0:0:0:
188,212,67419,1,8,0:0:0:0:
188,212,67509,1,8,0:0:0:0:
188,212,67687,1,0,0:0:0:0:
160,224,67866,1,0,0:0:0:0:
160,224,68044,1,8,0:0:0:0:
160,256,68401,1,8,0:0:0:0:
160,256,68580,1,0,0:0:0:0:
160,256,68759,1,0,0:0:0:0:
160,256,68937,1,0,0:0:0:0:
160,256,69116,1,8,0:0:0:0:
128,256,69473,1,0,0:0:0:0:
128,256,69651,1,0,0:0:0:0:
128,256,70009,1,12,0:0:0:0:
128,256,70366,1,0,0:0:0:0:
128,256,70544,1,8,0:0:0:0:
128,256,70901,1,0,0:0:0:0:
128,288,71259,1,8,0:0:0:0:
128,288,71437,1,0,0:0:0:0:
128,288,71616,1,8,0:0:0:0:
128,288,71794,1,0,0:0:0:0:
128,288,71973,1,8,0:0:0:0:
128,288,72151,1,8,0:0:0:0:
128,288,72509,1,0,0:0:0:0:
128,288,72687,1,8,0:0:0:0:
128,288,72866,1,0,0:0:0:0:
128,288,73044,1,8,0:0:0:0:
128,288,73223,1,0,0:0:0:0:
128,288,73401,1,8,0:0:0:0:
144,196,73491,1,8,0:0:0:0:
128,288,73580,1,8,0:0:0:0:
128,288,73759,1,0,0:0:0:0:
128,288,74116,1,0,0:0:0:0:
128,288,74473,1,0,0:0:0:0:
128,288,74830,1,0,0:0:0:0:
128,288,75187,1,4,0:0:0:0:
128,288,75366,1,4,0:0:0:0:
128,288,75723,1,12,0:0:0:0:
96,256,76080,1,0,0:0:0:0:
96,256,76259,1,8,0:0:0:0:
96,256,76616,1,0,0:0:0:0:
96,256,76973,1,8,0:0:0:0:
96,256,77151,1,0,0:0:0:0:
96,256,77330,1,8,0:0:0:0:
96,256,77509,1,0,0:0:0:0:
96,256,77687,1,8,0:0:0:0:
96,288,77866,1,8,0:0:0:0:
96,288,78223,1,0,0:0:0:0:
96,288,78401,1,8,0:0:0:0:
96,256,78580,1,0,0:0:0:0:
96,256,78759,1,8,0:0:0:0:
64,256,78937,1,0,0:0:0:0:
64,256,79026,1,0,0:0:0:0:
64,256,79116,1,0,0:0:0:0:
128,224,79473,1,4,0:0:0:0:
128,224,79830,1,8,0:0:0:0:
128,224,80009,1,0,0:0:0:0:
128,224,80187,1,8,0:0:0:0:
128,224,80544,1,0,0:0:0:0:
128,224,80723,1,8,0:0:0:0:
128,224,81080,1,8,0:0:0:0:
128,224,81259,1,0,0:0:0:0:
128,224,81437,1,8,0:0:0:0:
128,224,81616,1,0,0:0:0:0:
128,256,81973,1,8,0:0:0:0:
128,256,82151,1,0,0:0:0:0:
128,256,82330,1,0,0:0:0:0:
160,192,82687,1,8,0:0:0:0:
160,192,83044,1,0,0:0:0:0:
160,192,83223,1,0,0:0:0:0:
160,192,83401,1,8,0:0:0:0:
160,192,83580,1,0,0:0:0:0:
160,192,83937,1,8,0:0:0:0:
160,192,84116,1,0,0:0:0:0:
160,192,84294,1,8,0:0:0:0:
160,192,84651,1,0,0:0:0:0:
160,192,84830,1,8,0:0:0:0:
160,160,85009,1,0,0:0:0:0:
160,160,85187,1,8,0:0:0:0:
128,192,85544,1,8,0:0:0:0:
128,192,85723,1,0,0:0:0:0:
128,192,85901,1,8,0:0:0:0:
128,192,86259,1,0,0:0:0:0:
160,192,86437,1,8,0:0:0:0:
160,192,86794,1,8,0:0:0:0:
160,192,86973,1,0,0:0:0:0:
128,224,87151,1,8,0:0:0:0:
128,224,87330,1,0,0:0:0:0:
128,224,87687,1,8,0:0:0:0:
128,224,87866,1,0,0:0:0:0:
128,224,88044,1,0,0:0:0:0:
128,224,88401,1,8,0:0:0:0:
128,224,88759,1,8,0:0:0:0:
128,224,88937,1,8,0:0:0:0:
128,224,89116,1,0,0:0:0:0:
128,224,89294,1,12,0:0:0:0:
128,224,89651,1,12,0:0:0:0:
128,224,90009,1,12,0:0:0:0:
128,224,90187,1,12,0:0:0:0:
128,224,90366,1,12,0:0:0:0:
128,224,90723,1,4,0:0:0:0:
