osu file format v14

[General]
AudioFilename: audio.mp3
AudioLeadIn: 0
PreviewTime: 50366
Countdown: 0
SampleSet: Normal
StackLeniency: 0.7
Mode: 1
LetterboxInBreaks: 0
WidescreenStoryboard: 0

[Editor]
Bookmarks: 13751,25181,36611,59382,70812
DistanceSpacing: 1.1
BeatDivisor: 4
GridSize: 32
TimelineZoom: 1.800001

[Metadata]
Title:eternal
TitleUnicode:eternal
Artist:Duca
ArtistUnicode:Duca
Creator:yuzu__rinrin
Version:Oni
Source:恋する気持ちのかさねかた
Tags:Koi Suru Kimochi no Kasanekata Eroge Ending ensemble Visual Novel YOUTA YOUTAEES chaica toara_fict
BeatmapID:1066161
BeatmapSetID:500956

[Difficulty]
HPDrainRate:6
CircleSize:2
OverallDifficulty:5
ApproachRate:5
SliderMultiplier:1.4
SliderTickRate:1

[Events]
//Background and Video events
0,0,"EVA_01a.jpg",0,80
//Break Periods
//Storyboard Layer 0 (Background)
//Storyboard Layer 1 (Fail)
//Storyboard Layer 2 (Pass)
//Storyboard Layer 3 (Foreground)
//Storyboard Sound Samples

[TimingPoints]
902,357.142857142857,4,1,0,80,1,0
13759,-100,4,1,0,70,0,0
36616,-100,4,1,0,65,0,0
46616,-100,4,1,0,75,0,0
49651,-100,4,1,0,80,0,0
50901,-100,4,1,0,90,0,1
79473,-100,4,1,0,80,0,0

[HitObjects]
256,192,2330,5,4,1:1:0:0:
256,192,2687,1,8,1:1:0:0:
256,192,2866,1,0,1:1:0:0:
256,192,2955,1,0,1:1:0:0:
256,192,3044,1,8,1:1:0:0:
256,192,3401,1,0,1:1:0:0:
256,192,3580,1,8,1:1:0:0:
256,192,3937,1,8,1:1:0:0:
256,192,4116,1,0,1:1:0:0:
256,192,4294,1,8,1:1:0:0:
256,192,4473,1,0,1:1:0:0:
256,192,4651,1,8,1:1:0:0:
256,192,4741,1,8,1:1:0:0:
256,192,4830,1,8,1:1:0:0:
256,192,5009,1,8,1:1:0:0:
256,192,5187,1,0,1:1:0:0:
256,192,5544,1,8,1:1:0:0:
256,192,5901,1,0,1:1:0:0:
256,192,6080,1,0,1:1:0:0:
256,192,6169,1,0,1:1:0:0:
256,192,6259,1,8,1:1:0:0:
256,192,6437,1,8,1:1:0:0:
256,192,6794,1,0,1:1:0:0:
256,192,7151,1,8,1:1:0:0:
256,192,7509,1,0,1:1:0:0:
256,192,7687,1,8,1:1:0:0:
256,192,7866,1,8,1:1:0:0:
256,192,8044,5,0,1:1:0:0:
256,192,8401,1,8,1:1:0:0:
256,192,8580,1,0,1:1:0:0:
256,192,8669,1,0,1:1:0:0:
256,192,8759,1,8,1:1:0:0:
256,192,9116,1,0,1:1:0:0:
256,192,9294,1,8,1:1:0:0:
256,192,9651,1,8,1:1:0:0:
256,192,9830,1,0,1:1:0:0:
256,192,10009,1,8,1:1:0:0:
256,192,10187,1,0,1:1:0:0:
256,192,10366,1,8,1:1:0:0:
256,192,10455,1,8,1:1:0:0:
256,192,10544,1,8,1:1:0:0:
256,192,10723,1,8,1:1:0:0:
256,192,10901,1,0,1:1:0:0:
256,192,11259,1,8,1:1:0:0:
256,192,11616,1,0,1:1:0:0:
256,192,11794,1,0,1:1:0:0:
256,192,11884,1,0,1:1:0:0:
256,192,11973,1,8,1:1:0:0:
256,192,12330,1,4,1:1:0:0:
256,192,13044,1,12,1:1:0:0:
256,192,13759,5,0,1:1:0:0:
256,192,14116,1,8,1:1:0:0:
256,192,14294,1,0,1:1:0:0:
256,192,14473,1,0,1:1:0:0:
256,192,14830,1,8,1:1:0:0:
256,192,15009,1,0,1:1:0:0:
256,192,15366,1,0,1:1:0:0:
256,192,15544,1,8,1:1:0:0:
256,192,15723,1,8,1:1:0:0:
256,192,15901,1,0,1:1:0:0:
256,192,16259,1,8,1:1:0:0:
256,192,16437,1,8,1:1:0:0:
256,192,16526,1,8,1:1:0:0:
256,192,16616,1,0,1:1:0:0:
256,192,16794,1,0,1:1:0:0:
256,192,16973,1,8,1:1:0:0:
256,192,17151,1,8,1:1:0:0:
256,192,17509,1,8,1:1:0:0:
256,192,17687,1,0,1:1:0:0:
256,192,17866,1,8,1:1:0:0:
256,192,18223,1,8,1:1:0:0:
218,183,18312,1,0,1:1:0:0:
180,174,18401,1,0,1:1:0:0:
256,192,18580,1,8,1:1:0:0:
256,192,18759,1,0,1:1:0:0:
256,192,18937,1,0,0:0:0:0:
256,192,19116,1,8,1:1:0:0:
256,192,19473,5,0,1:1:0:0:
256,192,19830,1,8,1:1:0:0:
256,192,20009,1,0,1:1:0:0:
256,192,20187,1,0,1:1:0:0:
256,192,20544,1,8,1:1:0:0:
256,192,20901,1,0,1:1:0:0:
256,192,21080,1,0,1:1:0:0:
217,192,21169,1,0,0:0:0:0:
256,192,21259,1,8,1:1:0:0:
256,192,21437,1,8,1:1:0:0:
256,192,21794,1,0,0:0:0:0:
256,192,21973,1,8,1:1:0:0:
256,192,22151,1,8,1:1:0:0:
256,192,22241,1,8,1:1:0:0:
256,192,22330,1,0,1:1:0:0:
256,192,22687,1,8,1:1:0:0:
256,192,22866,1,0,1:1:0:0:
256,192,22955,1,0,1:1:0:0:
256,192,23044,1,0,1:1:0:0:
256,192,23223,1,0,1:1:0:0:
256,192,23401,1,8,1:1:0:0:
256,192,23759,5,4,1:1:0:0:
256,192,23937,1,4,1:1:0:0:
256,192,24294,1,4,1:1:0:0:
256,192,24651,1,0,1:1:0:0:
256,192,24830,1,8,1:1:0:0:
256,192,25009,1,0,0:0:0:0:
256,192,25098,1,0,0:0:0:0:
256,192,25187,5,0,1:1:0:0:
256,192,25544,1,8,1:1:0:0:
256,192,25723,1,0,1:1:0:0:
256,192,25901,1,0,1:1:0:0:
256,192,26259,1,8,1:1:0:0:
256,192,26437,1,0,1:1:0:0:
256,192,26794,1,0,1:1:0:0:
256,192,26973,1,8,1:1:0:0:
256,192,27151,1,0,1:1:0:0:
256,192,27330,1,0,1:1:0:0:
256,192,27687,1,8,1:1:0:0:
256,192,27866,1,0,1:1:0:0:
256,192,27955,1,0,1:1:0:0:
256,192,28044,1,8,1:1:0:0:
256,192,28223,1,0,1:1:0:0:
256,192,28401,1,8,1:1:0:0:
256,192,28580,1,8,1:1:0:0:
256,192,28937,1,8,1:1:0:0:
256,192,29116,1,0,1:1:0:0:
256,192,29294,1,8,1:1:0:0:
256,192,29651,1,8,0:0:0:0:
219,204,29741,1,0,0:0:0:0:
219,204,29830,1,0,0:0:0:0:
256,192,30009,1,8,1:1:0:0:
256,192,30187,1,0,1:1:0:0:
256,192,30366,1,8,0:0:0:0:
256,192,30544,1,8,1:1:0:0:
256,192,30901,5,0,1:1:0:0:
256,192,31259,1,8,1:1:0:0:
256,192,31437,1,0,1:1:0:0:
256,192,31616,1,0,1:1:0:0:
256,192,31973,1,8,1:1:0:0:
256,192,32330,5,0,1:1:0:0:
217,192,32509,1,0,0:0:0:0:
256,192,32598,1,0,1:1:0:0:
256,192,32687,1,8,1:1:0:0:
256,192,32866,1,8,1:1:0:0:
256,192,33223,1,0,0:0:0:0:
256,192,33401,1,8,1:1:0:0:
256,192,33580,1,0,1:1:0:0:
256,192,33669,1,0,1:1:0:0:
256,192,33759,1,0,1:1:0:0:
256,192,33937,1,0,1:1:0:0:
256,192,34116,1,8,1:1:0:0:
256,192,34294,1,8,1:1:0:0:
256,192,34384,1,8,1:1:0:0:
256,192,34473,1,0,1:1:0:0:
256,192,34651,1,0,1:1:0:0:
256,192,34830,1,8,1:1:0:0:
256,192,35009,1,0,1:1:0:0:
256,192,35366,1,0,1:1:0:0:
256,192,35544,1,8,1:1:0:0:
256,192,35723,1,0,1:1:0:0:
256,192,35901,1,8,1:1:0:0:
256,192,35991,1,8,1:1:0:0:
256,192,36080,1,0,1:1:0:0:
256,192,36169,1,0,1:1:0:0:
256,192,36259,1,8,1:1:0:0:
256,192,36437,1,8,1:1:0:0:
256,192,36616,5,4,1:1:0:0:
256,192,36973,1,0,1:1:0:0:
256,192,37151,1,8,1:1:0:0:
256,192,37509,1,0,1:1:0:0:
256,192,37687,1,8,1:1:0:0:
256,192,37866,1,8,1:1:0:0:
256,192,38044,1,0,1:1:0:0:
256,192,38401,1,0,0:0:0:0:
256,192,38580,1,8,1:1:0:0:
256,192,38937,1,0,1:1:0:0:
256,192,39116,1,8,1:1:0:0:
256,192,39473,5,0,1:1:0:0:
256,192,39830,1,8,1:1:0:0:
256,192,40009,1,0,1:1:0:0:
256,192,40366,1,8,1:1:0:0:
256,192,40544,1,0,1:1:0:0:
256,192,40723,1,0,1:1:0:0:
256,192,40901,1,8,1:1:0:0:
256,192,41080,1,0,1:1:0:0:
256,192,41169,1,0,1:1:0:0:
256,192,41259,1,0,1:1:0:0:
256,192,41437,1,8,1:1:0:0:
256,192,41794,1,0,1:1:0:0:
256,192,41973,1,8,1:1:0:0:
256,192,42151,5,4,1:1:0:0:
256,192,42509,1,0,1:1:0:0:
256,192,42687,1,4,1:1:0:0:
256,192,43044,1,12,1:1:0:0:
256,192,43401,1,8,1:1:0:0:
256,192,43759,1,0,1:1:0:0:
256,192,43937,1,0,1:1:0:0:
256,192,44116,1,8,1:1:0:0:
256,192,44294,1,8,1:1:0:0:
256,192,44384,1,8,1:1:0:0:
256,192,44473,1,0,1:1:0:0:
256,192,44651,1,0,1:1:0:0:
256,192,44830,1,8,1:1:0:0:
256,192,45009,5,4,1:1:0:0:
256,192,45366,1,0,1:1:0:0:
256,192,45544,1,4,1:1:0:0:
256,192,45901,1,12,1:1:0:0:
256,192,46259,1,8,1:1:0:0:
256,192,46616,1,4,1:1:0:0:
256,192,46794,1,0,1:1:0:0:
256,192,46973,1,8,1:1:0:0:
256,192,47151,1,8,1:1:0:0:
256,192,47241,1,8,1:1:0:0:
256,192,47330,1,0,1:1:0:0:
256,192,47509,1,0,1:1:0:0:
256,192,47687,1,8,1:1:0:0:
256,192,47776,1,8,1:1:0:0:
256,192,47866,1,0,1:1:0:0:
256,192,47955,1,0,1:1:0:0:
256,192,48044,1,8,1:1:0:0:
256,192,48401,5,0,1:1:0:0:
256,192,48580,1,0,1:1:0:0:
256,192,48759,1,8,1:1:0:0:
256,192,48937,1,0,1:1:0:0:
256,192,49026,1,0,1:1:0:0:
256,192,49116,1,8,1:1:0:0:
256,192,49294,5,12,1:1:0:0:
256,192,49651,5,12,1:1:0:0:
256,192,49830,5,12,1:1:0:0:
256,192,50009,5,4,1:1:0:0:
256,192,50187,5,12,1:1:0:0:
256,192,50544,1,0,0:0:0:0:
256,192,50901,1,12,1:1:0:0:
256,192,51259,1,8,1:1:0:0:
256,192,51437,1,0,1:1:0:0:
256,192,51526,1,0,1:1:0:0:
256,192,51616,1,8,0:0:0:0:
256,192,51973,1,8,1:1:0:0:
256,192,52151,1,8,1:1:0:0:
256,192,52330,1,0,1:1:0:0:
256,192,52509,1,8,1:1:0:0:
256,192,52598,1,8,1:1:0:0:
256,192,52687,1,0,1:1:0:0:
256,192,52866,1,0,1:1:0:0:
256,192,53044,1,8,0:0:0:0:
256,192,53134,1,8,1:1:0:0:
256,192,53223,1,0,1:1:0:0:
256,192,53312,1,0,1:1:0:0:
256,192,53401,1,8,1:1:0:0:
256,192,53580,1,8,1:1:0:0:
256,192,53759,1,0,1:1:0:0:
256,192,54116,5,8,1:1:0:0:
256,192,54294,1,0,1:1:0:0:
256,192,54473,1,8,1:1:0:0:
256,192,54651,1,0,1:1:0:0:
256,192,54741,1,0,1:1:0:0:
256,192,54830,1,8,1:1:0:0:
256,192,55009,1,8,1:1:0:0:
256,192,55187,1,0,1:1:0:0:
256,192,55544,1,0,1:1:0:0:
256,192,55723,1,8,1:1:0:0:
256,192,55901,1,0,1:1:0:0:
256,192,56080,1,0,1:1:0:0:
256,192,56169,1,0,1:1:0:0:
256,192,56259,1,8,1:1:0:0:
256,192,56437,1,8,1:1:0:0:
256,192,56616,1,0,1:1:0:0:
256,192,56973,5,8,1:1:0:0:
256,192,57151,1,0,1:1:0:0:
256,192,57330,1,8,1:1:0:0:
256,192,57509,1,0,1:1:0:0:
256,192,57598,1,0,1:1:0:0:
256,192,57687,1,8,1:1:0:0:
256,192,57866,1,8,1:1:0:0:
256,192,58044,5,4,1:1:0:0:
256,192,58223,1,8,1:1:0:0:
256,192,58312,1,0,1:1:0:0:
256,192,58401,1,8,1:1:0:0:
256,192,58580,5,4,1:1:0:0:
256,192,58937,1,0,1:1:0:0:
256,192,59116,1,8,1:1:0:0:
256,192,59294,1,8,1:1:0:0:
256,192,59473,5,0,1:1:0:0:
256,192,59830,1,8,1:1:0:0:
256,192,60009,1,0,1:1:0:0:
256,192,60098,1,0,1:1:0:0:
256,192,60187,1,8,1:1:0:0:
256,192,60276,1,8,1:1:0:0:
256,192,60366,1,0,1:1:0:0:
256,192,60544,1,8,1:1:0:0:
256,192,60723,1,0,1:1:0:0:
256,192,60901,5,12,1:1:0:0:
256,192,61080,1,0,1:1:0:0:
256,192,61169,1,0,1:1:0:0:
256,192,61259,1,0,1:1:0:0:
256,192,61437,5,12,1:1:0:0:
256,192,61794,1,0,0:0:0:0:
256,192,61884,1,0,0:0:0:0:
256,192,61973,1,8,0:0:0:0:
256,192,62062,1,0,0:0:0:0:
256,192,62151,1,8,0:0:0:0:
256,192,62330,5,4,1:1:0:0:
256,192,62687,1,8,1:1:0:0:
256,192,62866,1,0,0:0:0:0:
256,192,62955,1,0,0:0:0:0:
256,192,63044,1,8,1:1:0:0:
256,192,63401,1,8,1:1:0:0:
256,192,63580,1,8,1:1:0:0:
256,192,63759,1,0,1:1:0:0:
256,192,63937,1,0,1:1:0:0:
256,192,64026,1,0,1:1:0:0:
256,192,64116,1,8,1:1:0:0:
256,192,64294,1,0,1:1:0:0:
256,192,64473,1,8,1:1:0:0:
256,192,64562,1,0,0:0:0:0:
256,192,64651,1,8,1:1:0:0:
256,192,64741,1,8,1:1:0:0:
256,192,64830,1,0,1:1:0:0:
256,192,65009,1,8,1:1:0:0:
256,192,65187,1,0,1:1:0:0:
256,192,65544,5,8,1:1:0:0:
256,192,65723,1,8,1:1:0:0:
256,192,65901,1,0,1:1:0:0:
256,192,66080,1,0,1:1:0:0:
256,192,66169,1,0,1:1:0:0:
256,192,66259,1,8,1:1:0:0:
256,192,66437,1,8,1:1:0:0:
256,192,66616,1,0,1:1:0:0:
256,192,66973,1,0,1:1:0:0:
256,192,67151,1,8,1:1:0:0:
256,192,67330,1,0,1:1:0:0:
256,192,67509,1,8,1:1:0:0:
256,192,67598,1,0,1:1:0:0:
256,192,67687,1,8,1:1:0:0:
256,192,67866,1,8,1:1:0:0:
256,192,68044,1,0,1:1:0:0:
256,192,68401,5,8,1:1:0:0:
256,192,68580,1,0,1:1:0:0:
256,192,68759,1,8,1:1:0:0:
256,192,68937,1,0,1:1:0:0:
256,192,69026,1,0,1:1:0:0:
256,192,69116,1,8,1:1:0:0:
256,192,69294,1,8,1:1:0:0:
256,192,69473,5,4,1:1:0:0:
256,192,69651,1,8,1:1:0:0:
256,192,69741,1,8,1:1:0:0:
256,192,69830,1,0,1:1:0:0:
256,192,70009,5,12,1:1:0:0:
256,192,70366,1,0,1:1:0:0:
256,192,70544,1,8,1:1:0:0:
256,192,70723,1,8,1:1:0:0:
256,192,70901,1,4,1:1:0:0:
256,192,71259,1,8,1:1:0:0:
256,192,71437,1,0,1:1:0:0:
256,192,71526,1,0,1:1:0:0:
256,192,71616,1,8,1:1:0:0:
256,192,71705,1,8,1:1:0:0:
256,192,71794,1,0,1:1:0:0:
256,192,71973,1,8,0:0:0:0:
256,192,72151,1,8,1:1:0:0:
256,192,72330,1,0,1:1:0:0:
256,192,72509,1,8,1:1:0:0:
256,192,72598,1,8,1:1:0:0:
256,192,72687,1,0,1:1:0:0:
256,192,72866,1,8,1:1:0:0:
256,192,72955,1,0,0:0:0:0:
256,192,73044,1,0,1:1:0:0:
256,192,73223,1,0,0:0:0:0:
256,192,73312,1,0,1:1:0:0:
256,192,73401,1,8,1:1:0:0:
256,192,73491,1,0,0:0:0:0:
256,192,73580,1,8,1:1:0:0:
256,192,73669,1,8,1:1:0:0:
256,192,73759,5,0,1:1:0:0:
256,192,74116,1,0,1:1:0:0:
256,192,74294,1,0,0:0:0:0:
256,192,74473,1,8,1:1:0:0:
256,192,74651,1,0,0:0:0:0:
256,192,74741,1,0,0:0:0:0:
256,192,74830,1,8,1:1:0:0:
256,192,75009,1,8,1:1:0:0:
256,192,75187,5,4,1:1:0:0:
256,192,75366,5,4,1:1:0:0:
256,192,75723,5,12,1:1:0:0:
256,192,76080,1,0,1:1:0:0:
256,192,76259,1,8,1:1:0:0:
256,192,76616,5,4,1:1:0:0:
256,192,76794,1,0,1:1:0:0:
256,192,76973,1,8,1:1:0:0:
256,192,77151,1,0,1:1:0:0:
256,192,77241,1,0,1:1:0:0:
256,192,77330,1,8,1:1:0:0:
256,192,77509,1,0,1:1:0:0:
256,192,77687,1,8,1:1:0:0:
256,192,77866,1,8,1:1:0:0:
256,192,77955,1,8,1:1:0:0:
256,192,78044,1,0,1:1:0:0:
256,192,78134,1,0,1:1:0:0:
256,192,78223,1,8,1:1:0:0:
256,192,78401,1,0,1:1:0:0:
256,192,78580,1,8,1:1:0:0:
256,192,78669,1,0,1:1:0:0:
256,192,78759,1,8,1:1:0:0:
256,192,78848,1,8,1:1:0:0:
256,192,78937,1,0,1:1:0:0:
256,192,79116,1,12,1:1:0:0:
256,192,79473,5,4,1:1:0:0:
256,192,79830,1,8,1:1:0:0:
256,192,80009,1,0,1:1:0:0:
256,192,80098,1,0,1:1:0:0:
256,192,80187,1,8,1:1:0:0:
256,192,80544,1,0,1:1:0:0:
256,192,80723,1,8,1:1:0:0:
256,192,80901,1,0,0:0:0:0:
256,192,81080,1,8,0:0:0:0:
256,192,81169,1,8,1:1:0:0:
256,192,81259,1,0,1:1:0:0:
256,192,81437,1,8,1:1:0:0:
256,192,81616,1,0,1:1:0:0:
256,192,81794,1,8,1:1:0:0:
256,192,81884,1,8,1:1:0:0:
256,192,81973,1,8,1:1:0:0:
256,192,82151,1,8,1:1:0:0:
256,192,82330,1,0,1:1:0:0:
256,192,82687,1,8,1:1:0:0:
256,192,83044,1,0,1:1:0:0:
256,192,83223,1,0,1:1:0:0:
256,192,83312,1,0,1:1:0:0:
256,192,83401,1,8,1:1:0:0:
256,192,83580,1,8,1:1:0:0:
256,192,83937,1,0,1:1:0:0:
256,192,84294,1,8,1:1:0:0:
256,192,84473,1,0,0:0:0:0:
256,192,84651,1,0,1:1:0:0:
256,192,84830,1,8,1:1:0:0:
256,192,85009,1,8,1:1:0:0:
256,192,85187,5,0,1:1:0:0:
256,192,85544,1,8,1:1:0:0:
256,192,85723,1,0,1:1:0:0:
256,192,85812,1,0,1:1:0:0:
256,192,85901,1,8,1:1:0:0:
256,192,86259,1,0,1:1:0:0:
256,192,86437,1,8,1:1:0:0:
256,192,86616,1,0,0:0:0:0:
256,192,86794,1,8,0:0:0:0:
256,192,86884,1,8,1:1:0:0:
256,192,86973,1,0,1:1:0:0:
256,192,87151,1,8,1:1:0:0:
256,192,87330,1,0,1:1:0:0:
256,192,87509,1,8,1:1:0:0:
256,192,87598,1,8,1:1:0:0:
256,192,87687,1,8,1:1:0:0:
256,192,87866,1,8,1:1:0:0:
256,192,88044,1,0,1:1:0:0:
256,192,88401,1,8,1:1:0:0:
256,192,88759,1,0,1:1:0:0:
256,192,88937,1,0,1:1:0:0:
256,192,89026,1,0,1:1:0:0:
256,192,89116,1,8,1:1:0:0:
256,192,89294,5,12,1:1:0:0:
256,192,89651,5,12,1:1:0:0:
256,192,90009,5,12,1:1:0:0:
256,192,90187,5,12,1:1:0:0:
256,192,90366,5,12,1:1:0:0:
256,192,90723,5,4,1:1:0:0:
