osu file format v14

[General]
AudioFilename: audio.mp3
AudioLeadIn: 0
PreviewTime: 50366
Countdown: 0
SampleSet: Normal
StackLeniency: 0.7
Mode: 1
LetterboxInBreaks: 0
WidescreenStoryboard: 0

[Editor]
DistanceSpacing: 1.1
BeatDivisor: 2
GridSize: 32
TimelineZoom: 0.9000008

[Metadata]
Title:eternal
TitleUnicode:eternal
Artist:Duca
ArtistUnicode:Duca
Creator:yuzu__rinrin
Version:Kantan
Source:恋する気持ちのかさねかた
Tags:Koi Suru Kimochi no Kasanekata Eroge Ending ensemble Visual Novel YOUTA YOUTAEES chaica toara_fict
BeatmapID:1066157
BeatmapSetID:500956

[Difficulty]
HPDrainRate:8
CircleSize:2
OverallDifficulty:3
ApproachRate:5
SliderMultiplier:1.4
SliderTickRate:1

[Events]
//Background and Video events
0,0,"EVA_01a.jpg",0,80
//Break Periods
//Storyboard Layer 0 (Background)
//Storyboard Layer 1 (Fail)
//Storyboard Layer 2 (Pass)
//Storyboard Layer 3 (Foreground)
//Storyboard Sound Samples

[TimingPoints]
902,357.142857142857,4,1,0,80,1,0
13759,-100,4,1,0,70,0,0
36616,-100,4,1,0,65,0,0
46616,-100,4,1,0,75,0,0
50901,-100,4,1,0,90,0,1
79473,-100,4,1,0,80,0,0

[HitObjects]
256,192,2330,5,4,0:0:0:0:
256,192,3044,1,8,0:0:0:0:
256,192,3759,1,0,0:0:0:0:
256,192,4116,1,0,0:0:0:0:
256,192,4473,1,0,0:0:0:0:
256,192,5187,1,0,0:0:0:0:
256,192,6616,1,0,0:0:0:0:
256,192,7330,1,8,0:0:0:0:
256,192,8044,1,0,0:0:0:0:
256,192,8759,1,8,0:0:0:0:
256,192,9473,1,0,0:0:0:0:
256,192,9830,1,0,0:0:0:0:
256,192,10187,1,0,0:0:0:0:
256,192,10901,1,0,0:0:0:0:
352,192,12330,1,12,0:0:0:0:
320,160,13044,1,12,0:0:0:0:
256,192,13759,5,0,0:0:0:0:
256,192,14473,1,0,0:0:0:0:
256,192,15187,1,8,0:0:0:0:
256,192,15901,1,0,0:0:0:0:
256,192,16259,1,8,0:0:0:0:
256,192,16616,1,0,0:0:0:0:
256,192,17330,1,8,0:0:0:0:
256,192,18044,1,0,0:0:0:0:
256,192,19473,1,0,0:0:0:0:
256,192,20187,1,8,0:0:0:0:
256,192,20901,1,0,0:0:0:0:
256,192,21616,1,8,0:0:0:0:
256,192,21973,1,0,0:0:0:0:
256,192,22330,1,8,0:0:0:0:
256,192,23044,1,0,0:0:0:0:
256,192,23759,1,4,0:0:0:0:
256,192,25187,1,0,0:0:0:0:
256,192,25901,1,0,0:0:0:0:
256,192,26616,1,8,0:0:0:0:
256,192,27330,1,0,0:0:0:0:
256,192,27687,1,8,0:0:0:0:
256,192,28044,1,0,0:0:0:0:
256,192,28759,1,8,0:0:0:0:
256,192,29473,1,0,0:0:0:0:
256,192,30901,1,0,0:0:0:0:
256,192,31616,1,8,0:0:0:0:
256,192,32330,1,0,0:0:0:0:
256,192,33044,1,8,0:0:0:0:
256,192,33401,1,0,0:0:0:0:
256,192,33759,1,8,0:0:0:0:
256,192,34473,1,0,0:0:0:0:
256,192,35187,1,0,0:0:0:0:
256,192,35544,1,0,0:0:0:0:
256,192,35901,1,8,0:0:0:0:
256,192,36616,1,4,0:0:0:0:
256,192,38044,1,8,0:0:0:0:
256,192,38759,1,0,0:0:0:0:
256,192,39473,1,0,0:0:0:0:
256,192,40901,1,8,0:0:0:0:
256,192,42151,1,4,0:0:0:0:
256,192,43044,1,4,0:0:0:0:
256,192,45009,1,12,0:0:0:0:
256,192,45901,1,12,0:0:0:0:
256,192,46616,1,8,0:0:0:0:
256,192,47330,1,0,0:0:0:0:
256,192,47687,1,0,0:0:0:0:
256,192,48044,1,8,0:0:0:0:
256,192,49294,1,4,0:0:0:0:
256,192,50901,1,4,0:0:0:0:
256,192,51616,1,0,0:0:0:0:
256,192,52330,1,8,0:0:0:0:
256,192,53044,1,8,0:0:0:0:
256,192,53401,1,8,0:0:0:0:
256,192,53759,1,0,0:0:0:0:
256,192,54473,1,8,0:0:0:0:
256,192,55187,1,0,0:0:0:0:
256,192,56616,1,8,0:0:0:0:
256,192,57330,1,8,0:0:0:0:
256,192,58044,1,4,0:0:0:0:
256,192,58580,1,4,0:0:0:0:
256,192,59473,1,0,0:0:0:0:
256,192,60187,1,0,0:0:0:0:
256,192,60901,1,12,0:0:0:0:
256,192,61437,1,12,0:0:0:0:
256,192,62330,1,4,0:0:0:0:
256,192,63044,1,8,0:0:0:0:
256,192,63759,1,0,0:0:0:0:
256,192,64473,1,8,0:0:0:0:
256,192,64830,1,8,0:0:0:0:
256,192,65187,1,0,0:0:0:0:
256,192,65901,1,8,0:0:0:0:
256,192,66616,1,0,0:0:0:0:
256,192,68044,1,8,0:0:0:0:
256,192,68401,1,8,0:0:0:0:
256,192,68759,1,8,0:0:0:0:
256,192,69473,1,4,0:0:0:0:
256,192,70009,1,4,0:0:0:0:
256,192,70901,1,0,0:0:0:0:
256,192,71616,1,8,0:0:0:0:
256,192,72330,1,0,0:0:0:0:
256,192,73759,1,0,0:0:0:0:
256,192,74116,1,0,0:0:0:0:
256,192,74473,1,0,0:0:0:0:
256,192,75187,1,4,0:0:0:0:
256,192,75723,1,4,0:0:0:0:
256,192,76616,1,8,0:0:0:0:
256,192,77330,1,0,0:0:0:0:
256,192,78044,1,8,0:0:0:0:
256,192,78759,1,8,0:0:0:0:
256,192,79473,5,4,0:0:0:0:
256,192,80187,1,8,0:0:0:0:
256,192,80901,1,0,0:0:0:0:
256,192,81259,1,0,0:0:0:0:
256,192,81616,1,0,0:0:0:0:
256,192,82330,1,0,0:0:0:0:
256,192,83759,1,0,0:0:0:0:
256,192,84473,1,8,0:0:0:0:
256,192,85187,1,0,0:0:0:0:
256,192,85901,1,8,0:0:0:0:
256,192,86616,1,0,0:0:0:0:
256,192,86973,1,0,0:0:0:0:
256,192,87330,1,0,0:0:0:0:
256,192,88044,1,0,0:0:0:0:
256,192,89294,1,12,0:0:0:0:
256,192,90009,1,12,0:0:0:0:
256,192,90723,1,4,0:0:0:0:
